osu file format v14

[General]
AudioFilename: audio.mp3
AudioLeadIn: 0
PreviewTime: 231999
Countdown: 1
SampleSet: None
StackLeniency: 0.3
Mode: 0
LetterboxInBreaks: 0
WidescreenStoryboard: 0

[Editor]
DistanceSpacing: 1.1
BeatDivisor: 4
GridSize: 16
TimelineZoom: 1.8

[Metadata]
Title:The Solace of Oblivion
TitleUnicode:The Solace of Oblivion
Artist:Helblinde
ArtistUnicode:Helblinde
Creator:ZenoXLTU
Version:Forgotten
Source:
Tags:
BeatmapID:1241002
BeatmapSetID:585915

[Difficulty]
HPDrainRate:7
CircleSize:4.3
OverallDifficulty:8
ApproachRate:9.7
SliderMultiplier:1.4
SliderTickRate:1

[Events]
//Background and Video events
0,0,"oblivion of the solace.jpg",0,0
//Break Periods
2,142968,147196
2,149275,152119
2,154198,157042
//Storyboard Layer 0 (Background)
//Storyboard Layer 1 (Fail)
//Storyboard Layer 2 (Pass)
//Storyboard Layer 3 (Foreground)
//Storyboard Sound Samples

[TimingPoints]
0,307.692307692308,4,2,0,100,1,0
39384,-133.333333333333,4,2,0,100,0,0
57846,1230.76923076923,4,2,0,100,1,0
57846,-200,4,2,0,100,0,0
59076,307.692307692308,4,2,0,100,1,0
59076,-76.9230769230769,4,2,0,100,0,0
63383,-50,4,2,0,100,0,0
63691,-76.9230769230769,4,2,0,100,0,0
65229,-66.6666666666667,4,2,0,100,0,0
66460,-76.9230769230769,4,2,0,100,0,0
67691,-66.6666666666667,4,2,0,100,0,0
68922,-76.9230769230769,4,2,0,100,0,0
70152,-66.6666666666667,4,2,0,100,0,0
71383,-76.9230769230769,4,2,0,100,0,0
72614,-66.6666666666667,4,2,0,100,0,0
74768,-100,4,2,0,100,0,0
75691,-66.6666666666667,4,2,0,100,0,0
77537,-200,4,2,0,100,0,0
78768,-66.6666666666667,4,2,0,100,0,0
97229,-83.3333333333333,4,2,0,100,0,0
98460,-66.6666666666667,4,2,0,100,0,0
102152,-83.3333333333333,4,2,0,100,0,0
103383,-66.6666666666667,4,2,0,100,0,0
104614,-83.3333333333333,4,2,0,100,0,0
105845,-66.6666666666667,4,2,0,100,0,0
107076,-83.3333333333333,4,2,0,100,0,0
108306,-66.6666666666667,4,2,0,100,0,0
109537,-83.3333333333333,4,2,0,100,0,0
110768,-66.6666666666667,4,2,0,100,0,0
113229,-83.3333333333333,4,2,0,100,0,0
114460,-66.6666666666667,4,2,0,100,0,0
115076,-83.3333333333333,4,2,0,100,0,0
119385,-66.6666666666667,4,2,0,100,0,0
119999,-83.3333333333333,4,2,0,100,0,0
121229,-66.6666666666667,4,2,0,100,0,0
124306,-83.3333333333333,4,2,0,100,0,0
125537,-66.6666666666667,4,2,0,100,0,0
129229,-83.3333333333333,4,2,0,100,0,0
130460,-66.6666666666667,4,2,0,100,0,0
134152,-83.3333333333333,4,2,0,100,0,0
135383,-66.6666666666667,4,2,0,100,0,0
137845,-83.3333333333333,4,2,0,100,0,0
139076,-66.6666666666667,4,2,0,100,0,0
139691,-83.3333333333333,4,2,0,100,0,0
140306,-66.6666666666667,4,2,0,100,0,0
147691,-200,4,2,0,100,0,0
162460,-76.9230769230769,4,2,0,100,0,0
182460,-100,4,2,0,100,0,0
191691,-200,4,2,0,100,0,0
191999,-76.9230769230769,4,2,0,100,0,0
193845,-66.6666666666667,4,2,0,100,0,0
194460,-76.9230769230769,4,2,0,100,0,0
198768,-111.111111111111,4,2,0,100,0,0
199383,-76.9230769230769,4,2,0,100,0,0
207076,-50,4,2,0,100,0,0
207229,-76.9230769230769,4,2,0,100,0,0
208306,-50,4,2,0,100,0,0
208460,-76.9230769230769,4,2,0,100,0,0
209537,-50,4,2,0,100,0,0
209691,-76.9230769230769,4,2,0,100,0,0
211845,-133.333333333333,4,2,0,100,0,0
228922,-76.9230769230769,4,2,0,100,0,0
232614,-66.6666666666667,4,2,0,100,0,1
236306,-50,4,2,0,100,0,1
237537,-66.6666666666667,4,2,0,100,0,1
238768,-50,4,2,0,100,0,1
239383,-66.6666666666667,4,2,0,100,0,1
239999,-50,4,2,0,100,0,1
241229,-66.6666666666667,4,2,0,100,0,1
241845,-50,4,2,0,100,0,1
242460,-66.6666666666667,4,2,0,100,0,1
244614,-50,4,2,0,100,0,1
245076,-66.6666666666667,4,2,0,100,0,1
246152,-50,4,2,0,100,0,1
246768,-66.6666666666667,4,2,0,100,0,1
247691,-50,4,2,0,100,0,1
247845,-66.6666666666667,4,2,0,100,0,1
248922,-50,4,2,0,100,0,1
249076,-66.6666666666667,4,2,0,100,0,1
251076,-50,4,2,0,100,0,1
251691,-66.6666666666667,4,2,0,100,0,1
255999,-50,4,2,0,100,0,1
257229,-66.6666666666667,4,2,0,100,0,1
259076,-50,4,2,0,100,0,1
259691,-66.6666666666667,4,2,0,100,0,1
260306,-50,4,2,0,100,0,1
260922,-66.6666666666667,4,2,0,100,0,1
265845,-50,4,2,0,100,0,1
266460,-66.6666666666667,4,2,0,100,0,1
267383,-50,4,2,0,100,0,1
267537,-66.6666666666667,4,2,0,100,0,1
268614,-50,4,2,0,100,0,1
268768,-66.6666666666667,4,2,0,100,0,1
270768,-66.6666666666667,4,2,0,100,0,0
271999,-100,4,2,0,100,0,0

[Colours]
Combo1 : 64,128,128
Combo2 : 255,128,0
Combo3 : 105,105,105
Combo4 : 207,207,207
Combo5 : 128,64,64
Combo6 : 174,0,0

[HitObjects]
192,128,0,22,0,P|160:144|143:172,1,70
173,198,230,2,0,P|191:169|240:154,1,70
254,183,461,2,0,P|228:192|202:228,1,70
232,256,692,2,0,P|252:226|285:216,1,70
328,191,923,6,0,L|333:118,1,70
373,95,1153,2,0,L|367:185,1,70
328,191,1384,70,0,B|379:258|470:268|482:217|441:192|436:223,1,175
206,145,6153,6,0,L|206:217,1,70
236,257,6384,2,0,L|236:180,1,70
270,226,6615,2,0,L|270:301,1,70
316,339,6846,2,0,L|316:268,1,70
353,240,7076,70,0,L|353:225,16,8.75
438,87,7692,6,0,L|439:105,1,17.5
158,194,8615,2,0,L|157:183,2,8.75
237,283,8769,2,0,L|236:271,2,8.75
331,203,8923,70,0,P|382:206|331:204,1,140
208,99,11076,6,0,L|124:104,1,70
100,146,11307,2,0,L|189:140,1,70
202,187,11538,2,0,L|113:194,1,70
96,238,11769,2,0,L|182:231,1,70
199,265,12000,70,0,P|200:300|233:329,1,70
375,190,12461,2,0,P|389:128|313:140,1,140
145,108,15076,6,0,L|143:122,16,8.75
236,269,15692,1,0,0:0:0:0:
364,172,16000,70,0,L|366:93,1,70
386,199,16230,2,0,L|295:197,1,70
407,184,16461,2,0,L|406:261,1,70
388,154,16692,6,0,L|447:153,1,35
452,107,16846,2,0,L|502:99,1,35
300,265,17076,70,0,P|269:267|283:250,1,70
256,192,17384,12,0,19384,0:0:0:0:
256,193,19692,5,0,0:0:0:0:
281,304,20307,1,0,0:0:0:0:
400,278,20923,1,0,0:0:0:0:
275,227,21538,1,0,0:0:0:0:
407,199,22153,1,0,0:0:0:0:
281,139,22769,1,0,0:0:0:0:
241,252,23384,1,0,0:0:0:0:
173,227,23692,1,0,0:0:0:0:
147,160,24000,1,0,0:0:0:0:
167,93,24307,1,0,0:0:0:0:
219,49,24615,69,0,0:0:0:0:
277,178,25230,1,0,0:0:0:0:
324,3,25846,1,0,0:0:0:0:
362,135,26461,1,0,0:0:0:0:
331,288,27076,5,0,0:0:0:0:
331,288,27384,1,0,0:0:0:0:
146,232,27692,1,0,0:0:0:0:
146,232,28000,1,0,0:0:0:0:
146,232,28307,69,0,0:0:0:0:
324,173,29230,1,0,0:0:0:0:
324,173,29538,1,0,0:0:0:0:
171,90,30153,1,0,0:0:0:0:
369,116,30769,1,0,0:0:0:0:
264,296,31692,5,0,0:0:0:0:
264,296,32000,1,0,0:0:0:0:
205,87,32615,1,0,0:0:0:0:
210,284,33230,1,0,0:0:0:0:
376,92,34153,69,0,0:0:0:0:
376,92,34461,1,0,0:0:0:0:
259,224,35076,1,0,0:0:0:0:
133,96,35692,1,0,0:0:0:0:
291,168,36307,1,0,0:0:0:0:
84,178,36923,1,0,0:0:0:0:
121,245,37230,1,0,0:0:0:0:
182,290,37538,1,0,0:0:0:0:
255,313,37846,1,0,0:0:0:0:
326,312,38153,1,0,0:0:0:0:
236,260,39384,6,0,L|194:359,1,105.000004005432
203,165,40000,2,0,L|237:268,1,105.000004005432
270,84,40615,2,0,L|202:165,1,105.000004005432
412,101,41230,6,0,P|370:138|378:187,1,105.000004005432
412,101,41692,1,0,0:0:0:0:
378,183,41846,54,0,L|480:208,1,105.000004005432
285,232,42461,2,0,L|378:182,1,105.000004005432
186,196,43076,2,0,L|291:234,1,105.000004005432
99,243,43692,1,0,0:0:0:0:
310,136,44000,1,0,0:0:0:0:
76,130,44307,6,0,L|57:235,1,105.000004005432
168,235,44923,2,0,L|178:349,1,105.000004005432
268,53,45538,2,0,L|251:167,1,105.000004005432
339,186,46153,2,0,L|359:304,1,105.000004005432
256,186,46769,69,0,0:0:0:0:
256,186,47076,1,0,0:0:0:0:
209,83,47384,1,0,0:0:0:0:
157,275,47692,1,0,0:0:0:0:
237,150,48000,22,0,B|264:118|264:118|285:166|285:166|308:127|308:127|328:163|328:163|352:138|352:138|379:161|379:161|404:144|404:144|436:163,1,315.000012016297
352,285,49230,69,0,0:0:0:0:
240,293,49538,1,0,0:0:0:0:
301,213,49846,1,0,0:0:0:0:
156,263,50153,1,0,0:0:0:0:
78,137,50461,5,0,0:0:0:0:
86,151,50538,1,0,0:0:0:0:
87,164,50615,1,0,0:0:0:0:
200,102,50769,37,0,0:0:0:0:
192,122,50846,1,0,0:0:0:0:
200,144,50923,1,0,0:0:0:0:
318,72,51076,53,0,0:0:0:0:
327,103,51153,1,0,0:0:0:0:
321,139,51230,1,0,0:0:0:0:
261,221,51384,69,0,0:0:0:0:
245,267,51461,1,0,0:0:0:0:
262,315,51538,1,0,0:0:0:0:
360,171,51692,37,0,0:0:0:0:
366,212,51769,1,0,0:0:0:0:
354,250,51846,1,0,0:0:0:0:
441,107,52000,53,0,0:0:0:0:
448,134,52076,1,0,0:0:0:0:
442,164,52153,1,0,0:0:0:0:
357,41,52307,69,0,0:0:0:0:
349,69,52384,1,0,0:0:0:0:
354,95,52461,1,0,0:0:0:0:
268,30,52615,37,0,0:0:0:0:
265,48,52692,1,0,0:0:0:0:
260,61,52769,1,0,0:0:0:0:
298,142,52923,53,0,0:0:0:0:
297,151,53000,1,0,0:0:0:0:
301,160,53076,1,0,0:0:0:0:
192,142,53230,37,0,0:0:0:0:
264,210,53538,1,0,0:0:0:0:
161,243,53846,1,0,0:0:0:0:
247,303,54153,1,0,0:0:0:0:
247,303,54769,5,0,0:0:0:0:
247,303,55384,69,0,0:0:0:0:
247,303,56000,5,0,0:0:0:0:
381,233,56615,69,0,0:0:0:0:
406,159,56923,1,0,0:0:0:0:
388,79,57230,1,0,0:0:0:0:
329,26,57538,1,0,0:0:0:0:
254,15,57846,54,0,L|231:78,1,65.625
225,112,59076,38,0,L|235:205,1,90.9999958343508
249,347,59383,1,0,0:0:0:0:
332,239,59537,1,0,0:0:0:0:
338,208,59614,1,0,0:0:0:0:
343,174,59691,1,0,0:0:0:0:
351,129,59768,2,0,L|357:84,1,45.4999979171754
460,20,59999,1,0,0:0:0:0:
449,179,60152,1,0,0:0:0:0:
439,224,60229,1,0,0:0:0:0:
427,272,60306,5,0,0:0:0:0:
312,358,60460,1,0,0:0:0:0:
402,96,60614,1,0,0:0:0:0:
255,129,60768,1,0,0:0:0:0:
240,165,60845,2,0,L|226:217,1,45.4999979171754
160,264,60999,2,0,L|145:315,1,45.4999979171754
159,82,61229,1,0,0:0:0:0:
258,247,61383,1,0,0:0:0:0:
282,284,61460,1,0,0:0:0:0:
307,320,61537,53,0,0:0:0:0:
363,174,61691,2,0,L|308:93,1,90.9999958343508
182,47,61999,2,0,L|192:96,1,45.4999979171754
157,161,62152,2,0,L|147:213,1,45.4999979171754
179,277,62306,1,0,0:0:0:0:
264,264,62460,54,0,B|326:291|363:261|356:214|316:206|296:231|301:252|321:248|325:249,1,136.499993751526
311,243,62768,37,0,0:0:0:0:
331,283,62845,1,0,0:0:0:0:
347,319,62922,1,0,0:0:0:0:
324,117,63076,1,0,0:0:0:0:
176,52,63229,1,0,0:0:0:0:
191,88,63306,1,0,0:0:0:0:
206,125,63383,54,0,L|265:255,1,140
254,36,63691,6,0,L|297:125,1,90.9999958343508
335,159,63922,1,0,0:0:0:0:
340,164,63999,1,0,0:0:0:0:
454,303,64152,53,0,0:0:0:0:
454,303,64306,1,0,0:0:0:0:
256,192,64460,53,0,0:0:0:0:
276,220,64537,1,0,0:0:0:0:
297,250,64614,1,0,0:0:0:0:
454,303,64768,21,0,0:0:0:0:
454,303,64922,1,0,0:0:0:0:
454,303,65076,1,0,0:0:0:0:
260,284,65229,6,0,P|203:290|174:278,1,78.7500030040742
151,245,65383,2,0,L|131:323,1,70.0000026702882
101,249,65537,2,0,L|122:177,1,70.0000026702882
156,102,65691,54,0,L|198:182,1,70.0000026702882
271,204,65845,2,0,L|231:127,1,70.0000026702882
266,78,65999,2,0,L|309:159,1,70.0000026702882
387,177,66152,2,0,L|347:108,1,70.0000026702882
374,48,66306,2,0,L|419:121,1,70.0000026702882
461,119,66460,37,0,0:0:0:0:
446,314,66614,1,0,0:0:0:0:
374,84,66768,1,0,0:0:0:0:
280,176,66922,1,0,0:0:0:0:
247,207,66999,1,0,0:0:0:0:
217,234,67076,1,0,0:0:0:0:
76,321,67229,5,0,0:0:0:0:
76,321,67383,1,0,0:0:0:0:
76,321,67537,1,0,0:0:0:0:
292,263,67691,54,0,P|254:254|226:224,1,78.7500030040742
232,148,67845,2,0,P|275:165|302:205,1,78.7500030040742
227,226,67999,2,0,P|186:214|160:183,1,78.7500030040742
166,109,68152,2,0,P|210:124|238:162,1,78.7500030040742
238,199,68306,54,0,L|195:272,1,78.7500030040742
288,201,68460,2,0,L|331:132,1,78.7500030040742
297,252,68614,2,0,L|255:334,1,78.7500030040742
349,252,68768,2,0,L|394:177,1,78.7500030040742
398,128,68922,5,0,0:0:0:0:
160,304,69076,1,0,0:0:0:0:
160,304,69229,1,0,0:0:0:0:
284,115,69383,53,0,0:0:0:0:
264,147,69460,1,0,0:0:0:0:
244,175,69537,1,0,0:0:0:0:
160,304,69691,21,0,0:0:0:0:
160,304,69845,1,0,0:0:0:0:
160,304,69999,1,0,0:0:0:0:
176,160,70152,6,0,L|116:108,1,70.0000026702882
125,59,70306,2,0,L|193:118,1,70.0000026702882
211,68,70460,2,0,L|273:119,1,70.0000026702882
318,114,70614,54,0,L|260:174,1,70.0000026702882
300,200,70768,2,0,L|240:264,1,70.0000026702882
261,299,70922,22,0,L|319:236,1,70.0000026702882
278,212,71076,2,0,L|337:147,1,70.0000026702882
296,112,71229,2,0,L|349:54,1,70.0000026702882
310,15,71383,5,0,0:0:0:0:
134,171,71537,1,0,0:0:0:0:
380,88,71691,1,0,0:0:0:0:
241,271,71845,1,0,0:0:0:0:
225,301,71922,1,0,0:0:0:0:
211,325,71999,1,0,0:0:0:0:
377,177,72152,53,0,0:0:0:0:
377,177,72306,1,0,0:0:0:0:
377,177,72460,1,0,0:0:0:0:
164,210,72614,6,0,P|126:212|97:184,1,70.0000026702882
52,186,72768,2,0,L|75:96,1,70.0000026702882
111,87,72922,2,0,P|146:122|183:122,1,70.0000026702882
209,107,73076,2,0,L|235:34,1,70.0000026702882
280,13,73229,70,0,B|386:17|469:111|307:172|252:36|373:-4|423:96|430:144,1,315.000012016297
400,318,73845,37,0,0:0:0:0:
439,145,73999,1,0,0:0:0:0:
307,283,74152,1,0,0:0:0:0:
350,86,74306,1,0,0:0:0:0:
223,245,74460,2,0,P|180:276|125:285,1,105.000004005432
29,247,74768,38,0,P|69:191|136:178,1,140
338,230,75229,21,0,0:0:0:0:
125,291,75383,1,0,0:0:0:0:
191,75,75537,1,0,0:0:0:0:
364,175,75691,2,0,L|466:215,1,105.000004005432
145,100,75999,2,0,L|31:52,1,105.000004005432
371,297,76306,5,0,0:0:0:0:
363,295,76614,2,0,L|304:204,1,105.000004005432
313,208,77076,1,0,0:0:0:0:
275,47,77229,2,0,L|340:134,1,105.000004005432
156,253,77537,38,0,P|142:274|124:287,1,46.6666666666667
108,240,77768,2,0,P|119:213|137:195,1,46.6666666666667
385,92,78152,6,0,P|375:114|355:132,1,46.6666666666667
336,84,78383,2,0,P|347:58|367:44,1,46.6666666666667
335,258,78768,37,0,0:0:0:0:
159,329,78922,1,0,0:0:0:0:
278,147,79076,1,0,0:0:0:0:
303,331,79229,1,0,0:0:0:0:
194,164,79383,2,0,P|182:117|191:62,2,105.000004005432
373,336,79845,1,0,0:0:0:0:
325,98,79999,53,0,0:0:0:0:
300,310,80152,1,0,0:0:0:0:
181,88,80306,1,0,0:0:0:0:
207,293,80460,1,0,0:0:0:0:
426,179,80614,2,0,P|474:160|530:157,1,105.000004005432
161,217,80922,2,0,P|102:233|50:232,1,105.000004005432
330,110,81229,6,0,P|414:65|514:109,1,210.000008010865
344,121,81691,1,0,0:0:0:0:
122,93,81999,5,0,0:0:0:0:
177,208,82152,1,0,0:0:0:0:
237,326,82306,1,0,0:0:0:0:
122,93,82614,53,0,0:0:0:0:
164,181,82768,1,0,0:0:0:0:
206,267,82922,1,0,0:0:0:0:
122,93,83229,5,0,0:0:0:0:
151,155,83383,1,0,0:0:0:0:
179,212,83537,1,0,0:0:0:0:
173,16,83691,6,0,L|225:127,1,105.000004005432
217,311,83999,1,0,0:0:0:0:
286,138,84152,54,0,L|315:34,2,105.000004005432
225,282,84614,6,0,L|201:168,2,105.000004005432
338,350,85076,1,0,0:0:0:0:
342,358,85383,21,0,0:0:0:0:
138,253,85537,2,0,L|113:244,1,26.2500010013581
385,285,85768,2,0,L|418:303,1,26.2500010013581
193,129,85999,2,0,L|160:109,1,26.2500010013581
419,200,86152,69,0,0:0:0:0:
481,106,86306,1,0,0:0:0:0:
361,104,86460,1,0,0:0:0:0:
258,262,86614,53,0,0:0:0:0:
133,321,86768,1,0,0:0:0:0:
141,191,86922,1,0,0:0:0:0:
258,60,87076,5,0,0:0:0:0:
277,182,87229,1,0,0:0:0:0:
148,139,87383,1,0,0:0:0:0:
126,18,87537,1,0,0:0:0:0:
129,23,87845,21,0,0:0:0:0:
325,84,87999,2,0,L|345:57,1,26.2500010013581
323,310,88229,2,0,L|348:338,1,26.2500010013581
147,190,88460,2,0,L|109:190,1,26.2500010013581
333,142,88614,69,0,0:0:0:0:
474,195,88768,1,0,0:0:0:0:
455,46,88922,1,0,0:0:0:0:
238,102,89076,53,0,0:0:0:0:
145,216,89229,1,0,0:0:0:0:
294,227,89383,1,0,0:0:0:0:
358,94,89537,5,0,0:0:0:0:
229,167,89691,1,0,0:0:0:0:
363,242,89845,1,0,0:0:0:0:
492,167,89999,1,0,0:0:0:0:
500,173,90306,21,0,0:0:0:0:
246,196,90460,2,0,L|209:210,1,26.2500010013581
428,83,90691,2,0,L|459:71,1,26.2500010013581
206,109,90922,2,0,L|175:118,1,26.2500010013581
400,2,91076,69,0,0:0:0:0:
503,120,91229,1,0,0:0:0:0:
344,144,91383,1,0,0:0:0:0:
211,51,91537,53,0,0:0:0:0:
61,68,91691,1,0,0:0:0:0:
152,193,91845,1,0,0:0:0:0:
334,176,91999,5,0,0:0:0:0:
452,297,92152,1,0,0:0:0:0:
287,340,92306,1,0,0:0:0:0:
163,218,92460,1,0,0:0:0:0:
256,192,92537,12,0,93383,0:0:0:0:
323,115,93537,6,0,P|369:81|416:68,1,105.000004005432
414,243,93845,2,0,P|399:298|360:336,1,105.000004005432
184,314,94152,1,0,0:0:0:0:
312,188,94306,1,0,0:0:0:0:
140,133,94460,1,0,0:0:0:0:
346,147,94614,1,0,0:0:0:0:
192,232,94768,54,0,P|144:253|90:253,1,105.000004005432
212,118,95076,2,0,P|274:145|301:196,1,105.000004005432
321,335,95383,1,0,0:0:0:0:
321,335,95537,1,0,0:0:0:0:
415,126,95691,1,0,0:0:0:0:
415,126,95845,1,0,0:0:0:0:
216,216,95999,6,0,P|166:242|131:284,1,105.000004005432
302,275,96306,2,0,P|353:251|387:212,1,105.000004005432
394,33,96614,1,0,0:0:0:0:
309,178,96768,1,0,0:0:0:0:
219,42,96922,1,0,0:0:0:0:
274,204,97076,1,0,0:0:0:0:
335,300,97229,22,0,P|399:242|408:186,1,139.999995727539
412,193,97537,2,0,P|329:221|280:207,1,139.999995727539
282,212,97845,2,0,P|260:139|191:126,1,139.999995727539
202,127,98152,2,0,L|190:220,1,83.9999974365235
263,309,98460,70,0,P|300:264|311:215,1,105.000004005432
282,73,98768,2,0,P|313:33|362:14,1,105.000004005432
475,132,99076,1,0,0:0:0:0:
321,227,99229,1,0,0:0:0:0:
228,83,99383,1,0,0:0:0:0:
344,194,99537,1,0,0:0:0:0:
248,283,99691,54,0,P|200:308|142:307,1,105.000004005432
319,342,99999,2,0,P|367:310|426:305,1,105.000004005432
483,159,100306,1,0,0:0:0:0:
483,159,100460,1,0,0:0:0:0:
277,86,100614,1,0,0:0:0:0:
277,86,100768,1,0,0:0:0:0:
112,169,100922,6,0,P|75:210|64:262,1,105.000004005432
228,187,101229,2,0,P|224:126|195:84,1,105.000004005432
32,40,101537,1,0,0:0:0:0:
156,167,101691,1,0,0:0:0:0:
20,287,101845,1,0,0:0:0:0:
189,192,101999,1,0,0:0:0:0:
320,69,102152,22,0,P|397:34|475:61,3,167.999994873047
414,230,103383,70,0,P|393:279|341:307,1,105.000004005432
347,157,103691,2,0,P|403:133|458:144,1,105.000004005432
439,341,103999,1,0,0:0:0:0:
280,184,104152,1,0,0:0:0:0:
310,356,104306,1,0,0:0:0:0:
256,172,104460,1,0,0:0:0:0:
149,63,104614,54,0,L|72:30,1,83.9999974365235
129,134,104922,2,0,L|28:113,1,83.9999974365235
124,214,105229,2,0,L|26:207,1,83.9999974365235
369,251,105537,37,0,0:0:0:0:
133,291,105691,1,0,0:0:0:0:
362,153,105845,54,0,P|411:129|473:131,1,105.000004005432
302,244,106152,2,0,P|249:249|194:237,1,105.000004005432
62,124,106460,1,0,0:0:0:0:
281,166,106614,1,0,0:0:0:0:
202,17,106768,1,0,0:0:0:0:
248,186,106922,1,0,0:0:0:0:
163,308,107076,22,0,P|115:268|111:187,1,139.999995727539
115,195,107383,2,0,P|182:169|206:96,1,139.999995727539
212,110,107691,2,0,P|271:140|346:136,1,139.999995727539
349,135,107999,2,0,L|331:224,1,83.9999974365235
247,340,108306,70,0,P|230:287|235:229,1,105.000004005432
206,104,108614,2,0,P|270:101|313:123,1,105.000004005432
419,276,108922,1,0,0:0:0:0:
226,207,109076,1,0,0:0:0:0:
425,93,109229,1,0,0:0:0:0:
243,218,109383,1,0,0:0:0:0:
113,111,109537,54,0,L|54:47,1,83.9999974365235
200,126,109845,2,0,L|165:48,1,83.9999974365235
278,165,110152,2,0,L|260:64,1,83.9999974365235
319,348,110460,37,0,0:0:0:0:
363,117,110614,1,0,0:0:0:0:
232,254,110768,54,0,P|181:286|123:296,1,105.000004005432
3,236,111076,2,0,P|52:203|115:190,1,105.000004005432
321,254,111383,1,0,0:0:0:0:
206,58,111537,1,0,0:0:0:0:
438,72,111691,1,0,0:0:0:0:
211,88,111845,1,0,0:0:0:0:
58,220,111999,38,0,P|71:288|148:289,2,157.500006008148
186,48,112614,70,0,L|203:22,1,26.2500010013581
133,275,112845,2,0,L|111:311,1,26.2500010013581
306,100,113076,2,0,L|321:76,1,26.2500010013581
248,267,113229,21,0,0:0:0:0:
217,295,113305,1,0,0:0:0:0:
177,305,113382,1,0,0:0:0:0:
137,295,113459,1,0,0:0:0:0:
107,266,113536,1,0,0:0:0:0:
95,226,113613,1,0,0:0:0:0:
104,186,113690,1,0,0:0:0:0:
132,155,113767,1,0,0:0:0:0:
168,137,113845,5,0,0:0:0:0:
208,127,113921,1,0,0:0:0:0:
248,138,113998,1,0,0:0:0:0:
284,159,114075,1,0,0:0:0:0:
321,180,114152,1,0,0:0:0:0:
361,191,114229,1,0,0:0:0:0:
402,185,114306,1,0,0:0:0:0:
439,164,114383,1,0,0:0:0:0:
470,127,114460,6,0,L|499:82,1,52.5000020027161
446,260,114614,2,0,L|421:311,1,52.5000020027161
360,147,114768,2,0,L|390:98,1,52.5000020027161
339,279,114922,2,0,L|308:329,1,52.5000020027161
180,318,115076,5,0,0:0:0:0:
139,308,115152,1,0,0:0:0:0:
113,276,115229,1,0,0:0:0:0:
109,235,115306,1,0,0:0:0:0:
130,200,115383,1,0,0:0:0:0:
168,183,115460,1,0,0:0:0:0:
208,192,115537,1,0,0:0:0:0:
236,223,115614,1,0,0:0:0:0:
255,267,115691,37,0,0:0:0:0:
281,234,115767,1,0,0:0:0:0:
307,201,115844,1,0,0:0:0:0:
334,168,115921,1,0,0:0:0:0:
356,133,115998,1,0,0:0:0:0:
366,93,116075,1,0,0:0:0:0:
353,53,116152,1,0,0:0:0:0:
323,24,116229,1,0,0:0:0:0:
269,26,116306,6,0,L|224:41,3,41.9999987182618
181,103,116614,2,0,L|136:117,3,41.9999987182618
256,192,116922,12,0,117999,0:0:0:0:
390,82,118152,5,0,0:0:0:0:
422,107,118228,1,0,0:0:0:0:
437,146,118305,1,0,0:0:0:0:
429,186,118382,1,0,0:0:0:0:
401,217,118459,1,0,0:0:0:0:
361,227,118536,1,0,0:0:0:0:
319,222,118614,1,0,0:0:0:0:
277,218,118690,1,0,0:0:0:0:
237,230,118767,5,0,0:0:0:0:
206,257,118844,1,0,0:0:0:0:
180,293,118922,1,0,0:0:0:0:
151,323,118998,1,0,0:0:0:0:
111,329,119075,1,0,0:0:0:0:
75,309,119152,1,0,0:0:0:0:
59,270,119229,1,0,0:0:0:0:
70,231,119306,1,0,0:0:0:0:
100,192,119383,38,0,P|116:172|133:153,1,41.9999987182618
254,75,119537,2,0,L|191:113,1,52.5000020027161
171,171,119691,2,0,L|226:142,1,52.5000020027161
380,131,119845,2,0,L|325:129,1,52.5000020027161
247,179,119999,5,0,0:0:0:0:
210,198,120075,1,0,0:0:0:0:
189,234,120152,1,0,0:0:0:0:
189,275,120229,1,0,0:0:0:0:
211,311,120306,1,0,0:0:0:0:
248,330,120383,1,0,0:0:0:0:
289,327,120460,1,0,0:0:0:0:
323,304,120537,1,0,0:0:0:0:
351,265,120614,5,0,0:0:0:0:
315,242,120690,1,0,0:0:0:0:
292,207,120767,1,0,0:0:0:0:
283,167,120844,1,0,0:0:0:0:
291,126,120921,1,0,0:0:0:0:
313,91,120998,1,0,0:0:0:0:
348,67,121075,1,0,0:0:0:0:
389,58,121152,1,0,0:0:0:0:
434,63,121229,6,0,L|497:83,3,52.5000020027161
444,148,121537,2,0,L|496:166,3,52.5000020027161
419,235,121845,6,0,P|458:280|462:304,1,70.0000026702882
450,317,121999,2,0,P|410:333|373:332,1,70.0000026702882
361,309,122152,2,0,P|364:268|379:237,1,70.0000026702882
420,235,122306,22,0,P|424:183|416:159,1,70.0000026702882
401,144,122460,2,0,P|385:104|388:69,1,70.0000026702882
407,77,122614,2,0,P|369:118|338:123,1,70.0000026702882
329,113,122768,2,0,P|292:93|256:92,1,70.0000026702882
238,104,122922,2,0,L|218:180,1,70.0000026702882
219,202,123076,6,0,L|203:261,3,52.5000020027161
297,163,123383,2,0,L|313:105,3,52.5000020027161
339,237,123691,1,0,0:0:0:0:
184,340,123845,1,0,0:0:0:0:
419,299,123999,1,0,0:0:0:0:
151,168,124152,1,0,0:0:0:0:
359,122,124306,5,0,0:0:0:0:
400,123,124382,1,0,0:0:0:0:
433,148,124459,1,0,0:0:0:0:
445,187,124536,1,0,0:0:0:0:
433,231,124614,5,0,0:0:0:0:
399,256,124690,1,0,0:0:0:0:
366,281,124767,1,0,0:0:0:0:
332,307,124844,1,0,0:0:0:0:
298,332,124922,37,0,0:0:0:0:
79,273,125076,1,0,0:0:0:0:
306,209,125229,1,0,0:0:0:0:
120,341,125383,1,0,0:0:0:0:
231,137,125537,6,0,P|249:105|264:87,1,52.5000020027161
355,139,125691,2,0,P|391:116|426:108,1,52.5000020027161
328,292,125845,2,0,P|306:323|281:346,1,52.5000020027161
203,287,125999,2,0,P|177:303|146:313,1,52.5000020027161
128,195,126152,5,0,0:0:0:0:
128,195,126306,1,0,0:0:0:0:
314,54,126460,1,0,0:0:0:0:
314,54,126614,1,0,0:0:0:0:
256,192,126768,12,0,127845,0:0:0:0:
158,116,127999,6,0,P|144:144|139:173,1,52.5000020027161
134,324,128152,2,0,P|130:295|131:268,1,52.5000020027161
254,108,128306,2,0,P|243:134|237:164,1,52.5000020027161
234,348,128460,2,0,P|229:317|229:291,1,52.5000020027161
344,115,128614,37,0,0:0:0:0:
413,322,128768,1,0,0:0:0:0:
413,44,128922,1,0,0:0:0:0:
295,285,129076,1,0,0:0:0:0:
295,97,129229,5,0,0:0:0:0:
292,55,129305,1,0,0:0:0:0:
266,23,129382,1,0,0:0:0:0:
226,12,129459,1,0,0:0:0:0:
190,20,129537,5,0,0:0:0:0:
174,58,129613,1,0,0:0:0:0:
163,99,129690,1,0,0:0:0:0:
157,140,129767,1,0,0:0:0:0:
158,185,129845,5,0,0:0:0:0:
269,343,129999,1,0,0:0:0:0:
241,109,130152,1,0,0:0:0:0:
414,246,130306,1,0,0:0:0:0:
304,58,130460,38,0,L|273:13,3,52.5000020027161
204,36,130768,2,0,L|149:12,3,52.5000020027161
114,73,131076,5,0,0:0:0:0:
114,73,131229,1,0,0:0:0:0:
52,266,131383,1,0,0:0:0:0:
52,266,131537,1,0,0:0:0:0:
256,192,131691,12,0,132768,0:0:0:0:
345,123,132922,70,0,P|373:103|405:88,3,52.5000020027161
326,212,133229,2,0,P|294:232|269:246,3,52.5000020027161
417,204,133537,5,0,0:0:0:0:
223,328,133691,1,0,0:0:0:0:
218,102,133845,1,0,0:0:0:0:
324,333,133999,1,0,0:0:0:0:
326,126,134152,5,0,0:0:0:0:
330,84,134228,1,0,0:0:0:0:
354,50,134305,1,0,0:0:0:0:
390,30,134382,1,0,0:0:0:0:
431,23,134460,5,0,0:0:0:0:
438,64,134536,1,0,0:0:0:0:
438,106,134613,1,0,0:0:0:0:
428,147,134690,1,0,0:0:0:0:
417,183,134768,37,0,0:0:0:0:
215,304,134922,1,0,0:0:0:0:
354,121,135076,1,0,0:0:0:0:
296,353,135229,1,0,0:0:0:0:
273,87,135383,6,0,P|263:56|241:26,1,52.5000020027161
166,82,135537,2,0,P|143:56|111:39,1,52.5000020027161
153,233,135691,2,0,P|151:274|154:298,1,52.5000020027161
240,292,135845,2,0,P|250:321|267:341,1,52.5000020027161
352,305,135999,5,0,0:0:0:0:
352,305,136152,1,0,0:0:0:0:
436,93,136306,1,0,0:0:0:0:
436,93,136460,1,0,0:0:0:0:
256,192,136614,12,0,137691,0:0:0:0:
184,276,137845,5,0,0:0:0:0:
217,301,137921,1,0,0:0:0:0:
257,312,137998,1,0,0:0:0:0:
298,306,138075,1,0,0:0:0:0:
334,285,138152,1,0,0:0:0:0:
360,252,138229,1,0,0:0:0:0:
370,211,138306,1,0,0:0:0:0:
364,170,138383,1,0,0:0:0:0:
351,132,138460,37,0,0:0:0:0:
353,90,138536,1,0,0:0:0:0:
380,60,138613,1,0,0:0:0:0:
421,54,138690,1,0,0:0:0:0:
461,69,138768,1,0,0:0:0:0:
486,101,138844,1,0,0:0:0:0:
497,142,138921,1,0,0:0:0:0:
493,183,138998,1,0,0:0:0:0:
469,226,139076,6,0,L|440:271,1,52.5000020027161
295,352,139229,2,0,L|327:306,1,52.5000020027161
336,129,139383,2,0,L|296:192,1,52.5000020027161
146,260,139537,2,0,L|185:209,1,52.5000020027161
259,74,139691,5,0,0:0:0:0:
290,47,139767,1,0,0:0:0:0:
330,36,139844,1,0,0:0:0:0:
372,43,139921,1,0,0:0:0:0:
406,66,139998,1,0,0:0:0:0:
427,102,140075,1,0,0:0:0:0:
431,144,140152,1,0,0:0:0:0:
417,183,140229,1,0,0:0:0:0:
392,219,140306,6,0,P|351:258|305:285,1,105.000004005432
147,258,140614,2,0,P|186:221|251:187,1,105.000004005432
291,55,140922,2,0,P|239:95|199:114,1,105.000004005432
49,89,141229,2,0,P|93:46|145:22,1,105.000004005432
256,192,141537,12,0,142768,0:0:0:0:
316,111,147691,70,0,L|316:172,6,52.5
217,257,152614,70,0,L|217:320,6,52.5
167,88,157537,6,0,L|167:147,6,52.5
256,192,159999,12,0,162306,0:0:0:0:
186,125,162460,6,0,P|161:164|153:214,1,90.9999958343508
189,332,162768,1,0,0:0:0:0:
300,303,162922,1,0,0:0:0:0:
292,268,162999,1,0,0:0:0:0:
285,228,163076,1,0,0:0:0:0:
276,192,163152,1,0,0:0:0:0:
269,155,163229,1,0,0:0:0:0:
154,23,163383,1,0,0:0:0:0:
155,165,163537,53,0,0:0:0:0:
163,198,163614,1,0,0:0:0:0:
171,232,163691,1,0,0:0:0:0:
178,267,163768,1,0,0:0:0:0:
186,299,163845,1,0,0:0:0:0:
342,346,163999,1,0,0:0:0:0:
307,130,164152,2,0,L|286:85,1,45.4999979171754
419,204,164306,2,0,L|446:251,1,45.4999979171754
396,51,164460,1,0,0:0:0:0:
325,261,164614,1,0,0:0:0:0:
204,87,164768,5,0,0:0:0:0:
187,53,164845,1,0,0:0:0:0:
172,18,164922,1,0,0:0:0:0:
172,203,165076,1,0,0:0:0:0:
301,326,165229,1,0,0:0:0:0:
367,158,165383,1,0,0:0:0:0:
382,124,165460,1,0,0:0:0:0:
397,91,165537,1,0,0:0:0:0:
412,56,165614,1,0,0:0:0:0:
426,22,165691,1,0,0:0:0:0:
291,100,165845,1,0,0:0:0:0:
155,136,165999,6,0,L|108:144,1,45.4999979171754
15,240,166152,2,0,L|68:228,1,45.4999979171754
213,248,166306,1,0,0:0:0:0:
368,340,166460,1,0,0:0:0:0:
302,163,166614,1,0,0:0:0:0:
289,130,166691,1,0,0:0:0:0:
275,96,166768,1,0,0:0:0:0:
262,63,166845,1,0,0:0:0:0:
248,31,166922,1,0,0:0:0:0:
181,171,167076,2,0,P|189:222|212:258,1,90.9999958343508
238,282,167306,53,0,0:0:0:0:
268,301,167383,1,0,0:0:0:0:
450,293,167537,1,0,0:0:0:0:
274,190,167691,1,0,0:0:0:0:
453,202,167845,2,0,L|508:219,1,45.4999979171754
277,101,167999,2,0,L|232:86,1,45.4999979171754
491,126,168152,1,0,0:0:0:0:
285,17,168306,1,0,0:0:0:0:
157,155,168460,5,0,0:0:0:0:
138,189,168537,1,0,0:0:0:0:
120,223,168614,1,0,0:0:0:0:
104,256,168691,1,0,0:0:0:0:
89,289,168768,1,0,0:0:0:0:
232,229,168922,1,0,0:0:0:0:
328,127,169076,2,0,L|359:85,1,45.4999979171754
500,22,169229,2,0,L|463:70,1,45.4999979171754
436,213,169383,1,0,0:0:0:0:
273,314,169537,1,0,0:0:0:0:
376,147,169691,5,0,0:0:0:0:
398,120,169768,1,0,0:0:0:0:
422,91,169845,1,0,0:0:0:0:
262,141,169999,2,0,P|223:181|195:219,1,90.9999958343508
247,327,170306,2,0,P|271:308|284:292,1,45.4999979171754
372,314,170460,2,0,P|396:284|403:263,1,45.4999979171754
491,268,170614,1,0,0:0:0:0:
385,156,170768,1,0,0:0:0:0:
298,74,170922,54,0,P|285:51|268:34,1,45.4999979171754
191,103,171076,2,0,P|168:79|142:67,1,45.4999979171754
89,163,171229,1,0,0:0:0:0:
232,258,171383,1,0,0:0:0:0:
346,124,171537,1,0,0:0:0:0:
368,98,171614,1,0,0:0:0:0:
391,75,171691,1,0,0:0:0:0:
414,51,171768,1,0,0:0:0:0:
437,30,171845,1,0,0:0:0:0:
273,34,171999,54,0,P|228:101|233:166,1,136.499993751526
250,181,172306,38,0,P|251:229|231:274,1,90.9999958343508
115,333,172614,1,0,0:0:0:0:
327,300,172768,2,0,L|379:289,1,45.4999979171754
501,202,172922,2,0,L|455:217,1,45.4999979171754
286,188,173076,1,0,0:0:0:0:
463,83,173229,1,0,0:0:0:0:
246,66,173383,5,0,0:0:0:0:
215,62,173460,1,0,0:0:0:0:
184,58,173537,1,0,0:0:0:0:
152,54,173614,1,0,0:0:0:0:
118,49,173691,1,0,0:0:0:0:
1,114,173845,1,0,0:0:0:0:
166,181,173999,1,0,0:0:0:0:
204,186,174076,1,0,0:0:0:0:
238,192,174152,1,0,0:0:0:0:
272,198,174229,1,0,0:0:0:0:
310,203,174306,1,0,0:0:0:0:
438,298,174460,1,0,0:0:0:0:
388,152,174614,54,0,L|367:107,1,45.4999979171754
326,28,174768,1,0,0:0:0:0:
307,214,174922,1,0,0:0:0:0:
246,77,175076,1,0,0:0:0:0:
220,276,175229,2,0,L|211:338,1,45.4999979171754
157,121,175383,2,0,L|162:73,1,45.4999979171754
132,316,175537,1,0,0:0:0:0:
70,162,175691,1,0,0:0:0:0:
253,258,175845,5,0,0:0:0:0:
284,274,175922,1,0,0:0:0:0:
316,291,175999,1,0,0:0:0:0:
351,310,176076,1,0,0:0:0:0:
381,325,176152,1,0,0:0:0:0:
310,186,176306,1,0,0:0:0:0:
226,94,176460,1,0,0:0:0:0:
199,78,176537,1,0,0:0:0:0:
171,60,176614,1,0,0:0:0:0:
139,43,176691,1,0,0:0:0:0:
107,25,176768,1,0,0:0:0:0:
173,158,176922,1,0,0:0:0:0:
252,285,177076,5,0,0:0:0:0:
261,317,177152,1,0,0:0:0:0:
271,351,177229,1,0,0:0:0:0:
284,182,177383,2,0,P|281:135|299:91,1,90.9999958343508
450,35,177691,1,0,0:0:0:0:
429,61,177768,1,0,0:0:0:0:
411,89,177845,1,0,0:0:0:0:
394,116,177922,1,0,0:0:0:0:
373,148,177999,1,0,0:0:0:0:
329,318,178152,1,0,0:0:0:0:
289,152,178306,54,0,L|276:104,1,45.4999979171754
171,10,178460,2,0,L|184:67,1,45.4999979171754
161,201,178614,1,0,0:0:0:0:
49,43,178768,1,0,0:0:0:0:
52,244,178922,1,0,0:0:0:0:
60,278,178999,1,0,0:0:0:0:
79,307,179076,1,0,0:0:0:0:
109,330,179152,1,0,0:0:0:0:
141,342,179229,1,0,0:0:0:0:
318,343,179383,1,0,0:0:0:0:
156,235,179537,6,0,L|110:204,2,45.4999979171754
345,262,179845,1,0,0:0:0:0:
170,134,179999,1,0,0:0:0:0:
356,160,180152,2,0,P|385:167|406:181,1,45.4999979171754
481,319,180306,2,0,P|456:315|428:303,1,45.4999979171754
337,173,180460,1,0,0:0:0:0:
358,356,180614,1,0,0:0:0:0:
249,152,180768,6,0,L|235:103,1,45.4999979171754
239,313,180922,2,0,L|256:364,1,45.4999979171754
128,146,181076,1,0,0:0:0:0:
41,337,181229,1,0,0:0:0:0:
47,153,181383,1,0,0:0:0:0:
48,117,181460,1,0,0:0:0:0:
48,83,181537,1,0,0:0:0:0:
49,47,181614,1,0,0:0:0:0:
50,17,181691,1,0,0:0:0:0:
136,117,181845,1,0,0:0:0:0:
173,262,181999,53,0,0:0:0:0:
179,292,182076,1,0,0:0:0:0:
186,325,182152,1,0,0:0:0:0:
175,170,183537,6,0,L|178:210,4,35
174,152,183999,1,0,0:0:0:0:
298,124,184152,6,0,L|302:165,4,35
296,107,184614,1,0,0:0:0:0:
414,67,184768,54,0,L|421:111,4,35
411,52,185229,1,0,0:0:0:0:
409,223,185383,6,0,L|402:180,4,35
413,244,185845,1,0,0:0:0:0:
281,69,185999,6,0,L|291:108,4,35
277,54,186460,1,0,0:0:0:0:
270,291,186614,54,0,L|255:241,4,35
276,308,187076,1,0,0:0:0:0:
142,76,187229,6,0,L|155:121,4,35
138,59,187691,1,0,0:0:0:0:
167,347,187845,22,0,L|150:305,4,35
364,99,191691,6,0,P|369:134|378:163,1,52.5
387,184,191999,5,0,0:0:0:0:
397,227,192075,1,0,0:0:0:0:
383,270,192152,1,0,0:0:0:0:
350,300,192229,1,0,0:0:0:0:
306,308,192306,1,0,0:0:0:0:
264,292,192383,1,0,0:0:0:0:
236,257,192460,1,0,0:0:0:0:
230,213,192537,1,0,0:0:0:0:
242,167,192614,5,0,0:0:0:0:
249,122,192690,1,0,0:0:0:0:
238,78,192767,1,0,0:0:0:0:
210,43,192844,1,0,0:0:0:0:
169,23,192921,1,0,0:0:0:0:
124,21,192998,1,0,0:0:0:0:
82,37,193075,1,0,0:0:0:0:
51,70,193152,1,0,0:0:0:0:
32,108,193229,5,0,0:0:0:0:
55,146,193305,1,0,0:0:0:0:
80,185,193382,1,0,0:0:0:0:
107,221,193459,1,0,0:0:0:0:
138,255,193536,1,0,0:0:0:0:
175,281,193613,1,0,0:0:0:0:
218,293,193690,1,0,0:0:0:0:
263,287,193767,1,0,0:0:0:0:
311,269,193845,6,0,L|359:246,3,52.5000020027161
394,152,194152,2,0,L|337:178,3,52.5000020027161
298,189,194460,37,0,0:0:0:0:
253,195,194536,1,0,0:0:0:0:
211,178,194613,1,0,0:0:0:0:
183,143,194690,1,0,0:0:0:0:
165,99,194768,1,0,0:0:0:0:
135,65,194844,1,0,0:0:0:0:
91,58,194921,1,0,0:0:0:0:
52,81,194998,1,0,0:0:0:0:
21,118,195076,5,0,0:0:0:0:
57,144,195152,1,0,0:0:0:0:
100,160,195229,1,0,0:0:0:0:
145,164,195306,1,0,0:0:0:0:
189,156,195383,1,0,0:0:0:0:
230,136,195460,1,0,0:0:0:0:
264,106,195537,1,0,0:0:0:0:
288,68,195614,1,0,0:0:0:0:
309,21,195691,5,0,0:0:0:0:
337,60,195768,1,0,0:0:0:0:
358,99,195845,2,0,L|380:145,1,45.4999979171754
360,285,195999,5,0,0:0:0:0:
321,309,196076,1,0,0:0:0:0:
276,322,196152,2,0,P|246:329|225:330,1,45.4999979171754
70,236,196306,37,0,0:0:0:0:
113,220,196383,1,0,0:0:0:0:
159,212,196460,2,0,P|190:209|217:212,1,45.4999979171754
345,213,196614,5,0,0:0:0:0:
390,204,196691,1,0,0:0:0:0:
434,187,196768,2,0,P|460:173|473:160,1,45.4999979171754
484,42,196922,5,0,0:0:0:0:
440,28,196998,1,0,0:0:0:0:
396,35,197075,1,0,0:0:0:0:
359,61,197152,1,0,0:0:0:0:
337,101,197229,1,0,0:0:0:0:
335,146,197306,1,0,0:0:0:0:
353,187,197383,1,0,0:0:0:0:
388,216,197460,1,0,0:0:0:0:
431,236,197537,5,0,0:0:0:0:
420,279,197613,1,0,0:0:0:0:
390,313,197690,1,0,0:0:0:0:
348,328,197767,1,0,0:0:0:0:
303,320,197844,1,0,0:0:0:0:
268,292,197921,1,0,0:0:0:0:
251,251,197998,1,0,0:0:0:0:
256,206,198075,1,0,0:0:0:0:
274,165,198152,38,0,L|294:121,3,45.4999979171754
372,110,198460,2,0,L|353:157,3,45.4999979171754
340,180,198768,5,0,0:0:0:0:
325,208,198844,1,0,0:0:0:0:
308,234,198921,1,0,0:0:0:0:
287,257,198998,1,0,0:0:0:0:
263,278,199075,1,0,0:0:0:0:
237,296,199152,1,0,0:0:0:0:
209,310,199229,1,0,0:0:0:0:
179,320,199306,1,0,0:0:0:0:
151,326,199383,5,0,0:0:0:0:
157,281,199459,1,0,0:0:0:0:
180,242,199536,1,0,0:0:0:0:
215,213,199613,1,0,0:0:0:0:
258,200,199690,1,0,0:0:0:0:
303,204,199767,1,0,0:0:0:0:
344,223,199844,1,0,0:0:0:0:
375,257,199921,1,0,0:0:0:0:
396,295,199999,5,0,0:0:0:0:
420,259,200076,1,0,0:0:0:0:
438,221,200152,2,0,P|449:193|453:173,1,45.4999979171754
386,38,200306,37,0,0:0:0:0:
371,77,200383,1,0,0:0:0:0:
356,119,200460,2,0,P|347:149|342:175,1,45.4999979171754
308,290,200614,5,0,0:0:0:0:
280,325,200690,1,0,0:0:0:0:
238,343,200767,1,0,0:0:0:0:
193,341,200844,1,0,0:0:0:0:
155,317,200921,1,0,0:0:0:0:
131,279,200998,1,0,0:0:0:0:
128,234,201075,1,0,0:0:0:0:
147,193,201152,1,0,0:0:0:0:
181,154,201229,6,0,P|204:136|226:124,1,45.4999979171754
375,71,201383,2,0,P|337:78|319:85,1,45.4999979171754
240,190,201537,2,0,P|267:176|299:173,1,45.4999979171754
456,158,201691,2,0,P|428:153|398:153,1,45.4999979171754
247,123,201845,5,0,0:0:0:0:
202,117,201921,1,0,0:0:0:0:
162,95,201998,1,0,0:0:0:0:
134,60,202075,1,0,0:0:0:0:
103,29,202152,1,0,0:0:0:0:
61,14,202228,1,0,0:0:0:0:
22,36,202305,1,0,0:0:0:0:
13,79,202382,1,0,0:0:0:0:
38,118,202460,37,0,0:0:0:0:
62,155,202536,1,0,0:0:0:0:
80,197,202613,1,0,0:0:0:0:
90,242,202690,1,0,0:0:0:0:
100,283,202768,1,0,0:0:0:0:
126,318,202844,1,0,0:0:0:0:
170,325,202921,1,0,0:0:0:0:
206,299,202998,1,0,0:0:0:0:
230,259,203076,5,0,0:0:0:0:
257,294,203152,1,0,0:0:0:0:
295,319,203229,1,0,0:0:0:0:
339,331,203306,1,0,0:0:0:0:
384,328,203383,1,0,0:0:0:0:
426,310,203460,1,0,0:0:0:0:
460,280,203537,1,0,0:0:0:0:
482,240,203614,1,0,0:0:0:0:
491,196,203691,1,0,0:0:0:0:
485,152,203768,1,0,0:0:0:0:
464,111,203845,1,0,0:0:0:0:
432,79,203922,1,0,0:0:0:0:
391,59,203999,1,0,0:0:0:0:
346,54,204075,1,0,0:0:0:0:
302,63,204152,1,0,0:0:0:0:
263,86,204229,1,0,0:0:0:0:
237,128,204306,5,0,0:0:0:0:
281,119,204382,1,0,0:0:0:0:
325,129,204459,1,0,0:0:0:0:
360,157,204536,1,0,0:0:0:0:
381,197,204613,1,0,0:0:0:0:
382,242,204690,1,0,0:0:0:0:
365,284,204767,1,0,0:0:0:0:
331,314,204844,1,0,0:0:0:0:
286,328,204922,5,0,0:0:0:0:
242,321,204998,1,0,0:0:0:0:
221,283,205075,1,0,0:0:0:0:
238,242,205152,1,0,0:0:0:0:
278,221,205229,1,0,0:0:0:0:
320,204,205305,1,0,0:0:0:0:
355,176,205382,1,0,0:0:0:0:
380,138,205459,1,0,0:0:0:0:
390,88,205537,37,0,0:0:0:0:
422,119,205613,1,0,0:0:0:0:
441,161,205690,1,0,0:0:0:0:
444,206,205767,1,0,0:0:0:0:
431,249,205844,1,0,0:0:0:0:
405,286,205921,1,0,0:0:0:0:
367,310,205998,1,0,0:0:0:0:
323,321,206075,1,0,0:0:0:0:
275,315,206152,5,0,0:0:0:0:
232,299,206228,1,0,0:0:0:0:
198,269,206305,1,0,0:0:0:0:
178,228,206382,1,0,0:0:0:0:
172,181,206460,1,0,0:0:0:0:
166,136,206536,1,0,0:0:0:0:
147,94,206613,1,0,0:0:0:0:
116,62,206690,1,0,0:0:0:0:
75,40,206768,5,0,0:0:0:0:
82,84,206844,1,0,0:0:0:0:
111,118,206921,1,0,0:0:0:0:
153,134,206998,1,0,0:0:0:0:
203,126,207076,22,0,L|211:50,1,70
281,207,207229,2,0,L|285:151,1,45.4999979171754
390,174,207383,69,0,0:0:0:0:
429,194,207459,1,0,0:0:0:0:
454,232,207536,1,0,0:0:0:0:
456,277,207613,1,0,0:0:0:0:
435,317,207690,1,0,0:0:0:0:
397,341,207767,1,0,0:0:0:0:
352,344,207844,1,0,0:0:0:0:
312,323,207921,1,0,0:0:0:0:
277,295,207999,1,0,0:0:0:0:
241,266,208075,1,0,0:0:0:0:
200,248,208152,1,0,0:0:0:0:
154,244,208229,1,0,0:0:0:0:
110,249,208306,6,0,L|97:177,1,70
43,328,208460,2,0,L|32:272,1,45.4999979171754
163,357,208614,21,0,0:0:0:0:
207,363,208690,1,0,0:0:0:0:
252,355,208767,1,0,0:0:0:0:
290,331,208844,1,0,0:0:0:0:
319,296,208921,1,0,0:0:0:0:
333,253,208998,1,0,0:0:0:0:
332,208,209075,1,0,0:0:0:0:
316,166,209152,1,0,0:0:0:0:
290,129,209229,1,0,0:0:0:0:
247,113,209305,1,0,0:0:0:0:
202,108,209382,1,0,0:0:0:0:
157,115,209459,1,0,0:0:0:0:
107,133,209537,54,0,L|104:54,1,70
44,189,209691,2,0,L|37:137,1,45.4999979171754
256,192,209845,12,0,211691,0:0:0:0:
194,128,211845,37,0,0:0:0:0:
200,119,211922,1,0,0:0:0:0:
211,289,212152,1,0,0:0:0:0:
206,303,212229,1,0,0:0:0:0:
310,127,212460,2,0,P|336:79|383:48,1,105.000004005432
392,47,212845,5,0,0:0:0:0:
408,46,212922,1,0,0:0:0:0:
310,149,213076,1,0,0:0:0:0:
295,151,213152,1,0,0:0:0:0:
418,259,213383,1,0,0:0:0:0:
432,261,213460,1,0,0:0:0:0:
277,342,213691,2,0,P|208:342|168:332,1,105.000004005432
162,329,214076,5,0,0:0:0:0:
148,320,214152,1,0,0:0:0:0:
117,173,214306,2,0,L|95:154,1,26.2500010013581
287,217,214614,2,0,L|315:237,1,26.2500010013581
185,74,214922,2,0,P|137:47|86:52,1,105.000004005432
80,56,215306,53,0,0:0:0:0:
71,63,215383,1,0,0:0:0:0:
228,92,215537,1,0,0:0:0:0:
239,84,215614,1,0,0:0:0:0:
182,245,215845,1,0,0:0:0:0:
170,256,215922,1,0,0:0:0:0:
325,188,216152,2,0,P|369:150|394:110,1,105.000004005432
399,99,216537,5,0,0:0:0:0:
404,84,216614,1,0,0:0:0:0:
385,280,216768,1,0,0:0:0:0:
379,295,216845,1,0,0:0:0:0:
492,126,217076,1,0,0:0:0:0:
496,111,217152,1,0,0:0:0:0:
385,280,217383,2,0,P|362:330|316:352,1,105.000004005432
307,353,217768,5,0,0:0:0:0:
293,352,217845,1,0,0:0:0:0:
142,243,217999,2,0,L|173:244,1,26.2500010013581
321,155,218306,2,0,L|293:157,1,26.2500010013581
134,50,218614,2,0,L|252:47,1,105.000004005432
252,47,218999,53,0,0:0:0:0:
266,53,219076,1,0,0:0:0:0:
355,177,219229,1,0,0:0:0:0:
342,171,219306,1,0,0:0:0:0:
149,159,219537,1,0,0:0:0:0:
159,167,219614,1,0,0:0:0:0:
294,295,219845,2,0,P|342:322|396:324,1,105.000004005432
404,322,220229,5,0,0:0:0:0:
418,319,220306,1,0,0:0:0:0:
505,201,220460,1,0,0:0:0:0:
489,204,220537,1,0,0:0:0:0:
326,152,220768,1,0,0:0:0:0:
343,148,220845,1,0,0:0:0:0:
489,59,221076,2,0,P|439:34|380:34,1,105.000004005432
377,35,221460,5,0,0:0:0:0:
362,41,221537,1,0,0:0:0:0:
261,91,221845,1,0,0:0:0:0:
229,199,222152,1,0,0:0:0:0:
272,297,222460,1,0,0:0:0:0:
388,226,222768,54,0,P|418:177|424:126,1,105.000004005432
336,35,223383,2,0,P|301:85|295:133,1,105.000004005432
339,221,223999,5,0,0:0:0:0:
237,128,224306,1,0,0:0:0:0:
194,261,224614,1,0,0:0:0:0:
304,352,224922,1,0,0:0:0:0:
400,232,225229,6,0,P|426:181|430:132,1,105.000004005432
270,281,225845,2,0,P|298:329|347:360,1,105.000004005432
411,215,226460,53,0,0:0:0:0:
364,117,226614,1,0,0:0:0:0:
377,257,226768,1,0,0:0:0:0:
397,74,226922,1,0,0:0:0:0:
244,256,227076,5,0,0:0:0:0:
244,256,227229,1,0,0:0:0:0:
149,62,227383,1,0,0:0:0:0:
149,62,227537,1,0,0:0:0:0:
114,265,227691,5,0,0:0:0:0:
240,121,227845,1,0,0:0:0:0:
25,182,227999,1,0,0:0:0:0:
231,286,228152,1,0,0:0:0:0:
148,73,228306,1,0,0:0:0:0:
88,337,228460,1,0,0:0:0:0:
323,208,228614,1,0,0:0:0:0:
62,66,228768,1,0,0:0:0:0:
199,286,228922,53,0,0:0:0:0:
232,315,228998,1,0,0:0:0:0:
276,324,229075,1,0,0:0:0:0:
318,308,229152,1,0,0:0:0:0:
346,273,229229,1,0,0:0:0:0:
351,228,229306,1,0,0:0:0:0:
333,187,229383,1,0,0:0:0:0:
296,162,229460,1,0,0:0:0:0:
253,150,229537,5,0,0:0:0:0:
209,138,229613,1,0,0:0:0:0:
181,103,229690,1,0,0:0:0:0:
178,59,229767,1,0,0:0:0:0:
202,21,229844,1,0,0:0:0:0:
244,4,229921,1,0,0:0:0:0:
287,15,229998,1,0,0:0:0:0:
316,50,230075,1,0,0:0:0:0:
256,192,230152,12,0,232460,0:0:0:0:
281,54,232614,53,0,0:0:0:0:
328,74,232690,1,0,0:0:0:0:
365,112,232767,1,0,0:0:0:0:
384,160,232844,1,0,0:0:0:0:
384,212,232921,1,0,0:0:0:0:
363,260,232998,1,0,0:0:0:0:
326,297,233075,1,0,0:0:0:0:
278,317,233152,1,0,0:0:0:0:
229,326,233229,5,0,0:0:0:0:
230,274,233305,1,0,0:0:0:0:
259,230,233382,1,0,0:0:0:0:
306,209,233459,1,0,0:0:0:0:
359,206,233537,1,0,0:0:0:0:
407,190,233613,1,0,0:0:0:0:
430,144,233690,1,0,0:0:0:0:
412,96,233767,1,0,0:0:0:0:
374,60,233845,5,0,0:0:0:0:
343,104,233921,1,0,0:0:0:0:
291,110,233998,1,0,0:0:0:0:
247,80,234075,1,0,0:0:0:0:
209,42,234152,1,0,0:0:0:0:
159,25,234228,1,0,0:0:0:0:
109,43,234305,1,0,0:0:0:0:
83,88,234382,1,0,0:0:0:0:
77,140,234460,5,0,0:0:0:0:
91,192,234536,1,0,0:0:0:0:
114,238,234613,1,0,0:0:0:0:
151,278,234690,1,0,0:0:0:0:
195,307,234767,1,0,0:0:0:0:
246,322,234844,1,0,0:0:0:0:
298,324,234921,1,0,0:0:0:0:
349,313,234998,1,0,0:0:0:0:
398,290,235076,37,0,0:0:0:0:
361,252,235152,1,0,0:0:0:0:
312,234,235229,1,0,0:0:0:0:
261,239,235306,1,0,0:0:0:0:
213,258,235383,1,0,0:0:0:0:
162,269,235459,1,0,0:0:0:0:
112,253,235536,1,0,0:0:0:0:
77,215,235613,1,0,0:0:0:0:
60,166,235691,5,0,0:0:0:0:
93,125,235767,1,0,0:0:0:0:
134,93,235844,1,0,0:0:0:0:
182,70,235921,1,0,0:0:0:0:
232,58,235998,1,0,0:0:0:0:
285,56,236075,1,0,0:0:0:0:
336,65,236152,1,0,0:0:0:0:
385,85,236229,1,0,0:0:0:0:
424,122,236306,5,0,0:0:0:0:
436,174,236383,1,0,0:0:0:0:
443,227,236460,2,0,P|445:265|442:299,1,70
286,222,236614,5,0,0:0:0:0:
273,170,236691,1,0,0:0:0:0:
267,116,236768,2,0,P|264:73|267:40,1,70
98,90,236922,37,0,0:0:0:0:
74,137,236999,1,0,0:0:0:0:
59,189,237076,2,0,P|50:235|54:275,1,70
276,328,237229,5,0,0:0:0:0:
326,308,237306,1,0,0:0:0:0:
370,276,237383,2,0,P|401:247|419:217,1,70
348,60,237537,5,0,0:0:0:0:
300,38,237613,1,0,0:0:0:0:
248,31,237690,1,0,0:0:0:0:
196,40,237767,1,0,0:0:0:0:
149,63,237844,1,0,0:0:0:0:
111,98,237921,1,0,0:0:0:0:
84,143,237998,1,0,0:0:0:0:
72,194,238075,1,0,0:0:0:0:
73,249,238152,5,0,0:0:0:0:
124,243,238228,1,0,0:0:0:0:
174,258,238305,1,0,0:0:0:0:
213,293,238382,1,0,0:0:0:0:
254,326,238460,1,0,0:0:0:0:
300,349,238536,1,0,0:0:0:0:
352,348,238613,1,0,0:0:0:0:
397,322,238690,1,0,0:0:0:0:
432,283,238768,38,0,P|449:248|451:209,1,70
393,14,238922,2,0,P|418:51|428:90,1,70
428,250,239076,2,0,P|431:210|422:171,1,70
319,1,239229,2,0,P|356:30|385:72,1,70
395,212,239383,5,0,0:0:0:0:
375,260,239459,1,0,0:0:0:0:
338,296,239536,1,0,0:0:0:0:
289,316,239613,1,0,0:0:0:0:
237,315,239690,1,0,0:0:0:0:
189,294,239767,1,0,0:0:0:0:
154,256,239844,1,0,0:0:0:0:
136,207,239921,1,0,0:0:0:0:
126,157,239999,6,0,P|123:118|136:76,3,70
205,42,240306,2,0,P|207:87|195:129,3,70
266,172,240614,5,0,0:0:0:0:
288,219,240691,1,0,0:0:0:0:
322,262,240768,2,0,P|352:293|400:312,1,70
466,162,240922,37,0,0:0:0:0:
439,118,240999,1,0,0:0:0:0:
404,80,241076,2,0,P|373:47|336:33,1,70
192,27,241229,5,0,0:0:0:0:
149,56,241305,1,0,0:0:0:0:
130,104,241382,1,0,0:0:0:0:
140,155,241459,1,0,0:0:0:0:
177,191,241536,1,0,0:0:0:0:
228,202,241613,1,0,0:0:0:0:
278,212,241691,1,0,0:0:0:0:
323,240,241767,1,0,0:0:0:0:
359,280,241845,6,0,L|406:334,3,70
435,252,242152,2,0,L|382:193,3,70
401,126,242460,5,0,0:0:0:0:
370,83,242536,1,0,0:0:0:0:
323,61,242613,1,0,0:0:0:0:
271,66,242690,1,0,0:0:0:0:
223,85,242768,1,0,0:0:0:0:
175,105,242844,1,0,0:0:0:0:
122,108,242921,1,0,0:0:0:0:
73,91,242998,1,0,0:0:0:0:
31,57,243076,37,0,0:0:0:0:
76,30,243152,1,0,0:0:0:0:
127,19,243229,1,0,0:0:0:0:
179,25,243306,1,0,0:0:0:0:
227,46,243383,1,0,0:0:0:0:
266,80,243460,1,0,0:0:0:0:
293,125,243537,1,0,0:0:0:0:
304,176,243614,1,0,0:0:0:0:
302,231,243691,5,0,0:0:0:0:
331,189,243767,1,0,0:0:0:0:
381,178,243844,1,0,0:0:0:0:
426,204,243921,1,0,0:0:0:0:
450,252,243999,1,0,0:0:0:0:
450,303,244075,1,0,0:0:0:0:
416,341,244152,1,0,0:0:0:0:
365,347,244229,1,0,0:0:0:0:
315,330,244305,1,0,0:0:0:0:
263,329,244382,1,0,0:0:0:0:
210,338,244459,1,0,0:0:0:0:
158,348,244537,2,0,P|128:352|88:346,1,52.5000020027161
184,223,244691,5,0,0:0:0:0:
238,217,244768,1,0,0:0:0:0:
290,226,244845,2,0,P|330:227|371:220,1,70
431,174,244999,5,0,0:0:0:0:
441,122,245076,1,0,0:0:0:0:
420,74,245152,1,0,0:0:0:0:
381,39,245229,1,0,0:0:0:0:
331,25,245306,1,0,0:0:0:0:
279,33,245383,1,0,0:0:0:0:
236,62,245460,1,0,0:0:0:0:
201,102,245537,37,0,0:0:0:0:
252,93,245613,1,0,0:0:0:0:
303,104,245690,1,0,0:0:0:0:
346,134,245767,1,0,0:0:0:0:
374,178,245844,1,0,0:0:0:0:
384,229,245921,1,0,0:0:0:0:
375,280,245998,1,0,0:0:0:0:
346,324,246075,1,0,0:0:0:0:
301,352,246152,6,0,L|233:366,1,70
61,306,246306,2,0,L|143:285,1,70
261,162,246460,2,0,L|166:186,1,70
8,131,246614,2,0,L|96:108,1,70
258,58,246768,5,0,0:0:0:0:
309,48,246844,1,0,0:0:0:0:
361,56,246921,1,0,0:0:0:0:
407,80,246998,1,0,0:0:0:0:
442,118,247075,1,0,0:0:0:0:
464,166,247152,1,0,0:0:0:0:
468,218,247229,1,0,0:0:0:0:
455,269,247306,1,0,0:0:0:0:
423,312,247383,5,0,0:0:0:0:
388,272,247459,1,0,0:0:0:0:
343,244,247536,1,0,0:0:0:0:
293,230,247613,1,0,0:0:0:0:
241,223,247691,6,0,L|222:156,1,70
185,313,247845,2,0,L|169:253,1,52.5000020027161
110,170,247999,21,0,0:0:0:0:
85,124,248075,1,0,0:0:0:0:
93,73,248152,1,0,0:0:0:0:
132,39,248229,1,0,0:0:0:0:
185,26,248306,5,0,0:0:0:0:
217,66,248382,1,0,0:0:0:0:
263,90,248459,1,0,0:0:0:0:
315,91,248536,1,0,0:0:0:0:
369,78,248614,5,0,0:0:0:0:
420,82,248690,1,0,0:0:0:0:
453,121,248767,1,0,0:0:0:0:
450,172,248844,1,0,0:0:0:0:
425,219,248922,22,0,L|347:241,1,70
492,276,249076,2,0,L|438:296,1,52.5000020027161
336,337,249229,69,0,0:0:0:0:
285,349,249305,1,0,0:0:0:0:
232,348,249382,1,0,0:0:0:0:
183,333,249459,1,0,0:0:0:0:
139,304,249536,1,0,0:0:0:0:
104,265,249613,1,0,0:0:0:0:
82,217,249690,1,0,0:0:0:0:
73,166,249767,1,0,0:0:0:0:
75,113,249845,53,0,0:0:0:0:
336,26,249999,1,0,0:0:0:0:
101,160,250152,1,0,0:0:0:0:
358,75,250306,1,0,0:0:0:0:
289,309,250460,5,0,0:0:0:0:
185,70,250614,1,0,0:0:0:0:
469,243,250768,1,0,0:0:0:0:
76,241,250922,1,0,0:0:0:0:
374,130,251076,6,0,L|438:89,3,70
438,188,251383,2,0,L|372:232,3,70
279,307,251691,37,0,0:0:0:0:
232,329,251767,1,0,0:0:0:0:
180,334,251844,1,0,0:0:0:0:
129,321,251921,1,0,0:0:0:0:
87,290,251998,1,0,0:0:0:0:
58,247,252075,1,0,0:0:0:0:
46,196,252152,1,0,0:0:0:0:
53,144,252229,1,0,0:0:0:0:
69,95,252306,5,0,0:0:0:0:
116,117,252382,1,0,0:0:0:0:
149,157,252459,1,0,0:0:0:0:
162,207,252536,1,0,0:0:0:0:
170,260,252614,1,0,0:0:0:0:
186,308,252690,1,0,0:0:0:0:
229,338,252767,1,0,0:0:0:0:
280,337,252844,1,0,0:0:0:0:
329,320,252922,5,0,0:0:0:0:
295,280,252998,1,0,0:0:0:0:
276,231,253075,1,0,0:0:0:0:
274,179,253152,1,0,0:0:0:0:
290,129,253229,1,0,0:0:0:0:
322,87,253306,1,0,0:0:0:0:
365,58,253383,1,0,0:0:0:0:
416,46,253460,1,0,0:0:0:0:
468,47,253537,5,0,0:0:0:0:
449,96,253613,1,0,0:0:0:0:
416,136,253690,1,0,0:0:0:0:
372,164,253767,1,0,0:0:0:0:
321,175,253844,1,0,0:0:0:0:
270,175,253921,1,0,0:0:0:0:
222,155,253998,1,0,0:0:0:0:
188,115,254075,1,0,0:0:0:0:
153,76,254152,1,0,0:0:0:0:
104,57,254228,1,0,0:0:0:0:
53,67,254305,1,0,0:0:0:0:
15,103,254382,1,0,0:0:0:0:
0,153,254460,1,0,0:0:0:0:
10,205,254536,1,0,0:0:0:0:
47,242,254613,1,0,0:0:0:0:
99,249,254690,1,0,0:0:0:0:
150,243,254768,37,0,0:0:0:0:
139,192,254844,1,0,0:0:0:0:
163,146,254921,1,0,0:0:0:0:
210,125,254998,1,0,0:0:0:0:
264,129,255076,1,0,0:0:0:0:
315,136,255152,1,0,0:0:0:0:
363,117,255229,1,0,0:0:0:0:
396,77,255306,1,0,0:0:0:0:
419,30,255383,5,0,0:0:0:0:
367,24,255459,1,0,0:0:0:0:
315,34,255536,1,0,0:0:0:0:
270,59,255613,1,0,0:0:0:0:
226,87,255691,1,0,0:0:0:0:
177,106,255767,1,0,0:0:0:0:
125,110,255844,1,0,0:0:0:0:
74,97,255921,1,0,0:0:0:0:
26,76,255999,5,0,0:0:0:0:
28,131,256076,1,0,0:0:0:0:
32,186,256152,2,0,L|36:263,1,70
186,348,256306,5,0,0:0:0:0:
180,293,256383,1,0,0:0:0:0:
175,239,256460,2,0,L|168:155,1,70
294,30,256614,37,0,0:0:0:0:
300,84,256691,1,0,0:0:0:0:
307,138,256768,2,0,L|316:225,1,70
477,330,256922,5,0,0:0:0:0:
469,277,256999,1,0,0:0:0:0:
461,224,257076,2,0,L|451:149,1,70
371,43,257229,5,0,0:0:0:0:
323,22,257305,1,0,0:0:0:0:
272,28,257382,1,0,0:0:0:0:
231,60,257459,1,0,0:0:0:0:
212,108,257536,1,0,0:0:0:0:
220,159,257613,1,0,0:0:0:0:
254,199,257690,1,0,0:0:0:0:
303,215,257767,1,0,0:0:0:0:
355,214,257845,5,0,0:0:0:0:
407,224,257921,1,0,0:0:0:0:
434,269,257998,1,0,0:0:0:0:
429,322,258075,1,0,0:0:0:0:
388,353,258152,1,0,0:0:0:0:
336,362,258228,1,0,0:0:0:0:
286,349,258305,1,0,0:0:0:0:
245,316,258382,1,0,0:0:0:0:
227,267,258460,37,0,0:0:0:0:
198,310,258536,1,0,0:0:0:0:
153,336,258613,1,0,0:0:0:0:
101,339,258690,1,0,0:0:0:0:
54,317,258767,1,0,0:0:0:0:
22,276,258844,1,0,0:0:0:0:
12,225,258921,1,0,0:0:0:0:
26,175,258998,1,0,0:0:0:0:
61,133,259076,6,0,P|88:113|130:99,1,70
362,93,259229,2,0,P|323:84|279:84,1,70
125,137,259383,2,0,P|163:126|203:124,1,70
422,173,259537,2,0,P|381:145|348:138,1,70
182,150,259691,5,0,0:0:0:0:
132,165,259767,1,0,0:0:0:0:
97,204,259844,1,0,0:0:0:0:
87,255,259921,1,0,0:0:0:0:
103,304,259998,1,0,0:0:0:0:
142,338,260075,1,0,0:0:0:0:
193,348,260152,1,0,0:0:0:0:
242,331,260229,1,0,0:0:0:0:
281,295,260306,5,0,0:0:0:0:
291,243,260383,1,0,0:0:0:0:
284,193,260460,2,0,P|278:160|263:127,1,70
361,44,260614,37,0,0:0:0:0:
385,92,260691,1,0,0:0:0:0:
406,141,260768,2,0,P|417:184|421:220,1,70
292,326,260922,5,0,0:0:0:0:
242,340,260998,1,0,0:0:0:0:
194,320,261075,1,0,0:0:0:0:
170,275,261152,1,0,0:0:0:0:
179,224,261229,1,0,0:0:0:0:
218,191,261306,1,0,0:0:0:0:
268,177,261383,1,0,0:0:0:0:
314,155,261459,1,0,0:0:0:0:
340,110,261536,5,0,0:0:0:0:
332,59,261613,1,0,0:0:0:0:
296,22,261691,1,0,0:0:0:0:
245,22,261767,1,0,0:0:0:0:
204,58,261844,1,0,0:0:0:0:
199,110,261921,1,0,0:0:0:0:
224,157,261998,1,0,0:0:0:0:
241,206,262075,1,0,0:0:0:0:
246,258,262152,5,0,0:0:0:0:
280,296,262228,1,0,0:0:0:0:
328,317,262305,1,0,0:0:0:0:
380,314,262382,1,0,0:0:0:0:
426,289,262459,1,0,0:0:0:0:
456,247,262536,1,0,0:0:0:0:
472,199,262614,2,0,P|474:170|470:139,1,52.5000020027161
368,39,262768,37,0,0:0:0:0:
319,25,262844,1,0,0:0:0:0:
270,43,262921,1,0,0:0:0:0:
240,85,262998,1,0,0:0:0:0:
231,137,263076,1,0,0:0:0:0:
201,180,263152,1,0,0:0:0:0:
156,205,263229,2,0,P|122:219|91:221,1,52.5000020027161
23,120,263383,5,0,0:0:0:0:
55,79,263459,1,0,0:0:0:0:
101,54,263536,1,0,0:0:0:0:
153,48,263613,1,0,0:0:0:0:
202,63,263690,1,0,0:0:0:0:
242,97,263767,1,0,0:0:0:0:
266,143,263844,1,0,0:0:0:0:
271,195,263921,1,0,0:0:0:0:
267,247,263999,1,0,0:0:0:0:
279,296,264075,1,0,0:0:0:0:
319,330,264152,5,0,0:0:0:0:
370,338,264229,1,0,0:0:0:0:
424,330,264306,2,0,P|453:318|479:299,1,52.5000020027161
398,204,264460,5,0,0:0:0:0:
346,211,264537,1,0,0:0:0:0:
294,222,264614,2,0,P|258:234|236:252,1,52.5000020027161
147,299,264768,37,0,0:0:0:0:
97,311,264844,1,0,0:0:0:0:
50,289,264921,1,0,0:0:0:0:
28,243,264998,1,0,0:0:0:0:
40,193,265075,1,0,0:0:0:0:
80,162,265152,1,0,0:0:0:0:
131,149,265229,5,0,0:0:0:0:
125,200,265305,1,0,0:0:0:0:
139,251,265382,1,0,0:0:0:0:
171,293,265459,1,0,0:0:0:0:
215,320,265536,1,0,0:0:0:0:
266,330,265613,1,0,0:0:0:0:
317,320,265690,1,0,0:0:0:0:
362,293,265767,1,0,0:0:0:0:
399,253,265845,6,0,P|411:224|411:182,1,70
263,49,265999,2,0,P|258:84|264:124,1,70
436,303,266152,2,0,P|459:270|467:225,1,70
217,14,266306,2,0,P|204:63|208:99,1,70
224,245,266460,5,0,0:0:0:0:
218,296,266536,1,0,0:0:0:0:
185,336,266613,1,0,0:0:0:0:
135,350,266690,1,0,0:0:0:0:
86,335,266767,1,0,0:0:0:0:
53,295,266844,1,0,0:0:0:0:
49,244,266921,1,0,0:0:0:0:
73,198,266998,1,0,0:0:0:0:
113,165,267076,37,0,0:0:0:0:
165,163,267152,1,0,0:0:0:0:
217,171,267229,1,0,0:0:0:0:
267,186,267306,1,0,0:0:0:0:
316,208,267383,54,0,L|356:142,1,70
363,283,267537,2,0,L|394:235,1,52.5000020027161
450,139,267691,37,0,0:0:0:0:
464,90,267767,1,0,0:0:0:0:
437,47,267844,1,0,0:0:0:0:
386,41,267921,1,0,0:0:0:0:
339,60,267999,1,0,0:0:0:0:
292,84,268075,1,0,0:0:0:0:
241,92,268152,1,0,0:0:0:0:
189,85,268229,1,0,0:0:0:0:
139,62,268306,5,0,0:0:0:0:
113,107,268382,1,0,0:0:0:0:
107,159,268459,1,0,0:0:0:0:
120,209,268536,1,0,0:0:0:0:
151,254,268614,22,0,L|216:212,1,70
164,341,268768,2,0,L|214:307,1,52.5000020027161
319,234,268922,69,0,0:0:0:0:
351,193,268998,1,0,0:0:0:0:
354,141,269075,1,0,0:0:0:0:
327,97,269152,1,0,0:0:0:0:
280,76,269229,1,0,0:0:0:0:
229,85,269306,1,0,0:0:0:0:
193,122,269383,1,0,0:0:0:0:
184,173,269460,1,0,0:0:0:0:
198,223,269537,37,0,0:0:0:0:
411,313,269691,1,0,0:0:0:0:
272,56,269845,1,0,0:0:0:0:
271,311,269999,1,0,0:0:0:0:
419,73,270152,1,0,0:0:0:0:
140,117,270306,1,0,0:0:0:0:
437,241,270460,1,0,0:0:0:0:
193,23,270614,1,0,0:0:0:0:
341,346,270768,1,0,0:0:0:0:
256,192,270845,12,0,271845,0:0:0:0:
309,33,271999,70,0,P|283:66|266:102,1,70
215,273,272306,1,0,0:0:0:0:
395,107,272460,2,0,P|379:142|356:170,1,70
220,274,272768,1,0,0:0:0:0:
105,202,272922,21,0,0:0:0:0:
86,177,272999,1,0,0:0:0:0:
77,146,273076,1,0,0:0:0:0:
80,112,273152,1,0,0:0:0:0:
88,84,273229,6,0,P|100:63|112:49,1,35
270,35,273383,2,0,P|260:56|249:70,1,35
167,129,273537,1,0,0:0:0:0:
93,261,273691,2,0,L|68:293,4,35
247,137,274152,1,0,0:0:0:0:
180,277,274306,1,0,0:0:0:0:
406,147,274460,38,0,P|430:121|445:88,1,70
257,267,274768,1,0,0:0:0:0:
346,67,274922,2,0,P|359:38|386:7,1,70
267,267,275229,1,0,0:0:0:0:
261,125,275383,21,0,0:0:0:0:
254,96,275460,1,0,0:0:0:0:
240,71,275537,1,0,0:0:0:0:
220,52,275614,1,0,0:0:0:0:
201,36,275691,6,0,P|177:24|162:22,1,35
30,128,275845,2,0,P|53:136|73:138,1,35
172,128,275999,1,0,0:0:0:0:
90,243,276152,2,0,L|69:278,1,35
145,228,276306,2,0,L|122:270,1,35
197,212,276460,1,0,0:0:0:0:
384,106,276614,1,0,0:0:0:0:
336,305,276768,1,0,0:0:0:0:
208,82,276922,38,0,P|187:51|157:30,1,70
292,220,277229,1,0,0:0:0:0:
122,111,277383,2,0,P|84:82|74:57,1,70
290,211,277691,1,0,0:0:0:0:
131,208,277845,21,0,0:0:0:0:
99,216,277922,1,0,0:0:0:0:
84,251,277999,1,0,0:0:0:0:
99,284,278076,1,0,0:0:0:0:
129,294,278152,6,0,P|153:293|176:288,1,35
273,325,278306,2,0,P|296:323|322:328,1,35
436,288,278460,1,0,0:0:0:0:
282,163,278614,2,0,L|246:134,4,35
392,327,279076,1,0,0:0:0:0:
361,118,279229,1,0,0:0:0:0:
163,199,279383,38,0,P|123:220|97:249,1,70
356,150,279691,1,0,0:0:0:0:
182,301,279845,2,0,P|155:328|124:340,1,70
361,160,280152,1,0,0:0:0:0:
149,137,280306,21,0,0:0:0:0:
121,135,280383,1,0,0:0:0:0:
96,142,280460,1,0,0:0:0:0:
74,160,280537,1,0,0:0:0:0:
59,186,280614,6,0,P|49:209|46:235,1,35
132,347,280768,2,0,P|143:324|146:307,1,35
197,150,280922,1,0,0:0:0:0:
248,262,281076,2,0,L|267:302,1,35
304,285,281229,2,0,L|335:325,1,35
366,293,281383,1,0,0:0:0:0:
459,133,281537,1,0,0:0:0:0:
279,189,281691,1,0,0:0:0:0:
24,72,281845,38,0,P|49:103|81:118,1,70
243,156,282152,1,0,0:0:0:0:
118,17,282306,2,0,P|152:37|175:62,1,70
253,165,282614,1,0,0:0:0:0:
331,307,282768,21,0,0:0:0:0:
351,320,282845,1,0,0:0:0:0:
377,330,282922,1,0,0:0:0:0:
404,336,282999,1,0,0:0:0:0:
433,339,283076,6,0,L|453:309,1,35
442,152,283229,2,0,L|426:182,1,35
283,252,283383,1,0,0:0:0:0:
361,101,283537,2,0,L|378:63,4,35
283,252,283999,1,0,0:0:0:0:
217,73,284152,1,0,0:0:0:0:
466,225,284306,38,0,P|443:198|406:184,1,70
238,126,284614,1,0,0:0:0:0:
453,329,284768,2,0,P|411:315|385:289,1,70
249,139,285076,1,0,0:0:0:0:
138,58,285229,21,0,0:0:0:0:
119,51,285306,1,0,0:0:0:0:
94,51,285383,1,0,0:0:0:0:
75,65,285460,1,0,0:0:0:0:
66,88,285537,6,0,L|54:130,1,35
145,138,285691,2,0,L|133:185,1,35
226,183,285845,1,0,0:0:0:0:
140,262,285999,2,0,L|121:310,1,35
180,307,286152,2,0,L|170:354,1,35
228,344,286306,1,0,0:0:0:0:
338,173,286460,1,0,0:0:0:0:
366,328,286614,1,0,0:0:0:0:
436,39,286768,38,0,P|397:57|376:81,1,70
261,257,287076,1,0,0:0:0:0:
470,128,287229,2,0,P|446:164|418:180,1,70
275,243,287537,1,0,0:0:0:0:
100,217,287691,21,0,0:0:0:0:
76,202,287768,1,0,0:0:0:0:
66,175,287845,1,0,0:0:0:0:
69,142,287922,1,0,0:0:0:0:
86,114,287999,6,0,P|96:100|114:88,1,35
278,75,288152,2,0,P|278:98|272:118,1,35
188,266,288306,1,0,0:0:0:0:
376,195,288460,2,0,L|410:181,4,35
151,199,288922,1,0,0:0:0:0:
301,60,289076,1,0,0:0:0:0:
391,323,289229,38,0,P|362:301|341:268,1,70
267,105,289537,1,0,0:0:0:0:
484,290,289691,2,0,P|467:255|429:228,1,70
276,120,289999,1,0,0:0:0:0:
101,187,290152,21,0,0:0:0:0:
87,207,290229,1,0,0:0:0:0:
86,237,290306,1,0,0:0:0:0:
97,262,290383,1,0,0:0:0:0:
116,279,290460,6,0,P|131:289|151:292,1,35
276,216,290614,2,0,P|278:193|272:174,1,35
126,111,290768,1,0,0:0:0:0:
295,60,290922,2,0,L|328:34,1,35
352,90,291076,2,0,L|392:84,1,35
388,141,291229,1,0,0:0:0:0:
431,329,291383,1,0,0:0:0:0:
226,245,291537,1,0,0:0:0:0:
460,73,291691,38,0,P|445:112|425:140,1,70
256,267,291999,1,0,0:0:0:0:
362,59,292152,2,0,P|335:90|323:118,1,70
247,290,292460,1,0,0:0:0:0:
245,117,292614,21,0,0:0:0:0:
249,89,292691,1,0,0:0:0:0:
262,65,292768,1,0,0:0:0:0:
284,49,292845,1,0,0:0:0:0:
309,44,292922,6,0,L|348:40,1,35
464,118,293076,2,0,L|416:123,1,35
293,193,293229,1,0,0:0:0:0:
427,321,293383,2,0,L|457:347,4,35
345,150,293845,1,0,0:0:0:0:
162,214,293999,1,0,0:0:0:0:
105,47,294152,38,0,P|143:50|175:65,1,70
326,194,294460,1,0,0:0:0:0:
43,116,294614,2,0,P|76:137|107:140,1,70
312,177,294922,1,0,0:0:0:0:
125,204,295076,21,0,0:0:0:0:
100,212,295152,1,0,0:0:0:0:
81,237,295229,1,0,0:0:0:0:
76,267,295306,1,0,0:0:0:0:
84,298,295383,6,0,L|116:322,1,35
263,306,295537,2,0,L|224:281,1,35
188,163,295691,1,0,0:0:0:0:
370,150,295845,2,0,L|409:147,1,35
395,199,295999,2,0,L|440:207,1,35
401,251,296152,1,0,0:0:0:0:
347,352,296306,1,0,0:0:0:0:
231,232,296460,1,0,0:0:0:0:
78,328,296614,38,0,P|116:315|139:294,1,70
282,102,296922,1,0,0:0:0:0:
58,233,297076,2,0,P|81:207|115:192,1,70
274,122,297383,1,0,0:0:0:0:
412,233,297537,21,0,0:0:0:0:
426,258,297614,1,0,0:0:0:0:
431,291,297691,1,0,0:0:0:0:
425,322,297768,1,0,0:0:0:0:
411,345,297845,6,0,P|390:344|368:331,1,35
270,255,297999,2,0,P|262:241|258:217,1,35
273,73,298152,1,0,0:0:0:0:
161,220,298306,2,0,L|136:253,4,35
230,125,298768,1,0,0:0:0:0:
344,112,298922,1,0,0:0:0:0:
456,62,299076,38,0,P|438:100|405:126,1,70
225,225,299383,1,0,0:0:0:0:
358,36,299537,2,0,P|327:61|312:94,1,70
207,244,299845,1,0,0:0:0:0:
398,211,299999,21,0,0:0:0:0:
421,197,300076,1,0,0:0:0:0:
432,171,300152,1,0,0:0:0:0:
432,140,300229,1,0,0:0:0:0:
427,114,300306,6,0,P|413:99|388:94,1,35
299,134,300460,2,0,P|314:148|335:152,1,35
260,50,300614,1,0,0:0:0:0:
119,131,300768,2,0,L|83:154,1,35
128,184,300922,2,0,L|102:222,1,35
157,232,301076,1,0,0:0:0:0:
347,273,301229,1,0,0:0:0:0:
239,105,301383,1,0,0:0:0:0:
121,318,301537,38,0,P|151:299|171:268,1,70
261,88,301845,1,0,0:0:0:0:
38,292,301999,2,0,P|60:258|94:239,1,70
253,108,302306,1,0,0:0:0:0:
378,191,302460,21,0,0:0:0:0:
396,217,302537,1,0,0:0:0:0:
399,249,302614,1,0,0:0:0:0:
391,278,302691,1,0,0:0:0:0:
377,306,302768,6,0,P|360:324|335:335,1,35
242,303,302922,2,0,P|264:281|286:270,1,35
420,209,303076,1,0,0:0:0:0:
288,83,303229,2,0,L|259:55,4,35
446,152,303691,1,0,0:0:0:0:
256,190,303845,1,0,0:0:0:0:
96,51,303999,38,0,P|135:50|166:64,1,70
301,186,304306,1,0,0:0:0:0:
30,113,304460,2,0,P|67:137|105:140,1,70
284,167,304768,1,0,0:0:0:0:
125,221,304922,21,0,0:0:0:0:
98,237,304999,1,0,0:0:0:0:
90,269,305076,1,0,0:0:0:0:
99,298,305152,1,0,0:0:0:0:
121,318,305229,6,0,L|144:285,1,35
260,207,305383,2,0,L|237:244,1,35
249,345,305537,1,0,0:0:0:0:
411,209,305691,2,0,L|453:198,1,35
413,153,305845,2,0,L|449:128,1,35
395,97,305999,1,0,0:0:0:0:
244,40,306152,1,0,0:0:0:0:
115,136,306306,1,0,0:0:0:0:
88,334,306460,38,0,P|124:316|146:290,1,70
273,120,306768,1,0,0:0:0:0:
64,242,306922,2,0,P|87:214|117:197,1,70
291,120,307229,1,0,0:0:0:0:
424,244,307383,21,0,0:0:0:0:
431,271,307460,1,0,0:0:0:0:
422,301,307537,1,0,0:0:0:0:
401,317,307614,1,0,0:0:0:0:
376,327,307691,6,0,P|352:333|336:331,1,35
231,292,307845,2,0,P|206:285|181:288,1,35
76,321,307999,1,0,0:0:0:0:
166,186,308152,2,0,L|187:153,4,35
141,333,308614,1,0,0:0:0:0:
301,214,308768,1,0,0:0:0:0:
384,33,308922,38,0,P|353:51|332:78,1,70
233,246,309229,1,0,0:0:0:0:
469,66,309383,2,0,P|444:102|415:116,1,70
241,223,309691,1,0,0:0:0:0:
330,83,309845,21,0,0:0:0:0:
352,67,309922,1,0,0:0:0:0:
381,65,309999,1,0,0:0:0:0:
403,75,310076,1,0,0:0:0:0:
420,95,310152,6,0,P|432:117|436:136,1,35
379,209,310306,2,0,P|364:183|362:169,1,35
460,300,310460,1,0,0:0:0:0:
278,271,310614,2,0,L|257:234,1,35
222,277,310768,2,0,L|191:246,1,35
167,295,310922,1,0,0:0:0:0:
73,340,311076,1,0,0:0:0:0:
67,234,311229,1,0,0:0:0:0:
117,144,311383,21,0,0:0:0:0:
239,194,315076,37,0,0:0:0:0:
287,110,315691,1,0,0:0:0:0:
340,187,316306,1,0,0:0:0:0:
141,269,319999,5,0,0:0:0:0:
111,176,320614,1,0,0:0:0:0:
170,103,321229,1,0,0:0:0:0:
195,141,324306,5,0,0:0:0:0:
195,140,325537,53,0,0:0:0:0:
268,86,326152,1,0,0:0:0:0:
269,85,328614,1,0,0:0:0:0:
256,192,328691,12,0,338460,0:0:0:0:
