osu file format v14

[General]
AudioFilename: audio.mp3
AudioLeadIn: 0
PreviewTime: 188450
Countdown: 0
SampleSet: Soft
StackLeniency: 0
Mode: 0
LetterboxInBreaks: 0
WidescreenStoryboard: 1

[Editor]
DistanceSpacing: 0.3
BeatDivisor: 8
GridSize: 32
TimelineZoom: 2.599998

[Metadata]
Title:The Solace of Oblivion
TitleUnicode:The Solace of Oblivion
Artist:Helblinde
ArtistUnicode:Helblinde
Creator:ProfessionalBox
Version:Aspire
Source:
Tags:
BeatmapID:1257904
BeatmapSetID:594751

[Difficulty]
HPDrainRate:4.2
CircleSize:4
OverallDifficulty:7
ApproachRate:9.3
SliderMultiplier:2.06
SliderTickRate:0.5

[Events]
//Background and Video events
0,0,"OBLIVION.jpg",0,0
//Break Periods
2,9352,10522
2,211887,220979
//Storyboard Layer 0 (Background)
//Storyboard Layer 1 (Fail)
//Storyboard Layer 2 (Pass)
//Storyboard Layer 3 (Foreground)
//Storyboard Sound Samples

[TimingPoints]
0,307.692307692308,4,2,1,40,1,0
0,-55.5555555555556,4,2,1,40,0,0
1230,-45.4545454545455,4,2,1,40,0,0
1307,-41.6666666666667,4,2,1,40,0,0
1653,-41.6666666666667,4,2,1,20,0,0
1692,-41.6666666666667,4,2,1,40,0,0
2307,-250,4,2,1,40,0,0
6153,-55.5555555555556,4,2,1,40,0,0
7076,-28.5714285714286,4,2,1,40,0,0
7691,-27.3972602739726,4,2,1,40,0,0
7768,-26.525198938992,4,2,1,40,0,0
7845,-27.4725274725275,4,2,1,40,0,0
8306,-125,4,2,1,40,0,0
8692,-43.4782608695652,4,2,1,40,0,0
9000,-31.2500000000001,4,2,1,40,0,0
9076,-29.4117647058824,4,2,1,40,0,0
9153,-100,4,2,1,40,0,0
11076,-55.5555555555556,4,2,1,40,0,0
11769,-50,4,2,1,40,0,0
12000,-55.5555555555556,4,2,1,40,0,0
12384,-31.2500000000001,4,2,1,40,0,0
12730,-31.2500000000001,4,2,1,20,0,0
12769,-31.2500000000001,4,2,1,40,0,0
13384,-166.666666666667,4,2,1,40,0,0
15000,-166.666666666667,4,2,1,20,0,0
15076,-29.4117647058824,4,2,1,40,0,0
16000,-55.5555555555559,4,2,1,40,0,0
17000,-29.4117647058824,4,2,1,40,0,0
17076,-50,4,2,1,40,0,0
17538,-62.5,4,2,1,40,0,0
18076,-62.5,4,2,1,10,0,0
18153,-50,4,2,1,40,0,0
19576,-50,4,2,1,20,0,0
19691,-500,4,2,1,45,0,0
20922,-66.6666666666667,4,2,1,45,0,0
21384,-40.650406504065,4,2,1,45,0,0
21537,-33.3333333333333,4,2,1,45,0,0
22153,-500,4,2,1,45,0,0
23383,-125,4,2,1,45,0,0
24615,-500,4,2,1,45,0,0
25846,-66.6666666666667,4,2,1,45,0,0
26461,-500,4,2,1,45,0,0
27076,-111.111111111111,4,2,1,45,0,0
28307,-166.666666666666,4,2,1,45,0,0
29538,-500,4,2,1,45,0,0
30769,-100,4,2,1,45,0,0
32000,-500,4,2,1,45,0,0
33230,-66.6666666666667,4,2,1,45,0,0
33769,-66.6666666666667,4,2,1,20,0,0
33846,-66.6666666666667,4,2,1,45,0,0
34461,-500,4,2,1,45,0,0
36923,-50,4,2,1,45,0,0
38153,-166.666666666667,4,2,1,45,0,0
39383,-100,4,2,1,60,0,0
48000,-50,4,2,1,60,0,0
48615,-50,4,2,1,60,0,0
48923,-66.6666666666667,4,2,1,60,0,0
49230,-100,4,2,1,60,0,0
49846,-83.3333333333333,4,2,1,60,0,0
50769,-100,4,2,1,60,0,0
51692,-100,4,2,1,60,0,0
54461,-50,4,2,1,60,0,0
54769,-100,4,2,1,60,0,0
55076,-50,4,2,1,60,0,0
55384,-100,4,2,1,60,0,0
55692,-50,4,2,1,60,0,0
56000,-100,4,2,1,60,0,0
56307,-50,4,2,1,60,0,0
56615,-100,4,2,1,60,0,0
57844,-100,4,2,1,60,0,0
57846,1E-298,4,2,1,60,1,0
57920,-34.4827586206894,4,2,1,60,0,0
57997,-33.3333333333331,4,2,1,60,0,0
58074,-32.2580645161288,4,2,1,60,0,0
58151,-31.2499999999998,4,2,1,60,0,0
58228,-30.3030303030301,4,2,1,60,0,0
58305,-29.4117647058822,4,2,1,60,0,0
58382,-28.5714285714284,4,2,1,60,0,0
58459,-27.7777777777776,4,2,1,60,0,0
58536,-27.0270270270269,4,2,1,60,0,0
58613,-26.3157894736841,4,2,1,60,0,0
58690,-25.6410256410256,4,2,1,60,0,0
58767,-25,4,2,1,60,0,0
59075,307.692307692308,4,2,1,75,1,0
59382,-55.5555555555556,4,2,1,75,0,0
59690,-71.4285714285714,4,2,1,75,0,0
59998,-37.037037037037,4,2,1,75,0,0
61228,-55.5555555555556,4,2,1,75,0,0
61344,-55.5555555555556,4,2,1,55,0,0
61382,-55.5555555555556,4,2,1,75,0,0
61498,-55.5555555555556,4,2,1,55,0,0
61536,-55.5555555555556,4,2,1,75,0,0
61844,-37.037037037037,4,2,1,75,0,0
62151,-66.6666666666667,4,2,1,75,0,0
62459,-33.3333333333333,4,2,1,75,0,0
62728,-33.3333333333333,4,2,1,55,0,0
62767,-33.3333333333333,4,2,1,75,0,0
63228,-40,4,2,1,75,0,0
63382,-37.037037037037,4,2,1,75,0,0
63844,-41.6666666666667,4,2,1,75,0,0
64305,-45.4545454545455,4,2,1,75,0,0
64613,-41.6666666666667,4,2,1,75,0,0
65690,153.846153846154,4,2,1,75,1,0
65690,-37.4531835205993,4,2,1,75,0,0
65997,307.692307692308,4,2,1,75,1,0
65997,-41.6666666666667,4,2,1,75,0,0
66458,307.692307692308,4,2,1,75,1,0
66458,-45.4545454545455,4,2,1,75,0,0
66766,-41.6666666666667,4,2,1,75,0,0
67073,-45.4545454545455,4,2,1,75,0,0
68612,-41.6666666666667,4,2,1,75,0,0
68920,-45.4545454545455,4,2,1,75,0,0
69227,-41.6666666666667,4,2,1,75,0,0
69766,-37.4531835205993,4,2,1,75,0,0
69997,-41.6666666666667,4,2,1,75,0,0
70612,-41.6666666666667,4,2,1,75,0,0
71381,-37.4531835205993,4,2,1,75,0,0
71689,-41.6666666666667,4,2,1,75,0,0
71997,-41.6666666666667,4,2,1,75,0,0
72611,-45.4545454545455,4,2,1,75,0,0
73227,-37.4531835205993,4,2,1,75,0,0
73842,-55.5555555555556,4,1,1,75,0,0
73919,-55.5555555555556,4,1,1,35,0,0
73996,-55.5555555555556,4,1,1,75,0,0
75458,-55.5555555555556,4,1,1,35,0,0
75534,-55.5555555555556,4,1,1,75,0,0
76419,-55.5555555555556,4,1,1,35,0,0
76458,-55.5555555555556,4,1,1,75,0,0
76688,-55.5555555555556,4,1,1,35,0,0
76765,-55.5555555555556,4,1,1,75,0,0
77304,-55.5555555555556,4,1,1,35,0,0
77381,-55.5555555555556,4,1,1,75,0,0
77534,-37.4531835205993,4,1,1,75,0,0
77727,-33.3333333333331,4,1,1,45,0,0
77765,-33.3333333333331,4,1,1,75,0,0
78342,-30.3030303030301,4,1,1,45,0,0
78381,-30.3030303030301,4,1,1,75,0,0
78765,-55.5555555555549,4,1,1,75,0,0
79150,-55.5555555555549,4,1,1,35,0,0
79227,-55.5555555555549,4,1,1,75,0,0
80073,-55.5555555555549,4,1,1,35,0,0
80150,-55.5555555555549,4,1,1,75,0,0
83688,-33.3333333333333,4,2,1,60,0,0
85534,-41.6666666666667,4,2,1,60,0,0
86150,-27.7777777777776,4,2,1,60,0,0
87996,-41.6666666666667,4,2,1,60,0,0
88611,-33.3333333333333,4,2,1,60,0,0
90458,-35.7142857142857,4,2,1,60,0,0
93496,-55.5555555555556,4,2,1,35,0,0
93534,-55.5555555555556,4,1,1,75,0,0
95996,-50,4,1,1,75,0,0
96304,-55.5555555555556,4,1,1,75,0,0
96611,-55.5555555555556,4,1,1,75,0,0
96688,-55.5555555555556,4,1,1,35,0,0
96765,-55.5555555555556,4,1,1,75,0,0
96842,-55.5555555555556,4,1,1,35,0,0
96919,-55.5555555555556,4,1,1,75,0,0
97227,-41.6666666666667,4,1,1,75,0,0
98458,-55.5555555555556,4,1,1,75,0,0
99073,-50,4,1,1,75,0,0
99688,-71.4285714285714,4,1,1,75,0,0
99996,-50,4,1,1,75,0,0
100304,-55.5555555555556,4,1,1,75,0,0
101534,-66.6666666666667,4,1,1,75,0,0
102150,-41.6666666666667,4,1,1,75,0,0
103381,-55.5555555555556,4,1,1,75,0,0
103688,-33.3333333333333,4,1,1,75,0,0
104304,-55.5555555555556,4,1,1,75,0,0
104765,-55.5555555555556,4,1,1,75,0,0
105073,-55.5555555555556,4,1,1,75,0,0
107073,-41.6666666666667,4,1,1,75,0,0
109227,-76.9230769230769,4,1,1,75,0,0
109534,-50,4,1,1,75,0,0
110765,-66.6666666666667,4,1,1,75,0,0
110919,-55.5555555555556,4,1,1,75,0,0
111996,-55.5555555555556,4,1,1,75,0,0
112611,-50,4,1,1,75,0,0
113227,1E-298,4,1,1,75,1,0
113227,-100,4,1,1,75,0,1
116958,307.692307692308,4,1,1,75,1,0
118148,1E-298,4,1,1,75,1,0
118148,-100,4,1,1,75,0,1
121842,307.692307692308,4,1,1,75,1,0
123071,-43.4782608695652,4,1,1,75,0,0
123075,307.692307692308,4,1,1,75,1,0
123075,-25,4,1,1,75,0,0
132921,-100,4,1,1,75,0,0
132998,-100,4,1,1,35,0,0
133075,-100,4,1,1,75,0,0
133151,-100,4,1,1,35,0,0
133228,-100,4,1,1,75,0,0
133305,-100,4,1,1,35,0,0
133382,-100,4,1,1,75,0,0
133459,-100,4,1,1,35,0,0
133536,-100,4,1,1,75,0,0
133613,-100,4,1,1,35,0,0
133690,-100,4,1,1,75,0,0
133767,-100,4,1,1,35,0,0
133844,-100,4,1,1,75,0,0
133921,-100,4,1,1,35,0,0
133998,-100,4,1,1,75,0,0
134075,-100,4,1,1,35,0,0
134151,-100,4,1,1,75,0,0
134228,-100,4,1,1,35,0,0
134305,-100,4,1,1,75,0,0
134382,-100,4,1,1,35,0,0
134459,-100,4,1,1,75,0,0
134536,-100,4,1,1,35,0,0
134613,-100,4,1,1,75,0,0
134690,-100,4,1,1,35,0,0
134767,-100,4,1,1,75,0,0
134844,-100,4,1,1,35,0,0
134921,-100,4,1,1,75,0,0
134998,-100,4,1,1,35,0,0
135075,-100,4,1,1,75,0,0
135151,-100,4,1,1,35,0,0
135228,-100,4,1,1,75,0,0
135305,-100,4,1,1,35,0,0
135382,-100,4,1,1,75,0,0
135459,-100,4,1,1,35,0,0
135536,-100,4,1,1,75,0,0
135613,-100,4,1,1,35,0,0
135690,-100,4,1,1,75,0,0
135767,-100,4,1,1,35,0,0
135844,-100,4,1,1,75,0,0
135921,-100,4,1,1,35,0,0
135998,-100,4,1,1,75,0,0
136075,-100,4,1,1,35,0,0
136151,-100,4,1,1,75,0,0
136228,-100,4,1,1,35,0,0
136305,-100,4,1,1,75,0,0
136382,-100,4,1,1,35,0,0
136459,-100,4,1,1,75,0,0
136536,-100,4,1,1,35,0,0
136613,-100,4,1,1,75,0,0
137844,-100,4,1,1,75,0,0
137921,-100,4,1,1,35,0,0
137998,-100,4,1,1,75,0,0
138075,-100,4,1,1,35,0,0
138151,-100,4,1,1,75,0,0
138228,-100,4,1,1,35,0,0
138305,-100,4,1,1,75,0,0
138382,-100,4,1,1,35,0,0
138459,-100,4,1,1,75,0,0
138536,-100,4,1,1,35,0,0
138613,-100,4,1,1,75,0,0
138690,-100,4,1,1,35,0,0
138767,-100,4,1,1,75,0,0
138844,-100,4,1,1,35,0,0
138921,-100,4,1,1,75,0,0
138998,-100,4,1,1,35,0,0
139075,-100,4,1,1,75,0,0
139151,-100,4,1,1,35,0,0
139228,-100,4,1,1,75,0,0
139305,-100,4,1,1,35,0,0
139382,-100,4,1,1,75,0,0
139459,-100,4,1,1,35,0,0
139536,-100,4,1,1,75,0,0
139613,-100,4,1,1,35,0,0
139690,-100,4,1,1,75,0,0
139767,-100,4,1,1,35,0,0
139844,-100,4,1,1,75,0,0
139921,-100,4,1,1,35,0,0
139998,-100,4,1,1,75,0,0
140075,-100,4,1,1,35,0,0
140151,-100,4,1,1,75,0,0
140228,-100,4,1,1,35,0,0
140305,-100,4,1,1,75,0,0
140382,-100,4,1,1,35,0,0
140459,-100,4,1,1,75,0,0
140536,-100,4,1,1,35,0,0
140613,-100,4,1,1,75,0,0
140690,-100,4,1,1,35,0,0
140767,-100,4,1,1,75,0,0
140844,-100,4,1,1,35,0,0
140921,-100,4,1,1,75,0,0
140998,-100,4,1,1,35,0,0
141075,-100,4,1,1,75,0,0
141151,-100,4,1,1,35,0,0
141228,-100,4,1,1,75,0,0
141305,-100,4,1,1,35,0,0
141382,-100,4,1,1,75,0,0
141459,-100,4,1,1,35,0,0
141536,-100,4,1,1,75,0,0
142690,-100,4,1,1,30,0,0
142765,307.692307692308,4,2,1,50,1,0
142765,-55.5555555555556,4,2,1,50,0,0
144072,-62.5,4,2,1,50,0,0
144765,-125,4,2,1,50,0,0
146380,-125,4,2,1,20,0,0
146457,-500,4,2,1,50,0,0
147688,-55.5555555555556,4,2,1,50,0,0
148995,-62.5,4,2,1,50,0,0
149380,-76.9230769230769,4,2,1,50,0,0
149688,-50,4,2,1,50,0,0
151226,-50,4,2,1,20,0,0
151380,-50,4,2,1,50,0,0
152611,-55.5555555555556,4,2,1,50,0,0
153303,-33.3333333333333,4,2,1,50,0,0
153611,-50,4,2,1,50,0,0
153918,-133.333333333333,4,2,1,50,0,0
155611,-133.333333333333,4,2,1,20,0,0
155688,-133.333333333333,4,2,1,50,0,0
157534,-55.5555555555556,4,2,1,50,0,0
158457,-125,4,2,1,50,0,0
159918,-125,4,2,1,20,0,0
159995,-125,4,2,1,50,0,0
162380,-125,4,2,1,40,0,0
162458,307.692307692308,4,2,1,75,1,0
162458,-66.6666666666667,4,2,1,75,0,0
171996,-50,4,2,1,75,0,0
183534,-50,4,2,1,50,0,0
184765,-50,4,2,1,60,0,0
185996,-50,4,2,1,70,0,0
188226,-1000,4,2,1,60,0,0
188303,130000.538461538,4,2,1,60,1,0
188303,-400,4,2,1,60,0,0
191688,307.692307692308,4,2,1,60,1,0
191688,-50,4,2,1,60,0,0
191995,307.692307692308,4,2,1,60,1,0
191996,-100,4,2,1,75,0,0
192765,-76.9230769230769,4,2,1,75,0,0
193225,-55.5555555555556,4,2,1,75,0,0
196302,-41.6666666666667,4,2,1,75,0,0
196418,-41.6666666666667,4,2,1,30,0,0
196456,-41.6666666666667,4,2,1,75,0,0
196571,-41.6666666666667,4,2,1,30,0,0
196610,-41.6666666666667,4,2,1,75,0,0
196725,-41.6666666666667,4,2,1,30,0,0
196764,-41.6666666666667,4,2,1,75,0,0
196879,-41.6666666666667,4,2,1,30,0,0
196918,-41.6666666666667,4,2,1,75,0,0
198918,-55.5555555555556,4,2,1,75,0,0
209995,-55.5555555555556,4,2,1,60,0,0
210610,-55.5555555555556,4,2,1,50,0,0
211071,-200,4,2,1,60,0,0
211225,-125,4,2,1,60,0,0
211379,-76.9230769230769,4,2,1,60,0,0
211533,-62.5,4,2,1,60,0,0
211687,-55.5555555555556,4,2,1,60,0,0
221533,-100,4,2,1,60,0,0
222148,-71.4285714285714,4,2,1,60,0,0
222764,-100,4,2,1,60,0,0
223379,-71.4285714285714,4,2,1,60,0,0
223995,-100,4,2,1,60,0,0
224610,-71.4285714285714,4,2,1,60,0,0
225225,-100,4,2,1,60,0,0
225841,-71.4285714285714,4,2,1,60,0,0
226456,-25,4,2,1,75,0,0
228918,-25,4,2,1,80,0,0
230148,-117.647058823529,4,2,1,75,0,0
232610,-90.9090909090909,4,1,1,75,0,1
232764,-71.4285714285714,4,1,1,75,0,1
234148,-50,4,1,1,75,0,1
235071,-83.3333333333333,4,1,1,75,0,1
235687,-100,4,1,1,75,0,1
235841,-76.9230769230769,4,1,1,75,0,1
237533,-100,4,1,1,75,0,1
237687,-76.9230769230769,4,1,1,75,0,1
238148,-90.9090909090909,4,1,1,75,0,1
238302,-66.6666666666667,4,1,1,75,0,1
239533,-76.9230769230769,4,1,1,75,0,1
240302,-71.4285714285714,4,1,1,75,0,1
241225,-33.3333333333333,4,1,1,75,0,1
242148,-50,4,1,1,75,0,1
242764,-76.9230769230769,4,1,1,75,0,1
243071,-71.4285714285714,4,1,1,75,0,1
243687,-83.3333333333333,4,1,1,75,0,1
244610,-66.6666666666667,4,1,1,75,0,1
245071,-83.3333333333333,4,1,1,75,0,1
245533,-76.9230769230769,4,1,1,75,0,1
245687,-66.6666666666667,4,1,1,75,0,1
246148,-62.5,4,1,1,75,0,1
246610,-76.9230769230769,4,1,1,75,0,1
247070,-76.9230769230769,4,1,1,75,0,1
247379,-76.9230769230769,4,1,1,70,0,0
247530,-76.9230769230769,4,1,1,70,0,0
247687,-50,4,1,1,70,0,0
248764,-76.9230769230769,4,1,1,70,0,0
248918,-50,4,1,1,70,0,0
249841,-125,4,1,1,75,0,1
249995,-83.3333333333333,4,1,1,75,0,1
251071,-83.3333333333333,4,1,1,70,0,0
252302,-71.4285714285714,4,1,1,75,0,1
252918,-83.3333333333333,4,1,1,75,0,1
254148,-90.9090909090909,4,1,1,75,0,1
254764,-83.3333333333333,4,1,1,75,0,1
255995,-50,4,1,1,75,0,1
257225,-83.3333333333333,4,1,1,75,0,1
257841,-90.9090909090909,4,1,1,75,0,1
257995,-76.9230769230769,4,1,1,75,0,1
258456,-90.9090909090909,4,1,1,75,0,1
259225,-100,4,1,1,75,0,1
259379,-71.4285714285714,4,1,1,75,0,1
259687,-83.3333333333333,4,1,1,75,0,1
261225,-76.9230769230769,4,1,1,75,0,1
261533,-71.4285714285714,4,1,1,75,0,1
261841,-76.9230769230769,4,1,1,75,0,1
262148,-100,4,1,1,75,0,1
262302,-83.3333333333333,4,1,1,75,0,1
262764,-100,4,1,1,75,0,1
264302,-50,4,1,1,75,0,1
264610,-100,4,1,1,75,0,1
264764,-100,4,1,1,75,0,1
265225,-111.111111111111,4,1,1,75,0,1
265841,-100,4,1,1,75,0,1
265995,-76.9230769230769,4,1,1,75,0,1
266764,-50,4,1,1,75,0,1
267071,-83.3333333333333,4,1,1,75,0,1
270302,-83.3333333333333,4,1,1,75,0,1
270764,-83.3333333333333,4,1,1,75,0,0
271918,-83.3333333333333,4,1,1,35,0,0
271995,-90.9090909090909,4,2,2,70,0,0
273533,-76.9230769230769,4,2,2,70,0,0
274456,-90.9090909090909,4,2,2,70,0,0
278456,-50,4,2,2,70,0,0
278764,-76.9230769230769,4,2,2,70,0,0
279379,-90.9090909090909,4,2,2,70,0,0
281841,-76.9230769230769,4,2,2,70,0,0
283379,-50,4,2,2,70,0,0
283687,-76.9230769230769,4,2,2,70,0,0
284302,-90.9090909090909,4,2,2,70,0,0
286456,-76.9230769230769,4,2,2,70,0,0
286764,-90.9090909090909,4,2,2,70,0,0
288302,-50,4,2,2,70,0,0
288610,-90.9090909090909,4,2,2,70,0,0
291687,1E-298,4,2,1,70,1,0
291994,307.692307692308,4,2,2,70,1,0
292147,-90.9090909090909,4,2,2,70,0,0
293532,-100,4,2,2,70,0,0
296609,1E-298,4,2,1,70,1,0
296610,-90.9090909090909,4,2,2,70,0,0
296763,307.692307692308,4,2,2,70,1,0
298147,-90.9090909090909,4,2,2,70,0,0
299070,-100,4,2,2,70,0,0
301532,1E-298,4,2,1,70,1,0
301687,307.692307692308,4,2,2,70,1,0
301687,-90.9090909090909,4,2,2,70,0,0
303994,-100,4,2,2,70,0,0
306455,1E-298,4,2,1,70,1,0
306610,307.692307692308,4,2,2,70,1,0
306610,-90.9090909090909,4,2,2,70,0,0
308918,-100,4,2,2,70,0,0
311379,307.692307692308,4,2,2,60,1,0
311379,-200,4,2,2,60,0,0
314917,-200,4,2,2,5,0,0
315071,-200,4,2,2,50,0,0
316302,-200,4,2,2,50,0,0
318455,-166.666666666667,4,2,2,50,0,0
319071,-200,4,2,2,50,0,0
319840,-200,4,2,2,5,0,0
319994,-200,4,2,2,40,0,0
321225,-200,4,2,2,40,0,0
324148,-200,4,2,2,5,0,0
324302,-200,4,2,2,40,0,0
326148,-285.714285714286,4,2,2,40,0,0
328609,-333.333333333333,4,2,2,40,0,0
331071,-333.333333333333,4,2,2,35,0,0
333532,-333.333333333333,4,2,2,30,0,0
335994,-333.333333333333,4,2,2,25,0,0
338455,-333.333333333333,4,2,2,20,0,0
339071,-333.333333333333,4,2,2,15,0,0
339686,-333.333333333333,4,2,2,10,0,0
343381,-333.333333333333,4,2,2,5,0,0

[Colours]
Combo1 : 255,0,0
Combo2 : 20,226,185
Combo3 : 255,255,255
Combo4 : 16,171,254
Combo5 : 186,194,199
Combo6 : 158,139,71
Combo7 : 120,135,135
Combo8 : 249,124,0

[HitObjects]
318,197,0,22,0,B|365:176|407:199|407:199|364:225|310:193,1,185.399994342041,2|0,0:0|0:0,0:0:0:0:
228,142,230,2,0,B|186:111|187:64|187:64|231:89|228:150,1,185.399994342041
224,242,461,2,0,B|218:293|176:316|176:316|176:267|231:237,1,185.399994342041,2|0,0:0|0:0,0:0:0:0:
333,98,692,22,0,B|381:81|414:59|414:59|428:88|451:116|451:116|399:92|333:97,1,278.099991513062
87,84,1000,22,0,P|97:125|104:190,1,92.6999971710206,2|0,0:0|0:0,0:0:0:0:
188,372,1153,2,0,P|189:326|196:279,1,92.6999971710206
238,182,1307,22,0,B|243:178|243:178|242:186|242:186|249:178|249:178|248:186|248:186|255:178|255:178|254:186|254:186|261:178|261:178|260:186|260:186|267:178|267:178|266:187|266:187|273:179|273:179|272:187|272:187|279:179|279:179|278:187|278:187|285:179|285:179|284:187|284:187|291:179|291:179|290:187|290:187|297:180|297:180|296:188|296:188|302:180|302:180|302:188|302:188|308:180|308:180|308:188|308:188|195:280|195:280|103:175|103:175|189:178,1,556.199983026124
238,182,1692,54,0,L|388:186,1,123.599996228027
361,185,2307,22,0,B|365:177|365:177|368:188|368:188|372:176|372:176|377:186|377:186|381:175|381:175|386:184|386:184|394:172|394:172|403:174|403:174|432:180|465:154|465:154|532:64|424:-47|284:28|318:156|397:181|397:181|457:161|529:214|529:214|454:276|452:359|452:359|429:284|352:266,1,988.8,2|0,0:0|0:0,0:0:0:0:
193,187,6153,54,0,B|145:203|145:203|108:179|108:179|149:168|149:168|193:186,1,185.399994342041,2|0,0:0|0:0,0:0:0:0:
322,196,6384,2,0,B|366:214|366:214|407:203|407:203|370:179|370:179|322:195,1,185.399994342041,0|0,0:0|0:0,0:0:0:0:
259,269,6615,22,0,B|241:314|241:314|254:354|254:354|276:316|276:316|259:269,1,185.399994342041,2|0,0:0|0:0,0:0:0:0:
265,110,6846,2,0,B|282:64|282:64|269:24|269:24|247:62|247:62|264:109,1,185.399994342041,0|0,0:0|0:0,0:0:0:0:
173,335,7076,38,0,B|114:388|31:364|31:364|14:248|14:248|78:271|105:244|105:244|74:229|17:265|17:265|-1:156|-1:156|76:107|165:146,1,721.000006875992,2|0,0:0|0:0,0:0:0:0:
104,244,7692,6,0,B|235:223|235:223|228:224|228:224|231:223|231:223|223:225|223:225|228:224|228:224|219:225|219:225|226:224|226:224|215:226|215:226|223:225|223:225|211:226|211:226|222:225|222:225|207:227|207:227|213:226|213:226|203:228|203:228|210:227|210:227|199:228|199:228|205:227|205:227|195:229|195:229|208:227|208:227|191:230|191:230|197:229|197:229|187:230|187:230|193:229|193:229|184:231|184:231|190:230|190:230|180:231|180:231|184:231|184:231|176:232|176:232|182:231|182:231|172:233|172:233|179:232|179:232|168:233|168:233|177:232|177:232|165:234|165:234|171:233|171:233|161:234|161:234|167:233|167:233|172:233|172:233|157:235|157:235|168:233|168:233|152:236|152:236|161:234|161:234|147:237|147:237|155:235|155:235|148:236|148:236|158:235|158:235|141:238|141:238|143:237|143:237|137:238|137:238|145:237|145:237|134:239|134:239|142:237|142:237|131:239|131:239|140:238|140:238|127:240|127:240|132:239|132:239|123:240|123:240|129:239|129:239|119:241|119:241|126:240|126:240|115:242|115:242|123:240|123:240|111:242|111:242|118:241|118:241|107:243|107:243|115:242|115:242|104:244|104:244|111:242|111:242|100:244|100:244|105:243|105:243|96:245|96:245|104:244|104:244|92:245|92:245|99:244|99:244|88:246|88:246|77:248,1,751.899989243984,2|0,0:1|0:0,0:0:0:0:
422,65,8307,86,0,B|364:62|364:62|380:63|380:63|364:62|364:62|380:63|380:63|319:60,1,164.8
120,170,8692,86,0,P|216:116|185:211,1,236.900004518509
215,195,8846,2,0,P|189:100|119:169,1,236.900004518509
144,308,9076,86,0,B|144:310|144:310|145:305|145:305|143:314|143:314|144:310|144:310|141:327|141:327|142:321|142:321|141:328|141:328|142:319|142:319|142:322|142:322|139:346|139:346|142:325|142:325|142:322|142:322|143:315|143:315|142:318|142:318|142:317|142:317|160:186,1,175.100003339768
256,131,11076,118,0,B|252:101|264:77|264:77|287:66|310:70|310:70|274:92|256:131,1,185.399994342041,2|0,0:0|0:0,0:0:0:0:
187,236,11307,2,0,B|163:255|136:256|136:256|115:243|107:220|107:220|144:241|187:236,1,185.399994342041,0|0,0:0|0:0,0:0:0:0:
306,250,11538,2,0,B|334:261|349:283|349:283|348:308|332:327|332:327|331:284|306:249,1,185.399994342041,2|0,0:0|0:0,0:0:0:0:
165,145,11769,22,0,B|146:97|140:61|140:61|163:34|198:9|198:9|156:67|166:148,1,309
177,335,12076,22,0,P|148:344|78:319,1,92.6999971710206,2|0,0:0|0:0,0:0:0:0:
165,145,12230,2,0,P|209:135|251:153,1,92.6999971710206
398,250,12384,22,0,B|391:254|391:254|400:255|400:255|391:260|391:260|400:261|400:261|391:266|391:266|400:267|400:267|391:272|391:272|400:273|400:273|390:278|390:278|399:279|399:279|390:284|390:284|399:285|399:285|390:289|390:289|399:291|399:291|390:295|390:295|399:297|399:297|390:302|390:302|399:303|399:303|389:308|389:308|398:309|398:309|389:314|389:314|398:316|398:316|389:320|389:320|398:322|398:322|389:326|389:326|398:328|398:328|389:332|389:332|398:334|398:334|388:338|388:338|397:340|397:340|388:344|388:344|397:346|397:346|388:350|388:350|397:352|397:352|388:356|388:356|397:358|397:358|388:362|388:362|397:364|397:364|387:368|387:368|396:369|396:369|361:365|279:314|270:207|345:132|437:145|474:218,1,741.6
477,271,12769,54,0,L|473:390,1,82.4,2|0,0:0|0:0,0:0:0:0:
140,120,13384,22,0,B|132:111|132:111|127:122|127:122|117:108|117:108|106:127|106:127|93:104|93:104|72:131|72:131|50:89|56:29|107:-16|213:-6|292:70|243:194|167:215|167:215|108:189|54:232,1,648.899980197144,2|0,0:0|0:0,0:0:0:0:
236,336,15076,6,0,B|305:331|338:262|338:262|368:226|365:174|320:158|277:186|299:241|338:262|338:262|368:265|396:282|396:282|434:324|409:372|369:378|347:348|355:302|393:278|393:278|461:242|538:303,1,700.40001335907,2|0,0:1|0:0,0:0:0:0:
58,76,15692,6,0,B|37:75|37:75|48:75|48:75|24:74|24:74|37:75|37:75|12:73|12:73|24:74|24:74|0:73|0:73|12:73|12:73|-11:72|-11:72|-26:71|-26:71|99:80|99:80|133:50|133:50|165:85|165:85|210:89|210:89|241:118|241:118|280:96|280:96|370:102,1,612.850011689186
361,101,16000,22,0,B|412:51|412:51|376:30|376:30|358:114,1,185.399994342041,2|0,0:0|0:0,0:0:0:0:
153,290,16230,2,0,B|139:361|139:361|103:340|103:340|153:290,1,185.399994342041,0|0,0:0|0:0,0:0:0:0:
159,97,16461,2,0,B|108:46|108:46|148:28|148:28|159:101,1,185.399994342041,2|0,0:0|0:0,0:0:0:0:
312,342,16692,22,0,L|298:237,1,92.6999971710206
288,159,16846,2,0,L|300:250,1,92.6999971710206,2|0,0:0|0:0,0:0:0:0:
154,291,17000,22,0,B|143:273|143:273|147:280|147:280|139:264|139:264|143:273|143:273|134:256|134:256|139:264|139:264|129:248|129:248|134:256|134:256|125:239|125:239|129:248|129:248|118:227|118:227|361:259,1,350.200006679535
299,250,17153,1,0,0:0:0:0:
63,128,17538,86,0,B|16:106|16:106|40:117|40:117|-2:97|-2:97|0:52|0:52|-1:72|-1:72|0:28|0:28|47:19|47:19|30:22|30:22|72:15|72:15|94:51|94:51|83:33|83:33|107:71|107:71|75:112|75:112|91:90|91:90|42:159,1,576.8
18,226,18153,54,0,B|28:226|28:226|23:226|23:226|33:226|33:226|28:226|28:226|38:226|38:226|33:226|33:226|43:226|43:226|38:226|38:226|48:226|48:226|43:226|43:226|53:226|53:226|48:226|48:226|58:226|58:226|53:226|53:226|63:226|63:226|58:226|58:226|68:226|68:226|63:226|63:226|73:226|73:226|69:226|69:226|78:226|78:226|73:226|73:226|83:226|83:226|78:226|78:226|88:226|88:226|93:226|93:226|88:226|88:226|97:226|97:226|93:226|93:226|102:226|102:226|97:226|97:226|107:226|107:226|102:226|102:226|112:226|112:226|107:226|107:226|118:226|118:226|113:226|113:226|118:226|118:226|123:226|123:226|118:226|118:226|128:226|128:226|147:253|147:253|192:177|192:177|235:229|235:229|240:229|240:229|235:229|235:229|246:229|246:229|240:229|240:229|251:229|251:229|246:229|246:229|256:229|256:229|251:229|251:229|261:229|261:229|256:229|256:229|266:229|266:229|261:229|261:229|271:229|271:229|266:229|266:229|276:229|276:229|271:229|271:229|281:229|281:229|276:229|276:229|286:229|286:229|281:229|281:229|291:229|291:229|286:229|286:229|296:229|296:229|292:229|292:229|301:229|301:229|296:229|296:229|306:229|306:229|301:229|301:229|311:229|311:229|267:303|333:376|333:376|426:393|481:285|481:285|470:285|470:285|475:285|475:285|465:285|465:285|470:285|470:285|460:285|460:285|465:285|465:285|455:285|455:285|460:285|460:285|450:285|450:285|455:285|455:285|445:285|445:285|450:285|450:285|398:285|398:285|437:231|395:176|395:176|388:134|401:101|448:83|487:115|482:152|475:184|418:195|418:195|372:198|328:142|328:142|322:113|334:55|401:15|471:24|518:72,1,1905.5,2|0,0:0|0:0,0:0:0:0:
217,364,19692,22,0,P|214:335|210:300,1,61.8,2|0,0:0|0:0,0:0:0:0:
228,20,20307,2,0,P|225:52|223:89,1,61.8
128,240,20922,22,0,B|121:232|121:232|124:236|124:236|118:228|118:228|121:232|121:232|115:224|115:224|118:228|118:228|111:220|111:220|115:224|115:224|108:217|108:217|111:220|111:220|105:213|105:213|108:217|108:217|102:209|102:209|105:213|105:213|99:205|99:205|102:209|102:209|95:201|95:201|99:205|99:205|92:197|92:197|89:194|89:194|92:197|92:197|86:190|86:190|89:194|89:194|83:186|83:186|86:190|86:190|79:182|79:182|83:186|83:186|76:178|76:178|79:182|79:182|73:174|73:174|76:178|76:178|70:171|70:171|73:174|73:174|66:167|66:167|70:171|70:171|62:162|62:162|89:361,1,463.500017681123,2|0,0:0|0:0,0:0:0:0:
87,350,21384,22,0,B|61:156,1,190.035002899704
61,161,22153,54,0,P|83:166|121:153,1,61.8,2|0,0:0|0:0,0:0:0:0:
270,22,22769,2,0,P|292:17|330:30,1,61.8,0|0,0:0|0:0,0:0:0:0:
426,142,23384,21,2,0:0:0:0:
383,302,23691,1,0,0:0:0:0:
269,158,23999,21,2,0:0:0:0:
226,269,24306,1,0,0:0:0:0:
100,185,24615,54,0,L|165:190,1,61.8,2|0,0:0|0:0,0:0:0:0:
293,358,25230,2,0,L|228:363,1,61.8,0|0,0:0|0:0,0:0:0:0:
21,176,25846,22,0,B|128:189|190:62|136:-28|2:34|35:250|100:341,1,463.500017681123,2|0,0:0|0:0,0:0:0:0:
81,308,26461,22,0,L|145:304,1,61.8
315,279,27076,53,2,0:0:0:0:
315,279,27384,1,0,0:0:0:0:
222,217,27692,21,2,0:0:0:0:
306,384,28000,1,0,0:0:0:0:
414,232,28307,22,0,B|481:202|481:202|447:368|447:368|410:307,1,308.999990570069,2|0,0:0|0:0,0:0:0:0:
336,175,29230,1,0,0:0:0:0:
336,175,29538,54,0,L|270:181,1,61.8,2|0,0:0|0:0,0:0:0:0:
266,374,30153,2,0,L|200:368,1,61.8,0|0,0:0|0:0,0:0:0:0:
20,224,30769,22,0,B|28:222|28:222|20:224|20:224|28:222|28:222|20:224|20:224|28:222|28:222|20:224|20:224|28:222|28:222|20:224|20:224|29:222|29:222|21:224|21:224|29:222|29:222|20:224|20:224|29:222|29:222|20:224|20:224|29:223|29:223|20:223|20:223|31:222|31:222|21:224|21:224|148:195|113:333|270:268,1,412,2|0,0:0|0:0,0:0:0:0:
284,146,31692,1,0,0:0:0:0:
202,188,32000,86,0,P|193:158|193:126,1,61.8,2|0,0:0|0:0,0:0:0:0:
25,10,32615,2,0,P|34:40|34:72,1,61.8,0|0,0:0|0:0,0:0:0:0:
218,263,33230,22,0,B|227:263|227:263|222:263|222:263|232:264|232:264|227:263|227:263|237:264|237:264|232:264|232:264|241:264|241:264|237:264|237:264|245:264|245:264|241:264|241:264|249:265|249:265|245:264|245:264|253:265|253:265|249:265|249:265|257:265|257:265|253:265|253:265|261:266|261:266|257:265|257:265|265:266|265:266|261:266|261:266|269:266|269:266|265:266|265:266|273:266|273:266|269:266|269:266|277:267|277:267|273:266|273:266|281:267|281:267|277:267|277:267|285:267|285:267|281:267|281:267|289:268|289:268|285:267|285:267|293:268|293:268|289:268|289:268|151:257|151:257|105:364|105:364|208:326,1,540.750020627976,2|0,0:0|0:0,0:0:0:0:
293,268,33846,85,0,0:0:0:0:
214,43,34153,1,0,0:0:0:0:
214,43,34461,22,0,L|146:51,1,61.8,2|0,0:0|0:0,0:0:0:0:
303,145,35076,2,0,L|371:153,1,61.8,0|0,0:0|0:0,0:0:0:0:
99,225,35692,22,0,L|109:291,1,61.8,2|0,0:0|0:0,0:0:0:0:
404,287,36307,2,0,L|394:353,1,61.8,0|0,0:0|0:0,0:0:0:0:
206,162,36923,86,0,B|211:158|211:158|207:162|207:162|211:158|211:158|207:162|207:162|207:162|207:162|211:158|211:158|207:162|207:162|211:158|211:158|207:162|207:162|207:162|207:162|211:158|211:158|207:162|207:162|211:158|211:158|207:162|207:162|211:158|211:158|207:162|207:162|211:158|211:158|207:162|207:162|211:158|211:158|207:162|207:162|211:158|211:158|207:162|207:162|211:158|211:158|207:162|207:162|211:158|211:158|207:162|207:162|211:158|211:158|207:162|207:162|211:158|211:158|207:162|207:162|211:158|211:158|207:162|207:162|211:158|211:158|207:162|207:162|211:158|211:158|207:162|207:162|211:158|211:158|207:162|207:162|211:158|211:158|207:162|207:162|211:158|211:158|207:162|207:162|211:158|211:158|207:162|207:162|211:158|211:158|207:162|207:162|207:162|207:162|207:162|207:162|211:158|211:158|207:162|207:162|211:158|211:158|207:162|207:162|207:162|207:162|211:158|211:158|207:162|207:162|211:158|211:158|207:162|207:162|211:158|211:158|207:162|207:162|211:158|211:158|207:162|207:162|274:93|274:93|275:101|275:101|274:93|274:93|274:93|274:93|276:101|276:101|274:93|274:93|275:102|275:102|274:93|274:93|275:101|275:101|274:93|274:93|275:101|275:101|274:93|274:93|275:101|275:101|274:93|274:93|275:101|275:101|274:93|274:93|275:101|275:101|274:93|274:93|274:93|274:93|275:101|275:101|274:93|274:93|275:102|275:102|274:93|274:93|275:101|275:101|274:93|274:93|275:101|275:101|274:93|274:93|275:101|275:101|274:93|274:93|275:101|275:101|274:93|274:93|296:269|296:269|301:263|301:263|296:268|296:268|301:264|301:264|296:268|296:268|301:264|301:264|296:268|296:268|301:264|301:264|296:268|296:268|301:264|301:264|296:268|296:268|301:264|301:264|296:268|296:268|301:263|301:263|296:268|296:268|301:263|301:263|296:269|296:269|301:263|301:263|296:268|296:268|301:263|301:263|296:268|296:268|301:263|301:263|296:268|296:268|301:263|301:263|296:268|296:268|301:263|301:263|296:268|296:268|301:263|301:263|296:268|296:268|301:263|301:263|296:269|296:269|301:263|301:263|296:269|296:269|301:263|301:263|296:269|296:269|301:263|301:263|296:269|296:269|301:263|301:263|296:268|296:268|301:264|301:264|296:268|296:268|301:263|301:263|296:268|296:268|296:268|296:268|301:263|301:263|296:268|296:268|353:187|353:187|361:187|361:187|353:187|353:187|360:188|360:188|353:187|353:187|360:188|360:188|353:187|353:187|360:188|360:188|353:187|353:187|360:188|360:188|353:187|353:187|360:188|360:188|353:187|353:187|361:188|361:188|353:187|353:187|360:188|360:188|353:187|353:187|360:188|360:188|353:187|353:187|360:188|360:188|353:187|353:187|360:188|360:188|353:187|353:187|360:189|360:189|353:187|353:187|360:188|360:188|353:187|353:187|360:188|360:188|353:187|353:187|353:187|353:187|360:187|360:187|353:187|353:187|360:187|360:187|353:187|353:187|360:187|360:187|353:187|353:187|360:187|360:187|353:187|353:187|360:187|360:187|353:187|353:187|360:187|360:187|353:187|353:187|360:188|360:188|353:187|353:187|353:187|353:187|360:188|360:188|353:187|353:187|360:187|360:187|353:187|353:187|481:199,1,1648,2|2,0:0|0:0,0:0:0:0:
440,195,38153,22,0,P|468:310|298:252,1,370.799988684082,2|0,0:0|0:0,0:0:0:0:
78,218,39384,38,0,B|147:218|184:149|184:149|211:256|297:269,1,309,2|0,0:0|0:0,0:0:0:0:
85,112,39692,1,0,0:0:0:0:
296,268,39846,1,0,0:0:0:0:
323,26,40000,70,0,B|257:58|259:145|313:208|422:205|429:75|429:75|352:95|352:95,1,412
506,58,40307,1,0,0:0:0:0:
506,58,40461,1,0,0:0:0:0:
358,93,40615,37,0,0:0:0:0:
480,357,40923,2,0,P|481:293|509:239,1,103
261,170,41230,2,0,P|285:220|292:271,1,103
391,256,41538,101,0,0:0:0:0:
391,256,41692,1,0,0:0:0:0:
4,296,41846,86,0,B|76:291|76:291|143:319|143:319|202:275|202:275|311:266,1,309,2|0,0:0|0:0,0:0:0:0:
130,210,42153,1,0,0:0:0:0:
292,267,42307,1,0,0:0:0:0:
114,101,42461,38,0,B|36:19|153:-35|211:72|115:241,1,309
211,370,42769,1,0,0:0:0:0:
131,211,42923,1,0,0:0:0:0:
142,312,43076,6,0,P|189:288|277:304,1,103,2|0,0:0|0:0,0:0:0:0:
512,336,43384,2,0,P|460:335|415:311,1,103
400,42,43692,22,0,L|409:186,1,103,0|0,0:2|0:0,0:0:0:0:
318,368,44000,2,0,L|308:235,1,103
102,148,44307,22,0,B|165:124|165:51|165:51|241:131|199:223,1,309,2|0,0:0|0:0,0:0:0:0:
67,57,44615,1,0,0:0:0:0:
200,220,44769,1,0,0:0:0:0:
473,133,44923,38,0,P|355:85|373:232,1,309
481,330,45230,1,0,0:0:0:0:
350,221,45384,1,0,0:0:0:0:
197,333,45538,70,0,B|117:320|93:229|93:229|94:328|16:363,1,309
200,220,45846,1,0,0:0:0:0:
27,357,46000,1,0,0:0:0:0:
40,80,46153,38,0,B|102:100|154:65|154:65|185:93|209:136|209:136|253:91|339:118,1,309
200,220,46461,1,0,0:0:0:0:
301,110,46615,1,0,0:0:0:0:
391,237,46769,70,0,L|265:228,1,103,2|0,0:0|0:0,0:0:0:0:
24,188,47076,2,0,L|126:180,1,103,0|0,0:2|0:0,0:0:0:0:
338,16,47384,86,0,P|306:75|302:136,1,103
204,362,47692,2,0,P|195:311|172:257,1,103
52,105,48000,86,0,B|6:100|20:37|20:37|77:20|124:44|138:128,1,206,2|0,0:0|0:0,0:0:0:0:
91,272,48230,2,0,B|88:318|24:307|24:307|4:251|26:203|109:184,1,206,0|0,0:0|0:0,0:0:0:0:
229,181,48461,2,0,L|354:189,1,103,2|0,0:0|0:0,0:0:0:0:
453,72,48615,22,0,B|423:36|423:36|439:55|439:55|432:46|432:46|439:55|439:55|432:46|432:46|439:55|439:55|404:12|404:12|431:219,1,309
447,285,48923,22,0,L|340:277,1,77.2500029468538
267,265,49076,2,0,L|189:259,1,77.2500029468538,2|0,0:0|0:0,0:0:0:0:
153,106,49230,38,0,B|201:53|270:81|270:81|334:189|464:134,1,309
393,8,49538,69,0,0:0:0:0:
423,148,49692,1,0,0:0:0:0:
451,271,49846,38,0,B|483:287|517:274|519:231|490:211|450:198|397:219|370:304|370:304|321:241|261:234|224:258|204:285|218:327|277:333|308:282,1,494.39998491211,0|0,0:0|0:2,0:0:0:0:
384,379,50153,69,0,0:0:0:0:
384,379,50307,1,0,0:0:0:0:
284,305,50461,1,2,0:2:0:0:
473,141,50769,38,0,L|355:151,1,103
58,239,51076,2,0,L|160:247,1,103
299,120,51384,70,0,P|242:80|194:91,1,103
212,82,51692,38,0,P|253:82|249:224,1,206,0|0,0:2|0:0,0:0:0:0:
274,212,52000,69,0,0:0:0:0:
298,120,52153,1,0,0:0:0:0:
144,0,52307,38,0,B|94:49|85:125|153:200|153:200|265:132,1,309
82,252,52615,69,0,0:0:0:0:
226,156,52769,1,0,0:0:0:0:
387,274,52923,38,0,B|324:280|275:213|275:213|324:307|276:380,1,309,2|0,0:2|0:0,0:0:0:0:
370,172,53230,69,0,0:0:0:0:
277,379,53384,1,0,0:0:0:0:
482,354,53538,38,0,L|339:371,1,103
472,184,53846,2,0,L|329:167,1,103
505,267,54153,6,0,B|403:256|403:256|324:304|324:304|199:289,1,309,0|0,3:0|0:0,0:0:0:0:
52,266,54461,101,0,3:0:0:0:
211,290,54615,1,0,0:0:0:0:
159,85,54769,38,0,B|206:51|241:4|241:4|217:216,1,309,0|0,3:0|0:0,0:0:0:0:
200,384,55076,69,0,3:0:0:0:
219,196,55230,1,0,0:0:0:0:
487,99,55384,70,0,B|437:149|440:245|440:245|417:153|338:122,1,309,0|0,3:0|0:0,0:0:0:0:
139,160,55692,37,0,3:0:0:0:
352,128,55846,1,0,3:0:0:0:
439,245,56000,38,0,P|310:254|353:128,1,309,0|0,3:0|0:0,0:0:0:0:
399,8,56307,69,2,0:0:0:0:
352,128,56461,1,0,0:0:0:0:
158,105,56615,6,0,B|166:2|166:2|158:111,1,206,0|0,3:0|3:0,0:0:0:0:
158,104,56923,1,0,3:0:0:0:
52,188,57230,22,0,B|300:192,1,206,0|0,3:0|3:0,0:0:0:0:
257,191,57538,1,0,3:0:0:0:
257,191,57846,38,0,B|257:387|257:387|256:124|256:124|256:124|256:124|85:124|85:124|256:124|256:124|431:123|431:123|256:124|256:124|254:-30013,1,31260.5
256,190,57923,6,0,B|263:386|263:386|253:124|253:124|253:124|253:124|83:129|83:129|253:124|253:124|428:117|428:117|253:124|253:124|-799:-29994,1,31214.1509525803
256,190,58000,102,0,B|273:386|273:386|250:124|250:124|250:124|250:124|80:139|80:139|250:124|250:124|424:109|424:109|250:124|250:124|-2377:-29898,1,31260.5
256,190,58076,6,0,B|290:383|290:383|244:125|244:125|244:125|244:125|76:154|76:154|244:125|244:125|416:94|416:94|244:125|244:125|-4990:-29554,1,31260.5,0|0,0:0|0:0,0:0:0:0:
256,190,58153,102,0,B|317:377|317:377|234:127|234:127|234:127|234:127|73:179|73:179|234:127|234:127|401:73|401:73|234:127|234:127|-9078:-28534,1,31260.5
256,190,58230,6,0,B|329:372|329:372|230:128|230:128|230:128|230:128|72:192|72:192|230:128|230:128|392:63|392:63|230:128|230:128|-11060:-27813,1,31260.5,0|0,0:0|0:0,0:0:0:0:
256,190,58307,102,0,B|345:365|345:365|225:131|225:131|225:131|225:131|73:208|73:208|225:131|225:131|381:51|381:51|225:131|225:131|-13457:-26720,1,31260.5
256,190,58384,6,0,B|365:353|365:353|217:135|217:135|217:135|217:135|77:230|77:230|217:135|217:135|363:37|363:37|217:135|217:135|-16635:-24848,1,31260.5
255,189,58461,102,0,B|396:326|396:326|206:144|206:144|206:144|206:144|88:266|88:266|206:144|206:144|328:18|328:18|206:144|206:144|-21471:-20788,1,31260.5
255,189,58538,6,0,B|433:269|433:269|193:163|193:163|193:163|193:163|124:319|124:319|193:163|193:163|264:4|264:4|193:163|193:163|-27337:-12091,1,31260.5,0|0,0:0|0:0,0:0:0:0:
255,189,58615,102,0,B|445:234|445:234|188:176|188:176|188:176|188:176|151:342|151:342|188:176|188:176|228:5|228:5|188:176|188:176|-29174:-6601,1,31260.5
255,190,58692,6,0,B|450:204|450:204|188:187|188:187|188:187|188:187|176:356|176:356|188:187|188:187|200:12|200:12|188:187|188:187|-29875:-1913,1,31260.5,0|0,0:0|0:0,0:0:0:0:
255,191,58769,102,0,B|451:191|451:191|188:191|188:191|188:191|188:191|188:362|188:362|188:191|188:191|188:16|188:16|188:191|188:191|-29949:193,1,31260.5
111,199,59076,21,0,3:0:0:0:
111,199,59229,1,0,0:0:0:0:
128,377,59382,2,0,B|113:318|113:318|131:266|131:266|109:189,1,185.399994342041,8|0,0:0|0:0,0:0:0:0:
76,106,59613,21,0,0:0:0:0:
76,106,59690,2,0,B|5:93|5:93|103:110,1,144.199995599365,0|0,3:0|0:0,0:0:0:0:
328,279,59998,2,0,B|395:300|395:300|492:247,1,139.050000530434,8|0,0:0|0:0,0:0:0:0:
455,267,60151,2,0,B|395:300|395:300|328:279,1,139.050000530434,0|0,0:0|0:0,0:0:0:0:
255,177,60305,85,0,3:0:0:0:
257,131,60382,1,0,0:0:0:0:
259,82,60459,1,0,0:0:0:0:
158,270,60613,1,8,0:0:0:0:
260,33,60767,21,0,0:0:0:0:
259,82,60844,1,0,0:0:0:0:
257,131,60921,1,0,3:0:0:0:
255,177,60998,1,0,0:0:0:0:
252,223,61075,1,0,0:0:0:0:
29,68,61228,86,0,P|109:51|162:102,1,139.049995756531,8|0,0:0|0:0,0:0:0:0:
151,82,61382,2,0,P|79:102|20:49,1,139.049995756531,0|0,0:0|0:0,0:0:0:0:
29,68,61536,21,0,3:0:0:0:
91,270,61690,1,0,0:0:0:0:
362,62,61844,86,0,P|447:144|325:198,1,278.100001060867,8|0,0:0|0:0,0:0:0:0:
274,132,62075,1,0,0:0:0:0:
292,126,62151,22,0,L|396:141,2,77.2500029468538,0|0|0,3:0|0:0|0:0,0:0:0:0:
72,111,62459,54,0,B|65:100|65:100|68:105|68:105|62:94|62:94|65:100|65:100|59:89|59:89|62:94|62:94|55:83|55:83|59:89|59:89|51:77|51:77|55:83|55:83|48:72|48:72|51:77|51:77|45:67|45:67|48:72|48:72|42:63|42:63|38:55|38:55|159:6|159:6|127:277,1,540.750020627976,8|0,0:0|0:0,0:0:0:0:
120,361,62767,21,0,3:0:0:0:
173,356,62844,1,0,0:0:0:0:
226,350,62921,1,0,0:0:0:0:
43,369,63075,1,8,0:0:0:0:
347,212,63228,2,0,P|440:224|472:276,1,128.75,0|0,0:0|0:0,0:0:0:0:
424,375,63382,102,0,P|328:366|460:342,1,417.150001591301,4|0,3:1|0:0,0:0:0:0:
486,319,63690,1,2,0:0:0:0:
319,30,63844,1,0,0:0:0:0:
267,36,63921,1,0,0:0:0:0:
214,41,63998,70,0,B|212:124|251:178|251:178|210:202|173:176|173:176|212:124|214:18,1,370.799988684082,0|0,3:0|0:0,0:0:0:0:
106,82,64305,2,0,B|50:74|50:74|121:84,1,113.300003457642,8|0,0:0|0:0,0:0:0:0:
329,175,64459,2,0,B|385:167|385:167|314:177,1,113.300003457642,2|0,0:0|0:0,0:0:0:0:
214,313,64613,54,0,B|212:230|251:176|251:176|210:152|173:178|173:178|212:230|214:336,1,370.799988684082,0|2,3:0|0:0,0:0:0:0:
214,313,64844,54,0,L|147:309,1,61.7999981140137,2|0,0:0|0:0,0:0:0:0:
398,95,65075,54,0,B|423:75|443:33|443:33|441:99|471:182,1,185.399994342041
503,238,65228,6,0,L|301:263,1,185.399994342041,0|0,3:0|0:0,0:0:0:0:
319,260,65382,2,0,L|503:238,1,185.399994342041,2|0,0:0|0:0,0:0:0:0:
503,237,65536,1,0,0:0:0:0:
254,165,65690,22,0,B|255:152|297:182|259:224|196:207|207:122|258:134|258:134|294:133|302:184|259:230|192:211|204:127|259:132|259:132|292:133|319:196|263:238|188:214|210:123|258:134|258:134|260:130|234:128|211:124|184:217|264:239|314:188|291:133|253:132|253:132|246:195|246:195|247:178|257:157,1,825.030028639882,2|0,0:0|0:0,0:0:0:0:
9,238,65997,22,0,L|211:263,1,185.399994342041
193,260,66151,2,0,L|9:238,1,185.399994342041,2|0,0:0|0:0,0:0:0:0:
9,238,66305,1,0,0:0:0:0:
303,351,66458,102,0,B|327:279|312:194|312:194|330:235|351:261|351:261|320:291|300:360,1,339.900010372925,0|0,3:0|0:0,0:0:0:0:
193,260,66766,54,0,B|131:254|131:254|198:260,1,123.599996228027,8|0,0:0|0:0,0:0:0:0:
417,183,66920,2,0,B|478:175|478:175|409:184,1,123.599996228027,0|0,0:0|0:0,0:0:0:0:
184,152,67073,54,0,B|160:80|175:-5|175:-5|157:36|136:62|136:62|167:92|187:161,1,339.900010372925,0|2,3:0|0:0,0:0:0:0:
184,152,67304,54,0,L|281:143,1,56.6500017288209,2|0,0:0|0:0,0:0:0:0:
63,343,67535,5,0,0:0:0:0:
60,306,67612,1,0,0:0:0:0:
57,270,67689,1,0,3:0:0:0:
55,234,67766,1,0,0:0:0:0:
53,197,67843,1,2,0:0:0:0:
177,369,67997,1,8,0:0:0:0:
426,175,68150,21,0,0:0:0:0:
382,218,68227,1,0,0:0:0:0:
331,251,68304,1,0,3:0:0:0:
283,211,68381,1,0,0:0:0:0:
244,163,68458,1,0,0:0:0:0:
426,297,68612,22,0,B|452:317|444:353|444:353|417:328|426:297,1,123.599996228027,10|0,0:0|0:0,0:0:0:0:
336,132,68766,2,0,B|326:101|353:76|353:76|361:112|335:132,1,123.599996228027,0|0,0:0|0:0,0:0:0:0:
185,341,68920,102,0,B|125:254|125:254|158:196|158:196|205:240|205:240|184:344,1,339.900010372925,0|0,3:0|0:0,0:0:0:0:
63,329,69227,54,0,B|27:330|5:311|5:311|27:329|71:329,1,123.599996228027,8|0,0:0|0:0,0:0:0:0:
312,283,69381,2,0,B|348:282|370:300|370:300|348:282|309:283,1,123.599996228027,0|0,0:0|0:0,0:0:0:0:
71,197,69535,54,0,B|143:63|143:63|226:187|226:187|115:202,1,370.799988684082,0|2,3:0|0:0,0:0:0:0:
157,196,69766,54,0,L|265:183,1,68.7525023866568,2|0,0:0|0:0,0:0:0:0:
497,317,69997,2,0,B|368:298|368:298|415:359,1,185.399994342041
401,341,70150,6,0,B|389:274|389:274|413:224|413:224|394:136,1,206.257507159971,0|0,3:0|0:0,0:0:0:0:
396,144,70304,22,0,B|413:224|413:224|389:274|389:274|401:341,1,206.257507159971,2|0,0:0|0:0,0:0:0:0:
401,341,70458,1,0,0:0:0:0:
374,56,70612,22,0,B|370:50|370:50|368:58|368:58|364:48|364:48|362:57|362:57|358:47|358:47|356:56|356:56|352:46|352:46|350:55|350:55|346:45|346:45|344:54|344:54|340:44|340:44|338:53|338:53|334:43|334:43|332:52|332:52|328:42|328:42|327:50|327:50|322:40|322:40|321:49|321:49|317:39|317:39|315:48|315:48|311:38|311:38|254:116|306:197,1,370.799988684082
199,341,70920,86,0,B|211:274|211:274|187:224|187:224|206:136,1,206.257507159971
205,143,71074,86,0,B|187:223|187:223|211:273|211:273|199:340,1,206.257507159971,0|2,0:0|0:0,0:0:0:0:
200,340,71228,1,0,0:0:0:0:
8,73,71381,38,0,B|72:82|72:82|122:138|122:138|159:11|159:11|214:60|214:60|299:71,1,412.515014319941,0|0,3:0|0:0,0:0:0:0:
512,142,71688,54,0,B|530:185|497:220|497:220|513:184|495:147,1,137.505004773314,8|0,0:0|0:0,0:0:0:0:
354,74,71842,2,0,B|338:29|371:-6|371:-6|355:30|373:67,1,123.599996228027
393,291,71997,54,0,B|340:250|335:169|335:169|380:153|416:187|416:187|383:257|248:277,1,370.799988684082,0|2,3:0|0:0,0:0:0:0:
302,266,72227,54,0,L|198:262,1,61.7999981140137,2|0,0:0|0:0,0:0:0:0:
31,354,72458,2,0,B|18:334|-8:310|-8:310|45:345|148:345,1,185.399994342041
252,359,72611,6,0,B|329:339|329:339|356:372|356:372|243:358,1,226.600006915283,2|0,0:0|0:0,0:0:0:0:
101,186,72842,22,0,B|24:166|24:166|-3:199|-3:199|110:185,1,226.600006915283
188,252,73073,22,0,B|189:309|189:309|188:247,1,113.300003457642
100,81,73227,6,0,B|105:81|105:81|100:81|100:81|100:81|100:81|105:81|105:81|100:81|100:81|105:81|105:81|100:81|100:81|105:81|105:81|100:81|100:81|105:81|105:81|100:81|100:81|105:81|105:81|100:81|100:81|105:81|105:81|100:81|100:81|105:81|105:81|100:81|100:81|105:81|105:81|100:81|100:81|105:81|105:81|100:81|100:81|105:81|105:81|100:81|100:81|41:75|41:75|122:83|122:83|180:125|180:125|246:92|246:92|351:99,1,481.267516706598,0|0,0:0|0:0,0:0:0:0:
330,97,73534,85,0,0:0:0:0:
330,97,73688,1,2,0:0:0:0:
187,32,73842,86,0,L|179:157,1,92.6999971710206,0|0,3:0|0:0,0:0:0:0:
178,216,73996,1,0,0:0:0:0:
9,164,74150,86,0,B|39:75|39:75|89:162,1,185.399994342041,0|0,3:0|0:0,0:0:0:0:
172,310,74458,21,0,3:0:0:0:
181,124,74611,1,0,0:0:0:0:
28,254,74765,85,0,3:0:0:0:
321,286,74919,1,0,0:0:0:0:
172,310,75073,22,0,L|183:101,1,185.399994342041,0|0,3:0|0:0,0:0:0:0:
0,203,75381,86,0,L|112:211,1,92.6999971710206,0|0,3:0|0:0,0:0:0:0:
266,222,75534,1,0,0:0:0:0:
277,37,75688,22,0,L|267:222,1,185.399994342041,0|0,3:0|0:0,0:0:0:0:
512,349,75996,85,0,3:0:0:0:
260,337,76150,1,0,0:0:0:0:
491,237,76304,22,0,L|335:232,1,139.049995756531,0|0,3:0|0:0,0:0:0:0:
352,232,76458,1,0,0:0:0:0:
431,52,76611,86,0,L|428:150,1,92.6999971710206,0|0,3:0|0:0,0:0:0:0:
424,325,76765,1,0,0:0:0:0:
428,144,76919,21,0,3:0:0:0:
428,144,77073,1,0,0:0:0:0:
424,325,77227,86,0,L|426:232,1,92.6999971710206,0|0,3:0|0:0,0:0:0:0:
431,52,77380,1,0,0:0:0:0:
261,268,77534,86,0,B|212:312|212:312|154:218|154:218|220:128|220:128|277:213,1,343.762511933284,4|0,0:0|0:0,0:0:0:0:
261,268,77765,6,0,B|207:316|207:316|145:217|145:217|219:118|219:118|280:205,1,386.250014734269,2|0,0:0|0:0,0:0:0:0:
462,132,78150,102,0,B|466:23|466:23|395:70|395:70|337:11|337:11|318:144,1,386.250014734269,4|0,0:0|0:0,0:0:0:0:
315,114,78381,6,0,B|331:-5|331:-5|395:58|395:58|473:6|473:6|468:125,1,424.875004051924,2|0,0:0|0:0,0:0:0:0:
479,228,78611,1,0,0:0:0:0:
293,218,78765,38,0,L|481:228,1,185.399994342041,0|0,3:0|0:0,0:0:0:0:
177,382,79073,2,0,L|187:250,1,92.6999971710206,0|0,3:0|0:0,0:0:0:0:
193,201,79227,1,0,0:0:0:0:
306,350,79381,85,0,3:0:0:0:
59,328,79534,1,0,0:0:0:0:
200,111,79688,21,0,3:0:0:0:
184,289,79842,1,0,0:0:0:0:
14,97,79996,86,0,L|137:104,1,92.6999971710206,0|0,3:0|0:0,0:0:0:0:
200,111,80150,1,0,0:0:0:0:
75,380,80304,2,0,L|92:176,1,185.399994342041,0|0,3:0|0:0,0:0:0:0:
331,30,80611,22,0,L|314:234,1,185.399994342041,0|0,3:0|0:0,0:0:0:0:
200,111,80919,1,0,3:0:0:0:
442,126,81073,1,0,0:0:0:0:
308,307,81227,86,0,L|317:189,1,92.6999971710206,0|0,3:0|0:0,0:0:0:0:
331,30,81534,6,0,L|322:140,1,92.6999971710206,4|0,3:2|0:0,0:0:0:0:
308,307,81688,1,0,0:0:0:0:
308,307,81996,101,0,0:0:0:0:
423,90,82150,38,0,B|417:132|417:132|425:152|425:152|419:201,1,92.6999971710206,4|0,3:2|0:0,0:0:0:0:
398,346,82304,1,0,0:0:0:0:
398,346,82611,69,0,0:0:0:0:
512,151,82765,70,0,B|509:172|502:187|502:187|510:198|513:211|513:211|503:229|501:259,1,92.6999971710206,4|0,3:2|0:0,0:0:0:0:
496,384,82919,1,0,0:0:0:0:
496,384,83227,53,0,0:0:0:0:
398,346,83381,21,2,3:2:0:0:
308,307,83534,21,0,0:0:0:0:
118,228,83688,6,0,B|115:223|115:223|119:228|119:228|115:223|115:223|118:228|118:228|115:223|115:223|118:228|118:228|115:223|115:223|118:228|118:228|116:223|116:223|119:228|119:228|116:223|116:223|119:228|119:228|116:223|116:223|119:228|119:228|116:223|116:223|119:228|119:228|116:223|116:223|119:228|119:228|116:223|116:223|119:228|119:228|115:223|115:223|119:228|119:228|116:223|116:223|119:228|119:228|116:223|116:223|118:228|118:228|116:223|116:223|118:228|118:228|116:223|116:223|118:228|118:228|74:171|104:114|104:114|109:116|109:116|104:114|104:114|109:116|109:116|104:114|104:114|109:116|109:116|104:114|104:114|109:116|109:116|105:114|105:114|109:116|109:116|104:114|104:114|109:116|109:116|105:114|105:114|109:116|109:116|105:115|105:115|109:116|109:116|104:115|104:115|109:116|109:116|105:115|105:115|109:116|109:116|104:115|104:115|109:116|109:116|104:114|104:114|109:116|109:116|104:115|104:115|109:116|109:116|105:115|105:115|109:116|109:116|105:115|105:115|109:116|109:116|105:114|105:114|174:110|256:45|256:45|252:50|252:50|256:45|256:45|252:50|252:50|256:45|256:45|252:50|252:50|256:45|256:45|172:166|217:304|217:304|219:309|219:309|219:309|219:309|217:304|217:304|219:309|219:309|219:309|219:309|217:304|217:304|218:309|218:309|172:166|256:45|256:45|252:50|252:50|256:45|256:45|252:50|252:50|256:45|256:45|252:50|252:50|256:45|256:45|252:50|252:50|256:45|256:45|252:50|252:50|256:45|256:45|252:50|252:50|256:45|256:45|252:50|252:50|256:45|256:45|252:50|252:50|256:45|256:45|252:50|252:50|256:45|256:45|252:50|252:50|256:45|256:45|252:50|252:50|256:45|256:45|256:45|256:45|174:110|105:114|105:114|109:116|109:116|104:114|104:114|109:116|109:116|104:114|104:114|109:116|109:116|105:114|105:114|109:116|109:116|105:114|105:114|109:116|109:116|105:114|105:114|109:116|109:116|105:114|105:114|109:116|109:116|105:114|105:114|109:117|109:117|105:114|105:114|109:117|109:117|104:114|104:114|109:116|109:116|104:115|104:115|109:117|109:117|104:115|104:115|109:117|109:117|105:115|105:115|109:117|109:117|105:115|105:115|174:110|256:45|256:45|252:50|252:50|256:45|256:45|252:50|252:50|256:45|256:45|252:50|252:50|256:45|256:45|252:50|252:50|256:45|256:45|172:166|219:309|219:309|218:303|218:303|219:309|219:309|218:303|218:303|219:309|219:309|218:303|218:303|219:309|219:309|218:303|218:303|219:308|219:308|218:303|218:303|219:308|219:308|218:303|218:303|219:309|219:309|218:303|218:303|219:309|219:309|218:303|218:303|219:308|219:308|219:309|219:309|218:303|218:303|219:309|219:309|218:304|218:304|219:309|219:309|218:303|218:303|219:308|219:308|218:303|218:303|219:308|219:308|218:303|218:303|219:309|219:309|218:223|293:175|293:175|296:179|296:179|293:175|293:175|296:179|296:179|293:175|293:175|296:179|296:179|293:175|293:175|293:175|293:175|296:179|296:179|293:175|293:175|296:179|296:179|293:175|293:175|296:179|296:179|293:175|293:175|296:179|296:179|293:175|293:175|293:175|293:175|293:175|293:175|296:179|296:179|293:175|293:175|296:179|296:179|293:175|293:175|296:179|296:179|293:175|293:175|296:179|296:179|293:175|293:175|296:179|296:179|293:175|293:175|296:179|296:179|293:175|293:175|296:179|296:179|293:175|293:175|354:269|473:224,1,2781
154,106,85534,6,0,B|101:68|89:1|89:1|88:71|34:124,1,247.199992456055,2|0,0:0|0:0,0:0:0:0:
53,263,85765,2,0,B|105:300|117:367|117:367|118:297|172:244,1,247.199992456055,2|0,0:0|0:0,0:0:0:0:
101,189,85996,1,2,0:0:0:0:
492,152,86150,102,0,B|489:156|489:156|492:152|492:152|489:157|489:157|492:152|492:152|489:157|489:157|492:152|492:152|489:157|489:157|492:152|492:152|492:152|492:152|489:157|489:157|492:152|492:152|492:152|492:152|492:152|492:152|489:156|489:156|492:152|492:152|489:156|489:156|492:152|492:152|492:152|492:152|489:156|489:156|492:152|492:152|489:156|489:156|492:152|492:152|489:156|489:156|492:152|492:152|489:156|489:156|492:152|492:152|345:362|345:362|343:357|343:357|345:362|345:362|343:357|343:357|345:362|345:362|343:357|343:357|345:362|345:362|343:357|343:357|345:362|345:362|223:62|223:62|223:62|223:62|223:62|223:62|228:63|228:63|223:62|223:62|228:63|228:63|223:62|223:62|228:63|228:63|223:62|223:62|228:63|228:63|223:62|223:62|228:63|228:63|223:62|223:62|228:63|228:63|228:63|228:63|223:62|223:62|228:63|228:63|223:62|223:62|228:63|228:63|223:62|223:62|228:63|228:63|223:62|223:62|228:63|228:63|223:62|223:62|228:63|228:63|223:62|223:62|228:63|228:63|223:62|223:62|228:63|228:63|223:62|223:62|465:65|465:65|460:65|460:65|465:65|465:65|460:65|460:65|465:65|465:65|460:65|460:65|465:65|465:65|460:65|460:65|465:65|465:65|460:65|460:65|465:65|465:65|460:65|460:65|465:65|465:65|465:65|465:65|460:65|460:65|465:65|465:65|460:65|460:65|465:65|465:65|460:65|460:65|465:65|465:65|460:65|460:65|465:65|465:65|460:65|460:65|465:65|465:65|460:65|460:65|465:65|465:65|460:65|460:65|465:65|465:65|223:62|223:62|226:67|226:67|223:62|223:62|226:67|226:67|223:62|223:62|226:67|226:67|223:62|223:62|226:67|226:67|223:63|223:63|226:67|226:67|345:362|345:362|343:357|343:357|345:362|345:362|343:357|343:357|345:362|345:362|343:357|343:357|345:362|345:362|343:357|343:357|345:362|345:362|223:63|223:63|228:63|228:63|223:62|223:62|228:63|228:63|223:62|223:62|228:63|228:63|223:62|223:62|228:63|228:63|223:62|223:62|228:63|228:63|223:62|223:62|228:63|228:63|223:62|223:62|228:63|228:63|223:62|223:62|228:63|228:63|223:62|223:62|228:63|228:63|223:62|223:62|228:62|228:62|223:62|223:62|228:62|228:62|223:62|223:62|228:62|228:62|223:62|223:62|228:62|228:62|223:62|223:62|465:65|465:65|462:70|462:70|465:65|465:65|465:65|465:65|462:70|462:70|465:65|465:65|462:70|462:70|465:65|465:65|465:65|465:65|462:70|462:70|465:65|465:65|462:70|462:70|465:65|465:65|462:70|462:70|465:65|465:65|462:70|462:70|465:65|465:65|462:70|462:70|465:65|465:65|462:70|462:70|465:65|465:65|465:65|465:65|462:70|462:70|465:65|465:65|462:70|462:70|465:65|465:65|462:70|462:70|465:65|465:65|462:70|462:70|465:65|465:65|462:70|462:70|465:65|465:65|462:70|462:70|465:65|465:65|462:70|462:70|465:65|465:65|462:70|462:70|465:65|465:65|362:210|362:210|359:204|359:204|362:210|362:210|359:204|359:204|362:210|362:210|359:204|359:204|362:210|362:210|359:204|359:204|362:210|362:210|362:210|362:210|359:204|359:204|362:210|362:210|359:204|359:204|361:210|361:210|359:204|359:204|361:210|361:210|359:204|359:204|361:210|361:210|359:204|359:204|361:210|361:210|359:204|359:204|361:210|361:210|359:204|359:204|362:210|362:210|359:204|359:204|362:210|362:210|359:204|359:204|361:210|361:210|362:210|362:210|359:204|359:204|362:210|362:210|359:204|359:204|362:210|362:210|359:204|359:204|362:210|362:210|359:204|359:204|362:210|362:210|359:204|359:204|362:210|362:210|359:204|359:204|361:210|361:210|359:204|359:204|362:210|362:210|359:204|359:204|362:210|362:210|359:206|359:206|361:210|361:210|355:197|355:197|326:125,1,3337.19989815674
255,291,87996,6,0,B|152:218|152:218|120:284|120:284|182:330,1,247.199992456055,2|0,0:0|0:0,0:0:0:0:
255,291,88227,2,0,B|360:221|360:221|390:289|390:289|326:333,1,247.199992456055,2|0,0:0|0:0,0:0:0:0:
256,373,88458,1,2,0:0:0:0:
257,194,88611,102,0,B|253:191|253:191|257:194|257:194|253:191|253:191|257:194|257:194|253:191|253:191|257:194|257:194|253:190|253:190|257:194|257:194|257:194|257:194|253:191|253:191|257:194|257:194|253:191|253:191|257:194|257:194|253:191|253:191|257:194|257:194|253:191|253:191|257:194|257:194|253:191|253:191|257:194|257:194|253:191|253:191|257:194|257:194|253:191|253:191|257:194|257:194|253:191|253:191|257:194|257:194|253:191|253:191|257:194|257:194|253:191|253:191|257:194|257:194|119:98|119:98|123:95|123:95|119:98|119:98|123:95|123:95|119:98|119:98|123:95|123:95|119:98|119:98|123:95|123:95|119:98|119:98|123:95|123:95|119:98|119:98|123:95|123:95|119:98|119:98|123:95|123:95|119:98|119:98|123:95|123:95|119:98|119:98|123:95|123:95|119:98|119:98|123:95|123:95|119:98|119:98|123:95|123:95|119:98|119:98|123:95|123:95|119:98|119:98|123:95|123:95|119:98|119:98|123:95|123:95|119:98|119:98|257:3|257:3|262:7|262:7|257:3|257:3|262:6|262:6|257:3|257:3|262:6|262:6|257:3|257:3|262:6|262:6|257:3|257:3|262:6|262:6|257:3|257:3|262:6|262:6|257:3|257:3|262:6|262:6|257:3|257:3|262:6|262:6|257:3|257:3|262:6|262:6|257:3|257:3|262:6|262:6|257:3|257:3|262:6|262:6|257:3|257:3|262:6|262:6|257:3|257:3|262:6|262:6|257:3|257:3|395:98|395:98|390:94|390:94|395:98|395:98|390:94|390:94|395:98|395:98|390:94|390:94|395:98|395:98|390:94|390:94|395:98|395:98|390:94|390:94|395:98|395:98|390:94|390:94|395:98|395:98|390:94|390:94|395:98|395:98|390:94|390:94|395:98|395:98|390:94|390:94|395:98|395:98|390:94|390:94|395:98|395:98|257:3|257:3|252:7|252:7|257:3|257:3|252:7|252:7|257:3|257:3|252:7|252:7|257:3|257:3|252:7|252:7|257:3|257:3|252:7|252:7|257:3|257:3|252:7|252:7|257:3|257:3|252:7|252:7|257:3|257:3|252:7|252:7|257:3|257:3|252:7|252:7|257:3|257:3|252:7|252:7|257:3|257:3|252:7|252:7|257:3|257:3|252:7|252:7|257:3|257:3|252:7|252:7|257:3|257:3|252:7|252:7|119:98|119:98|123:95|123:95|119:98|119:98|123:95|123:95|119:98|119:98|123:95|123:95|119:98|119:98|123:95|123:95|119:98|119:98|123:95|123:95|119:98|119:98|123:95|123:95|119:98|119:98|123:95|123:95|119:98|119:98|123:95|123:95|119:98|119:98|123:95|123:95|119:98|119:98|123:95|123:95|119:98|119:98|123:95|123:95|119:98|119:98|123:95|123:95|119:98|119:98|257:3|257:3|262:6|262:6|257:3|257:3|262:6|262:6|257:3|257:3|262:6|262:6|257:3|257:3|262:6|262:6|257:3|257:3|262:6|262:6|257:3|257:3|262:6|262:6|257:3|257:3|262:6|262:6|257:3|257:3|262:6|262:6|257:3|257:3|262:6|262:6|257:3|257:3|262:6|262:6|257:3|257:3|262:7|262:7|257:3|257:3|262:6|262:6|257:3|257:3|395:98|395:98|391:102|391:102|395:98|395:98|391:102|391:102|395:98|395:98|391:102|391:102|395:98|395:98|391:102|391:102|395:98|395:98|391:102|391:102|395:98|395:98|391:102|391:102|395:98|395:98|392:102|392:102|395:98|395:98|391:102|391:102|395:98|395:98|391:102|391:102|395:98|395:98|391:102|391:102|395:98|395:98|391:102|391:102|395:98|395:98|391:102|391:102|395:98|395:98|391:102|391:102|395:98|395:98|257:194|257:194|257:189|257:189|257:194|257:194|257:189|257:189|257:194|257:194|257:188|257:188|257:194|257:194|257:188|257:188|257:194|257:194|257:188|257:188|257:194|257:194|257:188|257:188|257:194|257:194|257:188|257:188|257:194|257:194|257:188|257:188|257:194|257:194|257:188|257:188|257:194|257:194|257:188|257:188|257:194|257:194|257:188|257:188|257:194|257:194|257:188|257:188|257:194|257:194|257:188|257:188|257:194|257:194|257:188|257:188|257:194|257:194|257:188|257:188|257:194|257:194|257:188|257:188|257:194|257:194|257:188|257:188|257:194|257:194|257:14,1,2781.00010608674
112,341,90458,6,0,B|78:384|29:341|44:273|125:256|118:397|263:332,1,288.399991198731,2|0,0:0|0:0,0:0:0:0:
423,277,90688,2,0,B|474:222|474:222|509:285|509:285|465:337|465:337|419:272,1,288.399991198731,2|0,0:0|0:0,0:0:0:0:
322,253,90919,1,2,0:0:0:0:
88,86,91073,102,0,B|93:91|93:91|88:86|88:86|88:86|88:86|93:91|93:91|88:86|88:86|93:91|93:91|88:86|88:86|93:91|93:91|88:86|88:86|93:91|93:91|88:86|88:86|93:91|93:91|88:86|88:86|93:91|93:91|88:86|88:86|143:141|134:260|134:260|137:256|137:256|134:260|134:260|137:256|137:256|134:259|134:259|137:256|137:256|134:259|134:259|137:256|137:256|134:259|134:259|137:256|137:256|134:259|134:259|137:256|137:256|134:259|134:259|137:256|137:256|134:259|134:259|137:256|137:256|134:259|134:259|137:256|137:256|134:259|134:259|137:256|137:256|134:259|134:259|137:256|137:256|134:259|134:259|137:256|137:256|134:259|134:259|137:256|137:256|134:259|134:259|137:256|137:256|134:260|134:260|137:256|137:256|134:259|134:259|137:256|137:256|134:259|134:259|137:256|137:256|134:259|134:259|137:256|137:256|134:259|134:259|137:256|137:256|134:259|134:259|137:256|137:256|134:259|134:259|169:205|231:197|231:197|227:192|227:192|231:197|231:197|227:192|227:192|231:197|231:197|227:192|227:192|231:197|231:197|227:192|227:192|231:197|231:197|227:192|227:192|231:197|231:197|227:192|227:192|231:197|231:197|227:192|227:192|231:197|231:197|227:192|227:192|231:197|231:197|227:192|227:192|231:197|231:197|227:192|227:192|231:197|231:197|175:138|201:51|201:51|199:57|199:57|201:52|201:52|199:57|199:57|201:52|201:52|199:57|199:57|201:52|201:52|199:57|199:57|201:52|201:52|199:57|199:57|201:51|201:51|199:57|199:57|201:52|201:52|199:57|199:57|201:52|201:52|199:57|199:57|201:52|201:52|199:57|199:57|201:52|201:52|199:57|199:57|201:52|201:52|199:57|199:57|201:52|201:52|199:57|199:57|201:52|201:52|199:58|199:58|199:57|199:57|175:138|231:197|231:197|227:197|227:197|231:197|231:197|227:197|227:197|231:197|231:197|227:197|227:197|231:197|231:197|227:196|227:196|231:197|231:197|227:196|227:196|231:197|231:197|227:197|227:197|231:197|231:197|227:197|227:197|231:197|231:197|227:197|227:197|231:197|231:197|227:197|227:197|231:197|231:197|227:197|227:197|231:197|231:197|227:198|227:198|231:197|231:197|227:198|227:198|231:197|231:197|227:198|227:198|231:197|231:197|227:198|227:198|232:197|232:197|227:198|227:198|231:197|231:197|227:198|227:198|232:197|232:197|227:198|227:198|232:197|232:197|227:198|227:198|232:197|232:197|227:198|227:198|231:197|231:197|227:198|227:198|232:197|232:197|169:205|134:259|134:259|137:256|137:256|134:259|134:259|137:256|137:256|134:259|134:259|137:256|137:256|134:259|134:259|137:256|137:256|134:259|134:259|137:256|137:256|134:259|134:259|137:256|137:256|134:259|134:259|137:256|137:256|134:259|134:259|137:256|137:256|134:260|134:260|137:256|137:256|134:260|134:260|137:256|137:256|134:260|134:260|137:256|137:256|134:260|134:260|137:256|137:256|134:260|134:260|137:256|137:256|134:260|134:260|137:256|137:256|134:260|134:260|137:256|137:256|134:260|134:260|137:256|137:256|134:260|134:260|137:256|137:256|134:260|134:260|138:256|138:256|134:260|134:260|169:205|232:197|232:197|227:192|227:192|232:197|232:197|227:192|227:192|232:197|232:197|227:192|227:192|232:197|232:197|227:192|227:192|232:197|232:197|227:192|227:192|232:197|232:197|227:192|227:192|232:197|232:197|227:192|227:192|232:197|232:197|227:192|227:192|232:197|232:197|227:192|227:192|232:197|232:197|175:138|201:52|201:52|207:55|207:55|201:51|201:51|207:55|207:55|201:51|201:51|207:55|207:55|201:51|201:51|207:55|207:55|201:52|201:52|207:55|207:55|201:52|201:52|207:55|207:55|201:52|201:52|207:55|207:55|201:52|201:52|207:55|207:55|201:51|201:51|207:55|207:55|201:52|201:52|207:55|207:55|201:51|201:51|276:78|338:18|338:18|334:23|334:23|338:18|338:18|334:23|334:23|338:18|338:18|334:23|334:23|338:18|338:18|334:23|334:23|338:18|338:18|334:23|334:23|338:18|338:18|334:23|334:23|338:18|338:18|334:23|334:23|337:18|337:18|334:23|334:23|338:18|338:18|333:23|333:23|338:18|338:18|334:23|334:23|337:18|337:18|334:23|334:23|337:18|337:18|334:23|334:23|337:18|337:18|334:23|334:23|337:18|337:18|333:23|333:23|337:18|337:18|276:78|284:167,1,2595.59992078858
256,192,92496,12,0,93496,0:0:0:0:
97,326,93534,22,0,P|41:268|99:163,1,185.399994342041,0|0,3:0|0:0,0:0:0:0:
71,177,93688,2,0,P|38:258|96:325,1,185.399994342041,0|0,0:0|3:0,0:0:0:0:
96,325,93842,1,0,3:0:0:0:
307,280,93996,1,0,0:0:0:0:
203,368,94150,54,0,L|192:167,1,185.399994342041,0|0,3:0|0:0,0:0:0:0:
105,95,94458,86,0,P|93:151|51:188,1,92.6999971710206,0|0,3:0|0:0,0:0:0:0:
307,155,94611,2,0,P|278:118|270:73,1,92.6999971710206,0|0,0:0|0:0,0:0:0:0:
184,0,94765,85,0,3:0:0:0:
193,183,94919,1,0,0:0:0:0:
187,91,95073,53,0,3:0:0:0:
197,279,95227,1,0,0:0:0:0:
357,83,95381,86,0,B|430:31|430:31|513:109,1,185.399994342041,0|0,3:0|0:0,0:0:0:0:
499,96,95534,2,0,B|421:148|421:148|343:70,1,185.399994342041,0|0,0:0|3:0,0:0:0:0:
356,83,95688,1,0,3:0:0:0:
417,335,95842,1,0,0:0:0:0:
492,242,95996,86,0,B|403:245|403:245|431:244|431:244|303:249,1,206,0|0,3:0|0:0,0:0:0:0:
6,268,96304,53,0,3:0:0:0:
232,257,96458,1,0,0:0:0:0:
56,99,96611,86,0,P|73:140|78:209,1,92.6999971710206,0|0,3:0|0:0,0:0:0:0:
130,374,96765,2,0,P|128:327|139:282,1,92.6999971710206,0|0,0:0|0:0,0:0:0:0:
284,131,96919,1,0,3:0:0:0:
6,268,97073,1,0,0:0:0:0:
285,214,97227,54,0,P|241:61|282:214,1,494.39998491211,4|2,0:0|0:2,0:2:0:0:
285,214,97534,6,0,P|241:61|282:214,1,494.39998491211,2|0,0:0|0:0,0:2:0:0:
285,214,97842,102,0,P|241:61|282:214,1,494.39998491211,0|2,0:0|0:2,0:0:0:0:
285,214,98150,6,0,P|241:61|282:214,1,494.39998491211,2|0,0:0|3:0,0:0:0:0:
285,214,98458,5,0,3:0:0:0:
439,182,98611,1,0,0:0:0:0:
429,348,98765,2,0,B|393:267|393:267|454:151,1,185.399994342041,0|0,3:0|0:0,0:0:0:0:
468,51,99073,54,0,B|430:48|430:48|410:32|410:32|392:45|392:45|350:42|350:42|326:57|326:57|308:40|308:40|251:36,1,206,0|0,3:0|0:0,0:0:0:0:
284,39,99227,2,0,B|308:40|308:40|326:57|326:57|350:42|350:42|392:45|392:45|410:32|410:32|430:48|430:48|468:51,1,206,0|0,0:0|3:0,0:0:0:0:
468,51,99381,1,0,3:0:0:0:
384,125,99534,1,0,0:0:0:0:
198,69,99688,86,0,L|186:264,1,144.199995599365,0|0,3:0|0:0,0:0:0:0:
198,69,99996,86,0,L|187:238,1,103,0|0,3:0|0:0,0:0:0:0:
184,304,100150,1,0,0:0:0:0:
0,298,100304,54,0,P|48:210|145:271,1,185.399994342041,0|0,3:0|0:0,0:0:0:0:
118,223,100458,2,0,P|202:265|279:182,1,185.399994342041,0|0,0:0|0:0,0:0:0:0:
269,217,100611,2,0,P|353:175|430:258,1,185.399994342041,0|0,0:0|0:0,0:0:0:0:
420,222,100765,1,0,0:0:0:0:
338,364,100919,86,0,B|342:272|342:272|338:375,1,185.399994342041,0|0,3:0|0:0,0:0:0:0:
191,173,101227,85,0,3:0:0:0:
185,347,101381,1,0,0:0:0:0:
0,83,101534,54,0,B|54:84|54:84|108:128|108:128|174:88|174:88|245:90|245:90|298:54|298:54|348:92|348:92|430:94,1,463.500017681123,0|0,3:0|0:0,0:0:0:0:
115,35,101688,1,0,0:0:0:0:
296,150,101842,1,0,3:0:0:0:
412,93,101996,1,0,0:0:0:0:
309,359,102150,22,0,B|235:254|235:254|295:150|295:150|373:243|373:243|309:350|309:350|235:254|235:254|295:150|295:150|373:243|373:243|309:359|309:359|235:254|235:254|295:150|295:150|373:243|373:243|309:350|309:350|235:254|235:254|295:150|295:150|373:243|373:243|308:360,1,1977.59993964844,4|0,0:0|3:0,0:0:0:0:
309,357,103381,53,0,3:0:0:0:
178,182,103534,1,0,0:0:0:0:
9,345,103688,86,0,B|70:345|70:345|70:314|70:345|70:345|93:345|93:345|93:378|93:345|93:345|116:345|116:345|116:313|116:345|116:345|137:345|137:345|137:373|137:345|137:345|226:345,1,309.000011787415,0|0,3:0|0:0,0:0:0:0:
194,345,103842,2,0,B|136:345|136:345|136:373|136:345|136:345|115:345|115:345|115:313|115:345|115:345|92:345|92:345|92:378|92:345|92:345|69:345|69:345|69:314|69:345|69:345|8:345,1,309.000011787415,0|0,0:0|3:0,0:0:0:0:
9,345,103996,1,0,3:0:0:0:
99,163,104150,1,0,0:0:0:0:
309,357,104304,54,0,L|319:161,1,185.399994342041,0|0,3:0|0:0,0:0:0:0:
309,357,104611,1,0,3:0:0:0:
431,189,104765,86,0,B|435:143|435:143|430:212,1,92.6999971710206,2|0,0:0|0:0,0:0:0:0:
423,302,104919,1,0,0:0:0:0:
206,154,105073,86,0,B|202:108|202:108|207:177,1,92.6999971710206,2|0,0:0|0:0,0:0:0:0:
212,270,105227,1,0,0:0:0:0:
468,48,105381,53,0,0:0:0:0:
468,48,105458,1,0,0:0:0:0:
468,48,105534,2,0,B|368:16|394:124|258:66,1,185.399994342041,2|0,3:2|0:0,0:0:0:0:
293,78,105688,1,0,0:0:0:0:
423,302,105842,86,0,L|430:209,1,92.6999971710206,0|0,3:0|0:0,0:0:0:0:
438,132,105996,1,0,0:0:0:0:
196,213,106150,85,0,3:0:0:0:
512,266,106304,1,0,0:0:0:0:
293,78,106458,54,0,B|279:142|279:142|311:193|311:193|291:299,1,185.399994342041,0|0,3:0|0:0,0:0:0:0:
299,251,106611,2,0,B|310:192|310:192|278:141|278:141|294:76,1,185.399994342041,0|0,0:0|3:0,0:0:0:0:
293,77,106765,1,0,3:0:0:0:
286,333,106919,1,0,0:0:0:0:
91,243,107073,22,0,B|-10:115|-10:115|155:91|155:91|87:250,1,494.39998491211,4|2,3:2|0:0,0:0:0:0:
91,243,107381,6,0,B|-10:115|-10:115|155:91|155:91|87:250,1,494.39998491211,2|0,0:0|0:0,0:0:0:0:
91,243,107688,102,0,B|-10:115|-10:115|155:91|155:91|87:250,1,494.39998491211,0|2,0:0|0:0,0:0:0:0:
91,243,107996,6,0,B|-10:115|-10:115|155:91|155:91|87:250,1,494.39998491211,2|0,0:0|3:0,0:0:0:0:
90,242,108304,37,0,3:0:0:0:
239,56,108458,1,0,0:0:0:0:
287,258,108611,86,0,B|232:367|232:367|185:252,1,247.199992456055,0|0,3:0|0:0,0:0:0:0:
185,252,108765,2,0,B|239:142|239:142|286:257,1,247.199992456055,0|0,0:0|3:0,0:0:0:0:
287,258,108919,1,0,3:0:0:0:
90,242,109073,1,0,0:0:0:0:
379,268,109227,54,0,L|565:277,1,133.899993870545,0|0,3:0|0:0,0:0:0:0:
490,79,109534,86,0,P|401:107|349:11,1,206,0|0,3:0|0:0,0:0:0:0:
347,25,109688,2,0,P|368:86|420:111,1,103,0|0,0:0|0:0,0:0:0:0:
345,192,109842,86,0,P|256:164|204:260,1,206,0|0,3:0|0:0,0:0:0:0:
202,247,109996,2,0,P|223:186|275:161,1,103,0|0,0:0|0:0,0:0:0:0:
167,100,110150,54,0,P|78:128|26:32,1,206,0|0,3:0|0:0,0:0:0:0:
24,46,110304,2,0,P|45:107|97:132,1,103,0|0,0:0|0:0,0:0:0:0:
107,44,110458,85,0,3:0:0:0:
124,335,110611,1,2,0:0:0:0:
16,326,110765,86,0,B|30:219|155:207|155:207|232:341|232:341|71:332,1,463.500017681123,0|0,3:0|0:0,0:0:0:0:
157,207,110919,1,0,0:0:0:0:
325,345,111073,54,0,L|179:338,1,92.6999971710206,0|0,3:0|0:0,0:0:0:0:
124,335,111227,1,0,0:0:0:0:
406,232,111381,86,0,B|484:282|459:398|459:398|484:282|384:216,1,370.799988684082,0|0,3:0|3:0,0:0:0:0:
256,113,111842,1,0,0:0:0:0:
102,222,111996,54,0,B|95:189|95:189|101:217|101:217|83:140|83:140|93:181|93:181|88:161|88:161|93:181|93:181|88:161|88:161|74:100|74:100|77:112|77:112|62:46|62:46|167:63|167:63|147:160,1,556.199983026124,0|0,3:0|0:0,0:0:0:0:
154,123,112534,1,0,0:0:0:0:
154,123,112611,5,0,0:0:0:0:
256,192,113227,102,0,B|255:1768|255:1768|255:-29156,1,32496.5,0|0,3:0|3:0,3:0:0:0:
256,192,113304,6,0,B|199:1768|199:1768|1279:-29138,1,32496.5,0|0,0:0|0:0,0:0:0:0:
256,192,113381,102,0,B|144:1765|144:1765|2302:-29084,1,32496.5
256,192,113458,6,0,B|90:1760|90:1760|3322:-28995,1,32496.5,0|0,0:0|0:0,0:0:0:0:
256,192,113534,102,0,B|35:1753|35:1753|4339:-28870,1,32496.5,0|0,3:0|3:0,3:0:0:0:
256,192,113611,6,0,B|-18:1744|-18:1744|5351:-28710,1,32496.5,0|0,0:0|0:0,0:0:0:0:
256,192,113688,102,0,B|-72:1734|-72:1734|6356:-28514,1,32496.5
256,192,113765,6,0,B|-126:1721|-126:1721|7354:-28284,1,32496.5
256,192,113842,102,0,B|-179:1707|-179:1707|8344:-28019,1,32496.5,0|0,3:0|3:0,3:0:0:0:
256,192,113919,6,0,B|-206:1699|-206:1699|8835:-27873,1,32496.5,0|0,0:0|0:0,0:0:0:0:
256,192,113996,102,0,B|-232:1691|-232:1691|9324:-27719,1,32496.5
256,192,114073,6,0,B|-258:1682|-258:1682|9809:-27557,1,32496.5,0|0,0:0|0:0,0:0:0:0:
256,192,114150,102,0,B|-284:1673|-284:1673|10292:-27386,1,32496.5,0|0,3:0|3:0,3:0:0:0:
256,192,114227,6,0,B|-310:1663|-310:1663|10772:-27207,1,32496.5,0|0,0:0|0:0,0:0:0:0:
256,192,114304,102,0,B|-335:1653|-335:1653|11249:-27019,1,32496.5
256,192,114381,6,0,B|-361:1643|-361:1643|11722:-26823,1,32496.5,0|0,0:0|0:0,0:0:0:0:
256,192,114458,102,0,B|-386:1632|-386:1632|12191:-26619,1,32496.5,0|0,3:0|3:0,3:0:0:0:
256,192,114534,6,0,B|-411:1620|-411:1620|12658:-26406,1,32496.5,0|0,0:0|0:0,0:0:0:0:
256,192,114611,102,0,B|-436:1608|-436:1608|13120:-26186,1,32496.5
256,192,114688,6,0,B|-485:1583|-485:1583|14033:-25721,1,32496.5,0|0,0:0|0:0,0:0:0:0:
256,192,114765,102,0,B|-533:1557|-533:1557|14929:-25224,1,32496.5,0|0,3:0|3:0,3:0:0:0:
256,192,114842,6,0,B|-603:1514|-603:1514|16239:-24421,1,32496.5
256,192,114919,102,0,B|-693:1450|-693:1450|17917:-23246,1,32496.5
256,192,114996,6,0,B|-758:1399|-758:1399|19119:-22290,1,32496.5,0|0,0:0|0:0,0:0:0:0:
256,192,115073,102,0,B|-879:1286|-879:1286|21366:-20195,1,32496.5,0|0,3:0|3:0,3:0:0:0:
256,192,115150,6,0,B|-987:1162|-987:1162|23381:-17877,1,32496.5,0|0,0:0|0:0,0:0:0:0:
256,192,115227,102,0,B|-1081:1026|-1081:1026|25143:-15360,1,32496.5
256,192,115304,6,0,B|-1161:882|-1161:882|26633:-12674,1,32496.5,0|0,0:0|0:0,0:0:0:0:
256,192,115381,102,0,B|-1226:730|-1226:730|27833:-9846,1,32496.5,0|0,3:0|3:0,3:0:0:0:
256,192,115458,6,0,B|-1274:572|-1274:572|28731:-6908,1,32496.5,0|0,0:0|0:0,0:0:0:0:
256,192,115534,102,0,B|-1301:437|-1301:437|29242:-4400,1,32496.5
256,192,115611,6,0,B|-1315:328|-1315:328|29492:-2366,1,32496.5,0|0,0:0|0:0,0:0:0:0:
256,192,115688,102,0,B|-1320:218|-1320:218|29599:-321,1,32496.5,0|0,3:0|3:0,3:0:0:0:
256,192,115765,6,0,B|-1318:108|-1318:108|29563:1726,1,32496.5
256,192,115842,102,0,B|-1309:-1|-1309:-1|29385:3767,1,32496.5
256,192,115919,6,0,B|-1286:-136|-1286:-136|28962:6292,1,32496.5,0|0,0:0|0:0,0:0:0:0:
256,192,115996,102,0,B|-1251:-270|-1251:-270|28321:8771,1,32496.5,0|0,3:0|3:0,3:0:0:0:
256,192,116073,6,0,B|-1225:-348|-1225:-348|27834:10228,1,32496.5,0|0,0:0|0:0,0:0:0:0:
256,192,116150,102,0,B|-1184:-450|-1184:-450|27067:12127,1,32496.5
256,192,116227,6,0,B|-1122:-573|-1122:-573|25924:14419,1,32496.5,0|0,0:0|0:0,0:0:0:0:
256,192,116304,102,0,B|-1035:-713|-1035:-713|24297:17024,1,32496.5,0|0,3:0|3:0,3:0:0:0:
256,192,116381,6,0,B|-933:-843|-933:-843|22405:19445,1,32496.5,0|0,0:0|0:0,0:0:0:0:
256,192,116458,102,0,B|-818:-962|-818:-962|20272:21655,1,32496.5
256,192,116534,6,0,B|-692:-1068|-692:-1068|17918:23629,1,32496.5,0|0,0:0|0:0,0:0:0:0:
256,192,116611,102,0,B|-578:-1145|-578:-1145|15808:25079,1,32496.5,0|0,3:0|3:0,3:0:0:0:
256,192,116688,6,0,B|-483:-1200|-483:-1200|14034:26104,1,32496.5,0|0,0:0|0:0,0:0:0:0:
256,192,116765,102,0,B|-409:-1237|-409:-1237|12659:26789,1,32496.5
256,192,116842,6,0,B|-359:-1260|-359:-1260|11724:27206,1,32496.5,0|0,0:0|0:0,0:0:0:0:
256,192,116918,102,0,B|-307:-1280|-307:-1280|10774:27589,1,32496.5,0|0,3:0|3:0,3:0:0:0:
256,192,116958,12,0,118034,0:0:0:0:
256,192,118148,6,0,B|-307:-1280|-307:-1280|10774:27589,1,32496.5,0|0,3:0|3:0,3:0:0:0:
256,192,118224,102,0,B|-256:-1299|-256:-1299|9811:27940,1,32496.5
256,192,118301,6,0,B|-203:-1316|-203:-1316|8837:28256,1,32496.5,0|0,0:0|0:0,0:0:0:0:
256,192,118378,102,0,B|-124:-1338|-124:-1338|7356:28667,1,32496.5
256,192,118455,6,0,B|-43:-1356|-43:-1356|5856:29000,1,32496.5,0|0,3:0|3:0,3:0:0:0:
256,192,118532,102,0,B|10:-1365|10:-1365|4848:29177,1,32496.5
256,192,118609,6,0,B|65:-1373|65:-1373|3833:29320,1,32496.5,0|0,0:0|0:0,0:0:0:0:
256,192,118686,102,0,B|119:-1378|119:-1378|2814:29427,1,32496.5
256,192,118763,6,0,B|174:-1382|174:-1382|1793:29499,1,32496.5,0|0,3:0|3:0,3:0:0:0:
256,192,118840,102,0,B|229:-1384|229:-1384|769:29534,1,32496.5
256,192,118917,6,0,B|257:-1384|257:-1384|257:29539,1,32496.5,0|0,0:0|0:0,0:0:0:0:
256,192,118994,102,0,B|284:-1384|284:-1384|-255:29534,1,32496.5
256,192,119071,6,0,B|312:-1383|312:-1383|-767:29521,1,32496.5,0|0,3:0|3:0,3:0:0:0:
256,192,119148,102,0,B|339:-1382|339:-1382|-1278:29499,1,32496.5
256,192,119224,6,0,B|367:-1380|367:-1380|-1790:29468,1,32496.5,0|0,0:0|0:0,0:0:0:0:
256,192,119301,102,0,B|422:-1376|422:-1376|-2810:29378,1,32496.5
256,192,119378,6,0,B|476:-1369|476:-1369|-3827:29253,1,32496.5,0|0,3:0|3:0,3:0:0:0:
256,192,119455,102,0,B|531:-1360|531:-1360|-4839:29093,1,32496.5
256,192,119532,6,0,B|585:-1350|585:-1350|-5844:28898,1,32496.5,0|0,0:0|0:0,0:0:0:0:
256,192,119609,102,0,B|638:-1337|638:-1337|-6842:28667,1,32496.5
256,192,119686,6,0,B|718:-1315|718:-1315|-8323:28257,1,32496.5,0|0,3:0|3:0,3:0:0:0:
256,192,119763,102,0,B|770:-1298|770:-1298|-9297:27940,1,32496.5
256,192,119840,6,0,B|822:-1279|822:-1279|-10260:27590,1,32496.5,0|0,0:0|0:0,0:0:0:0:
256,192,119917,102,0,B|873:-1259|873:-1259|-11209:27206,1,32496.5
256,192,119994,6,0,B|948:-1224|948:-1224|-12608:26569,1,32496.5,0|0,3:0|3:0,3:0:0:0:
256,192,120071,102,0,B|1021:-1186|1021:-1186|-13970:25860,1,32496.5
256,192,120148,6,0,B|1115:-1129|1115:-1129|-15726:24805,1,32496.5,0|0,0:0|0:0,0:0:0:0:
256,192,120224,102,0,B|1115:-1129|1115:-1129|-15726:24805,1,32496.5
256,192,120301,6,0,B|1227:-1049|1227:-1049|-17811:23318,1,32496.5,0|0,3:0|3:0,3:0:0:0:
256,192,120378,102,0,B|1312:-979|1312:-979|-19380:22002,1,32496.5
256,192,120455,6,0,B|1391:-902|1391:-902|-20853:20579,1,32496.5,0|0,0:0|0:0,0:0:0:0:
256,192,120532,102,0,B|1548:-711|1548:-711|-23783:17025,1,32496.5
256,192,120609,6,0,B|1661:-522|1661:-522|-25892:13516,1,32496.5,0|0,3:0|3:0,3:0:0:0:
256,192,120686,102,0,B|1673:-498|1673:-498|-26120:13058,1,32496.5
256,192,120763,6,0,B|1728:-371|1728:-371|-27141:10710,1,32496.5,0|0,0:0|0:0,0:0:0:0:
256,192,120840,102,0,B|1764:-267|1764:-267|-27808:8773,1,32496.5
256,192,120917,6,0,B|1792:-161|1792:-161|-28338:6794,1,32496.5,0|0,3:0|3:0,3:0:0:0:
256,192,120994,102,0,B|1809:-80|1809:-80|-28645:5289,1,32496.5
256,192,121071,6,0,B|1817:-26|1817:-26|-28805:4277,1,32496.5,0|0,0:0|0:0,0:0:0:0:
256,192,121148,102,0,B|1824:28|1824:28|-28930:3260,1,32496.5
256,192,121224,6,0,B|1829:83|1829:83|-29019:2240,1,32496.5,0|0,3:0|3:0,3:0:0:0:
256,192,121301,102,0,B|1831:138|1831:138|-29073:1217,1,32496.5
256,192,121378,6,0,B|1832:193|1832:193|-29091:193,1,32496.5,0|0,0:0|0:0,0:0:0:0:
256,192,121455,102,0,B|1831:248|1831:248|-29073:-831,1,32496.5
256,192,121532,6,0,B|1828:303|1828:303|-29020:-1854,1,32496.5
256,192,121609,102,0,B|1824:358|1824:358|-28930:-2874,1,32496.5
256,192,121686,6,0,B|1817:412|1817:412|-28805:-3891,1,32496.5,0|0,0:0|0:0,0:0:0:0:
256,192,121763,102,0,B|1803:494|1803:494|-28552:-5406,1,32496.5
256,192,121842,37,0,3:0:0:0:
266,40,121995,1,2,0:0:0:0:
143,115,122149,21,0,0:0:0:0:
377,129,122303,1,2,0:0:0:0:
159,13,122457,21,0,0:0:0:0:
159,13,122611,1,2,0:0:0:0:
134,248,122765,1,0,0:0:0:0:
134,248,122918,1,2,0:0:0:0:
377,129,123072,54,0,L|378:132,1,3.8625,0|0,3:0|0:0,0:0:0:0:
376,354,123228,2,0,L|377:351,1,3.8625
258,188,123382,102,0,L|259:191,1,3.8625,0|0,3:0|0:0,0:0:0:0:
256,325,123535,2,0,L|257:322,1,3.8625
134,248,123690,6,0,L|135:251,1,3.8625,0|0,3:0|0:0,0:0:0:0:
383,248,123844,2,0,L|382:251,1,3.8625
135,137,123998,102,0,L|134:140,1,3.8625,0|0,3:0|0:0,0:0:0:0:
142,360,124151,2,0,L|141:357,1,3.8625,0|0,0:0|0:0,0:0:0:0:
376,354,124305,6,0,L|377:351,1,3.8625,0|0,3:0|0:0,0:0:0:0:
256,325,124459,2,0,L|257:322,1,3.8625
377,129,124613,102,0,L|378:132,1,3.8625,0|0,3:0|0:0,0:0:0:0:
258,188,124767,2,0,L|259:191,1,3.8625
382,251,124921,6,0,L|383:248,1,3.8625,0|0,3:0|0:0,0:0:0:0:
135,251,125075,2,0,L|134:248,1,3.8625
256,325,125228,102,0,L|257:322,1,3.8625,0|0,3:0|0:0,0:0:0:0:
258,188,125382,2,0,L|259:191,1,3.8625
141,357,125536,6,0,L|142:360,1,3.8625,0|0,3:0|0:0,0:0:0:0:
134,140,125689,2,0,L|135:137,1,3.8625
376,354,125844,102,0,L|375:357,1,3.8625,0|0,3:0|0:0,0:0:0:0:
377,135,125997,2,0,L|376:132,1,3.8625
135,251,126151,6,0,L|134:248,1,3.8625,0|0,3:0|0:0,0:0:0:0:
134,140,126305,2,0,L|135:137,1,3.8625
382,251,126459,102,0,L|383:248,1,3.8625,0|0,3:0|0:0,0:0:0:0:
377,135,126613,2,0,L|376:132,1,3.8625
135,251,126767,6,0,L|134:248,1,3.8625,0|0,3:0|0:0,0:0:0:0:
382,251,126921,2,0,L|383:248,1,3.8625,2|0,0:0|0:0,0:0:0:0:
134,140,127075,102,0,L|135:137,1,3.8625
377,135,127228,2,0,L|376:132,1,3.8625,2|0,0:0|0:0,0:0:0:0:
141,357,127382,6,0,L|142:360,1,3.8625
376,354,127536,2,0,L|375:357,1,3.8625,2|0,0:0|0:0,0:0:0:0:
258,188,127690,102,0,L|259:185,1,3.8625
258,188,127844,2,0,L|259:185,1,3.8625,2|0,0:0|0:0,0:0:0:0:
94,192,127998,6,0,L|95:189,1,3.8625,0|0,3:0|0:0,0:0:0:0:
254,31,128151,2,0,L|255:28,1,3.8625
256,356,128305,102,0,L|257:353,1,3.8625,0|0,3:0|0:0,0:0:0:0:
416,192,128459,2,0,L|417:189,1,3.8625
172,275,128613,6,0,L|173:272,1,3.8625,0|0,3:0|0:0,0:0:0:0:
334,115,128767,2,0,L|335:112,1,3.8625
175,115,128921,102,0,L|176:118,1,3.8625,0|0,3:0|0:0,0:0:0:0:
337,275,129075,2,0,L|338:278,1,3.8625
254,31,129228,6,0,L|255:34,1,3.8625,0|0,3:0|0:0,0:0:0:0:
256,356,129382,2,0,L|257:353,1,3.8625
416,192,129536,102,0,L|415:189,1,3.8625,0|0,3:0|0:0,0:0:0:0:
97,189,129690,2,0,L|96:192,1,3.8625,0|0,0:0|0:0,0:0:0:0:
172,275,129844,6,0,L|173:272,1,3.8625,0|0,3:0|0:0,0:0:0:0:
175,115,129998,2,0,L|176:118,1,3.8625,0|0,0:0|0:0,0:0:0:0:
337,275,130151,102,0,L|336:272,1,3.8625,0|0,3:0|0:0,0:0:0:0:
335,111,130305,2,0,L|334:114,1,3.8625,0|0,0:0|0:0,0:0:0:0:
256,356,130459,6,0,L|255:353,1,3.8625,0|0,3:0|0:0,0:0:0:0:
97,189,130613,2,0,L|98:192,1,3.8625,0|0,0:0|0:0,0:0:0:0:
415,195,130767,102,0,L|414:192,1,3.8625,0|0,3:0|0:0,0:0:0:0:
256,28,130921,2,0,L|257:31,1,3.8625,0|0,0:0|0:0,0:0:0:0:
97,189,131075,6,0,L|98:192,1,3.8625,0|0,3:0|0:0,0:0:0:0:
256,28,131228,2,0,L|257:31,1,3.8625,0|0,0:0|0:0,0:0:0:0:
256,356,131382,102,0,L|255:353,1,3.8625,0|0,3:0|0:0,0:0:0:0:
415,195,131535,2,0,L|414:192,1,3.8625,0|0,0:0|0:0,0:0:0:0:
97,189,131690,6,0,L|96:192,1,3.8625,0|0,3:0|0:0,0:0:0:0:
415,195,131844,2,0,L|416:198,1,3.8625,2|0,0:0|0:0,0:0:0:0:
256,28,131998,102,0,L|255:31,1,3.8625
256,356,132151,2,0,L|255:353,1,3.8625,2|0,0:0|0:0,0:0:0:0:
256,28,132305,6,0,L|255:31,1,3.8625
255,192,132459,2,0,L|256:189,1,3.8625,2|0,0:0|0:0,0:0:0:0:
21,310,132921,6,0,P|7:285|10:219,1,51.5,0|0,3:0|0:0,0:0:0:0:
160,270,133075,2,0,P|185:255|251:259,1,51.5
83,259,133228,2,0,P|90:231|139:186,1,51.5,0|0,3:0|0:0,0:0:0:0:
209,335,133382,2,0,P|236:342|281:391,1,51.5,0|0,0:0|0:0,0:0:0:0:
512,265,133536,102,0,P|490:251|465:244,1,51.5,0|0,3:0|0:0,0:0:0:0:
463,161,133690,2,0,P|438:166|415:179,1,51.5,0|0,0:0|0:0,0:0:0:0:
359,122,133843,2,0,P|345:143|338:168,1,51.5,0|0,3:0|0:0,0:0:0:0:
258,172,133997,2,0,P|263:196|276:219,1,51.5,0|0,0:0|0:0,0:0:0:0:
18,45,134151,6,0,P|4:70|7:136,1,51.5,0|0,3:0|0:0,0:0:0:0:
157,85,134305,2,0,P|182:99|248:96,1,51.5,0|0,0:0|0:0,0:0:0:0:
80,96,134458,2,0,P|87:123|136:168,1,51.5,0|0,3:0|0:0,0:0:0:0:
206,20,134612,2,0,P|233:12|278:-36,1,51.5,0|0,0:0|0:0,0:0:0:0:
10,356,134767,102,0,P|31:342|56:335,1,51.5,0|0,3:0|0:0,0:0:0:0:
59,252,134921,2,0,P|83:257|106:270,1,51.5,0|0,0:0|0:0,0:0:0:0:
163,213,135074,2,0,P|176:234|183:259,1,51.5,0|0,3:0|0:0,0:0:0:0:
264,263,135228,2,0,P|258:287|245:310,1,51.5,0|0,0:0|0:0,0:0:0:0:
506,253,135382,6,0,P|484:266|459:273,1,51.5,0|0,3:0|0:0,0:0:0:0:
457,357,135536,2,0,P|432:351|409:338,1,51.5,0|0,0:0|0:0,0:0:0:0:
423,124,135690,102,0,P|401:110|376:103,1,51.5,0|0,3:0|0:0,0:0:0:0:
374,20,135844,2,0,P|349:25|326:38,1,51.5,0|0,0:0|0:0,0:0:0:0:
217,249,135998,6,0,P|195:262|170:269,1,51.5,0|0,3:0|0:0,0:0:0:0:
218,134,136152,2,0,P|196:120|171:113,1,51.5,0|0,0:0|0:0,0:0:0:0:
168,353,136305,102,0,P|143:347|120:334,1,51.5,0|0,3:0|0:0,0:0:0:0:
169,29,136459,2,0,P|144:34|121:47,1,51.5,0|0,0:0|0:0,0:0:0:0:
12,191,136613,101,0,3:0:0:0:
160,191,136767,1,2,0:0:0:0:
256,384,136921,5,0,3:0:0:0:
256,192,137075,1,2,0:0:0:0:
500,191,137228,101,0,3:0:0:0:
352,191,137382,1,2,0:0:0:0:
256,0,137536,5,0,3:0:0:0:
256,384,137690,1,2,0:0:0:0:
454,27,137844,6,0,L|459:104,1,51.5,0|0,3:0|0:0,0:0:0:0:
371,76,137998,2,0,L|376:153,1,51.5
53,92,138151,102,0,L|48:169,1,51.5,0|0,3:0|0:0,0:0:0:0:
138,128,138305,2,0,L|133:205,1,51.5
463,201,138459,6,0,L|468:278,1,51.5,0|0,3:0|0:0,0:0:0:0:
362,357,138613,2,0,L|359:306,1,51.5
44,247,138767,102,0,L|39:324,1,51.5,0|0,3:0|0:0,0:0:0:0:
172,371,138921,2,0,L|175:319,1,51.5
210,17,139075,6,0,L|219:109,1,51.5,0|0,3:0|0:0,0:0:0:0:
302,17,139228,2,0,L|293:109,1,51.5
143,97,139382,102,0,L|152:189,1,51.5,0|0,3:0|0:0,0:0:0:0:
373,95,139536,2,0,L|364:187,1,51.5
193,375,139690,6,0,L|202:283,1,51.5,0|0,3:0|0:0,0:0:0:0:
322,375,139844,2,0,L|313:283,1,51.5
125,285,139998,102,0,L|134:193,1,51.5,0|0,3:0|0:0,0:0:0:0:
390,283,140151,2,0,L|381:191,1,51.5
2,111,140305,6,0,L|99:122,1,51.5,0|0,3:0|0:0,0:0:0:0:
4,270,140459,2,0,L|101:259,1,51.5
139,82,140613,102,0,L|236:93,1,51.5,0|0,3:0|0:0,0:0:0:0:
143,287,140767,2,0,L|240:276,1,51.5
287,67,140921,6,0,L|384:78,1,51.5,0|0,3:0|0:0,0:0:0:0:
291,304,141075,2,0,L|388:293,1,51.5,0|0,0:0|0:0,0:0:0:0:
431,54,141228,102,0,L|528:65,1,51.5,0|0,3:0|0:0,0:0:0:0:
441,323,141382,2,0,L|538:312,1,51.5,0|0,0:0|0:0,0:0:0:0:
512,193,141536,5,0,3:0:0:0:
256,192,141613,12,0,142690,0:0:0:0:
132,156,142765,102,0,B|80:139|80:139|221:188,1,185.399994342041,2|0,0:0|0:0,0:0:0:0:
284,320,142995,2,0,B|294:372|294:372|266:225,1,185.399994342041,0|0,0:0|0:0,0:0:0:0:
354,109,143226,2,0,B|395:74|395:74|282:172,1,185.399994342041,2|0,0:0|0:0,0:0:0:0:
99,347,143457,22,0,B|53:324|45:274|75:222|75:222|163:255|163:255|123:287,1,278.099991513062
133,280,143765,22,0,L|139:165,1,92.6999971710206,2|0,0:0|0:0,0:0:0:0:
217,36,143918,2,0,L|228:152,1,92.6999971710206
384,214,144072,86,0,B|422:114|422:114|329:27|329:27|346:177,1,329.6
340,122,144457,86,0,L|440:111,1,82.4,2|0,0:0|0:0,0:0:0:0:
507,103,144611,1,0,0:0:0:0:
308,224,144765,102,0,B|253:207|226:128|226:128|225:209|205:272|205:272|204:191|134:163|134:163|89:205|61:262|91:282|114:288|114:288|129:275|151:244|89:200|31:187|31:187|-11:242|11:302|40:333,1,865.2
100,366,146457,22,0,P|126:368|162:353,1,61.8
401,213,147072,2,0,P|372:201|342:202,1,61.8,0|0,0:0|0:0,0:0:0:0:
189,262,147688,102,0,B|153:231|104:294|147:352|213:339|236:280|192:264|189:261,1,185.399994342041,2|0,0:0|0:0,0:0:0:0:
220,99,147918,2,0,B|223:96|267:80|244:21|178:8|135:66|184:129|220:98,1,185.399994342041,0|0,0:0|0:0,0:0:0:0:
342,201,148149,2,0,B|344:204|335:251|398:260|442:209|413:143|334:154|343:201,1,185.399994342041,2|0,0:0|0:0,0:0:0:0:
88,171,148380,22,0,B|53:168|53:168|60:169|60:169|43:167|43:167|53:168|53:168|34:167|34:167|43:167|43:167|25:166|25:166|222:181,1,278.099991513062
274,345,148688,22,0,B|256:302|256:302|279:219,1,92.6999971710206,2|0,0:0|0:0,0:0:0:0:
301,31,148841,2,0,B|319:74|319:74|292:156,1,92.6999971710206,0|0,0:0|0:0,0:0:0:0:
187,178,148995,86,0,B|118:99|118:99|174:115|174:115|222:78|222:78|182:194,1,329.6
133,259,149380,86,0,L|-49:250,1,133.899993870545,2|0,0:0|0:0,0:0:0:0:
98,343,149688,102,0,B|111:343|111:343|104:343|104:343|117:344|117:344|111:343|111:343|123:344|123:344|117:344|117:344|129:345|129:345|123:344|123:344|135:345|135:345|129:345|129:345|141:346|141:346|135:345|135:345|147:346|147:346|141:346|141:346|153:346|153:346|147:346|147:346|159:347|159:347|153:346|153:346|165:347|165:347|159:347|159:347|171:348|171:348|148:182|148:182|165:183|165:183|157:182|157:182|173:183|173:183|165:183|165:183|181:184|181:184|173:183|173:183|189:184|189:184|181:184|181:184|197:185|197:185|189:184|189:184|204:186|204:186|197:185|197:185|211:186|211:186|204:186|204:186|218:187|218:187|211:186|211:186|225:187|225:187|218:187|218:187|233:188|233:188|225:187|225:187|241:188|241:188|233:188|233:188|247:189|247:189|241:188|241:188|254:189|254:189|247:189|247:189|261:190|261:190|254:189|254:189|268:190|268:190|261:190|261:190|275:190|275:190|268:190|268:190|281:191|281:191|275:190|275:190|289:191|289:191|299:192|299:192|257:355|257:355|270:356|270:356|263:355|263:355|277:356|277:356|270:356|270:356|284:357|284:357|277:356|277:356|291:357|291:357|284:357|284:357|298:358|298:358|305:358|305:358|298:358|298:358|312:358|312:358|305:358|305:358|319:359|319:359|312:358|312:358|326:359|326:359|319:359|319:359|333:360|333:360|326:359|326:359|341:361|341:361|333:360|333:360|348:361|348:361|341:361|341:361|356:362|356:362|348:361|348:361|363:362|363:362|356:362|356:362|371:363|371:363|363:362|363:362|378:363|378:363|371:363|371:363|387:364|387:364|379:363|379:363|394:364|394:364|387:364|387:364|402:365|402:365|394:364|394:364|410:365|410:365|382:197|382:197|401:198|401:198|392:198|392:198|408:199|408:199|401:198|401:198|416:199|416:199|408:199|408:199|424:199|424:199|416:199|416:199|432:200|432:200|424:199|424:199|440:200|440:200|432:200|432:200|447:201|447:201|440:200|440:200|455:201|455:201|447:201|447:201|463:201|463:201|455:201|455:201|471:202|471:202|463:201|463:201|479:202|479:202|471:202|471:202|486:203|486:203|479:202|479:202|493:203|493:203|486:203|486:203|500:203|500:203|493:203|493:203|507:204|507:204|500:203|500:203|514:204|514:204|507:204|507:204|522:205|522:205|514:204|514:204|529:205|529:205|482:365,1,2060
462,117,151380,21,0,0:0:0:0:
476,37,151995,1,0,0:0:0:0:
178,140,152611,102,0,B|127:129|127:129|115:88|115:88|160:99|160:99|183:150,1,185.399994342041,2|0,0:0|0:0,0:0:0:0:
254,262,152841,2,0,B|279:309|279:309|255:344|255:344|235:303|235:303|259:252,1,185.399994342041,0|0,0:0|0:0,0:0:0:0:
331,128,153072,2,0,B|350:89|350:89|395:78|395:78|383:119|383:119|331:129,1,185.399994342041,2|0,0:0|0:0,0:0:0:0:
117,294,153303,22,0,B|102:202|102:202|103:211|103:211|102:205|102:205|104:214|104:214|102:206|102:206|104:217|104:217|103:209|103:209|105:221|105:221|104:215|104:215|105:223|105:223|104:218|104:218|106:227|106:227|104:214|104:214|106:231|106:231|106:225|106:225|107:235|107:235|106:229|106:229|108:239|108:239|107:234|107:234|108:243|108:243|108:238|108:238|109:247|109:247|108:242|108:242|110:251|110:251|109:246|109:246|110:255|110:255|109:248|109:248|111:259|111:259|110:252|110:252|111:263|111:263|111:257|111:257|112:266|112:266|111:260|111:260|113:270|113:270|112:265|112:265|113:274|113:274|112:268|112:268|114:278|114:278|113:273|113:273|114:282|114:282|113:275|113:275|115:285|115:285|114:280|114:280|115:288|115:288|115:283|115:283|116:290|116:290|121:315,1,463.500017681123
162,361,153611,22,0,B|117:384|117:384|33:343,1,103,2|0,0:0|0:0,0:0:0:0:
56,138,153765,2,0,B|103:114|103:114|148:137,1,103,0|0,0:0|0:0,0:0:0:0:
207,249,153918,38,0,B|358:202|380:63|234:23|200:196|332:313|332:313|346:196|472:187|472:187|372:148|377:37,1,849.750032415391
376,43,155688,21,0,0:0:0:0:
450,333,156918,1,0,0:0:0:0:
112,301,157534,102,0,B|56:287|56:287|194:323,1,185.399994342041,2|0,0:0|0:0,0:0:0:0:
402,259,157765,2,0,B|456:245|456:245|318:281,1,185.399994342041
117,184,157995,22,0,B|63:170|63:170|201:206,1,185.399994342041,2|0,0:0|0:0,0:0:0:0:
393,126,158226,2,0,B|447:112|447:112|309:148,1,185.399994342041
248,50,158457,22,0,B|230:55|208:49|207:28|207:28|207:-29|270:-43|307:-22|359:21|336:116|247:129|247:129|138:89|69:252|176:307|176:307|230:242|310:282,1,782.8
255,363,159995,85,2,0:0:0:0:
256,192,160072,12,0,162380,0:0:0:0:
142,217,162458,69,2,3:2:0:0:
348,256,162611,1,0,3:0:0:0:
272,78,162765,1,8,0:0:0:0:
209,338,162919,21,0,0:0:0:0:
232,336,162996,1,0,0:0:0:0:
255,334,163073,1,0,3:0:0:0:
278,332,163150,1,0,0:0:0:0:
301,330,163227,1,0,0:0:0:0:
142,217,163381,85,8,0:0:0:0:
315,329,163534,21,0,0:0:0:0:
285,331,163611,1,0,0:0:0:0:
255,334,163688,1,0,3:0:0:0:
225,336,163765,1,0,0:0:0:0:
195,339,163842,1,0,0:0:0:0:
354,176,163996,85,8,0:0:0:0:
178,341,164150,21,0,0:0:0:0:
216,337,164227,1,0,0:0:0:0:
255,334,164304,1,0,3:0:0:0:
294,330,164381,1,0,0:0:0:0:
333,328,164458,1,0,0:0:0:0:
128,137,164611,85,8,0:0:0:0:
255,334,164765,1,0,0:0:0:0:
380,103,164919,21,0,3:0:0:0:
380,103,165073,1,0,3:0:0:0:
186,195,165227,1,8,0:0:0:0:
464,250,165381,85,0,0:0:0:0:
480,223,165458,1,0,0:0:0:0:
484,192,165534,1,0,3:0:0:0:
479,161,165611,1,0,0:0:0:0:
467,132,165688,1,0,0:0:0:0:
390,338,165842,21,8,0:0:0:0:
462,115,165996,85,0,0:0:0:0:
477,152,166073,1,0,0:0:0:0:
484,192,166150,1,0,3:0:0:0:
478,233,166226,1,0,0:0:0:0:
458,268,166303,1,0,0:0:0:0:
391,38,166458,21,8,0:0:0:0:
452,291,166611,85,0,0:0:0:0:
477,244,166688,1,0,0:0:0:0:
484,192,166764,1,0,3:0:0:0:
476,140,166841,1,0,0:0:0:0:
455,90,166918,1,0,0:0:0:0:
380,359,167073,21,8,0:0:0:0:
286,126,167227,1,0,0:0:0:0:
183,351,167381,85,2,3:2:0:0:
183,351,167534,1,0,3:0:0:0:
371,196,167688,1,8,0:0:0:0:
209,31,167842,21,0,0:0:0:0:
232,34,167919,1,0,0:0:0:0:
255,37,167996,1,0,3:0:0:0:
278,40,168073,1,0,0:0:0:0:
301,43,168150,1,0,0:0:0:0:
157,192,168304,85,8,0:0:0:0:
321,30,168458,21,0,0:0:0:0:
288,33,168535,1,0,0:0:0:0:
255,37,168612,1,0,3:0:0:0:
222,42,168689,1,0,0:0:0:0:
189,46,168766,1,0,0:0:0:0:
351,242,168919,85,8,0:0:0:0:
171,26,169073,21,0,0:0:0:0:
212,31,169150,1,0,0:0:0:0:
255,37,169227,1,0,3:0:0:0:
298,42,169304,1,0,0:0:0:0:
341,46,169381,1,0,0:0:0:0:
168,274,169534,85,8,0:0:0:0:
255,37,169688,1,0,0:0:0:0:
332,328,169842,21,0,3:0:0:0:
332,328,169996,1,0,3:0:0:0:
257,125,170150,1,8,0:0:0:0:
55,248,170304,85,0,0:0:0:0:
40,220,170381,1,0,0:0:0:0:
29,190,170458,1,0,3:0:0:0:
40,161,170534,1,0,0:0:0:0:
56,135,170611,1,0,0:0:0:0:
124,346,170765,21,8,0:0:0:0:
65,119,170919,85,0,0:0:0:0:
44,152,170996,1,0,0:0:0:0:
29,190,171072,1,0,3:0:0:0:
44,229,171149,1,0,0:0:0:0:
63,265,171226,1,0,0:0:0:0:
122,37,171381,21,8,0:0:0:0:
74,288,171534,85,0,0:0:0:0:
49,241,171611,1,0,0:0:0:0:
29,190,171688,1,0,3:0:0:0:
49,141,171764,1,0,0:0:0:0:
76,98,171841,1,0,0:0:0:0:
217,360,171996,22,0,B|254:337|290:205|222:178|141:225|207:306|312:306,1,309,10|0,0:0|0:0,0:0:0:0:
470,300,172304,85,2,3:2:0:0:
407,143,172458,1,0,3:0:0:0:
374,366,172611,1,8,0:0:0:0:
470,89,172765,21,0,0:0:0:0:
444,68,172842,1,0,0:0:0:0:
414,59,172919,1,0,3:0:0:0:
383,65,172996,1,0,0:0:0:0:
355,79,173073,1,0,0:0:0:0:
397,281,173227,85,8,0:0:0:0:
487,98,173381,21,0,0:0:0:0:
453,70,173458,1,0,0:0:0:0:
414,59,173534,1,0,3:0:0:0:
373,66,173612,1,0,0:0:0:0:
337,85,173689,1,0,0:0:0:0:
393,321,173842,85,8,0:0:0:0:
503,118,173996,21,0,0:0:0:0:
464,73,174073,1,0,0:0:0:0:
414,59,174150,1,0,3:0:0:0:
360,68,174227,1,0,0:0:0:0:
317,103,174304,1,0,0:0:0:0:
388,361,174458,85,8,0:0:0:0:
407,143,174611,1,0,0:0:0:0:
210,321,174765,21,0,3:0:0:0:
210,321,174919,1,0,3:0:0:0:
465,241,175073,1,8,0:0:0:0:
209,149,175227,85,0,0:0:0:0:
178,145,175304,1,0,0:0:0:0:
147,130,175381,1,0,3:0:0:0:
116,137,175458,1,0,0:0:0:0:
85,133,175534,1,0,0:0:0:0:
335,250,175688,21,8,0:0:0:0:
224,154,175842,85,0,0:0:0:0:
178,145,175919,1,0,0:0:0:0:
150,107,175996,1,0,3:0:0:0:
118,140,176073,1,0,0:0:0:0:
72,147,176150,1,0,0:0:0:0:
359,257,176304,21,8,0:0:0:0:
232,161,176458,85,0,0:0:0:0:
172,143,176535,1,0,0:0:0:0:
154,83,176612,1,0,3:0:0:0:
125,137,176689,1,0,0:0:0:0:
63,142,176766,1,0,0:0:0:0:
135,297,176919,21,8,0:0:0:0:
250,65,177073,1,0,0:0:0:0:
299,352,177227,85,2,3:2:0:0:
299,352,177381,1,0,3:0:0:0:
140,216,177534,1,8,0:0:0:0:
426,136,177688,21,0,0:0:0:0:
425,166,177765,1,0,0:0:0:0:
424,196,177842,1,0,3:0:0:0:
422,226,177919,1,0,0:0:0:0:
422,256,177996,1,0,0:0:0:0:
319,84,178150,85,8,0:0:0:0:
427,274,178304,21,0,0:0:0:0:
427,235,178381,1,0,0:0:0:0:
424,196,178458,1,0,3:0:0:0:
423,157,178535,1,0,0:0:0:0:
421,119,178612,1,0,0:0:0:0:
320,343,178765,85,8,0:0:0:0:
428,96,178919,21,0,0:0:0:0:
425,145,178996,1,0,0:0:0:0:
424,196,179073,1,0,3:0:0:0:
420,246,179150,1,0,0:0:0:0:
420,297,179227,1,0,0:0:0:0:
295,61,179381,85,8,0:0:0:0:
505,207,179534,1,0,0:0:0:0:
216,273,179688,21,2,3:2:0:0:
295,61,179842,1,0,3:0:0:0:
342,325,179996,1,8,0:0:0:0:
95,256,180150,85,0,0:0:0:0:
70,226,180227,1,0,0:0:0:0:
52,191,180304,1,0,3:0:0:0:
66,155,180381,1,0,0:0:0:0:
88,123,180458,1,0,0:0:0:0:
339,191,180611,21,8,0:0:0:0:
108,276,180765,85,0,0:0:0:0:
75,237,180842,1,0,0:0:0:0:
52,191,180919,1,0,3:0:0:0:
70,144,180996,1,0,0:0:0:0:
98,103,181073,1,0,0:0:0:0:
366,192,181227,21,8,0:0:0:0:
125,302,181381,85,0,0:0:0:0:
82,251,181458,1,0,0:0:0:0:
52,191,181535,1,0,3:0:0:0:
75,130,181612,1,0,0:0:0:0:
112,77,181689,1,0,0:0:0:0:
395,194,181842,21,8,0:0:0:0:
244,329,181996,1,0,3:0:0:0:
260,70,182150,85,4,0:0:0:0:
419,258,183534,1,0,0:0:0:0:
418,268,183610,1,0,0:0:0:0:
417,279,183687,1,0,0:0:0:0:
416,290,183764,1,0,0:0:0:0:
415,301,183841,1,2,0:0:0:0:
497,290,183995,21,2,0:0:0:0:
335,302,184149,85,0,0:0:0:0:
336,287,184226,1,0,0:0:0:0:
337,272,184303,1,0,0:0:0:0:
338,256,184380,1,0,0:0:0:0:
339,241,184457,1,2,0:0:0:0:
497,290,184610,21,2,0:0:0:0:
262,222,184765,85,0,0:0:0:0:
260,242,184842,1,0,0:0:0:0:
259,263,184919,1,0,0:0:0:0:
257,286,184996,1,0,0:0:0:0:
256,307,185073,1,2,0:0:0:0:
417,279,185226,21,2,0:0:0:0:
174,317,185380,85,0,0:0:0:0:
176,289,185457,1,0,0:0:0:0:
178,259,185534,1,0,0:0:0:0:
180,227,185611,1,0,0:0:0:0:
182,198,185688,1,2,0:0:0:0:
337,272,185841,21,2,0:0:0:0:
105,168,185995,85,0,0:0:0:0:
102,207,186072,1,0,0:0:0:0:
99,249,186149,1,0,0:0:0:0:
96,293,186226,1,0,0:0:0:0:
93,334,186303,1,2,0:0:0:0:
259,263,186457,21,2,0:0:0:0:
11,356,186611,85,0,0:0:0:0:
13,301,186688,1,0,0:0:0:0:
18,242,186765,1,0,0:0:0:0:
22,182,186842,1,0,0:0:0:0:
26,124,186919,1,2,0:0:0:0:
178,259,187072,21,2,0:0:0:0:
164,81,187226,101,0,0:0:0:0:
194,83,187303,1,0,0:0:0:0:
224,85,187380,1,0,0:0:0:0:
254,88,187457,1,0,0:0:0:0:
284,90,187534,1,2,0:0:0:0:
164,81,187688,5,2,0:0:0:0:
333,285,187841,5,0,0:0:0:0:
313,287,187918,1,0,0:0:0:0:
292,288,187995,1,0,0:0:0:0:
272,290,188072,1,0,0:0:0:0:
251,292,188149,1,2,0:0:0:0:
410,276,188303,22,0,L|411:276,1,1.2875
333,160,191688,86,0,B|339:154|339:154|340:160|340:160|344:153|344:153|345:159|345:159|348:152|348:152|350:158|350:158|353:151|353:151|355:157|355:157|358:150|358:150|360:156|360:156|364:149|364:149|365:155|365:155|369:148|369:148|370:154|370:154|374:147|374:147|375:153|375:153|379:146|379:146|381:152|381:152|384:145|384:145|386:151|386:151|389:145|389:145|392:150|392:150|388:144|388:144|462:210|396:298,1,309
255,299,191995,85,0,3:0:0:0:
222,83,192148,1,0,0:0:0:0:
235,46,192225,1,0,0:0:0:0:
255,11,192302,1,2,0:0:0:0:
273,47,192379,1,0,0:0:0:0:
288,83,192456,1,0,0:0:0:0:
255,378,192610,69,0,0:0:0:0:
223,227,192764,1,0,0:0:0:0:
236,190,192841,1,0,0:0:0:0:
256,155,192918,1,2,0:0:0:0:
274,191,192995,1,0,0:0:0:0:
289,227,193072,1,0,0:0:0:0:
134,342,193225,37,0,0:0:0:0:
400,309,193379,1,0,0:0:0:0:
440,314,193456,1,0,0:0:0:0:
400,309,193533,1,2,0:0:0:0:
122,190,193687,69,0,0:0:0:0:
79,196,193764,1,0,0:0:0:0:
39,201,193841,1,0,0:0:0:0:
79,196,193918,1,0,0:0:0:0:
122,190,193995,1,0,0:0:0:0:
383,88,194148,37,2,0:0:0:0:
423,83,194225,1,0,0:0:0:0:
383,88,194302,1,0,0:0:0:0:
123,30,194456,69,0,0:0:0:0:
254,334,194610,1,0,0:0:0:0:
256,296,194687,1,0,0:0:0:0:
259,250,194764,1,2,0:0:0:0:
263,203,194841,1,0,0:0:0:0:
268,157,194918,1,0,0:0:0:0:
148,340,195071,37,0,0:0:0:0:
383,88,195225,1,0,0:0:0:0:
381,126,195302,1,0,0:0:0:0:
378,172,195379,1,2,0:0:0:0:
374,219,195456,1,0,0:0:0:0:
369,265,195533,1,0,0:0:0:0:
273,57,195687,69,0,0:0:0:0:
143,262,195841,1,0,0:0:0:0:
145,224,195918,1,0,0:0:0:0:
148,178,195995,1,2,0:0:0:0:
152,131,196071,1,0,0:0:0:0:
157,85,196148,1,0,0:0:0:0:
422,317,196302,6,0,B|469:334|456:393|456:393|397:367|430:288,1,185.399994342041
353,176,196456,2,0,B|307:159|316:100|316:100|378:127|340:209,1,185.399994342041
317,285,196610,102,0,B|301:333|242:322|242:322|268:261|349:295,1,185.399994342041,2|0,0:0|0:0,0:0:0:0:
451,213,196764,2,0,B|467:165|526:177|526:177|500:237|418:203,1,185.399994342041
383,249,196918,37,0,0:0:0:0:
68,303,197071,1,0,0:0:0:0:
39,278,197148,1,0,0:0:0:0:
73,265,197225,1,2,0:0:0:0:
68,303,197302,1,0,0:0:0:0:
39,278,197379,1,0,0:0:0:0:
255,362,197533,85,0,0:0:0:0:
424,168,197687,1,0,0:0:0:0:
453,193,197764,1,0,0:0:0:0:
419,206,197841,1,2,0:0:0:0:
424,168,197918,1,0,0:0:0:0:
453,193,197995,1,0,0:0:0:0:
255,20,198148,21,0,0:0:0:0:
70,127,198302,1,0,0:0:0:0:
41,102,198379,1,0,0:0:0:0:
75,89,198456,1,2,0:0:0:0:
70,127,198533,1,0,0:0:0:0:
41,102,198610,1,0,0:0:0:0:
254,190,198764,85,0,0:0:0:0:
424,113,198918,2,0,L|417:241,1,92.6999971710206
480,273,199071,21,2,0:0:0:0:
448,292,199148,1,0,0:0:0:0:
411,295,199225,1,0,0:0:0:0:
375,284,199302,1,0,0:0:0:0:
348,257,199379,1,0,0:0:0:0:
365,46,199533,85,0,0:0:0:0:
397,27,199610,1,0,0:0:0:0:
434,24,199687,1,2,0:0:0:0:
470,35,199764,1,0,0:0:0:0:
497,62,199841,1,0,0:0:0:0:
130,235,199995,21,0,0:0:0:0:
51,87,200148,85,0,0:0:0:0:
81,65,200225,1,0,0:0:0:0:
111,43,200302,1,2,0:0:0:0:
145,57,200379,1,0,0:0:0:0:
179,71,200456,1,0,0:0:0:0:
124,143,200610,21,0,0:0:0:0:
203,287,200764,85,0,0:0:0:0:
173,309,200841,1,0,0:0:0:0:
143,331,200918,1,2,0:0:0:0:
109,317,200995,1,0,0:0:0:0:
75,303,201071,1,0,0:0:0:0:
124,143,201225,22,0,L|133:263,1,92.6999971710206
143,331,201379,1,0,0:0:0:0:
373,177,201533,85,2,0:0:0:0:
373,177,201610,1,0,0:0:0:0:
373,177,201687,1,0,0:0:0:0:
124,143,201841,21,0,0:0:0:0:
61,207,201995,69,0,0:0:0:0:
92,231,202071,1,0,0:0:0:0:
131,236,202148,1,2,0:0:0:0:
170,228,202225,1,0,0:0:0:0:
201,202,202302,1,0,0:0:0:0:
120,344,202456,37,0,0:0:0:0:
233,172,202610,85,0,0:0:0:0:
264,148,202687,1,0,0:0:0:0:
303,143,202764,1,2,0:0:0:0:
342,151,202841,1,0,0:0:0:0:
373,177,202918,1,0,0:0:0:0:
258,61,203071,21,0,0:0:0:0:
280,373,203225,69,0,0:0:0:0:
285,339,203302,1,0,0:0:0:0:
287,305,203379,1,2,0:0:0:0:
291,271,203456,1,0,0:0:0:0:
295,238,203533,1,0,0:0:0:0:
280,373,203687,37,0,0:0:0:0:
300,202,203841,85,0,0:0:0:0:
305,168,203918,1,0,0:0:0:0:
307,134,203995,1,2,0:0:0:0:
311,100,204071,1,0,0:0:0:0:
315,67,204148,1,0,0:0:0:0:
300,202,204302,21,0,0:0:0:0:
86,104,204456,69,0,0:0:0:0:
123,91,204533,1,0,0:0:0:0:
161,80,204610,1,2,0:0:0:0:
194,102,204687,1,0,0:0:0:0:
223,129,204764,1,0,0:0:0:0:
86,104,204918,37,0,0:0:0:0:
72,302,205071,85,0,0:0:0:0:
43,276,205148,1,0,0:0:0:0:
14,249,205225,1,2,0:0:0:0:
17,209,205302,1,0,0:0:0:0:
25,170,205379,1,0,0:0:0:0:
72,302,205533,21,0,0:0:0:0:
244,213,205687,69,0,0:0:0:0:
236,251,205764,1,0,0:0:0:0:
227,289,205841,1,2,0:0:0:0:
191,307,205918,1,0,0:0:0:0:
153,319,205995,1,0,0:0:0:0:
244,213,206148,37,0,0:0:0:0:
86,104,206302,85,0,0:0:0:0:
123,91,206379,1,0,0:0:0:0:
161,80,206456,1,2,0:0:0:0:
194,102,206533,1,0,0:0:0:0:
223,129,206610,1,0,0:0:0:0:
260,114,206687,1,0,0:0:0:0:
295,94,206764,21,0,0:0:0:0:
479,181,206918,101,0,0:0:0:0:
467,134,206995,1,0,0:0:0:0:
425,113,207071,1,2,0:0:0:0:
395,149,207148,1,0,0:0:0:0:
404,195,207225,1,0,0:0:0:0:
425,113,207379,5,0,0:0:0:0:
382,309,207533,5,0,0:0:0:0:
370,356,207610,1,0,0:0:0:0:
328,377,207687,1,2,0:0:0:0:
298,341,207764,1,0,0:0:0:0:
307,295,207841,1,0,0:0:0:0:
328,377,207995,101,0,0:0:0:0:
299,172,208148,101,0,0:0:0:0:
287,125,208225,1,0,0:0:0:0:
245,104,208302,1,2,0:0:0:0:
215,140,208379,1,0,0:0:0:0:
224,186,208456,1,0,0:0:0:0:
245,104,208610,5,0,0:0:0:0:
212,303,208764,5,0,0:0:0:0:
200,350,208841,1,0,0:0:0:0:
158,371,208918,1,2,0:0:0:0:
128,335,208995,1,0,0:0:0:0:
137,289,209071,1,0,0:0:0:0:
158,371,209225,101,0,0:0:0:0:
237,93,209379,101,0,0:0:0:0:
275,62,209456,1,0,0:0:0:0:
313,91,209533,1,2,0:0:0:0:
302,138,209610,1,0,0:0:0:0:
253,143,209687,1,0,0:0:0:0:
204,16,209841,5,0,0:0:0:0:
311,272,209995,5,0,0:0:0:0:
352,303,210071,1,0,0:0:0:0:
387,274,210148,1,2,0:0:0:0:
376,227,210225,1,0,0:0:0:0:
327,222,210302,1,0,0:0:0:0:
269,356,210456,101,0,0:0:0:0:
436,145,210610,101,0,0:0:0:0:
474,114,210687,1,0,0:0:0:0:
512,143,210764,1,2,0:0:0:0:
501,190,210841,1,0,0:0:0:0:
452,195,210918,1,0,0:0:0:0:
436,145,211071,6,0,L|367:149,1,51.5
384,147,211225,22,0,L|293:152,1,82.4
302,152,211379,22,0,L|158:159,1,133.899993870545
168,158,211533,86,0,L|-10:167,1,164.8
3,166,211687,85,4,0:0:0:0:
131,307,221533,118,0,L|135:375,3,51.5,0|0|0|0,3:0|0:0|0:0|0:0,0:0:0:0:
199,218,221841,2,0,L|204:145,3,51.5,2|0|0|0,3:2|0:0|0:0|0:0,0:0:0:0:
351,302,222148,102,0,L|451:291,1,72.0999977996827,0|0,3:0|0:0,0:0:0:0:
512,269,222302,2,0,L|501:192,1,72.0999977996827,0|0,0:0|0:0,0:0:0:0:
438,119,222456,38,0,L|338:130,1,72.0999977996827,0|0,3:0|0:0,0:0:0:0:
277,148,222610,2,0,L|288:225,1,72.0999977996827,0|0,0:0|0:0,0:0:0:0:
370,217,222764,102,0,L|438:210,3,51.5,0|0|0|0,3:0|0:0|0:0|0:0,0:0:0:0:
255,322,223071,2,0,L|185:314,3,51.5,2|0|0|0,3:2|0:0|0:0|0:0,0:0:0:0:
205,136,223379,38,0,P|154:116|118:128,1,72.0999977996827,0|0,3:0|0:0,0:0:0:0:
74,67,223533,2,0,P|54:118|66:154,1,72.0999977996827,0|0,0:0|0:0,0:0:0:0:
4,200,223687,2,0,P|55:220|91:208,1,72.0999977996827,0|0,3:0|0:0,0:0:0:0:
136,266,223841,2,0,P|156:215|144:179,1,72.0999977996827,0|0,0:0|0:0,0:0:0:0:
74,67,223995,38,0,L|-3:60,3,51.5,0|0|0|0,3:0|0:0|0:0|0:0,0:0:0:0:
205,136,224302,2,0,L|263:130,3,51.5,2|0|0|0,3:2|0:0|0:0|0:0,0:0:0:0:
357,0,224610,38,0,L|350:110,1,72.0999977996827,0|0,3:0|0:0,0:0:0:0:
343,190,224764,2,0,L|336:300,1,72.0999977996827,0|0,0:0|0:0,0:0:0:0:
205,136,224918,102,0,L|296:128,1,72.0999977996827,0|0,3:0|0:0,0:0:0:0:
420,115,225071,2,0,L|511:107,1,72.0999977996827,0|0,0:0|0:0,0:0:0:0:
116,255,225225,102,0,P|109:230|132:167,3,51.5,0|0|0|0,3:0|0:0|0:0|0:0,0:0:0:0:
274,314,225533,2,0,P|284:344|270:395,3,51.5,2|0|0|0,3:2|0:0|0:0|0:0,0:0:0:0:
45,261,225841,102,0,L|145:254,1,72.0999977996827,0|0,3:0|0:0,0:0:0:0:
121,359,225995,2,0,L|221:352,1,72.0999977996827,0|0,0:0|0:0,0:0:0:0:
198,216,226148,38,0,L|298:209,1,72.0999977996827,0|0,3:0|0:0,0:0:0:0:
274,314,226302,2,0,L|374:307,1,72.0999977996827,0|0,0:0|0:0,0:0:0:0:
501,109,226456,102,0,L|500:112,1,3.8625,0|0,3:0|3:0,3:0:0:0:
504,273,226610,2,0,L|503:270,1,3.8625,0|0,3:0|3:0,3:0:0:0:
422,64,226764,38,2,L|421:67,1,3.8625,2|2,3:2|3:2,3:2:0:0:
424,311,226918,2,0,L|423:308,1,3.8625,0|0,3:0|3:0,3:0:0:0:
256,190,227071,5,0,3:0:0:0:
511,190,227225,1,0,3:0:0:0:
477,190,227302,1,0,0:0:0:0:
443,190,227379,1,0,3:0:0:0:
410,190,227456,1,0,0:0:0:0:
376,190,227533,1,0,3:0:0:0:
11,109,227687,22,0,L|12:112,1,3.8625,0|0,3:0|3:0,3:0:0:0:
8,273,227841,2,0,L|9:270,1,3.8625,0|0,3:0|3:0,3:0:0:0:
90,64,227995,38,2,L|91:67,1,3.8625,2|2,3:2|3:2,3:2:0:0:
88,311,228149,2,0,L|89:308,1,3.8625,0|0,3:0|3:0,3:0:0:0:
256,190,228302,53,0,3:0:0:0:
0,190,228456,1,0,3:0:0:0:
34,190,228533,1,0,0:0:0:0:
68,190,228610,1,0,3:0:0:0:
101,190,228687,1,0,0:0:0:0:
135,190,228764,1,0,3:0:0:0:
302,384,228918,21,0,3:0:0:0:
300,362,228995,1,0,3:0:0:0:
299,340,229071,1,0,3:0:0:0:
298,318,229148,1,0,3:0:0:0:
210,324,229225,69,2,3:2:0:0:
212,299,229302,1,0,3:0:0:0:
213,275,229379,1,0,3:0:0:0:
214,250,229456,1,0,3:0:0:0:
307,240,229533,69,0,3:0:0:0:
303,205,229610,1,0,3:0:0:0:
301,170,229687,1,0,3:0:0:0:
300,136,229764,1,0,3:0:0:0:
200,164,229841,53,0,3:0:0:0:
202,133,229918,1,0,3:0:0:0:
203,103,229995,1,0,3:0:0:0:
205,72,230071,1,0,3:0:0:0:
256,9,230148,86,0,B|256:46|256:46|256:37|256:37|256:55|256:55|256:46|256:46|256:65|256:65|256:55|256:55|256:75|256:75|256:65|256:65|256:86|256:86|256:75|256:75|256:96|256:96|256:86|256:86|256:108|256:108|256:122|256:122|256:108|256:108|256:137|256:137|256:122|256:122|256:153|256:153|256:137|256:137|256:172|256:172|256:153|256:153|256:190|256:190|256:172|256:172|256:209|256:209|256:190|256:190|256:227|256:227|256:209|256:209|256:244|256:244|256:227|256:227|256:262|256:262|256:244|256:244|256:278|256:278|256:262|256:262|256:296|256:296|256:278|256:278|256:318|256:318|256:296|256:296|256:338|256:338|256:318|256:318|256:358|256:358|256:338|256:338|256:378|256:378|256:-29,1,1357.0250258832
11,177,232610,6,0,B|37:155|49:117|49:117|94:12|-11:-21|-39:58|49:117|49:117|113:61|201:113,1,453.200013830567,0|0,3:0|0:0,0:0:0:0:
120,236,232764,5,0,0:0:0:0:
118,249,232841,1,0,0:0:0:0:
116,261,232918,2,0,L|103:367,2,72.0999977996827,0|0|0,3:0|0:0|0:0,0:0:0:0:
181,102,233225,102,0,B|312:14|312:14|290:181|290:181|244:159|244:159|194:189,1,432.599986798096,0|0,3:0|0:0,0:0:0:0:
235,333,233379,6,0,L|242:257,1,72.0999977996827,0|0,0:0|0:0,0:0:0:0:
17,248,233533,2,0,L|11:177,1,72.0999977996827,0|0,3:0|0:0,0:0:0:0:
181,102,233687,101,0,0:0:0:0:
363,355,233841,6,0,B|385:170|385:170|478:289,1,288.399991198731,0|0,3:0|3:0,0:0:0:0:
393,85,233995,1,0,0:0:0:0:
448,251,234148,102,0,B|399:272|399:272|304:242,1,103
62,176,234302,2,0,B|111:155|111:155|206:185,1,103,0|0,0:0|0:0,0:0:0:0:
256,211,234456,5,0,3:2:0:0:
242,29,234610,1,0,0:2:0:0:
109,275,234764,101,0,3:2:0:0:
107,290,234841,1,0,0:0:0:0:
111,264,234918,1,0,0:2:0:0:
260,110,235071,6,0,B|283:-3|283:-3|412:17|412:17|388:134|388:134|259:110,1,494.39998491211,0|0,3:0|0:0,0:0:0:0:
497,35,235225,101,0,0:0:0:0:
490,65,235301,1,0,0:0:0:0:
484,95,235378,1,0,3:0:0:0:
478,125,235455,1,0,0:0:0:0:
472,154,235532,1,0,0:0:0:0:
260,110,235687,6,0,B|216:62|149:83|149:83|156:60|148:37|148:37|102:91|39:93|-9:57,1,309,0|0,3:0|0:0,0:0:0:0:
133,217,235841,102,0,P|130:240|114:216,2,66.9499969352724,0|0|0,0:0|0:0|3:0,0:0:0:0:
21,74,236148,5,0,0:0:0:0:
69,309,236302,101,0,3:0:0:0:
113,334,236379,1,0,0:0:0:0:
160,326,236456,1,0,0:0:0:0:
439,194,236610,5,0,3:0:0:0:
395,169,236687,1,0,0:0:0:0:
348,177,236764,1,0,0:0:0:0:
139,150,236918,102,0,L|127:266,1,66.9499969352724,0|0,3:0|0:0,0:0:0:0:
388,323,237071,2,0,L|376:207,1,66.9499969352724,2|0,0:0|0:0,0:0:0:0:
229,124,237225,6,0,L|222:190,1,66.9499969352724,0|0,3:0|0:0,0:0:0:0:
303,378,237379,2,0,L|296:311,1,66.9499969352724,2|0,0:0|0:0,0:0:0:0:
353,78,237533,102,0,B|289:122|302:191|345:243|417:253|497:180|427:96|427:96|415:130|383:147,1,412,0|0,3:0|0:0,0:0:0:0:
477,292,237687,5,0,0:0:0:0:
482,324,237764,1,0,0:0:0:0:
488,359,237841,2,0,L|471:252,1,66.9499969352724,0|0,3:0|0:0,0:0:0:0:
424,14,237995,1,0,0:0:0:0:
390,142,238148,102,0,B|272:119|272:119|187:182|187:182|49:166,1,339.900010372925,0|0,3:0|0:0,0:0:0:0:
158,79,238302,6,0,L|46:65,1,77.2500029468538,0|0,0:0|0:0,0:0:0:0:
139,273,238456,2,0,L|62:263,1,77.2500029468538,0|0,3:0|0:0,0:0:0:0:
73,168,238610,1,0,0:0:0:0:
307,291,238764,102,0,B|317:377|317:377|242:356|210:322|222:256|222:256|288:204|288:204|370:222|370:222|416:283|388:340|308:382,1,618.00002357483,0|0,3:0|0:0,0:0:0:0:
278,120,238918,5,0,0:0:0:0:
278,120,238995,1,0,0:0:0:0:
278,120,239071,2,0,B|269:44|269:44|273:83,2,77.2500029468538,0|0|0,3:0|0:0|0:0,0:0:0:0:
319,375,239379,1,0,3:0:0:0:
63,264,239533,102,0,B|8:150|8:150|201:170,1,267.799987741089,0|0,0:2|0:2,0:0:0:0:
85,158,239687,1,0,3:0:0:0:
116,161,239764,1,0,0:0:0:0:
149,165,239841,1,0,0:0:0:0:
55,346,239995,6,0,B|-5:338|-5:338|144:358,1,200.849990805817,0|0,3:0|0:0,0:0:0:0:
204,83,240302,102,0,P|241:123|222:196,1,72.0999977996827,0|0,3:0|0:0,0:0:0:0:
324,103,240456,2,0,P|332:156|275:206,1,72.0999977996827,0|0,0:0|0:0,0:0:0:0:
420,186,240610,2,0,P|351:260|245:217,1,216.299993399048,0|0,3:0|0:0,0:0:0:0:
252,227,240918,6,0,P|297:258|334:263,1,72.0999977996827,0|0,3:0|0:0,0:0:0:0:
420,186,241071,1,0,0:0:0:0:
210,342,241225,102,0,B|206:339|210:342|210:342|206:339|206:339|210:342|210:342|206:339|206:339|210:342|210:342|206:339|206:339|210:342|210:342|210:342|210:342|206:339|206:339|210:342|210:342|206:338|206:338|210:342|210:342|210:342|210:342|205:338|205:338|210:342|210:342|205:338|205:338|209:341|209:341|210:342|210:342|205:339|205:339|210:342|210:342|205:339|205:339|210:342|210:342|205:338|205:338|210:342|210:342|205:338|205:338|210:342|210:342|205:338|205:338|209:342|209:342|205:338|205:338|210:342|210:342|210:342|210:342|205:338|205:338|209:342|209:342|205:339|205:339|209:342|209:342|205:339|205:339|210:342|210:342|206:339|206:339|209:342|209:342|205:338|205:338|209:342|209:342|206:339|206:339|209:342|209:342|205:339|205:339|209:342|209:342|205:339|205:339|209:342|209:342|205:338|205:338|209:342|209:342|206:339|206:339|210:342|210:342|206:339|206:339|209:342|209:342|205:338|205:338|210:342|210:342|205:338|205:338|209:342|209:342|205:338|205:338|210:343|210:343|205:339|205:339|210:342|210:342|204:338|204:338|210:342|210:342|204:338|204:338|209:342|209:342|204:338|204:338|210:342|210:342|204:338|204:338|209:342|209:342|204:338|204:338|209:341|209:341|133:233|15:205|15:205|148:165|245:29|245:29|199:198|212:383,1,1236.00004714966,0|0,3:0|0:0,0:0:0:0:
16,205,241533,5,0,0:0:0:0:
245,29,241687,1,0,0:0:0:0:
210,342,241841,1,0,0:0:0:0:
53,63,241995,1,2,0:2:0:0:
4,346,242148,102,0,L|156:343,1,103,0|0,3:0|0:0,0:0:0:0:
210,341,242302,2,0,L|58:344,1,103,2|0,0:2|0:0,0:0:0:0:
4,346,242456,6,0,L|156:343,1,103,0|0,3:0|0:0,0:0:0:0:
317,174,242610,101,0,0:0:0:0:
283,166,242687,1,0,0:0:0:0:
250,162,242764,2,0,L|376:183,1,66.9499969352724,0|0,3:0|0:0,0:0:0:0:
482,212,242918,1,0,0:0:0:0:
477,335,243071,6,0,B|408:335|356:279|359:212|388:173|388:173|515:145|515:145|453:274,1,432.599986798096,0|0,3:0|0:0,0:0:0:0:
156,178,243225,102,0,P|175:218|177:259,1,72.0999977996827
345,338,243379,2,0,P|350:302|367:270,1,72.0999977996827,0|0,3:0|0:0,0:0:0:0:
482,212,243533,5,0,0:0:0:0:
233,127,243687,102,0,B|201:51|201:51|279:-10|279:-10|357:54|357:54|315:144,1,370.799988684082,0|0,3:0|0:0,0:0:0:0:
259,283,243841,6,0,L|251:371,2,61.7999981140137,0|0|0,0:0|0:0|3:0,0:0:0:0:
320,135,244148,1,0,0:0:0:0:
85,239,244302,101,0,3:0:0:0:
85,239,244379,1,0,0:0:0:0:
85,239,244456,1,0,0:0:0:0:
19,95,244610,6,0,P|121:78|75:153,1,231.750008840561,0|0,3:0|0:0,0:0:0:0:
19,95,244918,102,0,B|25:36|93:14|152:60|149:121|106:149|82:152|82:152|-20:165|-40:267|-2:369|139:359|162:300|171:233,1,618.00002357483,0|0,3:0|0:0,0:0:0:0:
261,330,245071,5,0,0:0:0:0:
261,330,245148,1,0,0:0:0:0:
261,330,245225,2,0,L|270:242,2,61.7999981140137,0|0|0,3:0|0:0|0:0,0:0:0:0:
166,257,245533,102,0,B|191:156|300:152|300:152|345:251|470:255|531:189,1,401.699981611634,0|0,3:0|0:0,0:0:0:0:
227,171,245687,6,0,P|262:157|323:154,1,77.2500029468538,0|0,0:0|0:0,0:0:0:0:
364,308,245841,2,0,P|404:322|476:299,1,77.2500029468538,0|0,3:0|0:0,0:0:0:0:
482,222,245995,1,0,0:0:0:0:
472,53,246148,102,0,B|462:42|414:1|322:46|337:151|404:210|535:156|486:68|472:53,1,329.6,0|0,3:0|3:0,0:0:0:0:
219,77,246302,6,0,L|315:73,1,82.4
472,53,246456,1,0,0:0:0:0:
179,171,246610,102,0,L|111:167,2,66.9499969352724,0|0|0,0:0|0:0|3:0,0:0:0:0:
364,308,246918,1,0,0:0:0:0:
472,53,247071,6,0,B|370:23|392:125|264:88,1,200.849990805817,0|0,3:0|3:0,3:0:0:0:
158,39,247379,21,0,3:0:0:0:
134,289,247533,102,0,L|142:186,1,66.9499969352724
148,120,247687,22,0,L|138:248,1,103
128,371,247841,1,0,0:0:0:0:
255,160,247995,5,0,3:0:0:0:
247,281,248148,1,2,0:2:0:0:
45,148,248302,21,0,0:0:0:0:
31,271,248456,1,2,0:2:0:0:
156,32,248610,85,0,3:0:0:0:
378,289,248764,70,0,L|370:186,1,66.9499969352724
364,120,248918,22,0,L|374:248,1,103
384,371,249071,1,0,0:0:0:0:
255,160,249225,101,0,3:0:0:0:
263,288,249379,1,2,0:2:0:0:
480,141,249533,21,0,0:0:0:0:
488,269,249687,1,2,0:2:0:0:
255,28,249841,21,0,3:0:0:0:
115,326,249995,38,0,L|202:344,1,61.7999981140137,0|0,3:0|0:0,0:0:0:0:
408,328,250148,2,0,L|321:346,1,61.7999981140137,0|0,3:0|0:0,0:0:0:0:
107,215,250302,22,0,L|195:216,1,61.7999981140137,0|0,3:0|0:0,0:0:0:0:
405,215,250456,2,0,L|316:216,1,61.7999981140137,0|0,3:0|0:0,0:0:0:0:
106,119,250610,86,0,L|166:106,1,61.7999981140137,0|0,3:0|0:0,0:0:0:0:
406,119,250764,2,0,L|345:106,1,61.7999981140137,0|0,3:0|0:0,0:0:0:0:
255,28,250918,21,0,3:0:0:0:
255,357,251071,1,0,3:0:0:0:
482,116,251687,101,2,2:2:0:0:
480,135,251995,1,2,3:2:0:0:
187,324,252303,70,0,B|131:290|110:201|180:128|180:128|233:170|287:216|242:266|242:266|188:232|233:170|299:109,1,576.799982397461,4|0,3:2|0:0,0:0:0:0:
345,196,252457,5,0,0:0:0:0:
345,196,252533,1,0,0:0:0:0:
345,196,252610,1,0,3:0:0:0:
265,351,252764,1,0,0:0:0:0:
287,121,252918,102,0,P|408:126|315:287,1,370.799988684082,0|0,3:0|0:0,0:0:0:0:
64,266,253071,6,0,L|-19:256,2,61.7999981140137,0|0|0,0:0|0:0|3:0,0:0:0:0:
334,291,253379,1,0,0:0:0:0:
0,88,253533,102,0,B|107:69|107:69|190:163|190:163|232:44|232:44|394:12,1,494.39998491211,0|0,3:0|0:0,0:0:0:0:
209,252,253687,5,0,0:0:0:0:
209,252,253764,1,0,0:0:0:0:
209,252,253841,1,0,3:0:0:0:
159,7,253995,1,0,0:0:0:0:
363,18,254148,102,0,B|388:68|388:68|365:142,1,113.300003457642,0|0,3:0|0:0,0:0:0:0:
452,350,254456,6,0,B|457:271,1,56.6500017288209,0|0,3:0|0:0,0:0:0:0:
460,210,254610,1,0,0:0:0:0:
167,356,254764,102,0,P|249:535|341:351,1,494.39998491211,0|0,3:0|0:0,0:0:0:0:
251,159,254918,5,0,0:0:0:0:
251,159,254995,1,0,0:0:0:0:
251,159,255072,2,0,L|242:41,2,61.7999981140137,0|0|0,3:0|0:0|0:0,0:0:0:0:
347,358,255379,102,0,P|301:243|454:296,1,370.799988684082,0|0,3:0|0:0,0:0:0:0:
135,277,255533,5,0,0:0:0:0:
135,277,255610,1,0,0:0:0:0:
135,277,255687,1,0,3:0:0:0:
454,293,255841,1,0,0:0:0:0:
62,320,255995,102,0,P|163:197|166:356,1,412,0|0,3:0|0:0,0:0:0:0:
166,355,256302,2,0,P|163:197|62:320,1,412,0|0,3:0|3:0,0:0:0:0:
62,320,256610,5,0,0:0:0:0:
202,81,256764,1,2,0:2:0:0:
317,335,256918,1,0,3:0:0:0:
202,81,257071,1,2,0:2:0:0:
15,191,257225,102,0,B|72:173|137:193|174:267|174:267|239:179|351:214|351:214|294:196|273:134,1,494.39998491211,0|0,3:0|0:0,0:0:0:0:
234,335,257379,5,0,0:0:0:0:
199,360,257456,1,0,0:0:0:0:
158,365,257533,1,0,3:0:0:0:
120,347,257610,1,0,0:0:0:0:
99,319,257687,1,0,0:0:0:0:
279,148,257841,102,0,B|330:113|309:9|255:-1|255:-1|163:35|163:35|203:83,1,339.900010372925,0|0,3:0|0:0,0:0:0:0:
174,267,257995,5,0,0:0:0:0:
174,267,258071,1,0,0:0:0:0:
174,267,258148,1,0,3:0:0:0:
201,81,258302,1,0,0:0:0:0:
308,304,258456,102,0,B|408:266|438:133|438:133|415:268|493:360,1,453.200013830567,0|0,3:0|0:0,0:0:0:0:
512,99,258610,5,0,0:0:0:0:
491,71,258687,1,0,0:0:0:0:
453,53,258764,1,0,3:0:0:0:
412,58,258841,1,0,0:0:0:0:
377,83,258918,1,0,0:0:0:0:
485,350,259071,1,0,3:0:0:0:
297,167,259225,102,0,B|139:118|176:272|0:221,1,309
157,346,259379,5,0,3:0:0:0:
160,327,259456,1,0,0:0:0:0:
163,310,259533,1,0,0:0:0:0:
9,223,259687,102,0,B|24:345|24:345|8:222|8:222|22:345|22:345|8:220,1,494.39998491211,0|0,3:0|3:0,0:0:0:0:
68,119,259841,5,0,0:0:0:0:
157,346,259995,1,0,3:0:0:0:
160,327,260072,1,0,0:0:0:0:
163,310,260149,1,0,0:0:0:0:
9,223,260302,102,0,L|25:363,1,123.599996228027,0|0,3:0|0:0,0:0:0:0:
287,230,260610,2,0,L|271:370,1,123.599996228027,0|0,3:0|0:0,0:0:0:0:
86,121,260918,6,0,B|241:133,1,123.599996228027,0|0,3:0|0:0,0:0:0:0:
86,121,261225,102,0,B|251:134,1,133.899993870545,0|0,3:0|0:0,0:0:0:0:
86,121,261533,6,0,B|258:134,1,144.199995599365,0|2,3:0|0:2,0:0:0:0:
86,121,261841,102,0,L|163:126,1,66.9499969352724,0|0,3:0|0:0,0:0:0:0:
240,133,261995,2,0,L|327:139,1,66.9499969352724,2|0,0:2|0:0,0:0:0:0:
385,146,262148,6,0,B|414:94|414:94|295:34|295:34|318:261,1,412,0|0,3:0|0:0,0:0:0:0:
178,48,262302,101,0,0:0:0:0:
163,47,262378,1,0,0:0:0:0:
150,46,262456,2,0,L|78:41,2,61.7999981140137,0|0|0,3:0|0:0|0:0,0:0:0:0:
317,252,262764,2,0,B|244:271|200:209|200:209|199:323|109:362,1,309,0|0,3:0|0:0,0:0:0:0:
186,125,262917,5,0,0:0:0:0:
186,125,262994,1,0,0:0:0:0:
186,125,263071,1,0,3:0:0:0:
122,355,263225,1,0,0:0:0:0:
45,233,263378,101,0,3:0:0:0:
301,34,263532,1,0,0:0:0:0:
301,34,263609,1,0,0:0:0:0:
301,34,263686,1,0,3:0:0:0:
75,29,263840,1,0,0:0:0:0:
75,29,263917,1,0,0:0:0:0:
75,29,263994,1,0,3:0:0:0:
117,274,264148,1,0,0:0:0:0:
323,159,264302,6,0,B|426:149|426:149|316:160,1,206,0|0,3:0|0:0,0:0:0:0:
183,175,264610,102,0,B|425:148|425:148|279:13,1,412,0|0,3:0|0:0,0:0:0:0:
400,285,264764,6,0,L|410:205,1,51.5
465,2,264918,2,0,L|457:86,1,51.5,0|0,3:0|0:0,0:0:0:0:
512,144,265071,1,0,0:0:0:0:
301,33,265225,102,0,L|-7:65,1,278.099991513062,0|0,3:0|0:0,0:0:0:0:
133,51,265378,5,0,0:0:0:0:
165,47,265455,1,0,0:0:0:0:
190,45,265532,1,0,3:0:0:0:
24,61,265686,1,0,0:0:0:0:
301,33,265841,102,0,B|273:136|273:136|313:224|313:224|281:340,1,309,0|0,3:0|0:0,0:0:0:0:
165,230,265995,6,0,L|41:212,2,66.9499969352724,0|0|0,0:0|0:0|3:0,0:0:0:0:
285,326,266302,1,0,0:0:0:0:
379,130,266456,102,0,L|528:115,1,133.899993870545,0|0,3:0|0:0,0:0:0:0:
512,118,266610,2,0,L|362:132,1,133.899993870545
379,130,266764,6,0,P|422:17|508:127,1,309,0|0,3:0|0:0,0:0:0:0:
407,226,267071,102,0,B|324:244|283:158|283:158|240:242|282:317|282:317|245:270|189:231|94:294,1,494.39998491211,0|0,3:0|0:0,0:0:0:0:
270,72,267225,6,0,L|262:-23,2,61.7999981140137,0|0|0,0:0|0:0|3:0,0:0:0:0:
367,316,267532,1,0,0:0:0:0:
129,274,267687,102,0,B|37:248|30:150|48:100|101:62|101:62|66:122|86:187,1,370.799988684082,0|0,3:0|0:0,0:0:0:0:
183,375,267840,5,0,0:0:0:0:
183,375,267917,1,0,0:0:0:0:
183,375,267994,1,0,3:0:0:0:
80,160,268148,1,0,0:0:0:0:
69,379,268302,102,0,B|70:303|125:230|244:227|285:297|302:389|302:389|161:372,1,494.39998491211,0|0,3:0|0:0,0:0:0:0:
197,48,268456,5,0,0:0:0:0:
195,78,268533,1,0,0:0:0:0:
194,109,268610,1,0,3:0:0:0:
192,140,268687,1,0,0:0:0:0:
191,171,268764,1,0,0:0:0:0:
182,374,268917,102,0,L|199:-2,1,370.799988684082,0|0,3:0|0:0,0:0:0:0:
96,204,269071,6,0,L|103:92,1,61.7999981140137,0|0,0:0|0:0,0:0:0:0:
278,208,269225,2,0,L|281:146,1,61.7999981140137,0|0,3:0|0:0,0:0:0:0:
198,3,269378,1,0,0:0:0:0:
434,274,269533,101,0,3:0:0:0:
448,79,269687,5,0,0:0:0:0:
449,65,269764,1,0,0:0:0:0:
446,90,269841,1,0,3:0:0:0:
428,365,269995,101,0,0:0:0:0:
438,190,270148,1,0,3:0:0:0:
142,115,270302,6,0,P|157:153|157:214,1,61.7999981140137
291,262,270456,2,0,P|296:222|308:198,1,61.7999981140137,0|0,3:0|0:0,0:0:0:0:
438,190,270610,101,0,0:0:0:0:
72,173,270764,1,0,3:0:0:0:
256,192,270802,12,0,271917,0:0:0:0:
451,266,271995,38,0,L|442:149,1,113.300003457642,0|0,3:0|0:0,0:0:0:0:
460,358,272302,1,8,0:0:0:0:
442,153,272456,22,0,L|451:270,1,113.300003457642,2|0,0:0|0:0,0:0:0:0:
433,61,272764,1,8,0:0:0:0:
288,365,272918,21,0,0:0:0:0:
289,336,272995,1,0,0:0:0:0:
291,307,273071,1,0,0:0:0:0:
293,278,273148,1,0,0:0:0:0:
296,249,273225,2,0,L|369:254,1,56.6500017288209,0|0,3:0|0:0,0:0:0:0:
450,265,273379,1,0,0:0:0:0:
339,18,273533,38,0,B|348:160|348:160|287:92,1,200.849990805817,8|0,3:2|0:0,0:0:0:0:
433,113,273841,22,0,L|508:109,2,66.9499969352724,0|0|0,3:0|0:0|0:0,0:0:0:0:
448,331,274148,2,0,L|451:228,1,66.9499969352724,8|0,0:0|0:0,0:0:0:0:
308,116,274302,2,0,L|311:219,1,66.9499969352724
84,235,274456,102,0,B|67:183|67:183|90:113,1,113.300003457642,0|0,3:0|0:0,0:0:0:0:
162,187,274764,1,8,0:0:0:0:
87,20,274918,22,0,B|104:72|104:72|80:141,1,113.300003457642,2|0,3:2|0:0,0:0:0:0:
5,70,275225,1,8,0:0:0:0:
30,315,275379,21,0,0:0:0:0:
65,333,275456,1,0,0:0:0:0:
104,333,275533,1,0,0:0:0:0:
141,318,275610,1,0,0:0:0:0:
169,289,275687,1,0,3:0:0:0:
191,97,275841,38,0,L|182:4,2,56.6500017288209,2|0|8,0:0|0:0|0:0,0:0:0:0:
87,244,276148,1,0,0:0:0:0:
5,70,276302,21,0,3:0:0:0:
5,70,276379,1,0,0:0:0:0:
5,70,276456,2,0,L|107:82,1,56.6500017288209
191,97,276610,1,8,0:0:0:0:
169,289,276764,1,0,0:0:0:0:
423,105,276918,102,0,P|376:133|303:114,1,113.300003457642,0|0,3:0|0:0,0:0:0:0:
357,36,277225,1,8,0:0:0:0:
319,258,277379,22,0,P|375:250|423:279,1,113.300003457642,2|0,3:2|0:0,0:0:0:0:
357,348,277687,1,8,0:0:0:0:
423,105,277841,21,0,0:0:0:0:
435,67,277918,1,0,0:0:0:0:
454,32,277995,1,0,0:0:0:0:
473,66,278071,1,0,0:0:0:0:
489,102,278148,1,0,3:0:0:0:
477,357,278302,1,0,0:0:0:0:
512,204,278456,38,0,B|447:191|447:191|395:218|395:218|436:197|436:197|388:222|388:222|283:204,1,309,8|0,3:2|0:0,0:0:0:0:
305,207,278764,22,0,L|311:126,1,66.9499969352724,0|0,3:0|0:0,0:0:0:0:
316,38,278918,1,0,0:0:0:0:
379,313,279071,1,10,3:2:0:0:
423,105,279225,1,0,0:0:0:0:
128,146,279379,102,0,L|-7:137,1,113.300003457642,2|0,3:2|0:0,0:0:0:0:
219,156,279687,1,8,0:0:0:0:
98,261,279841,22,0,L|233:252,1,113.300003457642,2|0,3:2|0:0,0:0:0:0:
7,271,280148,1,8,0:0:0:0:
205,24,280302,21,0,0:0:0:0:
208,57,280379,1,0,0:0:0:0:
212,90,280456,1,0,0:0:0:0:
215,123,280533,1,0,0:0:0:0:
219,156,280610,1,0,3:0:0:0:
90,33,280764,37,0,0:0:0:0:
7,271,280918,1,8,3:2:0:0:
97,115,281071,1,0,0:0:0:0:
193,319,281225,1,0,3:0:0:0:
208,277,281302,1,0,0:0:0:0:
201,239,281379,1,0,0:0:0:0:
92,58,281533,22,0,L|100:158,1,56.6500017288209,8|0,3:2|0:0,0:0:0:0:
115,274,281687,1,0,0:0:0:0:
329,41,281841,102,0,B|385:1|385:1|369:92,1,133.899993870545,2|0,3:2|0:0,0:0:0:0:
337,287,282148,1,8,0:0:0:0:
303,185,282302,22,0,B|359:145|359:145|343:236,1,133.899993870545,2|0,3:2|0:0,0:0:0:0:
323,365,282610,1,8,0:0:0:0:
512,175,282764,21,0,0:0:0:0:
475,204,282841,1,0,0:0:0:0:
428,208,282918,1,0,0:0:0:0:
386,185,282995,1,0,0:0:0:0:
360,145,283071,1,0,3:0:0:0:
494,307,283225,1,0,0:0:0:0:
406,46,283379,38,0,B|398:33|398:33|402:39|402:39|393:25|393:25|398:33|398:33|388:19|388:19|393:25|393:25|382:12|382:12|388:19|388:19|378:6|378:6|383:12|383:12|374:1|374:1|503:9|425:150,1,309,8|0,0:2|0:0,0:0:0:0:
360,145,283687,2,0,L|275:137,2,66.9499969352724,0|0|0,3:0|0:0|0:0,0:0:0:0:
494,307,283995,22,0,L|408:315,1,66.9499969352724,8|0,3:2|0:0,0:0:0:0:
291,222,284148,2,0,L|358:229,1,66.9499969352724,2|0,0:0|0:0,0:0:0:0:
207,267,284302,102,0,P|194:212|225:156,1,113.300003457642,2|0,3:2|0:0,0:0:0:0:
125,355,284610,1,8,0:0:0:0:
32,160,284764,22,0,P|55:210|42:264,1,113.300003457642,0|0,3:0|0:0,0:0:0:0:
126,107,285071,1,8,0:0:0:0:
8,350,285225,21,0,0:0:0:0:
47,353,285302,1,0,0:0:0:0:
86,355,285379,1,0,0:0:0:0:
125,355,285456,1,0,0:0:0:0:
164,356,285533,1,0,3:0:0:0:
32,160,285687,37,0,0:0:0:0:
200,262,285841,1,8,3:2:0:0:
191,96,285995,1,0,0:0:0:0:
83,257,286148,1,0,3:0:0:0:
83,257,286225,1,0,0:0:0:0:
83,257,286302,1,0,0:0:0:0:
0,72,286456,22,0,B|111:30|96:147|226:80,1,200.849990805817,8|0,3:2|0:0,0:0:0:0:
353,160,286764,102,0,B|367:183|353:214|353:214|324:197|324:168,1,113.300003457642,0|0,3:0|0:0,0:0:0:0:
311,0,287071,1,0,0:0:0:0:
512,144,287225,22,0,B|526:120|512:89|512:89|483:106|483:135,1,113.300003457642,0|0,3:0|0:0,0:0:0:0:
469,284,287533,1,0,0:0:0:0:
290,85,287687,21,0,3:0:0:0:
324,85,287764,1,0,0:0:0:0:
356,75,287841,1,0,0:0:0:0:
380,51,287918,1,0,0:0:0:0:
396,21,287995,1,0,3:0:0:0:
385,301,288148,1,0,0:0:0:0:
482,178,288302,38,0,P|404:142|392:303,1,309,0|0,3:0|0:0,0:0:0:0:
498,321,288610,2,0,L|489:227,2,56.6500017288209,0|0|0,3:0|0:0|0:0,0:0:0:0:
472,69,288918,21,0,3:2:0:0:
412,223,289071,1,0,0:0:0:0:
160,124,289225,102,0,B|145:65|145:65|192:-4,1,113.300003457642,0|0,3:0|0:0,0:0:0:0:
189,212,289533,1,0,0:0:0:0:
0,189,289687,22,0,L|115:201,1,113.300003457642,0|0,3:0|0:0,0:0:0:0:
54,55,289995,1,0,0:0:0:0:
184,336,290148,21,0,0:0:0:0:
200,306,290225,1,0,0:0:0:0:
217,276,290302,1,0,0:0:0:0:
203,244,290379,1,0,0:0:0:0:
189,212,290456,1,0,3:0:0:0:
91,362,290610,37,0,0:0:0:0:
0,189,290764,1,0,3:0:0:0:
0,189,290841,1,0,0:0:0:0:
0,189,290918,1,0,0:0:0:0:
62,266,291071,22,0,L|146:273,1,56.6500017288209,0|0,3:0|0:0,0:0:0:0:
144,133,291225,2,0,L|228:140,1,56.6500017288209
251,273,291379,86,0,L|335:280,1,56.6500017288209,0|0,3:0|0:0,0:0:0:0:
328,147,291533,2,0,L|412:154,1,56.6500017288209
467,259,291687,54,0,B|494:277|494:277|425:230|425:230|323:185|385:82|385:82|506:166|506:166|365:288|365:288|156:130|76:393|8:93|8:93|218:149|155:24|318:39|318:39|224:198|365:288|365:288|304:336|304:336|243:298|154:299|119:347|119:347|208:329|256:373|256:373|289:358|341:371|341:371|328:341|369:288|369:288|430:326|430:326|215:219|318:39|318:39|384:-10|384:-10|531:87|531:87|436:-18|394:-453|394:-453|2192:-598|2192:-598|26674:14833,1,34299,0|0,3:0|0:0,0:0:0:0:
486,70,291841,1,0,0:0:0:0:
384,151,291994,1,0,0:0:0:0:
389,37,292147,70,0,L|383:162,1,113.300003457642,0|0,3:0|0:0,0:0:0:0:
256,30,292455,1,0,0:0:0:0:
126,129,292609,21,0,3:0:0:0:
97,127,292686,1,0,0:0:0:0:
65,122,292763,1,0,0:0:0:0:
37,117,292840,1,0,0:0:0:0:
11,113,292917,1,0,3:0:0:0:
135,22,293070,21,0,3:0:0:0:
255,150,293225,1,8,0:0:0:0:
381,36,293379,1,0,0:0:0:0:
148,132,293533,2,0,L|78:124,2,51.5
342,154,293840,38,0,L|335:90,1,51.5,8|0,0:0|0:0,0:0:0:0:
212,15,293994,22,0,L|219:79,1,51.5
433,134,294147,102,0,L|416:17,1,103,0|0,3:0|0:0,0:0:0:0:
255,150,294455,1,0,0:0:0:0:
93,32,294609,22,0,L|79:134,1,103,0|0,3:0|0:0,0:0:0:0:
256,30,294917,1,0,0:0:0:0:
379,139,295070,21,0,0:0:0:0:
418,151,295147,1,0,0:0:0:0:
458,145,295224,1,0,0:0:0:0:
495,124,295301,1,0,0:0:0:0:
506,84,295378,1,0,3:0:0:0:
256,30,295532,37,0,3:0:0:0:
419,18,295686,2,0,L|497:11,2,51.5,8|0|0,0:0|0:0|0:0,0:0:0:0:
154,24,295994,22,0,P|177:66|180:96,1,51.5
292,148,296147,2,0,P|293:122|302:98,1,51.5
419,18,296301,1,8,0:0:0:0:
288,246,296455,1,0,0:0:0:0:
504,250,296609,22,0,B|422:292|422:292|348:218|348:218|422:292|422:292|139:376|164:66|375:88|375:88|537:232|537:232|345:335|187:400|187:400|-3:255|23:34|332:-61|455:-7|455:-7|651:160|651:160|455:-7|455:-7|379:-83|245:-468|245:-468|1965:-1014|1965:-1014|29291:8515,1,33887,0|0,3:0|0:0,0:0:0:0:
401,236,296764,2,0,L|530:253,1,103
191,360,297070,69,0,3:0:0:0:
294,347,297224,2,0,L|176:363,1,103
393,351,297532,21,0,0:0:0:0:
394,322,297609,1,0,0:0:0:0:
397,293,297686,1,0,0:0:0:0:
399,264,297763,1,0,0:0:0:0:
401,236,297839,1,0,3:0:0:0:
481,356,297993,21,0,3:0:0:0:
191,360,298147,2,0,L|121:352,2,56.6500017288209,8|0|0,0:0|0:0|0:0,0:0:0:0:
486,236,298455,37,0,3:0:0:0:
484,275,298532,1,0,0:0:0:0:
482,314,298609,1,0,0:0:0:0:
301,229,298763,22,0,L|289:387,1,113.300003457642,0|0,3:0|0:0,0:0:0:0:
24,360,299070,102,0,P|19:295|53:252,1,103,0|0,3:0|0:0,0:0:0:0:
292,341,299378,1,0,0:0:0:0:
108,326,299532,22,0,L|250:336,1,103,0|0,3:0|0:0,0:0:0:0:
37,264,299839,1,0,0:0:0:0:
374,384,299993,21,0,0:0:0:0:
388,350,300070,1,0,0:0:0:0:
387,314,300147,1,0,0:0:0:0:
372,280,300224,1,0,0:0:0:0:
342,259,300301,1,0,3:0:0:0:
108,326,300455,37,0,3:0:0:0:
292,341,300609,1,8,0:0:0:0:
172,230,300763,2,0,L|180:293,1,51.5
16,370,300916,2,0,L|24:307,1,51.5
36,228,301070,21,0,0:0:0:0:
190,359,301224,1,8,0:0:0:0:
211,67,301378,1,0,0:0:0:0:
365,333,301532,22,0,B|384:175|384:175|272:193|272:193|384:175|384:175|332:314|532:361|532:361|510:288|616:246|616:246|1022:293|1022:293|1451:233|1451:233|1884:296|1884:296|1456:233|1456:233|1023:294|1023:294|613:246|613:246|176:309|176:309|72:271|5:172|89:112|225:98|225:98|337:81|337:81|337:46|314:8|249:4|249:4|338:-13|338:-77|338:-77|387:34|505:59|505:59|388:35|338:-77|338:-77|235:-108|-63:-385|-63:-385|1198:-1675|1198:-1675|29799:-6090,1,36256,0|0,3:0|0:0,0:0:0:0:
308,122,301687,2,0,B|290:69|290:69|312:13,1,113.300003457642
404,76,301994,69,0,3:0:0:0:
98,63,302148,2,0,L|239:69,1,113.300003457642
462,8,302456,21,0,0:0:0:0:
489,37,302533,1,0,0:0:0:0:
510,69,302610,1,0,0:0:0:0:
493,108,302687,1,0,0:0:0:0:
470,140,302763,1,0,3:0:0:0:
211,67,302917,21,0,3:0:0:0:
347,72,303071,2,0,L|426:77,2,56.6500017288209,8|0|0,0:0|0:0|0:0,0:0:0:0:
0,44,303379,38,0,P|39:28|74:43,1,56.6500017288209,0|0,3:0|0:0,0:0:0:0:
96,132,303533,2,0,P|135:148|170:133,1,56.6500017288209
274,25,303687,22,0,L|262:161,1,113.300003457642,8|0,0:0|0:0,0:0:0:0:
471,138,303994,102,0,P|391:131|358:86,1,103,0|0,3:0|0:0,0:0:0:0:
442,52,304302,1,0,0:0:0:0:
52,30,304456,22,0,P|132:37|165:82,1,103,0|0,3:0|0:0,0:0:0:0:
81,120,304763,1,0,0:0:0:0:
295,148,304917,21,0,0:0:0:0:
296,103,304994,1,0,0:0:0:0:
255,70,305071,1,0,0:0:0:0:
218,102,305148,1,0,0:0:0:0:
219,149,305225,1,0,3:0:0:0:
395,20,305379,37,0,3:0:0:0:
382,147,305533,1,8,0:0:0:0:
121,23,305687,21,0,0:0:0:0:
123,53,305763,1,0,0:0:0:0:
126,83,305840,1,8,0:0:0:0:
127,113,305917,1,0,0:0:0:0:
128,143,305994,1,0,0:0:0:0:
121,23,306148,1,8,0:0:0:0:
142,238,306302,1,0,0:0:0:0:
382,147,306455,22,0,B|384:96|384:96|369:75|325:44|231:46|231:46|127:68|115:25|115:25|183:-30|170:-47|170:-47|183:-30|115:25|115:25|127:68|230:46|230:46|224:152|129:159|129:159|379:114|379:297|379:297|304:281|304:281|299:219|233:208|109:240|109:240|177:244|192:295|192:323|159:347|159:347|189:395|229:390|229:390|333:329|499:327|499:327|424:319|377:284|377:284|384:94|384:94|330:43|330:43|362:-48|362:-48|288:-104|288:-104|85:11|-16:-52|-16:-52|125:-109|130:-168|130:-168|41:-645|41:-645|64:-438|64:-438|1565:-1438|1565:-1438|30459:189,1,34530.75,0|0,3:0|0:0,0:0:0:0:
315,255,306610,2,0,L|305:392,1,113.300003457642
428,264,306917,69,0,3:0:0:0:
200,300,307071,2,0,L|62:315,1,113.300003457642
419,366,307379,21,0,0:0:0:0:
422,332,307456,1,0,0:0:0:0:
425,298,307533,1,0,0:0:0:0:
428,264,307610,1,0,0:0:0:0:
431,230,307687,1,0,3:0:0:0:
306,367,307841,21,0,3:0:0:0:
256,229,307995,1,8,0:0:0:0:
31,318,308148,38,0,L|88:312,1,56.6500017288209
200,300,308302,1,0,0:0:0:0:
200,300,308379,1,0,0:0:0:0:
200,300,308456,1,0,0:0:0:0:
0,242,308610,22,0,L|134:229,1,113.300003457642,8|0,0:0|0:0,0:0:0:0:
424,334,308918,102,0,B|372:353|372:353|306:317,1,103,0|0,3:0|0:0,0:0:0:0:
378,252,309225,1,0,0:0:0:0:
106,296,309379,22,0,B|158:277|158:277|224:313,1,103,0|0,3:0|0:0,0:0:0:0:
152,376,309687,1,0,0:0:0:0:
433,330,309841,21,0,0:0:0:0:
404,342,309918,1,0,0:0:0:0:
373,352,309995,1,0,0:0:0:0:
343,336,310071,1,0,0:0:0:0:
317,321,310148,1,0,3:0:0:0:
378,252,310302,1,0,3:0:0:0:
2,230,310456,38,0,L|12:316,1,51.5,8|0,0:0|0:0,0:0:0:0:
140,361,310610,2,0,L|130:275,1,51.5
121,213,310764,1,0,0:0:0:0:
120,213,310841,1,0,0:0:0:0:
121,213,310918,1,0,0:0:0:0:
282,356,311071,21,8,0:0:0:0:
259,130,311224,1,0,0:0:0:0:
390,186,311379,102,0,B|380:264|448:318|448:318|375:260|281:307|281:307|229:344|224:403|284:435|343:408|334:335|286:307|286:307|229:250|229:250|178:292|169:357|169:357|181:292|119:213|119:213|125:239|111:308|28:299|28:299|5:277|0:230|55:224,1,1184.5
444,125,315071,101,2,0:0:0:0:
366,103,315686,1,0,0:0:0:0:
4,222,316302,38,0,B|90:213|131:108|131:108|175:174|175:240|175:240|178:302|160:343|93:355|93:355|64:301|94:236|175:240|175:240|201:288|236:321|322:303|349:243|326:172|326:172|355:257|398:290|398:290|400:247|429:205|479:202,1,1184.5,2|0,0:0|0:0,0:0:0:0:
251,210,319994,101,2,0:0:0:0:
260,115,320609,1,0,0:0:0:0:
22,309,321225,38,0,B|69:318|114:293|129:235|129:235|107:304|137:378|137:378|268:324|315:199|206:71|104:91|42:153|42:153|-21:71|73:14|73:14|66:59,1,978.5,2|0,0:0|0:0,0:0:0:0:
45,229,324302,37,0,0:0:0:0:
255,353,325532,1,0,0:0:0:0:
381,160,326148,38,0,B|288:177|288:177|239:85|239:85|211:240|211:240|146:168|146:168|58:185,1,540.74998349762,2|0,0:0|0:0,0:0:0:0:
277,368,328609,86,0,B|178:283|257:150|257:150|269:167|284:189|334:200|334:200|402:249|391:319|338:356|283:315|269:239|328:200|328:200|440:184|402:308|549:274|549:274|595:101|595:101|510:129|510:129|490:203|490:203|470:180|451:157|412:137|412:137|352:98|346:19|445:-22|487:62|455:107|413:133|413:133|397:135|373:123|339:127|339:127|303:114|290:61|316:26|330:0|330:0|280:93|171:86|171:86|192:160|124:224|124:224|157:153|113:91|48:77|-17:101|-44:173|-17:230|26:253|26:253|83:264|104:318|104:318|-59:236|-28:395|-218:344,1,2966.39990947266
