osu file format v14

[General]
AudioFilename: audio.mp3
AudioLeadIn: 0
PreviewTime: 121846
Countdown: 0
SampleSet: Soft
StackLeniency: 0.7
Mode: 0
LetterboxInBreaks: 0
WidescreenStoryboard: 1

[Editor]
Bookmarks: 39384,59076
DistanceSpacing: 1
BeatDivisor: 4
GridSize: 4
TimelineZoom: 4.399998

[Metadata]
Title:The Solace of Oblivion
TitleUnicode:The Solace of Oblivion
Artist:Helblinde
ArtistUnicode:Helblinde
Creator:Pogge
Version:Pogge
Source:
Tags:
BeatmapID:1207635
BeatmapSetID:569662

[Difficulty]
HPDrainRate:5
CircleSize:4
OverallDifficulty:8
ApproachRate:9.2
SliderMultiplier:1.4
SliderTickRate:1

[Events]
//Background and Video events
0,0,"aspire-2017-main-graphic-wallpaper.jpg",0,0
//Break Periods
//Storyboard Layer 0 (Background)
//Storyboard Layer 1 (Fail)
//Storyboard Layer 2 (Pass)
//Storyboard Layer 3 (Foreground)
//Storyboard Sound Samples

[TimingPoints]
0,307.692307692308,4,2,0,100,1,0
48000,-200,4,2,0,100,0,0
49384,-100,4,2,0,100,0,0
59076,-50,4,2,0,100,0,0
113230,-50,4,2,0,100,0,1
142769,-50,4,2,0,100,0,0

[HitObjects]
336,64,39384,5,0,0:0:0:0:
480,224,39692,1,0,0:0:0:0:
272,160,40000,1,0,0:0:0:0:
464,64,40307,1,0,0:0:0:0:
336,64,40615,1,0,0:0:0:0:
480,224,40923,1,0,0:0:0:0:
272,160,41230,1,0,0:0:0:0:
464,64,41538,1,0,0:0:0:0:
464,64,41692,1,0,0:0:0:0:
464,64,41846,5,0,0:0:0:0:
256,80,42153,1,0,0:0:0:0:
400,224,42461,1,0,0:0:0:0:
416,16,42769,1,0,0:0:0:0:
256,160,43076,1,0,0:0:0:0:
464,128,43384,1,0,0:0:0:0:
272,32,43692,2,0,P|272:96|320:176,1,140
448,320,44307,5,0,0:0:0:0:
256,256,44615,1,0,0:0:0:0:
176,64,44923,1,0,0:0:0:0:
368,144,45230,1,0,0:0:0:0:
208,272,45538,1,0,0:0:0:0:
176,64,45846,1,0,0:0:0:0:
352,180,46153,2,0,L|292:232,2,70
444,76,46769,5,0,0:0:0:0:
360,92,47076,1,0,0:0:0:0:
292,40,47384,1,0,0:0:0:0:
208,48,47692,1,0,0:0:0:0:
132,80,48000,2,0,B|100:128|100:128|164:144|164:144|100:176|100:176|180:224|180:224,1,280
272,316,49538,6,0,L|208:380,1,70
88,252,49846,2,0,L|24:204,1,70
180,112,50153,2,0,L|244:60,1,70
376,172,50461,2,0,L|440:220,1,70
228,160,50769,6,0,L|144:140,1,70
336,160,51076,2,0,L|418:135,1,70
260,244,51384,2,0,L|191:260,1,70
368,244,51692,2,0,L|436:260,1,70
256,148,52000,6,0,L|180:104,1,70
404,144,52307,2,0,L|480:100,1,70
284,220,52615,2,0,L|208:264,1,70
432,224,52923,2,0,L|508:268,1,70
324,136,53230,5,0,0:0:0:0:
324,136,53384,1,0,0:0:0:0:
460,176,53538,2,0,L|392:220,1,70
276,280,53846,1,0,0:0:0:0:
276,280,54000,1,0,0:0:0:0:
416,292,54153,6,0,L|496:256,1,70
480,184,54461,2,0,L|480:104,1,70
420,64,54769,2,0,L|340:32,1,70
276,36,55076,2,0,L|196:52,1,70
184,124,55384,2,0,L|264:140,1,70
328,120,55692,2,0,L|392:145,1,70
376,224,56000,2,0,L|311:249,1,70
236,264,56307,2,0,L|156:280,1,70
100,216,56615,5,0,0:0:0:0:
77,189,56691,1,0,0:0:0:0:
72,155,56768,1,0,0:0:0:0:
85,123,56845,1,0,0:0:0:0:
112,102,56923,1,0,0:0:0:0:
146,103,56999,1,0,0:0:0:0:
180,95,57076,1,0,0:0:0:0:
212,79,57153,1,0,0:0:0:0:
238,56,57230,5,0,0:0:0:0:
267,38,57306,1,0,0:0:0:0:
301,30,57383,1,0,0:0:0:0:
336,32,57460,1,0,0:0:0:0:
368,45,57537,1,0,0:0:0:0:
395,68,57614,1,0,0:0:0:0:
414,97,57691,1,0,0:0:0:0:
428,132,57769,1,0,0:0:0:0:
256,192,57846,12,0,58769,0:0:0:0:
368,96,59076,5,0,0:0:0:0:
368,96,59230,1,0,0:0:0:0:
200,80,59384,1,0,0:0:0:0:
112,192,59538,1,0,0:0:0:0:
122,225,59615,1,0,0:0:0:0:
142,253,59692,1,0,0:0:0:0:
169,274,59769,1,0,0:0:0:0:
202,286,59846,1,0,0:0:0:0:
236,275,59923,1,0,0:0:0:0:
272,256,60000,2,0,P|336:240|416:272,1,140
448,80,60307,5,0,0:0:0:0:
448,80,60461,1,0,0:0:0:0:
280,64,60615,1,0,0:0:0:0:
136,80,60769,1,0,0:0:0:0:
112,105,60846,1,0,0:0:0:0:
102,138,60923,1,0,0:0:0:0:
105,173,61000,1,0,0:0:0:0:
123,203,61076,2,0,P|168:272|120:336,1,140
288,304,61384,5,0,0:0:0:0:
288,304,61538,2,0,P|352:272|352:192,1,140
208,80,61846,2,0,P|152:104|64:80,1,140
80,232,62153,1,0,0:0:0:0:
107,253,62230,1,0,0:0:0:0:
140,263,62307,1,0,0:0:0:0:
175,261,62384,1,0,0:0:0:0:
207,246,62461,2,0,P|272:184|352:168,1,140
400,48,62769,5,0,0:0:0:0:
365,51,62846,1,0,0:0:0:0:
330,53,62923,1,0,0:0:0:0:
295,55,63000,1,0,0:0:0:0:
260,55,63076,1,0,0:0:0:0:
225,55,63153,1,0,0:0:0:0:
190,54,63230,1,0,0:0:0:0:
155,51,63307,1,0,0:0:0:0:
144,120,63384,6,0,L|136:200,1,70
178,123,63538,1,0,0:0:0:0:
213,125,63615,1,0,0:0:0:0:
248,128,63692,2,0,P|320:144|384:200,1,140
304,304,64000,5,0,0:0:0:0:
304,304,64153,1,0,0:0:0:0:
136,280,64307,1,0,0:0:0:0:
124,140,64461,1,0,0:0:0:0:
147,114,64538,1,0,0:0:0:0:
176,94,64615,1,0,0:0:0:0:
208,81,64692,1,0,0:0:0:0:
243,76,64769,2,0,P|309:67|373:27,1,140
448,144,65076,1,0,0:0:0:0:
384,264,65230,6,0,L|344:328,3,70
328,256,65538,2,0,L|288:320,3,70
264,248,65846,2,0,L|224:312,3,70
192,248,66153,2,0,L|152:312,3,70
72,240,66461,5,0,0:0:0:0:
72,240,66615,1,0,0:0:0:0:
104,76,66769,1,0,0:0:0:0:
236,28,66923,1,0,0:0:0:0:
262,51,67000,1,0,0:0:0:0:
295,62,67076,1,0,0:0:0:0:
329,58,67153,1,0,0:0:0:0:
360,41,67230,1,0,0:0:0:0:
393,34,67307,1,0,0:0:0:0:
426,45,67384,2,0,P|456:112|408:176,1,140
288,200,67692,6,0,P|280:264|312:344,1,140
464,200,68000,2,0,P|472:264|440:344,1,140
288,200,68307,2,0,P|280:264|312:344,1,140
464,200,68615,2,0,P|472:264|440:344,1,140
240,296,68923,5,0,0:0:0:0:
240,296,69076,1,0,0:0:0:0:
32,260,69230,1,0,0:0:0:0:
23,227,69307,1,0,0:0:0:0:
27,192,69384,1,0,0:0:0:0:
44,162,69461,1,0,0:0:0:0:
74,143,69538,5,0,0:0:0:0:
109,137,69615,1,0,0:0:0:0:
141,123,69692,1,0,0:0:0:0:
169,103,69769,1,0,0:0:0:0:
196,80,69846,2,0,P|272:60|344:84,1,140
432,172,70153,5,0,0:0:0:0:
432,172,70307,2,0,P|424:236|368:316,1,140
248,328,70615,1,0,0:0:0:0:
120,272,70769,1,0,0:0:0:0:
117,251,70846,1,0,0:0:0:0:
114,230,70923,1,0,0:0:0:0:
113,209,71000,1,0,0:0:0:0:
112,188,71076,2,0,B|96:96|96:96|48:56,1,140
272,56,71384,6,0,P|344:56|416:104,1,140
232,160,71692,1,0,0:0:0:0:
336,256,71846,1,0,0:0:0:0:
368,243,71923,1,0,0:0:0:0:
395,220,72000,1,0,0:0:0:0:
414,191,72076,1,0,0:0:0:0:
423,158,72153,2,0,P|408:96|336:56,1,140
208,96,72461,1,0,0:0:0:0:
93,173,72615,5,0,0:0:0:0:
103,206,72691,1,0,0:0:0:0:
122,235,72768,1,0,0:0:0:0:
149,258,72845,1,0,0:0:0:0:
176,280,72923,1,0,0:0:0:0:
209,270,72999,1,0,0:0:0:0:
244,267,73076,1,0,0:0:0:0:
279,269,73153,1,0,0:0:0:0:
313,278,73230,6,0,P|399:300|375:140,1,280
382,151,73616,1,0,0:0:0:0:
348,141,73693,1,0,0:0:0:0:
318,123,73770,1,0,0:0:0:0:
288,112,73846,6,0,L|160:40,1,140
72,232,74153,2,0,L|208:320,1,140
328,320,74461,1,0,0:0:0:0:
456,272,74615,1,0,0:0:0:0:
384,72,74769,2,0,L|240:56,1,140
136,144,75076,5,0,0:0:0:0:
272,184,75230,1,0,0:0:0:0:
408,344,75384,2,0,L|264:352,1,140
88,240,75692,2,0,L|40:104,1,140
248,56,76000,2,0,L|392:16,1,140
456,216,76307,6,0,L|320:304,1,140
136,240,76615,1,0,0:0:0:0:
136,240,76769,2,0,L|80:96,1,140
296,64,77077,1,0,0:0:0:0:
296,64,77230,2,0,L|368:224,1,140
368,336,77538,6,0,P|320:352|376:304,1,210
184,296,78153,6,0,P|232:312|176:264,1,210
104,80,78769,2,0,L|248:88,1,140
384,96,79076,1,0,0:0:0:0:
384,96,79230,1,0,0:0:0:0:
280,192,79385,2,0,L|136:216,1,140
32,296,79692,1,0,0:0:0:0:
32,296,79846,1,0,0:0:0:0:
168,328,80000,2,0,L|312:336,1,140
384,112,80307,6,0,P|408:176|392:264,1,140
280,312,80615,2,0,P|200:320|128:296,1,140
64,192,80923,2,0,P|64:96|96:56,1,140
224,40,81230,2,0,P|296:24|376:48,1,140
424,168,81538,5,0,0:0:0:0:
280,160,81692,1,0,0:0:0:0:
280,160,82000,1,0,0:0:0:0:
136,160,82153,2,0,P|120:224|160:312,1,140
280,160,82615,1,0,0:0:0:0:
424,168,82769,2,0,P|440:232|400:320,1,140
280,160,83230,5,0,0:0:0:0:
136,160,83384,1,0,0:0:0:0:
280,160,83538,1,0,0:0:0:0:
136,160,83692,1,0,0:0:0:0:
256,192,84000,12,0,85538,0:0:0:0:
256,192,85846,5,0,0:0:0:0:
256,192,85923,12,0,88000,0:0:0:0:
256,184,88307,5,0,0:0:0:0:
256,192,88384,12,0,90461,0:0:0:0:
256,192,90769,5,0,0:0:0:0:
256,192,90846,12,0,93230,0:0:0:0:
352,248,93538,5,0,0:0:0:0:
302,271,93614,1,0,0:0:0:0:
247,266,93692,1,0,0:0:0:0:
202,233,93768,1,0,0:0:0:0:
147,222,93845,1,0,0:0:0:0:
96,200,93924,1,0,0:0:0:0:
71,151,94000,1,0,0:0:0:0:
89,100,94076,1,0,0:0:0:0:
136,72,94153,6,0,P|200:48|280:64,1,140
280,200,94461,2,0,P|352:224|424:192,1,140
432,64,94769,5,0,0:0:0:0:
384,37,94845,1,0,0:0:0:0:
328,35,94923,1,0,0:0:0:0:
278,59,94999,1,0,0:0:0:0:
223,69,95076,1,0,0:0:0:0:
167,61,95153,1,0,0:0:0:0:
115,43,95230,1,0,0:0:0:0:
60,43,95306,1,0,0:0:0:0:
24,80,95384,6,0,L|8:160,1,70
64,136,95538,2,0,L|40:224,1,70
104,192,95692,2,0,L|80:280,1,70
144,248,95846,2,0,L|120:320,1,70
184,304,96000,5,0,0:0:0:0:
234,327,96076,1,0,0:0:0:0:
288,319,96153,1,0,0:0:0:0:
316,271,96229,1,0,0:0:0:0:
366,247,96306,1,0,0:0:0:0:
416,224,96384,1,0,0:0:0:0:
455,185,96460,1,0,0:0:0:0:
460,131,96537,1,0,0:0:0:0:
428,86,96615,6,0,P|352:96|288:80,1,140
160,120,96923,2,0,P|152:176|88:240,1,140
304,280,97230,2,0,L|448:296,1,140
216,280,97538,2,0,L|72:296,1,140
272,184,97846,2,0,L|415:162,1,140
184,184,98153,2,0,L|40:162,1,140
136,56,98461,5,0,0:0:0:0:
189,41,98537,1,0,0:0:0:0:
245,41,98614,1,0,0:0:0:0:
296,56,98692,1,0,0:0:0:0:
344,83,98768,1,0,0:0:0:0:
374,128,98845,1,0,0:0:0:0:
360,184,98922,1,0,0:0:0:0:
312,216,98999,1,0,0:0:0:0:
256,208,99076,6,0,P|184:192|112:200,1,140
48,320,99384,2,0,P|120:344|200:336,1,140
320,328,99692,5,0,0:0:0:0:
373,314,99768,1,0,0:0:0:0:
415,277,99846,1,0,0:0:0:0:
403,222,99922,1,0,0:0:0:0:
412,167,99999,1,0,0:0:0:0:
440,120,100076,1,0,0:0:0:0:
433,65,100152,1,0,0:0:0:0:
395,25,100229,1,0,0:0:0:0:
341,17,100307,6,0,P|264:32|192:16,1,140
144,144,100615,2,0,P|224:128|296:144,1,140
360,256,100923,1,0,0:0:0:0:
316,289,100999,1,0,0:0:0:0:
261,298,101076,1,0,0:0:0:0:
213,268,101152,1,0,0:0:0:0:
159,253,101229,1,0,0:0:0:0:
104,248,101307,1,0,0:0:0:0:
54,224,101383,1,0,0:0:0:0:
38,172,101460,1,0,0:0:0:0:
64,120,101538,6,0,P|134:98|198:42,1,140
328,72,101846,2,0,P|384:120|464:144,1,140
432,280,102153,1,0,0:0:0:0:
432,280,102461,1,0,0:0:0:0:
432,280,102769,1,0,0:0:0:0:
432,280,103076,1,0,0:0:0:0:
160,336,103384,5,0,0:0:0:0:
160,336,103538,1,0,0:0:0:0:
104,208,103692,1,0,0:0:0:0:
108,152,103768,1,0,0:0:0:0:
136,104,103847,1,0,0:0:0:0:
191,98,103924,1,0,0:0:0:0:
243,77,104000,1,0,0:0:0:0:
288,48,104076,1,0,0:0:0:0:
338,26,104152,1,0,0:0:0:0:
390,44,104229,1,0,0:0:0:0:
418,91,104307,6,0,P|440:144|408:224,1,140
280,168,104615,2,0,P|232:224|264:288,1,140
376,352,104923,2,0,P|424:296|392:232,1,140
280,168,105230,2,0,P|232:224|264:288,1,140
376,352,105538,2,0,P|424:296|392:232,1,140
280,168,105846,5,0,0:0:0:0:
264,220,105922,1,0,0:0:0:0:
224,256,106000,1,0,0:0:0:0:
169,262,106076,1,0,0:0:0:0:
120,236,106153,1,0,0:0:0:0:
72,216,106230,1,0,0:0:0:0:
64,161,106306,1,0,0:0:0:0:
99,119,106383,1,0,0:0:0:0:
152,120,106461,6,0,P|231:138|303:106,1,140
408,192,106769,2,0,P|360:232|256:240,1,140
168,168,107076,2,0,P|120:224|152:288,1,140
280,240,107384,2,0,P|328:296|296:360,1,140
168,168,107692,2,0,P|120:224|152:288,1,140
280,240,108000,2,0,P|328:296|296:360,1,140
176,312,108307,5,0,0:0:0:0:
176,312,108461,1,0,0:0:0:0:
96,192,108615,1,0,0:0:0:0:
131,149,108691,1,0,0:0:0:0:
179,120,108769,1,0,0:0:0:0:
234,127,108845,1,0,0:0:0:0:
289,119,108922,1,0,0:0:0:0:
344,112,109000,1,0,0:0:0:0:
396,97,109076,1,0,0:0:0:0:
445,123,109153,1,0,0:0:0:0:
464,174,109230,6,0,P|448:232|376:272,1,140
248,224,109538,2,0,P|176:216|104:256,1,140
320,304,109846,2,0,P|256:339|174:330,1,140
248,224,110153,2,0,P|176:216|104:256,1,140
320,304,110461,2,0,P|256:339|174:330,1,140
88,240,110769,5,0,0:0:0:0:
63,190,110845,1,0,0:0:0:0:
72,136,110922,1,0,0:0:0:0:
104,88,111000,1,0,0:0:0:0:
159,86,111076,1,0,0:0:0:0:
216,64,111153,1,0,0:0:0:0:
270,52,111229,1,0,0:0:0:0:
326,56,111306,1,0,0:0:0:0:
378,77,111383,5,0,0:0:0:0:
416,120,111461,1,0,0:0:0:0:
434,172,111537,1,0,0:0:0:0:
422,226,111614,1,0,0:0:0:0:
383,266,111692,1,0,0:0:0:0:
324,302,111768,1,0,0:0:0:0:
255,308,111845,1,0,0:0:0:0:
191,283,111922,1,0,0:0:0:0:
256,192,112000,12,0,112923,0:0:0:0:
92,232,113230,5,0,0:0:0:0:
113,260,113306,1,0,0:0:0:0:
141,280,113383,1,0,0:0:0:0:
174,293,113460,1,0,0:0:0:0:
208,296,113538,1,0,0:0:0:0:
239,281,113614,1,0,0:0:0:0:
273,271,113691,1,0,0:0:0:0:
308,268,113768,1,0,0:0:0:0:
342,270,113846,2,0,L|428:244,7,70
435,229,114462,5,0,0:0:0:0:
455,201,114539,1,0,0:0:0:0:
460,166,114616,1,0,0:0:0:0:
449,133,114693,1,0,0:0:0:0:
424,109,114770,1,0,0:0:0:0:
391,99,114846,1,0,0:0:0:0:
361,117,114922,1,0,0:0:0:0:
328,128,114999,1,0,0:0:0:0:
293,131,115076,2,0,L|208:120,7,70
188,120,115691,5,0,0:0:0:0:
153,124,115768,1,0,0:0:0:0:
124,143,115845,1,0,0:0:0:0:
106,173,115922,1,0,0:0:0:0:
103,207,115999,1,0,0:0:0:0:
115,240,116076,1,0,0:0:0:0:
137,266,116152,1,0,0:0:0:0:
168,282,116229,1,0,0:0:0:0:
203,285,116307,2,0,L|292:264,7,70
256,192,116923,12,0,117846,0:0:0:0:
419,151,118153,5,0,0:0:0:0:
398,123,118229,1,0,0:0:0:0:
370,103,118306,1,0,0:0:0:0:
337,90,118383,1,0,0:0:0:0:
304,88,118461,1,0,0:0:0:0:
272,102,118537,1,0,0:0:0:0:
238,112,118614,1,0,0:0:0:0:
203,115,118691,1,0,0:0:0:0:
170,114,118769,2,0,L|84:140,7,70
76,154,119385,5,0,0:0:0:0:
56,182,119462,1,0,0:0:0:0:
51,217,119539,1,0,0:0:0:0:
62,250,119616,1,0,0:0:0:0:
87,274,119693,1,0,0:0:0:0:
121,285,119769,1,0,0:0:0:0:
150,266,119845,1,0,0:0:0:0:
183,255,119922,1,0,0:0:0:0:
218,252,119999,2,0,L|304:264,7,70
324,264,120614,5,0,0:0:0:0:
359,260,120691,1,0,0:0:0:0:
388,241,120768,1,0,0:0:0:0:
406,211,120845,1,0,0:0:0:0:
409,177,120922,1,0,0:0:0:0:
397,144,120999,1,0,0:0:0:0:
374,117,121075,1,0,0:0:0:0:
343,101,121152,1,0,0:0:0:0:
308,98,121230,2,0,L|220:120,7,70
172,140,121846,5,0,0:0:0:0:
72,240,122000,1,0,0:0:0:0:
180,324,122153,1,0,0:0:0:0:
240,196,122307,1,0,0:0:0:0:
304,320,122461,1,0,0:0:0:0:
384,204,122615,1,0,0:0:0:0:
256,144,122769,1,0,0:0:0:0:
300,12,122923,1,0,0:0:0:0:
432,72,123076,6,0,L|416:232,1,140
372,344,123384,2,0,L|224:356,1,140
120,272,123692,1,0,0:0:0:0:
96,246,123768,1,0,0:0:0:0:
82,214,123845,1,0,0:0:0:0:
80,179,123922,1,0,0:0:0:0:
90,146,124000,2,0,L|216:72,1,140
340,132,124307,6,0,L|476:244,1,140
376,340,124615,2,0,L|224:308,1,140
136,216,124923,1,0,0:0:0:0:
113,165,124999,1,0,0:0:0:0:
119,110,125076,1,0,0:0:0:0:
153,67,125153,1,0,0:0:0:0:
205,47,125230,2,0,L|360:56,1,140
252,160,125538,6,0,L|132:232,1,140
204,352,125846,2,0,L|340:300,1,140
432,200,126153,1,0,0:0:0:0:
437,165,126229,1,0,0:0:0:0:
432,131,126306,1,0,0:0:0:0:
418,99,126383,1,0,0:0:0:0:
395,73,126461,2,0,L|256:48,1,140
160,104,126769,5,0,0:0:0:0:
96,200,126923,1,0,0:0:0:0:
144,304,127076,1,0,0:0:0:0:
232,232,127230,1,0,0:0:0:0:
312,312,127384,2,0,L|440:228,1,140
484,136,127693,1,0,0:0:0:0:
408,56,127846,1,0,0:0:0:0:
296,48,128000,6,0,L|128:80,1,140
296,48,128307,2,0,L|184:144,1,140
136,272,128615,1,0,0:0:0:0:
168,285,128691,1,0,0:0:0:0:
202,293,128768,1,0,0:0:0:0:
237,296,128845,1,0,0:0:0:0:
272,293,128923,2,0,L|408:224,1,140
376,88,129230,6,0,L|216:16,1,140
376,88,129538,2,0,L|224:160,1,140
384,200,129846,1,0,0:0:0:0:
356,248,129922,1,0,0:0:0:0:
313,283,129999,1,0,0:0:0:0:
260,301,130076,1,0,0:0:0:0:
205,300,130153,2,0,L|64:240,1,140
96,104,130461,6,0,L|240:48,1,140
352,112,130769,2,0,L|208:176,1,140
88,216,131076,2,0,L|232:264,1,140
360,296,131384,2,0,L|216:352,1,140
120,320,131692,5,0,0:0:0:0:
40,240,131846,1,0,0:0:0:0:
136,184,132000,1,0,0:0:0:0:
80,88,132153,1,0,0:0:0:0:
192,64,132307,2,0,L|328:112,1,140
420,172,132615,1,0,0:0:0:0:
140,140,132923,6,0,L|52:260,1,140
192,292,133230,2,0,L|280:172,1,140
348,60,133538,1,0,0:0:0:0:
382,54,133614,1,0,0:0:0:0:
416,61,133691,1,0,0:0:0:0:
445,80,133768,1,0,0:0:0:0:
466,108,133846,2,0,L|432:248,1,140
312,316,134153,6,0,L|164:344,1,140
124,208,134461,2,0,L|272:180,1,140
404,176,134769,1,0,0:0:0:0:
415,143,134845,1,0,0:0:0:0:
415,108,134922,1,0,0:0:0:0:
403,75,134999,1,0,0:0:0:0:
381,48,135076,2,0,L|236:48,1,140
128,132,135384,6,0,P|112:200|176:272,2,140
216,60,135846,1,0,0:0:0:0:
328,48,136000,1,0,0:0:0:0:
416,116,136153,1,0,0:0:0:0:
464,216,136307,2,0,P|424:248|328:236,1,140
252,172,136615,5,0,0:0:0:0:
148,216,136770,1,0,0:0:0:0:
188,320,136923,2,0,P|252:348|332:312,3,140
408,260,137538,2,0,P|436:196|400:115,1,140
292,64,137846,5,0,0:0:0:0:
263,83,137922,1,0,0:0:0:0:
229,93,137999,1,0,0:0:0:0:
195,92,138076,1,0,0:0:0:0:
158,75,138153,1,0,0:0:0:0:
127,58,138229,1,0,0:0:0:0:
93,50,138306,1,0,0:0:0:0:
58,51,138383,1,0,0:0:0:0:
25,60,138461,6,0,P|0:128|28:212,1,140
156,196,138769,2,0,P|224:221|308:192,1,140
264,60,139076,1,0,0:0:0:0:
293,41,139152,1,0,0:0:0:0:
327,34,139229,1,0,0:0:0:0:
362,38,139306,1,0,0:0:0:0:
392,55,139383,1,0,0:0:0:0:
415,81,139460,1,0,0:0:0:0:
427,114,139538,1,0,0:0:0:0:
420,148,139614,1,0,0:0:0:0:
400,176,139692,6,0,P|356:232|280:248,1,140
236,120,140000,2,0,P|196:116|108:168,1,140
96,304,140307,5,0,0:0:0:0:
123,305,140383,1,0,0:0:0:0:
151,306,140460,1,0,0:0:0:0:
179,308,140537,1,0,0:0:0:0:
207,309,140614,1,0,0:0:0:0:
235,311,140691,1,0,0:0:0:0:
263,312,140768,1,0,0:0:0:0:
291,314,140845,1,0,0:0:0:0:
312,312,140923,5,0,0:0:0:0:
366,302,140999,1,0,0:0:0:0:
414,273,141076,1,0,0:0:0:0:
447,228,141153,1,0,0:0:0:0:
461,175,141230,1,0,0:0:0:0:
439,109,141306,1,0,0:0:0:0:
392,58,141383,1,0,0:0:0:0:
328,30,141460,1,0,0:0:0:0:
256,192,141538,12,0,142769,0:0:0:0:
