osu file format v14

[General]
AudioFilename: audio.mp3
AudioLeadIn: 0
PreviewTime: 232603
Countdown: 0
SampleSet: None
StackLeniency: 0.2
Mode: 0
LetterboxInBreaks: 1
UseSkinSprites: 1
WidescreenStoryboard: 1

[Editor]
Bookmarks: 19692,39374,49220,59066,73835,83681,93527,103372,113219,123066,132912,142757,162450,171987,182142,191989,201833,211681,221525,232604,242448,252294,262140,271989,281831,291677,301523,311373
DistanceSpacing: 0.5
BeatDivisor: 2
GridSize: 4
TimelineZoom: 2.5

[Metadata]
Title:The Solace of Oblivion
TitleUnicode:The Solace of Oblivion
Artist:Helblinde
ArtistUnicode:Helblinde
Creator:MinG3012
Version:Aspire
Source:
Tags:Aspire 2017 Ephemerality Electronic Hardcore Techno Tribecore
BeatmapID:1258033
BeatmapSetID:594828

[Difficulty]
HPDrainRate:2.56
CircleSize:3.99
OverallDifficulty:8.69
ApproachRate:9.36
SliderMultiplier:1.9
SliderTickRate:0.5

[Events]
//Background and Video events
0,0,"aspire-2017-main-graphic-wallpaper.jpg",0,0
//Break Periods
2,182341,187749
//Storyboard Layer 0 (Background)
Sprite,Background,Centre,"aspire-2017-main-graphic-wallpaper.jpg",320,240 L,-76,1 C,0,0,76,95,95,95,192,127,192 C,0,76,6229,192,127,192,95,95,95 L,6153,1 C,0,0,76,95,95,95,192,127,192 C,0,76,4922,192,127,192,95,95,95 L,11000,1 C,0,0,76,95,95,95,192,127,192 C,0,76,4922,192,127,192,95,95,95 L,15923,1 C,0,0,76,95,95,95,192,127,192 C,0,76,3729,192,127,192,95,95,95 F,0,-450,,0,1 S,0,-450,,0.4444444 C,0,-450,0,255,255,255,95,95,95 F,0,311373,343407,1,0
//Storyboard Layer 1 (Fail)
//Storyboard Layer 2 (Pass)
//Storyboard Layer 3 (Foreground)
Sprite,Foreground,Centre,"play-unranked",320,100 L,0,1 S,0,0,,0,0.67 F,0,0,200,0,1 F,0,18462,19077,1,0 F,0,311369,311569,0,1 F,0,343207,343407,1,0
Sprite,Foreground,Centre,"menu-connection",620,457 L,0,1 F,0,0,500,0,0.5 F,0,18577,19077,0.5,0 F,0,311369,311669,0,0.5 F,0,342907,343407,0.5,0 S,0,0,,0,0.75
Sprite,Foreground,Centre,"test-build-overlay",320,477 L,0,1 F,0,0,200,0,1 F,0,18577,19077,1,0 F,0,311369,311569,0,1 F,0,343207,343407,1,0
Sprite,Foreground,Centre,"medal-disc",320,260 L,312000,1 S,0,0,200,0.6,0.72 F,0,0,600,0,0.9 S,0,200,400,0.72,0.67 F,0,20000,20200,0.9,0
Sprite,Foreground,Centre,"medal-disc-spin",320,260 L,312000,1 S,0,0,,0,1.675 R,0,0,20200,0,2.5 F,0,200,500,0,0.25 F,0,10000,10200,0.25,0
Sprite,Foreground,Centre,"medal-disc-spin-masked",320,260 L,312000,1 S,0,0,200,0.6,0.72 F,0,0,600,0,0.9 R,0,0,20200,0,4.5 S,0,200,400,0.72,0.67 F,0,20000,20200,0.9,0
Sprite,Foreground,Centre,"medal-glow",320,260 L,312000,1 S,0,0,,0,0.5 R,0,1000,1100,-0.15,0.15 F,0,1000,1200,0,1 S,0,1000,1200,0.5,0.67 R,0,1100,1150,0.15,-0.05 R,0,1150,1200,-0.05,0 S,0,2000,2200,0.67,0.5 MY,0,2000,2200,260,220 F,0,20000,20200,1,0
Sprite,Foreground,Centre,"coins-bg",320,260 L,312000,1 S,0,0,,0,0.5 R,0,1000,1100,-0.15,0.15 F,0,1000,1200,0,1 S,0,1000,1200,0.75,1 C,0,1000,4000,255,255,255,0,0,0 R,0,1100,1150,0.15,-0.05 R,0,1150,1200,-0.05,0 S,0,2000,2200,1,0.75 MY,0,2000,2200,260,220 F,0,2200,4000,1,0
Sprite,Foreground,Centre,"selection-question",320,280 L,312000,1 S,0,0,,0,0.75 F,0,2000,2200,0,1 MX,0,2000,2200,320,300 F,0,20000,20200,1,0
Sprite,Foreground,Centre,"selection-question",320,280 L,312000,1 S,0,0,,0,0.75 F,0,2000,2200,0,1 F,0,20000,20200,1,0
Sprite,Foreground,Centre,"selection-question",320,280 L,312000,1 S,0,0,,0,0.75 F,0,2000,2200,0,1 MX,0,2000,2200,320,340 F,0,20000,20200,1,0
Sprite,Foreground,Centre,"scoreentry-0",250,310 L,312000,1 S,0,0,,0,0.75 F,0,2000,2200,0,1 F,0,20000,20200,1,0
Sprite,Foreground,Centre,"scoreentry-1",256,310 L,312000,1 S,0,0,,0,0.75 F,0,2000,2200,0,1 F,0,20000,20200,1,0
Sprite,Foreground,Centre,"scoreentry-0",262,310 L,312000,1 S,0,0,,0,0.75 F,0,2000,2200,0,1 F,0,20000,20200,1,0
Sprite,Foreground,Centre,"scoreentry-0",268,310 L,312000,1 S,0,0,,0,0.75 F,0,2000,2200,0,1 F,0,20000,20200,1,0
Sprite,Foreground,Centre,"scoreentry-1",274,310 L,312000,1 S,0,0,,0,0.75 F,0,2000,2200,0,1 F,0,20000,20200,1,0
Sprite,Foreground,Centre,"scoreentry-1",280,310 L,312000,1 S,0,0,,0,0.75 F,0,2000,2200,0,1 F,0,20000,20200,1,0
Sprite,Foreground,Centre,"scoreentry-0",286,310 L,312000,1 S,0,0,,0,0.75 F,0,2000,2200,0,1 F,0,20000,20200,1,0
Sprite,Foreground,Centre,"scoreentry-1",292,310 L,312000,1 S,0,0,,0,0.75 F,0,2000,2200,0,1 F,0,20000,20200,1,0
Sprite,Foreground,Centre,"scoreentry-0",298,310 L,312000,1 S,0,0,,0,0.75 F,0,2000,2200,0,1 F,0,20000,20200,1,0
Sprite,Foreground,Centre,"scoreentry-1",304,310 L,312000,1 S,0,0,,0,0.75 F,0,2000,2200,0,1 F,0,20000,20200,1,0
Sprite,Foreground,Centre,"scoreentry-1",310,310 L,312000,1 S,0,0,,0,0.75 F,0,2000,2200,0,1 F,0,20000,20200,1,0
Sprite,Foreground,Centre,"scoreentry-0",316,310 L,312000,1 S,0,0,,0,0.75 F,0,2000,2200,0,1 F,0,20000,20200,1,0
Sprite,Foreground,Centre,"scoreentry-1",322,310 L,312000,1 S,0,0,,0,0.75 F,0,2000,2200,0,1 F,0,20000,20200,1,0
Sprite,Foreground,Centre,"scoreentry-0",328,310 L,312000,1 S,0,0,,0,0.75 F,0,2000,2200,0,1 F,0,20000,20200,1,0
Sprite,Foreground,Centre,"scoreentry-0",334,310 L,312000,1 S,0,0,,0,0.75 F,0,2000,2200,0,1 F,0,20000,20200,1,0
Sprite,Foreground,Centre,"scoreentry-1",340,310 L,312000,1 S,0,0,,0,0.75 F,0,2000,2200,0,1 F,0,20000,20200,1,0
Sprite,Foreground,Centre,"scoreentry-0",346,310 L,312000,1 S,0,0,,0,0.75 F,0,2000,2200,0,1 F,0,20000,20200,1,0
Sprite,Foreground,Centre,"scoreentry-1",352,310 L,312000,1 S,0,0,,0,0.75 F,0,2000,2200,0,1 F,0,20000,20200,1,0
Sprite,Foreground,Centre,"scoreentry-1",358,310 L,312000,1 S,0,0,,0,0.75 F,0,2000,2200,0,1 F,0,20000,20200,1,0
Sprite,Foreground,Centre,"scoreentry-0",364,310 L,312000,1 S,0,0,,0,0.75 F,0,2000,2200,0,1 F,0,20000,20200,1,0
Sprite,Foreground,Centre,"scoreentry-1",370,310 L,312000,1 S,0,0,,0,0.75 F,0,2000,2200,0,1 F,0,20000,20200,1,0
Sprite,Foreground,Centre,"scoreentry-1",376,310 L,312000,1 S,0,0,,0,0.75 F,0,2000,2200,0,1 F,0,20000,20200,1,0
Sprite,Foreground,Centre,"scoreentry-1",382,310 L,312000,1 S,0,0,,0,0.75 F,0,2000,2200,0,1 F,0,20000,20200,1,0
Sprite,Foreground,Centre,"scoreentry-0",388,310 L,312000,1 S,0,0,,0,0.75 F,0,2000,2200,0,1 F,0,20000,20200,1,0
Sprite,Foreground,Centre,"scoreentry-0",299,325 L,312000,1 S,0,0,,0,0.75 F,0,2000,2200,0,1 F,0,20000,20200,1,0
Sprite,Foreground,Centre,"scoreentry-1",305,325 L,312000,1 S,0,0,,0,0.75 F,0,2000,2200,0,1 F,0,20000,20200,1,0
Sprite,Foreground,Centre,"scoreentry-1",311,325 L,312000,1 S,0,0,,0,0.75 F,0,2000,2200,0,1 F,0,20000,20200,1,0
Sprite,Foreground,Centre,"scoreentry-0",317,325 L,312000,1 S,0,0,,0,0.75 F,0,2000,2200,0,1 F,0,20000,20200,1,0
Sprite,Foreground,Centre,"scoreentry-0",323,325 L,312000,1 S,0,0,,0,0.75 F,0,2000,2200,0,1 F,0,20000,20200,1,0
Sprite,Foreground,Centre,"scoreentry-1",329,325 L,312000,1 S,0,0,,0,0.75 F,0,2000,2200,0,1 F,0,20000,20200,1,0
Sprite,Foreground,Centre,"scoreentry-1",335,325 L,312000,1 S,0,0,,0,0.75 F,0,2000,2200,0,1 F,0,20000,20200,1,0
Sprite,Foreground,Centre,"scoreentry-1",341,325 L,312000,1 S,0,0,,0,0.75 F,0,2000,2200,0,1 F,0,20000,20200,1,0
Sprite,Foreground,Centre,"beatmapimport-spinner",320,260 L,311373,1 S,0,0,,0,0.67 F,0,0,200,0,1 C,0,0,408,255,255,255,255,0,0 R,0,0,3268,0,12 C,0,408,816,255,0,0,255,127,0 C,0,816,1224,255,127,0,255,255,0 C,0,1224,1632,255,255,0,0,255,127 C,0,1632,2040,0,255,127,0,127,255 C,0,2040,2448,0,127,255,75,0,127 C,0,2448,2856,75,0,127,127,0,255 C,0,2856,3268,127,0,255,255,0,255 F,0,3118,3268,1,0
Sprite,Foreground,Centre,"menu-connection",320,260 L,312000,1 S,0,0,,0,1 R,0,1000,1100,-0.15,0.15 F,0,1000,1200,0,1 S,0,1000,1200,1.25,1.75 R,0,1100,1150,0.15,-0.05 R,0,1150,1200,-0.05,0 S,0,2000,2200,1.75,1.25 MY,0,2000,2200,260,220 F,0,20000,20200,1,0
//Storyboard Sound Samples

[TimingPoints]
-5162220307,307.692307692308,-2147483648,-1,100,-40,1,0
0,-200,-2147483648,-1,8763,-40,0,0
19692,-1E-298,-16,2,1,40,1,0
19692,-0.5,-16,2,1,40,0,0
19769,-1,-16,-2,1,-1024,0,0
20307,-2,-16,2,1,40,0,0
20384,-4,-16,-2,2,-384,0,0
20923,-8,-16,2,1,40,0,0
22230,-16,-16,-2,3,-256,0,0
22769,-32,-16,2,1,40,0,0
22846,-64,-16,-2,4,-192,0,0
23384,-128,-16,2,1,40,0,0
24076,-256,-16,-2,5,-128,0,0
24307,-512,-16,2,1,40,0,0
24692,-1024,-16,-2,6,-256,0,0
25230,-2048,-16,2,1,40,0,0
25923,-4096,-16,-2,7,-512,0,0
26461,-8192,-16,2,1,40,0,0
27153,-16384,-16,-2,8,-1024,0,0
27384,-32768,-16,2,1,40,0,0
27769,-65536,-16,-2,9,-2048,0,0
28000,-131072,-16,2,1,40,0,0
28384,-262144,-16,-2,10,-4096,0,0
28923,-524288,-16,2,1,40,0,0
29615,-1048576,-16,-2,11,-8192,0,0
30153,-2097152,-16,2,1,40,0,0
30230,-4194304,-16,-2,12,-16384,0,0
30769,-8388608,-16,2,1,40,0,0
32076,-16777216,-16,-2,13,-32768,0,0
32615,-33554432,-16,2,1,40,0,0
32692,-67108864,-16,-2,14,-65536,0,0
33230,-134217728,-16,2,1,40,0,0
34538,-268435456,-16,-2,15,-131072,0,0
35076,-536870912,-16,2,1,40,0,0
35153,-1073741824,-16,-2,16,-262144,0,0
35692,-2147483648,-16,2,1,40,0,0
36384,-1073741824,-16,-2,17,-524288,0,0
36923,-536870912,-16,2,1,40,0,0
37307,-268435456,-16,-2,18,-1048576,0,0
37538,-134217728,-16,2,1,40,0,0
37923,-67108864,-16,-2,19,-2097152,0,0
38152,-33554432,-16,2,1,40,0,0
39374,1230.76923076923,1,2,1,40,1,0
39374,-1638400,1,2,1,40,0,0
46758,4923.07692307692,4,2,1,40,1,0
46758,-1638400,16,2,1,40,0,0
47066,3692.30769230769,4,2,1,40,1,0
47066,-1638400,8,2,1,40,0,0
47373,2461.53846153846,4,2,1,40,1,0
47373,-1638400,4,2,1,40,0,0
47681,1230.76923076923,4,2,1,40,1,0
47681,-1638400,2,2,1,40,0,0
49220,615.384615384615,2,2,1,40,1,0
49220,-400,8,2,1,40,0,0
51681,-200,16,2,1,40,0,0
54143,-100,16,2,1,40,0,0
54758,-50,16,2,1,40,0,0
55373,-33.3333333333333,16,2,1,40,0,0
55989,-25,16,2,1,40,0,0
56604,-20,16,2,1,40,0,0
56912,-16.6666666666667,16,2,1,40,0,0
57219,-14.2857142857143,16,2,1,40,0,0
57527,-12.5,16,2,1,40,0,0
57835,-400,16,2,1,40,0,0
59066,307.692307692308,4,2,1,60,1,0
59066,-66.6666666666667,4,2,1,60,0,0
62450,-33.3333333333333,4,2,1,60,0,0
62681,-66.6666666666667,4,2,1,60,0,0
63373,-25,4,2,1,60,0,0
63681,-66.6666666666667,4,2,1,60,0,0
65373,-1638400,16,2,1,60,0,0
66450,-66.6666666666667,4,2,1,60,0,0
67835,-1638400,16,2,1,60,0,0
68912,-66.6666666666667,4,2,1,60,0,0
70296,-1638400,16,2,1,60,0,0
71527,-66.6666666666667,4,2,1,60,0,0
72604,-50,4,2,1,60,0,0
72835,-40,4,2,1,60,0,0
73219,-50,4,2,1,60,0,0
73681,-66.6666666666667,4,2,1,60,0,0
73835,-66.6666666666667,4,2,1,60,0,1
77527,-50,4,2,1,60,0,1
78142,-40,4,2,1,60,0,1
78373,-66.6666666666667,4,2,1,60,0,1
83681,-100,4,2,1,60,0,0
93527,-100,4,2,1,60,0,1
93834,-83.3333333333333,4,2,1,60,0,1
93988,-69.4444444444444,4,2,1,60,0,1
94142,-57.8034682080925,4,2,1,60,0,1
94296,-69.4444444444444,4,2,1,60,0,1
94450,-83.3333333333333,4,2,1,60,0,1
94603,-100,4,2,1,60,0,1
94757,-83.3333333333333,4,2,1,60,0,1
94911,-69.4444444444444,4,2,1,60,0,1
95065,-57.8034682080925,4,2,1,60,0,1
95219,-69.4444444444444,4,2,1,60,0,1
95373,-83.3333333333333,4,2,1,60,0,1
95527,-100,4,2,1,60,0,1
96296,-83.3333333333333,4,2,1,60,0,1
96450,-69.4444444444444,4,2,1,60,0,1
96603,-57.8034682080925,4,2,1,60,0,1
96757,-69.4444444444444,4,2,1,60,0,1
96911,-83.3333333333333,4,2,1,60,0,1
97065,-100,4,2,1,60,0,1
97219,-50,4,2,1,60,0,1
97527,-42.9184549356223,4,2,1,60,0,1
97834,-37.4531835205993,4,2,1,60,0,1
98142,-33.3333333333333,4,2,1,60,0,1
98450,615.384615384615,2,2,1,60,1,1
98450,-50,4,2,1,60,0,1
98757,-86.2068965517241,4,2,1,60,0,1
98911,-75.187969924812,4,2,1,60,0,1
99065,-66.6666666666667,4,2,1,60,0,1
99219,-50,4,2,1,60,0,1
99373,-33.3333333333333,4,2,1,60,0,1
99527,-50,4,2,1,30,0,1
99680,-50,4,2,1,60,0,1
99834,-100,4,2,1,60,0,1
99988,-86.2068965517241,4,2,1,60,0,1
100142,-75.187969924812,4,2,1,60,0,1
100296,-66.6666666666667,4,2,1,60,0,1
100450,-50,4,2,1,60,0,1
100604,-33.3333333333333,4,2,1,60,0,1
100757,-50,4,2,1,30,0,1
100911,-50,4,2,1,60,0,1
101065,-100,4,2,1,60,0,1
101219,-86.2068965517241,4,2,1,60,0,1
101373,-75.187969924812,4,2,1,60,0,1
101527,-66.6666666666667,4,2,1,60,0,1
101680,-50,4,2,1,60,0,1
101834,-33.3333333333333,4,2,1,60,0,1
101988,-50,4,2,1,30,0,1
102142,307.692307692308,4,2,1,60,1,1
104603,-50,4,2,1,60,0,1
105834,-100,4,2,1,60,0,1
107065,-50,4,2,1,60,0,1
107372,-42.9184549356223,4,2,1,60,0,1
107680,-37.4531835205993,4,2,1,60,0,1
107988,-33.3333333333333,4,2,1,60,0,1
108295,-100,4,2,1,60,0,1
109526,-50,4,2,1,60,0,1
110757,-100,4,2,1,60,0,1
111988,-200,4,2,1,60,0,0
113218,-100,4,2,1,60,0,1
116911,615.384615384615,2,2,1,40,1,0
116911,-16.6666666666667,16,2,1,40,0,0
118143,307.692307692308,4,2,1,60,1,1
121835,-100,4,2,1,60,0,0
123066,-66.6666666666667,2,2,1,60,0,1
131681,-133.3333333334,2,2,1,60,0,1
132450,-1638400,2,2,1,60,0,0
132912,615.384615384615,2,2,1,60,1,1
132912,-12.5,4,2,1,60,0,1
137835,-12.5,4,2,1,30,0,1
137988,-12.5,4,2,1,60,0,1
140296,1230.76923076923,1,2,1,60,1,1
140296,-12.5,4,2,1,60,0,1
142757,4923.07692307692,1,2,1,60,1,1
142757,-1638400,4,2,2,60,0,0
162449,307.692307692308,4,2,1,60,1,0
191679,-1638400,2,2,1,60,0,0
191987,-100,4,2,1,60,0,0
207064,-12.5,4,2,1,60,0,0
207218,-100,4,2,1,60,0,0
208295,-12.5,4,2,1,60,0,0
208449,-100,4,2,1,60,0,0
209525,-12.5,4,2,1,60,0,0
209679,-100,4,2,1,60,0,0
211679,-90.9090909090909,4,2,1,60,0,0
221525,615.384615384615,2,2,1,60,1,0
221525,-50,2,2,1,60,0,0
226448,-25,2,2,1,60,0,0
228909,-23.75,2,2,1,60,0,0
230140,2461.53846153846,1,2,1,60,1,0
230140,-0.0244140625,2,2,1,60,0,0
232602,307.692307692308,4,2,1,60,1,1
232602,-50,4,2,1,60,0,1
239063,-25,2,2,1,60,0,1
239371,-12.5,4,2,1,60,0,1
239678,-6.25,4,2,1,60,0,1
239986,-50,4,2,1,60,0,1
240602,-25,2,2,1,60,0,1
240909,-12.5,4,2,1,60,0,1
241217,615.384615384615,2,2,1,60,1,1
241217,-1638400,2,2,1,60,0,1
242448,307.692307692308,4,2,1,60,1,1
242448,-50,4,2,1,60,0,1
251063,-100,4,2,1,60,0,1
251985,-1638400,8,2,1,60,0,1
252294,307.692307692308,4,2,1,60,1,1
252294,-50,4,2,1,60,0,1
256447,-33.3333333333333,4,2,1,60,0,1
256755,-25,2,2,1,60,0,1
257063,-20,2,2,1,60,0,1
257370,-50,4,2,1,60,0,1
258447,-25,2,2,1,60,0,1
259063,-12.5,4,2,1,60,0,1
259678,-50,4,2,1,60,0,1
260294,-12.5,4,2,1,60,0,1
260678,-6.25,4,2,1,60,0,1
260909,-1638400,8,2,1,60,0,1
261217,-100,4,2,1,60,0,1
262140,-50,4,2,1,60,0,1
267523,307.692307692308,4,2,1,60,1,1
267523,-50,4,2,1,60,0,1
268753,307.692307692308,4,2,1,60,1,1
268753,-50,-4,2,1,60,0,1
269525,2461.53846153846,1,2,1,60,1,1
269525,-16.6666666666667,4,2,1,60,0,1
269832,-14.5772594752187,4,2,1,60,0,1
270140,-12.5,-4,2,1,60,0,1
270448,-10.4166666666667,4,2,1,60,0,1
270755,1230.76923076923,2,2,1,60,1,1
270755,-16.6666666666667,4,2,1,60,0,1
271985,307.692307692308,4,2,1,30,1,0
272138,-100,4,2,1,60,0,0
274138,-200,4,2,1,60,0,0
274446,-100,4,2,1,60,0,0
279061,-200,4,2,1,60,0,0
279369,-100,4,2,1,60,0,0
281831,-90.9090909090909,4,2,1,60,0,0
285831,-181.818181818182,4,2,1,60,0,0
286138,-90.9090909090909,4,2,1,60,0,0
288908,-181.818181818182,4,2,1,60,0,0
289215,-90.9090909090909,4,2,1,60,0,0
291677,-83.3333333333333,4,2,1,60,0,0
301523,-76.9230769230769,4,2,1,60,0,0
247678,1E-298,1073741824,2,1,60,1,1
247678,-1E-298,1073741824,2,1,60,0,1
247832,307.692307692308,-4,2,1,60,1,1
247832,-50,-4,2,1,60,0,1
248908,1E-298,1073741824,2,1,60,1,1
248908,-1E-298,1073741824,2,1,60,0,1
249062,307.692307692308,-4,2,1,60,1,1
249062,-50,-4,2,1,60,0,1
250138,1E-298,1073741824,2,1,60,1,1
250138,-1E-298,1073741824,2,1,60,0,1
251063,307.692307692308,-4,2,1,60,1,1
251370,1E-298,1073741824,2,1,60,1,1
251370,-1E-298,1073741824,2,1,60,0,1
251524,307.692307692308,-4,2,1,60,1,1
251985,-1638400,-8,2,1,60,0,1
267370,1E-298,1073741824,2,1,60,1,1
267370,-1E-298,1073741824,2,1,60,0,1
267523,307.692307692308,-4,2,1,60,1,1
267523,-50,-4,2,1,60,0,1
268600,1E-298,1073741824,2,1,60,1,1
268600,-1E-298,1073741824,2,1,60,0,1
268753,307.692307692308,-4,2,1,60,1,1
268753,-50,-4,2,1,60,0,1
311369,1E+298,1,2,1,60,1,0

[Colours]
Combo1 : 255,127,0
Combo2 : 0,231,0
Combo3 : 128,25,255
Combo4 : 255,25,128
Combo5 : 0,255,128
Combo6 : 0,128,255
Combo7 : 255,0,0
SliderBorder : 0,255,85

[HitObjects]
425,152,250138,70,0,B|35556:20000|35556:20000|-16384:442,1,97280,4|0,0:0|0:0,0:0:0:0:
301,92,251370,54,0,L|262144:262144,1,194560
261,231,19692,6,0,P|306:209|329:150,2,116.5,0|0|2,0:0|0:0|0:0,0:0:0:0:
251,152,22153,2,0,P|201:180|183:234,2,116.5
346,136,23691,2,0,B,512,-58.25
429,181,23999,2,0,P|457:175|481:159,1,58.25
399,0,24614,6,0,P|392:45|415:110,1,116.5
512,229,25845,2,0,P|517:286|495:339,1,116.5,2|0,0:0|0:0,0:0:0:0:
390,384,27076,6,0,L|300:426,1,58.25,2|0,0:0|0:0,0:0:0:0:
309,238,27691,54,0,L|390:294,1,58.25,2|0,0:0|0:0,0:0:0:0:
227,384,28306,6,0,B|240:268|240:268|64:48|64:48|156:164|156:164|56:280|56:280|248:56|248:56|352:56|352:56|416:112|416:112|416:224|416:224|340:268|340:268|240:268|240:268|248:56,1,116.5,2|0,0:0|0:0,0:0:0:0:
257,132,29229,6,0,B,512,-58.25
259,104,29536,2,0,P|273:64|319:28,2,116.5,0|0|2,0:0|0:0|0:0,0:0:0:0:
258,209,31690,2,0,B,1024,-58.25
256,237,31997,2,0,P|242:276|196:312,2,116.5,0|0|2,0:0|0:0|0:0,0:0:0:0:
177,80,34152,6,0,B,2048,-58.25
246,15,34459,2,0,P|272:58|269:112,2,116.5
201,176,36305,2,0,P|251:203|307:194,1,116.5,0|2,0:0|0:0,0:0:0:0:
387,126,37229,2,0,P|416:120|446:121,1,58.25,0|2,0:0|0:0,0:0:0:0:
512,228,37844,2,0,P|483:228|455:222,1,58.25,0|2,0:0|0:0,0:0:0:0:
256,192,38150,12,0,39372,0:0:0:0:
339,195,39374,38,0,B|344:193|344:193,1,4.75,2|0,0:0|0:0,0:0:0:0:
324,202,39681,5,0,0:0:0:0:
337,278,39989,6,0,B|342:276|342:276,1,4.75,2|0,0:0|0:0,0:0:0:0:
322,286,40297,5,0,0:0:0:0:
217,251,40604,6,0,L|221:248,1,4.75,2|0,0:0|0:0,0:0:0:0:
205,259,40912,85,0,0:0:0:0:
209,350,41220,6,0,L|213:348,1,4.75
201,357,41527,37,0,0:0:0:0:
344,265,41681,1,0,0:0:0:0:
188,150,41835,6,0,B|183:147|183:147,1,4.75,2|0,0:0|0:0,0:0:0:0:
206,162,42143,5,0,0:0:0:0:
298,94,42450,6,0,L|293:91,1,4.75,2|0,0:0|0:0,0:0:0:0:
313,103,42758,5,0,0:0:0:0:
305,205,43066,54,0,L|300:202,1,4.75,2|0,0:0|0:0,0:0:0:0:
324,217,43374,5,2,0:0:0:0:
427,155,43681,6,0,L|423:153,1,4.75,2|0,0:0|0:0,0:0:0:0:
449,169,43989,5,0,0:0:0:0:
424,326,44143,1,0,0:0:0:0:
259,283,44297,86,0,B|255:281|255:281,1,4.75,2|0,0:0|0:0,0:0:0:0:
281,294,44604,5,0,0:0:0:0:
247,137,44912,70,0,L|243:134|243:134,1,4.75,2|0,0:0|0:0,0:0:0:0:
276,160,45220,5,0,0:0:0:0:
115,221,45527,6,0,L|111:218,1,4.75,2|0,0:0|0:0,0:0:0:0:
149,251,45835,37,0,0:0:0:0:
151,98,46143,6,0,L|147:94,1,4.75,2|0,0:0|0:0,0:0:0:0:
183,132,46450,5,0,0:0:0:0:
48,160,46758,6,0,B|40:148|40:148|121:34|121:46|121:57|121:67|133:67|139:58|135:50|127:50|135:50|140:41|134:34|121:34|121:67|152:67|152:60|152:52|152:68|159:68|166:68|166:60|166:52|166:68|183:68|190:68|183:68|183:60|183:52|183:43|188:43|178:43|183:43|183:37,1,4.75,2|0,0:0|0:0,0:0:0:0:
48,304,47066,6,0,L|40:292,1,4.75,2|0,0:0|0:0,0:0:0:0:
192,304,47373,86,0,B|185:295|185:295|295:168|295:176|295:184|295:191|302:191|306:184|306:177|306:170|306:184|310:191|317:191|317:184|317:177|317:169|317:191|329:191|329:184|329:176|329:169|329:184|335:180|342:180|347:177|347:170|347:185|347:192|367:192|367:186|367:180|363:175|359:170|367:179|371:175|375:171|367:179|368:192|390:193|390:183|392:179|394:175|393:170|388:169|384:172,1,4.75,2|0,0:0|0:0,0:0:0:0:
192,160,47681,6,0,B|188:156|188:156|273:73|269:73|266:73|266:77|266:81|269:81|273:81|273:84|273:88|269:88|266:88|281:88|281:84|281:81|281:77|281:73|285:73|289:73|289:77|289:80|285:80|281:80|281:88|295:88|299:88|302:88|299:88|299:84|299:81|299:77|299:74|295:74|302:74|299:74|299:88|309:88|309:84|309:81|309:77|309:73|312:77|314:81|316:85|319:88|319:84|319:81|319:77|319:74|319:88|328:88|328:81|328:77|328:73|328:81|330:81|330:77|330:73|330:88,1,4.75,2|0,0:0|0:0,0:0:0:0:
120,232,47989,5,0,0:0:0:0:
273,229,48912,5,2,0:0:0:0:
412,178,49220,6,0,B|412:201|412:201|412:200|412:200|412:201|412:201|412:200|412:200|412:201|412:201|412:200|412:200|412:201|412:201|412:200|412:200|412:201|412:201|412:200|412:200|412:201|412:201|412:200|412:200|412:201|412:201|412:200|412:200|412:201|412:201|412:200|412:200|412:201|412:201|412:200|412:200|412:201|412:201|412:200|412:200|412:201|412:201|412:200|412:200|412:201|412:201|412:200|412:200|412:201|412:201|412:200|412:200|412:201|412:201|412:200|412:200|412:201|412:201|412:200|412:200|412:201|412:201|412:200|412:200|412:201|412:201|412:200|412:200|412:201|412:201|412:200|412:200|412:201|412:201|412:200|412:200|412:201|412:201|412:200|412:200|412:201|412:201|412:200|412:200|412:201|412:201|412:200|412:200|412:201|412:201|412:200|412:200|412:201|412:201|412:200|412:200|412:201|412:201|412:200|412:200|412:201|412:201|412:200|412:200|412:201|412:201|412:200|412:200|412:201|412:201|412:200|412:200|412:201|412:201|412:200|412:200|412:201|412:201|412:200|412:200|412:201|412:201|412:200|412:200,1,47.5,2|0,0:0|0:0,0:0:0:0:
511,219,49527,5,0,0:0:0:0:
406,232,49835,6,0,B|400:254|400:254|400:253|400:253|400:254|400:254|400:253|400:253|400:254|400:254|400:253|400:253|400:254|400:254|400:253|400:253|400:254|400:254|400:253|400:253|400:254|400:254|400:253|400:253|400:254|400:254|400:253|400:253|400:254|400:254|400:253|400:253|400:254|400:254|400:253|400:253|400:254|400:254|400:253|400:253|400:254|400:254|400:253|400:253|400:254|400:254|400:253|400:253|400:254|400:254|400:253|400:253|400:254|400:254|400:253|400:253|400:254|400:254|400:253|400:253|400:254|400:254|400:253|400:253|400:254|400:254|400:253|400:253|400:254|400:254|400:253|400:253|400:254|400:254|400:253|400:253|400:254|400:254|400:253|400:253|400:254|400:254|400:253|400:253|400:254|400:254|400:253|400:253|400:254|400:254|400:253|400:253|400:254|400:254|400:253|400:253|400:254|400:254|400:253|400:253|400:254|400:254|400:253|400:253|400:254|400:254|400:253|400:253|400:254|400:254|400:253|400:253|400:254|400:254|400:253|400:253|400:254|400:254|400:253|400:253|400:254|400:254|400:253|400:253,1,47.5,2|0,0:0|0:0,0:0:0:0:
319,220,50143,53,0,0:0:0:0:
387,279,50450,6,0,B|375:299|375:299|374:300|374:300|375:299|375:299|374:300|374:300|375:299|375:299|374:300|374:300|375:299|375:299|374:300|374:300|375:299|375:299|374:300|374:300|375:299|375:299|374:300|374:300|375:299|375:299|374:300|374:300|375:299|375:299|374:300|374:300|375:299|375:299|374:300|374:300|375:299|375:299|374:300|374:300|375:299|375:299|374:300|374:300|375:299|375:299|374:300|374:300|375:299|375:299|374:300|374:300|375:299|375:299|374:300|374:300|375:299|375:299|374:300|374:300|375:299|375:299|374:300|374:300|375:299|375:299|374:300|374:300|375:299|375:299|374:300|374:300|375:299|375:299|374:300|374:300|375:299|375:299|374:300|374:300|375:299|375:299|374:300|374:300|375:299|375:299|374:300|374:300|375:299|375:299|374:300|374:300|375:299|375:299|374:300|374:300|375:299|375:299|374:300|374:300|375:299|375:299|374:300|374:300|375:299|375:299|374:300|374:300|375:299|375:299|374:300|374:300|375:299|375:299|374:300|374:300|375:299|375:299|374:300|374:300|375:299|375:299|374:300|374:300,1,47.5,2|0,0:0|0:0,0:0:0:0:
458,341,50758,5,0,0:0:0:0:
343,322,51066,6,0,L|325:303,1,23.75
328,238,51373,2,0,L|346:212,1,23.75,2|0,0:0|0:0,0:0:0:0:
388,159,51681,70,0,B|390:128|380:94|380:93|380:93|380:94|380:93|380:93|380:94|380:93|380:93|380:94|380:93|380:93|380:94|380:93|380:93|380:94|380:93|380:93|380:94|380:93|380:93|380:94|380:93|380:93|380:94|380:93|380:93|380:94|380:93|380:93|380:94|380:93|380:93|380:94|380:93|380:93|380:94|380:93|380:93|380:94|380:93|380:93|380:94|380:93|380:93|380:94|380:93|380:93|380:94|380:93|380:93|380:94|380:93|380:93|380:94|380:93|380:93|380:94|380:93|380:93|380:94|380:93|380:93|380:94|380:93|380:93|380:94|380:93|380:93|380:94|380:93|380:93|380:94|380:93|380:93|380:94|380:93|380:93|380:94|380:93|380:93|380:94|380:93|380:93|380:94|380:93|380:93|380:94|380:93|380:93|380:94|380:93|380:93|380:94|380:93|380:93|380:94|380:93|380:93|380:94|380:93|380:93|380:94|380:93|380:93|380:94|380:93|380:93|380:94|380:93|380:93|380:94|380:93|380:93|380:94|380:93|380:93|380:94|380:93|380:93|380:94|380:93|380:93|380:94|380:93|380:93|380:94|380:93|380:93|380:94|380:93|380:93|380:94|380:93|380:93|380:94|380:93|380:93|380:94|380:93|380:93,1,95,2|0,0:0|0:0,0:0:0:0:
401,265,51989,1,0,0:0:0:0:
340,106,52296,6,0,B|309:107|275:98|274:98|274:98|275:98|274:98|274:98|275:98|274:98|274:98|275:98|274:98|274:98|275:98|274:98|274:98|275:98|274:98|274:98|275:98|274:98|274:98|275:98|274:98|274:98|275:98|274:98|274:98|275:98|274:98|274:98|275:98|274:98|274:98|275:98|274:98|274:98|275:98|274:98|274:98|275:98|274:98|274:98|275:98|274:98|274:98|275:98|274:98|274:98|275:98|274:98|274:98|275:98|274:98|274:98|275:98|274:98|274:98|275:98|274:98|274:98|275:98|274:98|274:98|275:98|274:98|274:98|275:98|274:98|274:98|275:98|274:98|274:98|275:98|274:98|274:98|275:98|274:98|274:98|275:98|274:98|274:98|275:98|274:98|274:98|275:98|274:98|274:98|275:98|274:98|274:98|275:98|274:98|274:98|275:98|274:98|274:98|275:98|274:98|274:98|275:98|274:98|274:98|275:98|274:98|274:98|275:98|274:98|274:98|275:98|274:98|274:98|275:98|274:98|274:98|275:98|274:98|274:98|275:98|274:98|274:98|275:98|274:98|274:98|275:98|274:98|274:98|275:98|274:98|274:98|275:98|274:98|274:98|275:98|274:98|274:98|275:98|274:98|274:98|275:98|274:98|274:98,1,95,2|0,0:0|0:0,0:0:0:0:
452,72,52604,1,0,0:0:0:0:
233,108,52912,6,0,B|231:139|241:173|241:174|241:174|241:173|241:174|241:174|241:173|241:174|241:174|241:173|241:174|241:174|241:173|241:174|241:174|241:173|241:174|241:174|241:173|241:174|241:174|241:173|241:174|241:174|241:173|241:174|241:174|241:173|241:174|241:174|241:173|241:174|241:174|241:173|241:174|241:174|241:173|241:174|241:174|241:173|241:174|241:174|241:173|241:174|241:174|241:173|241:174|241:174|241:173|241:174|241:174|241:173|241:174|241:174|241:173|241:174|241:174|241:173|241:174|241:174|241:173|241:174|241:174|241:173|241:174|241:174|241:173|241:174|241:174|241:173|241:174|241:174|241:173|241:174|241:174|241:173|241:174|241:174|241:173|241:174|241:174|241:173|241:174|241:174|241:173|241:174|241:174|241:173|241:174|241:174|241:173|241:174|241:174|241:173|241:174|241:174|241:173|241:174|241:174|241:173|241:174|241:174|241:173|241:174|241:174|241:173|241:174|241:174|241:173|241:174|241:174|241:173|241:174|241:174|241:173|241:174|241:174|241:173|241:174|241:174|241:173|241:174|241:174|241:173|241:174|241:174|241:173|241:174|241:174|241:173|241:174|241:174|241:173|241:174|241:174|241:173|241:174|241:174|241:173|241:174|241:174,1,95,2|0,0:0|0:0,0:0:0:0:
371,201,53220,1,0,0:0:0:0:
247,209,53527,38,0,P|210:214|157:178,1,95
178,141,53835,2,0,L|161:185,1,47.5,2|0,0:0|0:0,0:0:0:0:
162,185,54143,6,0,P|181:258|298:281,1,190,2|0,0:0|0:0,0:0:0:0:
302,279,54758,6,0,P|314:119|163:171,1,380,2|0,0:0|0:0,0:0:0:0:
158,187,55373,6,0,P|227:289|168:152,1,570.000021743775,2|0,0:0|0:0,0:0:0:0:
160,208,55989,6,0,B|163:255|212:304|271:290|271:290|403:271|411:75|259:7|58:52|114:344|288:286,1,760,2|0,0:0|0:0,0:0:0:0:
174,249,56604,38,0,P|262:293|178:138,1,475,2|0,0:0|0:0,0:0:0:0:
160,180,56912,6,0,P|353:191|169:153,1,570.000021743775,2|0,0:0|0:0,0:0:0:0:
169,242,57219,6,0,B|247:364|384:294|460:175|318:-11|139:88|160:211|160:211|171:259|195:295|297:301,1,665.000006341934,2|0,0:0|0:0,0:0:0:0:
265,294,57527,6,0,B|321:288|365:229|350:173|350:173|333:95|200:5|56:154|126:288|201:386|402:302|345:155,1,760,2|0,0:0|0:0,0:0:0:0:
341,145,57835,6,0,L|258:192,1,95,4|0,0:0|0:0,0:0:0:0:
249,198,59066,37,4,0:0:0:0:
406,234,59219,6,0,P|438:200|442:108,1,142.500005435944,4|8,0:0|0:0,0:0:0:0:
276,1,59527,1,0,0:0:0:0:
240,35,59604,1,0,0:0:0:0:
208,73,59681,2,0,L|160:128,1,71.2500027179719,4|4,0:0|0:0,0:0:0:0:
68,235,59835,2,0,L|184:99,1,142.500005435944,4|8,0:0|0:0,0:0:0:0:
429,81,60142,5,0,0:0:0:0:
459,120,60218,1,0,0:0:0:0:
471,168,60296,2,0,P|467:216|452:247,1,71.2500027179719,4|4,0:0|0:0,0:0:0:0:
281,203,60450,2,0,P|324:183|358:180,1,71.2500027179719,4|0,0:0|0:0,0:0:0:0:
392,355,60604,1,4,0:0:0:0:
209,189,60758,5,0,0:0:0:0:
228,143,60834,1,0,0:0:0:0:
254,100,60912,2,0,P|262:68|250:16,1,71.2500027179719,4|4,0:0|0:0,0:0:0:0:
119,67,61066,1,4,0:0:0:0:
345,181,61219,1,8,0:0:0:0:
163,298,61373,5,0,0:0:0:0:
114,307,61450,1,0,0:0:0:0:
64,316,61527,2,0,P|2:302|-16:214,1,142.500005435944,4|4,0:0|0:0,0:0:0:0:
104,19,61835,1,4,0:0:0:0:
232,169,61989,70,0,P|212:186|154:210,1,71.2500027179719
156,100,62142,1,4,0:0:0:0:
198,73,62219,1,4,0:0:0:0:
246,63,62296,2,0,P|314:88|349:164,1,142.500005435944,4|0,0:0|0:0,0:0:0:0:
350,164,62450,6,0,P|322:42|157:12,1,285.000010871888,4|0,0:0|0:0,0:0:0:0:
100,109,62681,6,0,P|72:114|18:99,1,71.2500027179719,0|4,0:0|0:0,0:0:0:0:
198,73,62835,2,0,P|202:108|194:142,1,71.2500027179719,4|4,0:0|0:0,0:0:0:0:
5,4,63066,2,0,P|76:-57|155:-53,1,142.500005435944,8|0,0:0|0:0,0:0:0:0:
262,24,63296,1,0,0:0:0:0:
284,66,63373,38,0,P|474:107|484:-54,1,380,8|0,0:0|0:0,0:0:0:0:
158,94,63681,6,0,P|166:130|231:215,1,142.500005435944,4|4,0:0|0:0,0:0:0:0:
399,263,63912,1,4,0:0:0:0:
446,279,63989,2,0,P|488:323|483:400,1,142.500005435944,4|4,0:0|0:0,0:0:0:0:
188,384,64296,6,0,L|123:341,1,71.2500027179719,8|0,0:0|0:0,0:0:0:0:
160,228,64450,1,0,0:0:0:0:
168,178,64527,1,0,0:0:0:0:
180,129,64604,2,0,P|204:88|247:61,1,71.2500027179719,4|4,0:0|0:0,0:0:0:0:
370,146,64758,1,4,0:0:0:0:
419,143,64835,2,0,P|453:124|489:88,1,71.2500027179719,0|8,0:0|0:0,0:0:0:0:
92,24,65066,1,0,0:0:0:0:
75,70,65142,2,0,P|63:112|65:169,1,71.2500027179719
120,372,65373,6,0,L|129:366,1,9.5
176,337,65527,1,0,0:0:0:0:
223,298,65681,2,0,L|226:296,3,2.375
287,264,65835,2,0,L|280:256,1,9.5
235,211,65989,2,0,L|239:203,1,9.5
278,153,66142,2,0,L|278:144,1,9.5
248,88,66296,2,0,L|251:79,1,9.5
276,27,66450,5,4,0:0:0:0:
442,138,66604,1,4,0:0:0:0:
207,146,66758,2,0,P|166:140|132:125,1,71.2500027179719,8|0,0:0|0:0,0:0:0:0:
319,88,66912,1,0,0:0:0:0:
343,131,66989,1,0,0:0:0:0:
356,178,67066,2,0,P|366:217|368:261,1,71.2500027179719,4|4,0:0|0:0,0:0:0:0:
228,358,67219,1,4,0:0:0:0:
221,308,67296,2,0,P|223:275|243:226,1,71.2500027179719,0|8,0:0|0:0,0:0:0:0:
493,67,67527,1,0,0:0:0:0:
510,113,67604,2,0,P|510:156|486:198,1,71.2500027179719,0|4,0:0|0:0,0:0:0:0:
459,269,67758,69,4,0:0:0:0:
457,296,67835,2,0,L|456:307,1,9.5,4|0,0:0|0:0,0:0:0:0:
401,327,67989,2,0,L|398:338,1,9.5,8|0,0:0|0:0,0:0:0:0:
337,350,68142,1,4,0:0:0:0:
305,357,68219,1,4,0:0:0:0:
272,360,68296,2,0,L|270:361,3,2.375,4|0|0|0,0:0|0:0|0:0|0:0,0:0:0:0:
221,308,68450,2,0,L|211:306,1,9.5,4|0,0:0|0:0,0:0:0:0:
164,367,68604,2,0,L|152:371,1,9.5,4|0,0:0|0:0,0:0:0:0:
105,298,68758,2,0,L|95:296,1,9.5,4|0,0:0|0:0,0:0:0:0:
46,356,68912,5,4,0:0:0:0:
177,237,69066,1,4,0:0:0:0:
13,174,69219,2,0,L|-76:189,1,71.2500027179719,8|0,0:0|0:0,0:0:0:0:
98,209,69373,1,0,0:0:0:0:
98,159,69450,1,0,0:0:0:0:
81,111,69527,2,0,P|46:88|3:84,1,71.2500027179719,4|4,0:0|0:0,0:0:0:0:
148,188,69681,1,4,0:0:0:0:
197,185,69758,2,0,P|241:180|277:169,1,71.2500027179719,0|8,0:0|0:0,0:0:0:0:
456,0,69989,1,0,0:0:0:0:
407,3,70066,2,0,P|363:8|327:19,1,71.2500027179719
227,97,70296,6,0,L|218:103,1,9.5
154,128,70450,2,0,L|152:141,1,9.5
99,178,70604,2,0,L|99:181,3,2.375
54,232,70758,2,0,L|57:237,1,4.75
21,298,70912,2,0,L|25:306,1,9.5
13,376,71066,2,0,L|22:382,1,9.5
88,350,71219,2,0,L|96:354,1,9.5
157,317,71373,53,4,0:0:0:0:
0,194,71527,1,4,0:0:0:0:
190,130,71681,2,0,P|210:98|216:58,1,71.2500027179719,8|0,0:0|0:0,0:0:0:0:
97,172,71835,1,4,0:0:0:0:
132,206,71912,1,4,0:0:0:0:
177,227,71989,2,0,P|210:233|256:227,1,71.2500027179719,4|0,0:0|0:0,0:0:0:0:
439,169,72142,1,4,0:0:0:0:
469,208,72219,2,0,P|486:246|483:301,1,71.2500027179719,0|8,0:0|0:0,0:0:0:0:
226,334,72450,1,4,0:0:0:0:
196,294,72527,2,0,P|179:256|182:201,1,71.2500027179719
176,211,72604,6,0,P|252:263|365:97,1,285
380,134,72835,6,0,P|344:300|145:345,1,356.25
157,347,73066,6,0,P|283:241|271:121,1,237.5
271,132,73219,38,0,P|213:270|27:124,1,380
24,187,73527,1,0,0:0:0:0:
324,42,73681,2,0,P|366:95|366:167,1,142.500005435944
364,189,73835,6,0,P|424:236|481:77,1,285.000010871888,4|0,0:0|0:0,0:0:0:0:
486,101,74142,2,0,B|242:121|242:121|288:144,1,285.000010871888,4|0,0:0|0:0,0:0:0:0:
297,150,74450,2,0,P|303:226|131:273,1,285.000010871888,4|0,0:0|0:0,0:0:0:0:
127,257,74758,2,0,B|143:151|143:151|279:278,1,285.000010871888,4|0,0:0|0:0,0:0:0:0:
290,285,75066,6,0,P|397:240|402:74,1,285.000010871888,4|0,0:0|0:0,0:0:0:0:
396,69,75373,2,0,B|179:20|179:20|227:96,1,285.000010871888,4|0,0:0|0:0,0:0:0:0:
224,95,75681,2,0,P|175:177|-12:126,1,285.000010871888,4|0,0:0|0:0,0:0:0:0:
0,133,75989,2,0,P|-39:163|76:317,1,285.000010871888,4|0,0:0|0:0,0:0:0:0:
76,315,76296,86,0,B|136:96|136:96|181:138,1,285.000010871888,4|0,0:0|0:0,0:0:0:0:
199,153,76604,2,0,P|257:205|333:216,1,142.500005435944,4|0,0:0|0:0,0:0:0:0:
332,217,76758,2,0,P|361:245|361:348,1,142.500005435944,4|0,0:0|0:0,0:0:0:0:
358,354,76912,2,0,P|231:378|239:251,1,285.000010871888,4|0,0:0|0:0,0:0:0:0:
252,243,77219,2,0,P|286:266|246:354,1,142.500005435944,4|0,0:0|0:0,0:0:0:0:
247,356,77373,2,0,L|92:301,1,142.500005435944,4|0,0:0|0:0,0:0:0:0:
101,293,77527,38,0,L|58:-5,1,285,4|0,0:0|0:0,0:0:0:0:
60,11,77758,38,0,P|131:156|351:20,1,475,4|0,0:0|0:0,0:0:0:0:
357,10,78142,54,0,L|323:376,1,356.25,4|0,0:0|0:0,0:0:0:0:
322,380,78373,54,0,P|424:418|479:312,1,213.750008153916,4|0,0:0|0:0,0:0:0:0:
488,321,78604,2,0,L|352:209,1,142.500005435944,4|0,0:0|0:0,0:0:0:0:
357,211,78758,6,0,P|328:137|498:135,1,285.000010871888,4|0,0:0|0:0,0:0:0:0:
502,108,79066,2,0,B|498:204|498:204|326:94,1,285.000010871888,4|0,0:0|0:0,0:0:0:0:
321,91,79373,2,0,P|243:88|241:277,1,285.000010871888,4|0,0:0|0:0,0:0:0:0:
234,279,79681,2,0,P|256:184|77:189,1,285.000010871888,4|0,0:0|0:0,0:0:0:0:
94,153,79989,86,0,P|73:68|252:37,1,285.000010871888,4|0,0:0|0:0,0:0:0:0:
249,23,80296,2,0,P|191:-45|17:67,1,285.000010871888,4|0,0:0|0:0,0:0:0:0:
20,29,80604,2,0,B|62:190|62:190|167:135,1,285.000010871888,4|0,0:0|0:0,0:0:0:0:
188,121,80912,2,0,P|281:130|236:295,1,285.000010871888,4|0,0:0|0:0,0:0:0:0:
256,292,81219,6,0,B|155:241|155:241|306:155,1,285.000010871888,4|0,0:0|0:0,0:0:0:0:
317,149,81527,2,0,P|316:61|270:20,1,142.500005435944,4|0,0:0|0:0,0:0:0:0:
260,16,81681,2,0,B|138:90|138:90|265:12,1,285.000010871888,4|0,0:0|0:0,0:0:0:0:
283,5,81989,2,0,P|362:-4|438:64,1,142.500005435944,4|0,0:0|0:0,0:0:0:0:
425,40,82142,2,0,L|487:187,1,142.500005435944,4|0,0:0|0:0,0:0:0:0:
488,184,82296,2,0,P|436:250|367:120,1,285.000010871888,4|0,0:0|0:0,0:0:0:0:
371,110,82604,86,0,P|290:115|254:215,1,142.500005435944,4|0,0:0|0:0,0:0:0:0:
252,180,82758,2,0,P|188:231|107:186,1,142.500005435944,4|0,0:0|0:0,0:0:0:0:
119,208,82912,2,0,B|176:140|176:140|229:348,1,285.000010871888,4|0,0:0|0:0,0:0:0:0:
228,346,83219,6,0,P|346:369|383:317,1,142.500005435944,4|0,0:0|0:0,0:0:0:0:
360,349,83373,2,0,P|379:267|434:218,1,142.500005435944,4|0,0:0|0:0,0:0:0:0:
433,221,83527,2,0,P|426:149|315:103,1,142.500005435944,4|0,0:0|0:0,0:0:0:0:
356,98,83681,6,0,L|251:117,1,95,4|0,0:0|0:0,0:0:0:0:
76,151,83989,2,0,P|81:74|114:26,1,95
243,184,84296,1,0,0:0:0:0:
32,224,84450,6,0,L|-10:136,1,95
216,268,84758,2,0,P|195:327|160:367,1,95
190,127,85066,1,0,0:0:0:0:
339,183,85219,38,0,B|408:181|432:170|432:170|418:174|418:174,2,95
317,168,85527,2,0,L|232:67,1,126.666666666667,4|0,0:0|0:0,0:0:0:0:
224,58,85732,2,0,L|67:37,1,158.333333333333,4|0,0:0|0:0,0:0:0:0:
46,37,85989,2,0,P|28:88|52:132,1,95
58,136,86142,6,0,P|89:200|83:260,1,95
0,6,86450,2,0,P|51:-36|100:-50,1,95
254,66,86758,1,0,0:0:0:0:
182,266,86912,6,0,P|160:209|161:156,1,95
367,287,87219,2,0,P|360:335|327:377,1,95
132,384,87527,1,0,0:0:0:0:
243,189,87681,6,0,P|324:121|440:129,1,190
421,119,87989,2,0,B|495:125|561:103|561:103|533:111|533:111,2,142.5,4|4|0,0:0|0:0|0:0,0:0:0:0:
214,96,88604,6,0,P|145:112|107:143,1,95
328,281,88912,1,0,0:0:0:0:
340,69,89066,2,0,P|310:17|258:-10,1,95
431,237,89373,38,0,P|484:199|515:157,1,95
194,181,89681,1,0,0:0:0:0:
418,350,89835,2,0,P|485:342|526:312,1,95
399,174,90142,6,0,B|324:117|324:117|328:121|328:121,2,95
416,187,90450,2,0,P|487:186|485:95,1,142.5,4|0,0:0|0:0,0:0:0:0:
500,113,90681,2,0,L|383:26,1,142.5,4|0,0:0|0:0,0:0:0:0:
175,1,91066,6,0,P|160:44|175:110,1,95
320,246,91373,1,0,0:0:0:0:
259,56,91527,1,0,0:0:0:0:
105,196,91681,1,0,0:0:0:0:
345,99,91835,6,0,P|352:36|335:-13,1,95
174,220,92142,1,0,0:0:0:0:
423,278,92296,1,0,0:0:0:0:
229,151,92449,1,0,0:0:0:0:
256,192,92450,12,0,93525,0:0:0:0:
367,238,93527,6,0,P|349:278|277:321,1,95,4|0,0:0|0:0,0:0:0:0:
288,317,93680,54,0,L|179:277,1,95
180,278,93834,2,0,L|311:227,1,113.999996520996,4|0,0:0|0:0,0:0:0:0:
300,232,93988,2,0,L|171:180,1,136.800003339844
166,176,94142,2,0,L|323:115,1,164.350004012451,4|0,0:0|0:0,0:0:0:0:
331,112,94296,2,0,L|186:57,1,136.800003339844
196,60,94450,2,0,L|316:16,1,113.999996520996,4|0,0:0|0:0,0:0:0:0:
317,16,94603,6,0,P|373:24|416:64,1,95
413,57,94757,86,0,L|449:172,1,113.999996520996,4|0,0:0|0:0,0:0:0:0:
451,176,94911,2,0,L|312:101,1,136.800003339844
322,105,95065,2,0,L|386:282,1,164.350004012451,4|0,0:0|0:0,0:0:0:0:
382,269,95219,2,0,L|237:190,1,136.800003339844
249,198,95373,5,4,0:0:0:0:
462,256,95527,1,4,0:0:0:0:
198,261,95680,1,4,0:0:0:0:
512,199,95834,1,4,0:0:0:0:
242,329,95988,70,0,P|192:342|145:321,1,95,4|0,0:0|0:0,0:0:0:0:
145,323,96142,6,0,L|96:235,1,95
90,224,96296,2,0,L|201:265,1,113.999996520996,4|0,0:0|0:0,0:0:0:0:
208,267,96450,2,0,L|141:148,1,136.800003339844
137,138,96603,2,0,L|308:200,1,164.350004012451,4|0,0:0|0:0,0:0:0:0:
302,196,96757,2,0,L|234:72,1,136.800003339844
232,68,96911,2,0,L|361:112,1,113.999996520996,4|0,0:0|0:0,0:0:0:0:
351,107,97065,2,0,L|304:18,1,95
299,10,97219,6,0,P|178:1|180:140,1,285,4|0,0:0|0:0,0:0:0:0:
299,10,97527,2,0,P|178:1|240:160,1,332.025013299037,4|0,0:0|0:0,0:0:0:0:
299,10,97834,2,0,P|178:1|276:149,1,380.475013207713,4|0,0:0|0:0,0:0:0:0:
299,10,98142,2,0,P|178:1|300:132,1,427.500016307831,4|0,0:0|0:0,0:0:0:0:
451,42,98450,6,0,P|487:74|500:125,1,95,4|0,0:0|0:0,0:0:0:0:
503,142,98604,6,0,P|395:223|481:344,1,285
435,109,98757,54,0,P|379:198|474:344,1,275.500008407593,4|0,0:0|0:0,0:0:0:0:
347,136,98911,6,0,P|390:302|484:340,1,252.699989589081,0|4,0:0|0:0,0:0:0:0:
301,199,99065,6,0,P|361:290|458:337,1,213.750008153916,4|0,0:0|0:0,0:0:0:0:
287,285,99219,6,0,P|346:338|461:331,1,190
314,360,99373,22,0,P|377:361|451:335,1,142.500005435944,4|0,0:0|0:0,0:0:0:0:
463,333,99527,6,0,P|490:279|480:215,1,95,4|0,0:0|0:0,0:0:0:0:
475,218,99680,2,0,L|375:172,1,95,4|0,0:0|0:0,0:0:0:0:
368,166,99834,6,0,L|79:185,1,285
301,101,99988,6,0,B|290:168|290:168|81:184,1,275.500008407593,4|0,0:0|0:0,0:0:0:0:
285,243,100142,6,0,B|256:171|256:171|81:184,1,252.699989589081
234,104,100296,6,0,B|224:174|224:174|81:183,1,213.750008153916,4|4,0:0|0:0,0:0:0:0:
219,251,100450,22,0,B|190:176|190:176|77:183,1,190
164,105,100604,6,0,B|152:177|152:177|71:185,1,142.500005435944,4|0,0:0|0:0,0:0:0:0:
74,186,100757,6,0,P|49:227|56:271,1,95,4|0,0:0|0:0,0:0:0:0:
69,284,100911,2,0,L|181:334,1,95,4|0,0:0|0:0,0:0:0:0:
169,328,101065,6,0,P|288:262|232:144,1,285,0|4,0:0|0:0,0:0:0:0:
304,356,101219,6,0,P|344:280|236:147,1,275.500008407593,4|0,0:0|0:0,0:0:0:0:
193,230,101373,6,0,P|174:116|241:151,1,252.699989589081
69,188,101527,38,0,P|123:124|240:148,1,213.750008153916,4|0,0:0|0:0,0:0:0:0:
302,96,101680,6,0,P|288:184|240:146,1,190
282,20,101834,6,0,P|252:37|266:166,1,142.500005435944,4|0,0:0|0:0,0:0:0:0:
234,150,101988,6,0,P|235:199|301:247,1,95
279,243,102142,2,0,B|466:210|466:210|279:243,1,380,4|0,0:0|0:0,0:0:0:0:
465,210,102449,1,0,0:0:0:0:
279,243,102757,1,0,0:0:0:0:
465,210,103065,2,0,L|275:245,1,190
279,243,103372,6,0,P|252:199|258:130,1,95,4|0,0:0|0:0,0:0:0:0:
324,0,103680,1,4,0:0:0:0:
378,164,103834,1,0,0:0:0:0:
213,108,103988,1,4,0:0:0:0:
228,279,104141,1,0,0:0:0:0:
399,304,104295,2,0,P|459:281|496:242,1,95,0|4,0:0|0:0,0:0:0:0:
314,187,104603,69,4,0:0:0:0:
141,166,104757,2,0,P|225:209|328:175,1,190
319,177,104911,1,4,0:0:0:0:
153,255,105065,2,0,P|247:250|319:169,1,190
313,176,105218,1,4,0:0:0:0:
210,333,105372,2,0,P|289:281|311:175,1,190
312,167,105526,2,0,P|337:77|416:27,1,190,4|0,0:0|0:0,0:0:0:0:
441,339,105834,6,0,P|362:288|345:256,1,95,4|0,0:0|0:0,0:0:0:0:
244,164,106142,1,4,0:0:0:0:
414,167,106295,1,0,0:0:0:0:
263,249,106449,1,4,0:0:0:0:
229,80,106603,1,0,0:0:0:0:
343,208,106757,2,0,P|352:255|336:304,1,95,4|0,0:0|0:0,0:0:0:0:
136,361,107065,6,0,P|114:241|177:169,1,190
152,184,107218,2,0,P|107:266|134:359,1,190
139,368,107372,70,0,P|106:271|207:153,1,221.350008866024
173,164,107526,2,0,P|108:253|137:364,1,221.350008866024
143,374,107680,6,0,P|106:262|203:149,1,253.650008805142
187,151,107834,2,0,P|109:247|140:374,1,253.650008805142
146,380,107988,6,0,P|106:262|228:135,1,285.000010871888
456,243,108295,38,0,P|426:278|375:298,1,95,4|0,0:0|0:0,0:0:0:0:
176,244,108603,2,0,P|206:208|250:189,1,95,4|0,0:0|0:0,0:0:0:0:
434,181,108911,1,4,0:0:0:0:
446,355,109065,1,0,0:0:0:0:
281,299,109218,1,4,0:0:0:0:
369,147,109372,1,0,0:0:0:0:
193,139,109526,5,4,0:0:0:0:
340,234,109680,2,0,P|275:155|166:144,1,190
186,138,109834,1,4,0:0:0:0:
369,147,109988,2,0,P|273:111|173:156,1,190
189,143,110142,1,4,0:0:0:0:
350,58,110295,2,0,P|249:74|185:163,1,190
188,150,110449,2,0,P|123:217|31:229,1,190,4|0,0:0|0:0,0:0:0:0:
175,0,110757,6,0,P|198:34|205:87,1,95,4|0,0:0|0:0,0:0:0:0:
153,278,111065,2,0,P|187:301|240:308,1,95,4|0,2:0|2:0,2:0:0:0:
423,284,111372,1,4,0:0:0:0:
304,141,111526,1,0,0:0:0:0:
341,326,111680,1,4,0:0:0:0:
509,244,111834,1,0,0:0:0:0:
350,75,111988,6,0,P|301:61|230:118,1,142.5,4|0,0:0|0:0,0:0:0:0:
204,243,112603,2,0,P|174:268|127:278,2,71.25
307,140,113218,5,4,0:0:0:0:
344,146,113295,1,0,0:0:0:0:
381,153,113372,2,0,L|445:165,1,47.5
247,82,113526,1,4,0:0:0:0:
284,76,113603,1,0,0:0:0:0:
321,69,113680,2,0,L|367:60,1,47.5
203,199,113834,37,4,0:0:0:0:
240,205,113911,1,0,0:0:0:0:
277,212,113988,2,0,L|341:224,1,47.5
81,111,114142,1,4,0:0:0:0:
118,105,114219,1,0,0:0:0:0:
155,98,114296,2,0,L|201:89,1,47.5
0,227,114449,5,4,0:0:0:0:
37,233,114526,1,0,0:0:0:0:
74,240,114603,2,0,L|138:252,1,47.5
190,146,114757,1,4,0:0:0:0:
227,140,114834,1,0,0:0:0:0:
264,133,114911,2,0,L|310:124,1,47.5
376,279,115065,5,4,0:0:0:0:
413,285,115142,1,0,0:0:0:0:
450,292,115219,2,0,L|496:300,1,47.5
497,85,115372,1,4,0:0:0:0:
460,91,115449,1,0,0:0:0:0:
423,98,115526,2,0,L|376:106,1,47.5
321,240,115680,5,4,0:0:0:0:
284,234,115757,1,0,0:0:0:0:
247,227,115834,2,0,L|200:218,1,47.5
175,147,115988,1,4,0:0:0:0:
138,153,116065,1,0,0:0:0:0:
101,160,116142,2,0,L|54:168,1,47.5
1,274,116295,5,4,0:0:0:0:
35,289,116372,1,0,0:0:0:0:
69,304,116449,2,0,P|107:311|134:308,1,47.5
200,218,116603,1,4,0:0:0:0:
234,203,116680,1,0,0:0:0:0:
268,188,116757,2,0,P|306:181|333:184,1,47.5
420,266,116911,22,0,B|422:266|422:266|420:266|420:266|422:266|422:266|420:266|420:266|422:266|422:266|420:266|420:266|422:266|422:266|420:266|420:266|422:266|422:266|420:266|420:266|422:266|422:266|420:266|420:266|422:266|422:266|420:266|420:266|422:266|422:266|420:266|420:266|422:266|422:266|420:266|420:266|422:266|422:266|420:266|420:266|422:266|422:266|420:266|420:266|422:266|422:266|420:266|420:266|422:266|422:266|420:266|420:266|422:266|422:266|420:266|420:266|422:266|422:266|420:266|420:266|422:266|422:266|420:266|420:266|422:266|422:266|420:266|420:266|422:266|422:266|420:266|420:266|422:266|422:266|420:266|420:266|422:266|422:266|420:266|420:266|422:266|422:266|420:266|420:266|422:266|422:266|420:266|420:266|422:266|422:266|420:266|420:266|422:266|422:266|420:266|420:266|422:266|422:266|420:266|420:266|422:266|422:266|420:266|420:266|422:266|422:266|420:266|420:266|422:266|422:266|420:266|420:266|422:266|422:266|420:266|420:266|422:266|422:266|420:266|420:266|422:266|422:266|420:266|420:266|422:266|422:266|420:266|420:266|422:266|422:266|420:266|420:266|422:266|422:266|420:266|420:266|422:266|422:266|420:266|420:266|422:266|422:266|420:266|420:266|422:266|422:266|420:266|420:266|422:266|422:266|420:266|420:266|422:266|422:266|420:266|420:266|422:266|422:266|420:266|420:266|422:266|422:266|420:266|420:266|422:266|422:266|420:266|420:266|422:266|422:266|420:266|420:266|422:266|422:266|420:266|420:266|422:266|422:266|420:266|420:266|422:266|422:266|420:266|420:266|422:266|422:266|420:266|420:266|422:266|422:266|420:266|420:266|422:266|422:266|420:266|420:266|422:266|422:266|420:266|420:266|422:266|422:266|420:266|420:266|422:266|422:266|420:266|420:266|422:266|422:266|420:266|420:266|422:266|422:266|420:266|420:266|422:266|422:266|420:266|420:266|422:266|422:266|420:266|420:266|422:266|422:266|420:266|420:266|422:266|422:266|420:266|420:266|422:266|422:266|420:266|420:266|422:266|422:266|420:266|420:266|422:266|422:266|420:266|420:266|422:266|422:266|420:266|420:266|422:266|422:266|420:266|420:266|422:266|422:266|420:266|420:266|422:266|422:266|420:266|420:266|422:266|422:266|420:266|420:266|422:266|422:266|420:266|420:266|422:266|422:266|420:266|420:266|422:266|422:266|420:266|420:266|422:266|422:266|420:266|420:266|422:266|422:266|420:266|420:266|422:266|422:266|420:266|420:266|422:266|422:266|420:266|420:266|422:266|422:266|420:266|420:266|422:266|422:266|420:266|420:266|422:266|422:266|420:266|420:266|422:266|422:266|420:266|420:266|422:266|422:266|420:266|420:266|422:266|422:266|420:266|420:266|422:266|422:266|420:266|420:266|422:266|422:266|420:266|420:266|422:266|422:266|420:266|420:266|422:266|422:266|420:266|420:266|422:266|422:266|420:266|420:266|422:266|422:266|420:266|420:266|422:266|422:266|420:266|420:266|422:266|422:266|420:266|420:266|422:266|422:266|420:266|420:266|422:266|422:266|420:266|420:266|422:266|422:266|420:266|420:266|422:266|422:266|420:266|420:266|422:266|422:266|420:266|420:266|422:266|422:266|420:266|420:266|422:266|422:266|420:266|420:266|422:266|422:266|420:266|420:266|422:266|422:266|420:266|420:266|422:266|422:266|420:266|420:266|422:266|422:266|420:266|420:266|422:266|422:266|420:266|420:266|422:266|422:266|420:266|420:266|422:266|422:266|420:266|420:266|422:266|422:266|420:266|420:266|422:266|422:266|420:266|420:266|422:266|422:266|420:266|420:266|422:266|422:266|420:266|420:266|422:266|422:266|420:266|420:266|422:266|422:266|420:266|420:266|422:266|422:266|420:266|420:266|422:266|422:266|420:266|420:266|422:266|422:266|420:266|420:266|422:266|422:266|420:266|420:266|422:266|422:266|420:266|420:266|422:266|422:266|420:266|420:266|422:266|422:266|420:266|420:266|422:266|422:266|420:266|420:266|422:266|422:266|420:266|420:266|422:266|422:266|420:266|420:266|422:266|422:266|420:266|420:266|422:266|422:266|420:266|420:266|422:266|422:266|420:266|420:266|422:266|422:266|420:266|420:266|422:266|422:266|420:266|420:266|422:266|422:266|420:266|420:266|422:266|422:266|420:266|420:266|422:266|422:266|420:266|420:266|422:266|422:266|420:266|420:266|422:266|422:266|420:266|420:266|422:266|422:266|420:266|420:266|422:266|422:266|420:266|420:266|422:266|422:266|420:266|420:266|422:266|422:266|420:266|420:266|422:266|422:266|420:266|420:266|422:266|422:266|420:266|420:266|422:266|422:266|420:266|420:266|422:266|422:266|420:266|420:266|422:266|422:266|420:266|420:266|422:266|422:266|420:266|420:266|422:266|422:266|420:266|420:266|422:266|422:266|420:266|420:266|422:266|422:266|420:266|420:266|422:266|422:266|420:266|420:266|422:266|422:266|420:266|420:266|422:266|422:266|420:266|420:266|422:266|422:266|420:266|420:266|422:266|422:266|420:266|420:266|422:266|422:266|420:266|420:266|422:266|422:266|420:266|420:266|422:266|422:266|420:266|420:266|422:266|422:266|420:266|420:266|422:266|422:266|420:266|420:266|422:266|422:266|420:266|420:266|422:266|422:266|420:266|420:266|422:266|422:266|420:266|420:266|422:266|422:266|420:266|420:266|422:266|422:266|420:266|420:266|422:266|422:266|420:266|420:266|422:266|422:266|420:266|420:266|422:266|422:266|420:266|420:266|422:266|422:266|420:266|420:266|422:266|422:266|420:266|420:266|422:266|422:266|420:266|420:266|422:266|422:266|420:266|420:266|422:266|422:266|420:266|420:266|422:266|422:266|420:266|420:266|422:266|422:266|420:266|420:266|422:266|422:266|420:266|420:266|422:266|422:266|420:266|420:266|422:266|422:266|420:266|420:266|422:266|422:266|420:266|420:266|422:266|422:266|420:266|420:266|422:266|422:266|420:266|420:266|422:266|422:266|420:266|420:266|422:266|422:266|420:266|420:266|422:266|422:266|420:266|420:266|422:266|422:266|420:266|420:266|422:266|422:266|420:266|420:266|422:266|422:266|420:266|420:266|422:266|422:266|420:266|420:266|422:266|422:266|420:266|420:266|422:266|422:266|420:266|420:266|422:266|422:266|420:266|420:266|422:266|422:266|420:266|420:266|422:266|422:266|420:266|420:266|422:266|422:266|420:266|420:266|422:266|422:266|420:266|420:266|422:266|422:266|420:266|420:266|422:266|422:266|420:266|420:266|422:266|422:266|420:266|420:266|422:266|422:266|420:266|420:266|422:266|422:266|420:266|420:266|422:266|422:266|420:266|420:266|509:242|524:177|526:118|466:71|466:71|466:73|466:73|466:71|466:71|466:73|466:73|466:71|466:71|466:73|466:73|466:71|466:71|466:73|466:73|466:71|466:71|466:73|466:73|466:71|466:71|466:73|466:73|466:71|466:71|466:73|466:73|466:71|466:71|466:73|466:73|466:71|466:71|466:73|466:73|466:71|466:71|466:73|466:73|466:71|466:71|466:73|466:73|466:71|466:71|466:73|466:73|466:71|466:71|466:73|466:73|466:71|466:71|466:73|466:73|466:71|466:71|466:73|466:73|466:71|466:71|466:73|466:73|466:71|466:71|466:73|466:73|466:71|466:71|466:73|466:73|466:71|466:71|466:73|466:73|466:71|466:71|466:73|466:73|466:71|466:71|466:73|466:73|466:71|466:71|466:73|466:73|466:71|466:71|466:73|466:73|466:71|466:71|466:73|466:73|466:71|466:71|466:73|466:73|466:71|466:71|466:73|466:73|466:71|466:71|466:73|466:73|466:71|466:71|466:73|466:73|466:71|466:71|466:73|466:73|466:71|466:71|466:73|466:73|466:71|466:71|466:73|466:73|466:71|466:71|466:73|466:73|466:71|466:71|466:73|466:73|466:71|466:71|466:73|466:73|466:71|466:71|466:73|466:73|466:71|466:71|466:73|466:73|466:71|466:71|466:73|466:73|466:71|466:71|466:73|466:73|466:71|466:71|466:73|466:73|466:71|466:71|466:73|466:73|466:71|466:71|466:73|466:73|466:71|466:71|466:73|466:73|466:71|466:71|466:73|466:73|466:71|466:71|466:73|466:73|466:71|466:71|466:73|466:73|466:71|466:71|466:73|466:73|466:71|466:71|466:73|466:73|466:71|466:71|466:73|466:73|466:71|466:71|466:73|466:73|466:71|466:71|466:73|466:73|466:71|466:71|466:73|466:73|466:71|466:71|466:73|466:73|466:71|466:71|466:73|466:73|466:71|466:71|466:73|466:73|466:71|466:71|466:73|466:73|466:71|466:71|466:73|466:73|466:71|466:71|466:73|466:73|466:71|466:71|466:73|466:73|466:71|466:71|466:73|466:73|466:71|466:71|466:73|466:73|466:71|466:71|466:73|466:73|466:71|466:71|466:73|466:73|466:71|466:71|466:73|466:73|466:71|466:71|466:73|466:73|466:71|466:71|466:73|466:73|466:71|466:71|466:73|466:73|466:71|466:71|466:73|466:73|466:71|466:71|466:73|466:73|466:71|466:71|466:73|466:73|466:71|466:71|466:73|466:73|466:71|466:71|466:73|466:73|466:71|466:71|466:73|466:73|466:71|466:71|466:73|466:73|466:71|466:71|466:73|466:73|466:71|466:71|466:73|466:73|466:71|466:71|466:73|466:73|466:71|466:71|466:73|466:73|466:71|466:71|466:73|466:73|466:71|466:71|466:73|466:73|466:71|466:71|466:73|466:73|466:71|466:71|466:73|466:73|466:71|466:71|466:73|466:73|466:71|466:71|466:73|466:73|466:71|466:71|466:73|466:73|466:71|466:71|466:73|466:73|466:71|466:71|466:73|466:73|466:71|466:71|466:73|466:73|466:71|466:71|466:73|466:73|466:71|466:71|466:73|466:73|466:71|466:71|466:73|466:73|466:71|466:71|466:73|466:73|466:71|466:71|466:73|466:73|466:71|466:71|466:73|466:73|466:71|466:71|466:73|466:73|466:71|466:71|466:73|466:73|466:71|466:71|466:73|466:73|466:71|466:71|466:73|466:73|466:71|466:71|466:73|466:73|466:71|466:71|466:73|466:73|466:71|466:71|466:73|466:73|466:71|466:71|466:73|466:73|466:71|466:71|466:73|466:73|466:71|466:71|466:73|466:73|466:71|466:71|466:73|466:73|466:71|466:71|466:73|466:73|466:71|466:71|466:73|466:73|466:71|466:71|466:73|466:73|466:71|466:71|466:73|466:73|466:71|466:71|466:73|466:73|466:71|466:71|466:73|466:73|466:71|466:71|466:73|466:73|466:71|466:71|466:73|466:73|466:71|466:71|466:73|466:73|466:71|466:71|466:73|466:73|466:71|466:71|466:73|466:73|466:71|466:71|466:73|466:73|466:71|466:71|466:73|466:73|466:71|466:71|466:73|466:73|466:71|466:71|466:73|466:73|466:71|466:71|466:73|466:73|466:71|466:71|466:73|466:73|466:71|466:71|466:73|466:73|466:71|466:71|466:73|466:73|466:71|466:71|466:73|466:73|466:71|466:71|466:73|466:73|466:71|466:71|466:73|466:73|466:71|466:71|466:73|466:73|466:71|466:71|466:73|466:73|466:71|466:71|466:73|466:73|466:71|466:71|466:73|466:73|466:71|466:71|466:73|466:73|466:71|466:71|466:73|466:73|466:71|466:71|466:73|466:73|466:71|466:71|466:73|466:73|466:71|466:71|466:73|466:73|466:71|466:71|466:73|466:73|466:71|466:71|466:73|466:73|466:71|466:71|466:73|466:73|466:71|466:71|466:73|466:73|466:71|466:71|466:73|466:73|466:71|466:71|466:73|466:73|466:71|466:71|466:73|466:73|466:71|466:71|466:73|466:73|466:71|466:71|466:73|466:73|466:71|466:71|466:73|466:73|466:71|466:71|466:73|466:73|466:71|466:71|466:73|466:73|466:71|466:71|466:73|466:73|466:71|466:71|466:73|466:73|466:71|466:71|466:73|466:73|466:71|466:71|466:73|466:73|466:71|466:71|466:73|466:73|466:71|466:71|466:73|466:73|466:71|466:71|466:73|466:73|466:71|466:71|466:73|466:73|466:71|466:71|466:73|466:73|466:71|466:71|466:73|466:73|466:71|466:71|466:73|466:73|466:71|466:71|466:73|466:73|466:71|466:71|466:73|466:73|466:71|466:71|466:73|466:73|466:71|466:71|466:73|466:73|466:71|466:71|466:73|466:73|466:71|466:71|466:73|466:73|466:71|466:71|466:73|466:73|466:71|466:71|466:73|466:73|466:71|466:71|466:73|466:73|466:71|466:71|466:73|466:73|466:71|466:71|466:73|466:73|466:71|466:71|466:73|466:73|466:71|466:71|466:73|466:73|466:71|466:71|466:73|466:73|466:71|466:71|466:73|466:73|466:71|466:71|466:73|466:73|466:71|466:71|466:73|466:73|466:71|466:71|466:73|466:73|466:71|466:71|466:73|466:73|466:71|466:71|466:73|466:73|466:71|466:71|466:73|466:73|466:71|466:71|466:73|466:73|466:71|466:71|466:73|466:73|466:71|466:71|466:73|466:73|466:71|466:71|466:73|466:73|466:71|466:71|466:73|466:73|466:71|466:71|466:73|466:73|466:71|466:71|466:73|466:73|466:71|466:71|466:73|466:73|466:71|466:71|466:73|466:73|466:71|466:71|466:73|466:73|466:71|466:71|466:73|466:73|466:71|466:71|466:73|466:73|466:71|466:71|466:73|466:73|466:71|466:71|466:73|466:73|466:71|466:71|466:73|466:73|466:71|466:71|466:73|466:73|466:71|466:71|466:73|466:73|466:71|466:71|466:73|466:73|466:71|466:71|466:73|466:73|466:71|466:71|466:73|466:73|466:71|466:71|466:73|466:73|466:71|466:71|466:73|466:73|466:71|466:71|466:73|466:73|466:71|466:71|466:73|466:73|466:71|466:71|466:73|466:73|466:71|466:71|466:73|466:73|466:71|466:71|466:73|466:73|466:71|466:71|466:73|466:73|466:71|466:71|466:73|466:73|466:71|466:71|466:73|466:73|466:71|466:71|466:73|466:73|466:71|466:71|466:73|466:73|466:71|466:71|466:73|466:73|466:71|466:71|466:73|466:73|466:71|466:71|466:73|466:73|466:71|466:71|466:73|466:73|466:71|466:71|466:73|466:73|466:71|466:71|466:73|466:73|466:71|466:71|466:73|466:73|466:71|466:71|466:73|466:73|466:71|466:71|466:73|466:73|466:71|466:71|466:73|466:73|466:71|466:71|466:73|466:73|466:71|466:71|466:73|466:73|466:71|466:71|466:73|466:73|466:71|466:71|466:73|466:73|466:71|466:71|466:73|466:73|466:71|466:71|466:73|466:73|466:71|466:71|466:73|466:73|466:71|466:71|466:73|466:73|466:71|466:71|466:73|466:73|466:71|466:71|466:73|466:73|466:71|466:71|466:73|466:73|466:71|466:71|466:73|466:73|466:71|466:71|466:73|466:73|466:71|466:71|466:73|466:73|466:71|466:71|466:73|466:73|466:71|466:71|466:73|466:73|466:71|466:71|466:73|466:73|466:71|466:71|466:73|466:73|466:71|466:71|466:73|466:73|466:71|466:71|466:73|466:73|466:71|466:71|466:73|466:73|466:71|466:71|466:73|466:73|466:71|466:71|466:73|466:73|466:71|466:71|466:73|466:73|466:71|466:71|466:73|466:73|466:71|466:71|466:73|466:73|466:71|466:71|466:73|466:73|466:71|466:71|466:73|466:73|466:71|466:71|466:73|466:73|466:71|466:71|466:73|466:73|466:71|466:71|466:73|466:73|466:71|466:71|466:73|466:73|466:71|466:71|466:73|466:73|466:71|466:71|466:73|466:73|466:71|466:71|466:73|466:73|466:71|466:71|466:73|466:73|466:71|466:71|466:73|466:73|466:71|466:71|466:73|466:73|466:71|466:71|466:73|466:73|466:71|466:71|466:73|466:73|466:71|466:71|466:73|466:73|466:71|466:71|466:73|466:73|466:71|466:71|466:73|466:73|466:71|466:71|466:73|466:73|466:71|466:71|466:73|466:73|466:71|466:71|466:73|466:73|466:71|466:71|466:73|466:73|466:71|466:71|466:73|466:73|466:71|466:71|466:73|466:73|466:71|466:71|466:73|466:73|466:71|466:71|466:73|466:73|466:71|466:71|466:73|466:73|466:71|466:71|466:73|466:73|466:71|466:71|466:73|466:73|466:71|466:71|466:73|466:73|466:71|466:71|466:73|466:73|466:71|466:71|466:73|466:73|466:71|466:71|466:73|466:73|466:71|466:71|466:73|466:73|466:71|466:71|466:73|466:73|466:71|466:71|466:73|466:73|466:71|466:71|466:73|466:73|466:71|466:71|466:73|466:73|466:71|466:71|466:73|466:73|466:71|466:71|466:73|466:73|466:71|466:71|466:73|466:73|466:71|466:71|466:73|466:73|466:71|466:71|466:73|466:73|466:71|466:71|466:73|466:73|466:71|466:71|466:73|466:73|466:71|466:71|466:73|466:73|466:71|466:71|466:73|466:73|466:71|466:71|466:73|466:73|466:71|466:71|466:73|466:73|466:71|466:71|466:73|466:73|466:71|466:71|466:73|466:73|466:71|466:71|466:73|466:73|466:71|466:71|466:73|466:73|466:71|466:71|466:73|466:73|466:71|466:71|466:73|466:73|466:71|466:71|466:73|466:73|466:71|466:71|466:73|466:73|466:71|466:71|466:73|466:73|466:71|466:71|466:73|466:73|466:71|466:71|466:73|466:73|466:71|466:71|466:73|466:73|466:71|466:71|466:73|466:73|466:71|466:71|466:73|466:73|466:71|466:71|466:73|466:73|466:71|466:71|466:73|466:73|466:71|466:71|466:73|466:73|466:71|466:71|466:73|466:73|466:71|466:71|466:73|466:73|466:71|466:71|466:73|466:73|466:71|466:71|466:73|466:73|466:71|466:71|466:73|466:73|466:71|466:71|466:73|466:73|466:71|466:71|466:73|466:73|466:71|466:71|466:73|466:73|466:71|466:71|466:73|466:73|466:71|466:71|466:73|466:73|466:71|466:71|466:73|466:73|466:71|466:71|466:73|466:73|466:71|466:71|466:73|466:73|466:71|466:71|466:73|466:73|466:71|466:71|466:73|466:73|466:71|466:71|466:73|466:73|466:71|466:71|466:73|466:73|466:71|466:71|466:73|466:73|466:71|466:71|466:73|466:73|466:71|466:71|466:73|466:73|466:71|466:71|466:73|466:73|466:71|466:71|466:73|466:73|466:71|466:71|466:73|466:73|466:71|466:71|466:73|466:73|466:71|466:71|466:73|466:73|466:71|466:71|466:73|466:73|466:71|466:71|466:73|466:73|466:71|466:71|466:73|466:73|466:71|466:71|466:73|466:73|466:71|466:71|466:73|466:73|466:71|466:71|466:73|466:73,1,2280,4|0,0:0|0:0,0:0:0:0:
442,60,118143,5,4,0:0:0:0:
400,54,118219,1,0,0:0:0:0:
357,49,118296,2,0,L|306:44,1,47.5
217,156,118450,1,4,0:0:0:0:
255,175,118527,1,0,0:0:0:0:
295,190,118604,2,0,P|333:190|354:183,1,47.5
230,72,118758,5,4,0:0:0:0:
187,77,118835,1,0,0:0:0:0:
154,104,118912,2,0,P|138:131|138:169,1,47.5
221,282,119066,1,4,0:0:0:0:
204,321,119143,1,0,0:0:0:0:
176,352,119219,2,0,P|150:368|125:375,1,47.5
63,255,119373,5,4,0:0:0:0:
32,224,119450,1,0,0:0:0:0:
0,195,119527,2,0,L|-36:161,1,47.5
220,167,119681,1,4,0:0:0:0:
177,155,119758,1,0,0:0:0:0:
135,146,119835,2,0,L|86:134,1,47.5
325,29,119989,5,4,0:0:0:0:
282,40,120066,1,0,0:0:0:0:
241,53,120143,2,0,L|193:67,1,47.5
395,211,120296,1,4,0:0:0:0:
352,199,120373,1,0,0:0:0:0:
310,190,120450,2,0,L|261:178,1,47.5
512,65,120604,5,4,0:0:0:0:
469,76,120681,1,0,0:0:0:0:
428,89,120758,2,0,L|380:103,1,47.5
221,166,120912,1,4,0:0:0:0:
178,154,120989,1,0,0:0:0:0:
136,145,121066,2,0,L|87:133,1,47.5
256,55,121219,21,4,0:0:0:0:
292,76,121296,1,0,0:0:0:0:
315,111,121373,2,0,L|338:165,1,47.5
282,333,121527,1,4,0:0:0:0:
246,312,121604,1,0,0:0:0:0:
223,277,121681,2,0,L|200:223,1,47.5
156,88,121835,6,0,P|106:58|43:64,1,95,4|0,0:0|0:0,0:0:0:0:
5,223,122143,2,0,P|43:249|90:254,1,95
306,124,122450,1,0,0:0:0:0:
156,88,122604,1,0,0:0:0:0:
204,234,122758,2,0,P|222:271|264:313,1,95
439,335,123066,5,4,0:0:0:0:
434,328,123066,1,0,0:0:0:0:
323,204,123219,1,0,0:0:0:0:
490,202,123373,5,4,0:0:0:0:
487,207,123373,1,0,0:0:0:0:
321,215,123527,1,0,0:0:0:0:
446,99,123681,5,4,0:0:0:0:
441,94,123681,1,0,0:0:0:0:
389,272,123835,1,0,0:0:0:0:
387,272,123872,2,0,B|408:176|408:173|408:169|408:165|408:162|404:162|411:162|418:162|422:162|425:165|422:169|418:169|418:166|418:173|418:176|418:169|422:169|424:173|426:176|433:177|437:177|440:177|440:173|440:169|440:166|440:162|437:162|433:162|433:166|433:169|433:173|433:177|440:177|447:177|447:173|447:169|447:165|447:162|447:177|451:177|455:177|462:177|462:173|462:169|462:165|462:162|462:177|466:177|469:177,1,-1.79769313486231E+308
275,113,123989,5,4,0:0:0:0:
281,113,123989,1,0,0:0:0:0:
225,304,124143,1,0,0:0:0:0:
219,303,124180,2,0,B|298:207|294:207|290:207|290:211|297:215|294:215|290:215|290:219|290:222|298:223|294:223|290:223|281:223|281:219|281:215|281:211|281:207|279:209|277:212|276:215|274:212|272:210|269:207|269:211|269:215|269:219|269:223|261:223|261:219|261:215|257:215|254:215|261:215|261:211|261:207|257:207|253:207|253:211|253:215|253:219|253:223|237:223|241:223|245:223|245:219|245:215|241:215|237:215|237:211|237:207|241:207|245:207,1,-1.79769313486231E+308
388,180,124296,69,4,0:0:0:0:
382,171,124296,1,0,0:0:0:0:
201,130,124450,1,0,0:0:0:0:
305,284,124604,5,4,0:0:0:0:
315,281,124604,1,0,0:0:0:0:
208,117,124758,1,0,0:0:0:0:
166,312,124912,5,4,0:0:0:0:
162,305,124912,1,0,0:0:0:0:
346,228,125066,1,0,0:0:0:0:
346,228,125103,2,0,L,1,-1
176,198,125219,53,4,0:0:0:0:
169,194,125219,1,0,0:0:0:0:
337,113,125373,1,0,0:0:0:0:
339,110,125410,2,0,L,1,-1
313,294,125527,5,4,0:0:0:0:
313,300,125527,1,0,0:0:0:0:
250,126,125681,1,0,0:0:0:0:
119,258,125835,5,4,0:0:0:0:
125,255,125835,1,0,0:0:0:0:
195,83,125989,1,0,0:0:0:0:
273,250,126143,5,4,0:0:0:0:
276,244,126143,1,0,0:0:0:0:
258,60,126296,1,0,0:0:0:0:
123,187,126450,69,4,0:0:0:0:
126,182,126450,1,0,0:0:0:0:
204,13,126604,1,0,0:0:0:0:
313,165,126758,5,4,0:0:0:0:
325,175,126758,2,0,P|390:199|465:182,1,142.500005435944
363,25,127066,1,0,0:0:0:0:
232,154,127219,1,0,0:0:0:0:
381,238,127373,5,0,0:0:0:0:
391,250,127373,2,0,P|372:329|311:376,1,142.500005435944
142,382,127681,1,0,0:0:0:0:
289,270,127835,1,0,0:0:0:0:
107,235,127989,85,4,0:0:0:0:
100,232,127989,1,0,0:0:0:0:
283,202,128143,1,0,0:0:0:0:
145,80,128296,5,4,0:0:0:0:
138,75,128296,1,0,0:0:0:0:
313,138,128450,1,0,0:0:0:0:
180,268,128604,21,4,0:0:0:0:
172,272,128604,2,0,B,2,-1
366,319,128758,1,0,0:0:0:0:
369,321,128758,2,0,B,1024,-1
251,161,128912,5,4,0:0:0:0:
243,160,128912,2,0,B,2,-1
144,334,129066,1,0,0:0:0:0:
139,338,129066,2,0,B,1028,-1
321,254,129219,5,4,0:0:0:0:
328,246,129219,1,0,0:0:0:0:
147,205,129373,1,0,0:0:0:0:
291,88,129527,5,4,0:0:0:0:
298,90,129527,1,0,0:0:0:0:
199,246,129681,1,0,0:0:0:0:
231,64,129835,5,4,0:0:0:0:
239,65,129835,2,0,B,2,-1
394,191,129989,1,0,0:0:0:0:
400,196,129989,2,0,B,1032,-1
201,176,130143,5,4,0:0:0:0:
194,174,130143,2,0,B,2,-1
369,82,130296,1,0,0:0:0:0:
374,84,130296,2,0,B,1036,-1
367,285,130450,53,4,0:0:0:0:
368,293,130450,1,0,0:0:0:0:
310,116,130604,1,0,0:0:0:0:
203,267,130758,5,4,0:0:0:0:
199,272,130758,1,0,0:0:0:0:
331,142,130912,1,0,0:0:0:0:
147,118,131066,5,4,0:0:0:0:
140,118,131066,1,0,0:0:0:0:
315,174,131219,1,0,0:0:0:0:
231,8,131373,5,4,0:0:0:0:
224,4,131373,1,0,0:0:0:0:
274,182,131527,1,0,0:0:0:0:
417,63,131681,54,0,P|457:126|382:310,1,285,4|0,0:0|0:0,0:0:0:0:
323,166,131848,2,0,B,1,-1
464,192,132002,2,0,B,1,-1
322,180,132156,2,0,B,1,-1
387,306,132309,2,0,B,1,-1
321,196,132450,2,0,L|317:228,1,28.4
315,247,132912,6,0,P|0:200|326:162,1,760,4|0,0:0|0:0,0:0:0:0:
174,219,133065,1,0,0:0:0:0:
251,99,133219,2,0,P|320:64|104:48,1,760,4|0,0:0|0:0,0:0:0:0:
243,241,133373,1,0,0:0:0:0:
177,102,133527,6,0,P|444:40|324:151,1,760,4|0,0:0|0:0,0:0:0:0:
238,175,133681,1,0,0:0:0:0:
112,208,133835,2,0,P|0:336|332:340,1,760,4|0,0:0|0:0,0:0:0:0:
215,297,133988,1,0,0:0:0:0:
139,360,134142,6,0,P|416:176|324:151,1,760,4|0,0:0|0:0,0:0:0:0:
271,325,134296,1,0,0:0:0:0:
168,244,134450,2,0,P|24:188|304:104,1,760,4|0,0:0|0:0,0:0:0:0:
322,285,134604,1,0,0:0:0:0:
195,175,134758,22,0,P|112:155|320:112,1,760,4|0,0:0|0:0,0:0:0:0:
321,228,134912,1,0,0:0:0:0:
253,109,135065,2,0,P|152:96|328:336,1,760,4|0,0:0|0:0,0:0:0:0:
255,255,135219,1,0,0:0:0:0:
387,187,135373,6,0,P|436:280|152:192,1,760,4|0,0:0|0:0,0:0:0:0:
331,64,135527,1,0,0:0:0:0:
270,179,135681,2,0,P|348:272|324:12,1,760,4|0,0:0|0:0,0:0:0:0:
215,33,135835,1,0,0:0:0:0:
119,161,135988,6,0,P|80:44|408:144,1,760,4|0,0:0|0:0,0:0:0:0:
241,105,136142,1,0,0:0:0:0:
222,239,136296,2,0,P|376:380|432:32,1,760,4|0,0:0|0:0,0:0:0:0:
331,135,136450,1,0,0:0:0:0:
192,165,136604,6,0,P|124:216|376:197,1,760,4|0,0:0|0:0,0:0:0:0:
300,51,136758,1,0,0:0:0:0:
267,178,136912,2,0,P|328:108|116:188,1,760,4|0,0:0|0:0,0:0:0:0:
166,91,137065,1,0,0:0:0:0:
216,239,137219,6,0,P|338:6|244:110,1,1519,4|4,0:0|0:0,0:0:0:0:
315,245,137373,2,0,P|605:230|246:107,1,1139,4|0,0:0|0:0,0:0:0:0:
391,175,137527,2,0,P|444:158|248:107,1,759,4|0,0:0|0:0,0:0:0:0:
408,73,137681,2,0,P|406:13|252:109,1,379,4|0,0:0|0:0,0:0:0:0:
309,107,137835,6,0,P|284:128|346:23,1,760,4|0,0:0|0:0,0:0:0:0:
363,219,137988,1,0,0:0:0:0:
432,129,138142,2,0,P|624:40|488:316,1,760,4|0,0:0|0:0,0:0:0:0:
507,240,138296,1,0,0:0:0:0:
362,153,138450,38,0,P|397:66|608:348,1,760,4|0,0:0|0:0,0:0:0:0:
453,182,138604,1,0,0:0:0:0:
432,268,138758,2,0,P|412:336|140:80,1,760,4|0,0:0|0:0,0:0:0:0:
338,241,138912,1,0,0:0:0:0:
272,172,139065,6,0,P|234:232|416:123,1,760,4|0,0:0|0:0,0:0:0:0:
317,76,139219,1,0,0:0:0:0:
213,84,139373,2,0,P|88:34|357:-12,1,760,4|0,0:0|0:0,0:0:0:0:
164,187,139527,1,0,0:0:0:0:
247,271,139681,6,0,P|113:245|401:81,1,760,4|0,0:0|0:0,0:0:0:0:
336,237,139835,1,0,0:0:0:0:
295,151,139988,2,0,P|497:189|199:368,1,760,4|0,0:0|0:0,0:0:0:0:
216,184,140142,1,0,0:0:0:0:
377,163,140296,22,0,P|301:7|378:177,1,1519,4|0,0:0|0:0,0:0:0:0:
106,377,140603,38,0,P|207:12|117:378,1,1139,4|0,0:0|0:0,0:0:0:0:
17,128,140911,38,0,P|3:174|31:107,1,759,4|0,0:0|0:0,0:0:0:0:
182,223,141219,86,0,P|66:170|188:212,1,379,4|0,0:0|0:0,0:0:0:0:
129,187,141526,85,4,0:0:0:0:
256,192,141526,12,0,142756,0:0:0:0:
128,185,142757,6,0,L|142:185,1,14.249,2|0,0:0|0:0,0:0:0:0:
167,215,146450,2,0,L|169:215,1,2.3749,2|0,0:0|0:0,0:0:0:0:
198,185,147065,2,0,L|200:185,1,2.3749
241,215,147680,6,0,L|255:215,1,14.249,6|0,0:0|0:0,0:0:0:0:
278,185,151373,2,0,L|280:185,1,2.3749,2|0,0:0|0:0,0:0:0:0:
306,215,151988,2,0,L|308:215,1,2.3749,2|0,0:0|0:0,0:0:0:0:
336,184,152603,6,0,L|352:184,1,16.6249,6|0,0:0|0:0,0:0:0:0:
372,215,156911,2,0,L|375:215,1,2.3749,2|0,0:0|0:0,0:0:0:0:
396,185,157527,38,0,L|405:185,1,9.49,6|0,0:0|0:0,0:0:0:0:
432,215,159987,2,0,L|442:215,1,9.49,2|0,0:0|0:0,0:0:0:0:
458,185,162449,5,6,0:0:0:0:
354,123,162602,1,4,0:0:0:0:
345,236,162756,1,8,0:0:0:0:
248,177,162909,1,0,0:0:0:0:
227,189,162985,1,0,0:0:0:0:
207,201,163062,1,0,0:0:0:0:
187,213,163139,1,0,0:0:0:0:
168,225,163217,1,4,0:0:0:0:
213,326,163371,5,8,0:0:0:0:
321,322,163525,2,0,L|332:264,1,47.5
267,205,163679,2,0,L|258:251,1,47.5
363,193,163832,1,4,0:0:0:0:
173,215,163986,5,8,0:0:0:0:
217,120,164140,1,0,0:0:0:0:
236,106,164216,1,0,0:0:0:0:
256,93,164293,1,0,0:0:0:0:
275,79,164370,1,0,0:0:0:0:
295,66,164447,1,4,0:0:0:0:
371,158,164602,5,8,0:0:0:0:
258,232,164756,1,0,0:0:0:0:
273,249,164832,1,0,0:0:0:0:
289,267,164909,2,0,P|327:292|381:297,1,95,4|4,0:0|0:0,0:0:0:0:
500,227,165217,69,8,0:0:0:0:
371,158,165370,1,0,0:0:0:0:
347,158,165446,1,0,0:0:0:0:
323,158,165523,1,0,0:0:0:0:
299,158,165600,1,0,0:0:0:0:
276,158,165677,1,4,0:0:0:0:
172,55,165832,5,8,0:0:0:0:
311,23,165986,2,0,L|296:77,1,47.5
212,151,166140,2,0,L|224:105,1,47.5
346,120,166293,1,4,0:0:0:0:
250,232,166447,5,8,0:0:0:0:
393,269,166601,1,0,0:0:0:0:
414,259,166677,1,0,0:0:0:0:
434,246,166754,1,0,0:0:0:0:
452,231,166831,1,0,0:0:0:0:
468,213,166908,1,4,0:0:0:0:
487,71,167063,85,8,0:0:0:0:
359,134,167217,2,0,L|419:180,1,47.5
436,40,167370,1,6,0:0:0:0:
305,103,167524,1,4,0:0:0:0:
446,124,167678,5,8,0:0:0:0:
329,206,167832,1,0,0:0:0:0:
308,218,167908,1,0,0:0:0:0:
288,230,167985,1,0,0:0:0:0:
267,242,168062,1,0,0:0:0:0:
247,254,168139,1,4,0:0:0:0:
134,168,168293,37,8,0:0:0:0:
267,115,168447,2,0,L|254:188,1,47.5
180,260,168601,2,0,L|171:213,1,47.5
301,206,168755,1,4,0:0:0:0:
191,115,168909,5,8,0:0:0:0:
327,72,169063,1,0,0:0:0:0:
345,86,169139,1,0,0:0:0:0:
364,101,169216,1,0,0:0:0:0:
382,116,169293,1,0,0:0:0:0:
401,131,169370,1,4,0:0:0:0:
430,271,169524,5,8,0:0:0:0:
288,257,169678,1,0,0:0:0:0:
287,233,169755,1,0,0:0:0:0:
287,209,169832,2,0,P|287:161|305:107,1,95,4|4,0:0|0:0,0:0:0:0:
417,33,170140,5,8,0:0:0:0:
491,155,170295,1,0,0:0:0:0:
468,161,170371,1,0,0:0:0:0:
445,168,170448,1,0,0:0:0:0:
422,175,170525,1,0,0:0:0:0:
400,182,170602,1,4,0:0:0:0:
334,55,170756,5,8,0:0:0:0:
210,125,170910,2,0,L|226:58,1,47.5
342,123,171064,2,0,L|330:169,1,47.5
204,190,171218,1,4,0:0:0:0:
329,257,171372,21,8,0:0:0:0:
192,293,171525,1,0,0:0:0:0:
168,288,171601,1,0,0:0:0:0:
147,278,171678,1,0,0:0:0:0:
129,263,171755,1,0,0:0:0:0:
116,243,171832,1,4,0:0:0:0:
195,112,171987,6,0,P|247:125|277:175,1,95,10|0,0:0|0:0,0:0:0:0:
279,184,172218,1,0,0:0:0:0:
280,212,172294,1,6,0:0:0:0:
252,363,172449,1,4,0:0:0:0:
205,188,172602,5,8,0:0:0:0:
351,230,172756,1,0,0:0:0:0:
379,230,172832,1,0,0:0:0:0:
407,225,172909,1,0,0:0:0:0:
434,215,172986,1,0,0:0:0:0:
458,200,173063,1,0,0:0:0:0:
364,79,173218,5,8,0:0:0:0:
281,206,173372,2,0,L|254:264,1,47.5
217,108,173525,2,0,L|237:151,1,47.5
257,21,173679,2,0,L|210:122,1,95,4|8,0:0|0:0,0:0:0:0:
172,254,173987,5,0,0:0:0:0:
174,282,174063,1,0,0:0:0:0:
182,309,174140,1,0,0:0:0:0:
196,334,174217,1,0,0:0:0:0:
215,355,174294,1,4,0:0:0:0:
367,371,174449,5,8,0:0:0:0:
390,221,174602,2,0,L|344:260,1,47.5
288,308,174756,1,4,0:0:0:0:
459,303,174910,1,4,0:0:0:0:
328,193,175064,21,8,0:0:0:0:
475,157,175218,1,0,0:0:0:0:
490,133,175294,1,0,0:0:0:0:
499,106,175371,1,0,0:0:0:0:
500,77,175448,1,0,0:0:0:0:
493,50,175525,1,4,0:0:0:0:
347,6,175679,5,8,0:0:0:0:
374,155,175833,2,0,L|422:124,1,47.5
303,79,175987,2,0,L|351:110,1,47.5
224,132,176141,2,0,L|308:75,1,95,4|8,0:0|0:0,0:0:0:0:
298,231,176449,5,0,0:0:0:0:
274,246,176525,1,0,0:0:0:0:
247,255,176602,1,0,0:0:0:0:
218,257,176679,1,0,0:0:0:0:
190,251,176756,1,4,0:0:0:0:
92,135,176910,5,8,0:0:0:0:
17,289,177064,2,0,L|73:258,1,47.5
137,229,177218,1,6,0:0:0:0:
241,365,177372,1,4,0:0:0:0:
326,208,177525,5,8,0:0:0:0:
183,302,177679,1,0,0:0:0:0:
158,316,177755,1,0,0:0:0:0:
134,331,177832,1,0,0:0:0:0:
109,345,177909,1,0,0:0:0:0:
85,360,177986,1,4,0:0:0:0:
65,208,178141,5,8,0:0:0:0:
213,176,178295,2,0,L|190:228,1,47.5
158,90,178449,2,0,L|181:142,1,47.5
195,2,178602,2,0,L|154:97,1,95,4|8,0:0|0:0,0:0:0:0:
127,239,178910,69,0,0:0:0:0:
140,263,178986,1,0,0:0:0:0:
162,281,179063,1,0,0:0:0:0:
189,288,179140,1,0,0:0:0:0:
217,284,179217,1,4,0:0:0:0:
349,206,179372,5,8,0:0:0:0:
262,59,179525,2,0,L|251:114,1,47.5
233,190,179679,1,6,0:0:0:0:
374,287,179833,1,4,0:0:0:0:
319,125,179987,5,8,0:0:0:0:
258,264,180141,1,0,0:0:0:0:
230,269,180217,1,0,0:0:0:0:
202,263,180294,1,0,0:0:0:0:
178,247,180371,1,0,0:0:0:0:
163,223,180448,1,4,0:0:0:0:
157,71,180602,37,8,0:0:0:0:
257,185,180756,2,0,L|327:195,1,47.5
409,115,180910,2,0,L|339:125,1,47.5
272,27,181064,2,0,L|411:48,1,95,4|8,0:0|0:0,0:0:0:0:
436,209,181372,6,0,L|367:200,1,47.5
268,269,181525,2,0,L|337:260,1,47.5
420,355,181679,2,0,L|305:340,1,95,4|8,0:0|0:0,0:0:0:0:
135,323,181987,5,0,0:0:0:0:
101,318,182064,1,0,0:0:0:0:
67,314,182141,1,4,0:0:0:0:
256,192,188295,12,0,191679,0:0:0:0:
309,257,191680,6,0,L|317:236,1,19,0|2,0:0|0:0,0:0:0:0:
325,216,191987,5,4,0:0:0:0:
367,89,192141,1,0,0:0:0:0:
374,71,192218,1,0,0:0:0:0:
381,53,192295,2,0,L|424:17,1,47.5
460,141,192449,2,0,L|423:171,1,47.5
300,136,192602,37,2,0:0:0:0:
389,234,192756,1,0,0:0:0:0:
391,252,192833,1,0,0:0:0:0:
393,270,192910,2,0,L|383:332,1,47.5
276,256,193064,2,0,L|286:194,1,47.5
306,333,193218,5,2,0:0:0:0:
287,337,193295,1,0,0:0:0:0:
268,340,193372,2,0,L|169:359,1,95
114,218,193679,1,0,0:0:0:0:
132,222,193756,2,0,L|194:240,1,47.5
326,272,193987,1,0,0:0:0:0:
341,261,194063,1,0,0:0:0:0:
355,248,194140,1,0,0:0:0:0:
366,232,194217,1,0,0:0:0:0:
373,215,194294,1,0,0:0:0:0:
377,62,194449,5,2,0:0:0:0:
242,130,194602,1,0,0:0:0:0:
242,148,194678,1,0,0:0:0:0:
243,167,194756,2,0,L|242:233,1,47.5
373,215,194910,2,0,L|317:181,1,47.5
255,296,195064,2,0,P|309:294|354:240,1,95,2|0,0:0|0:0,0:0:0:0:
393,126,195372,1,0,0:0:0:0:
396,107,195449,1,0,0:0:0:0:
399,88,195525,1,0,0:0:0:0:
240,23,195679,6,0,L|291:126,1,95,2|0,0:0|0:0,0:0:0:0:
185,100,195910,1,0,0:0:0:0:
168,82,195987,2,0,P|147:29|177:-41,1,95,2|0,0:0|0:0,0:0:0:0:
331,11,196218,1,0,0:0:0:0:
332,34,196295,2,0,P|321:76|276:109,1,95,2|0,0:0|0:0,0:0:0:0:
118,173,196525,1,0,0:0:0:0:
102,190,196602,2,0,P|72:251|87:307,1,95,2|0,0:0|0:0,0:0:0:0:
215,184,196833,5,0,0:0:0:0:
216,160,196910,2,0,P|196:110|159:77,1,95,2|0,0:0|0:0,0:0:0:0:
65,98,197141,1,0,0:0:0:0:
51,117,197218,2,0,L|8:178,1,47.5
129,228,197372,2,0,L|86:167,1,47.5
2,249,197525,38,0,P|25:306|77:345,1,95,2|0,0:0|0:0,0:0:0:0:
146,359,197756,1,0,0:0:0:0:
169,355,197833,2,0,L|234:341,1,47.5
273,259,197987,2,0,L|319:269,1,47.5
380,353,198141,6,0,P|415:310|420:255,1,95,2|0,0:0|0:0,0:0:0:0:
387,177,198372,1,0,0:0:0:0:
363,182,198449,2,0,L|283:206,1,47.5
248,121,198602,2,0,L|202:107,1,47.5
146,195,198756,6,0,L|89:217,1,47.5,2|0,0:0|0:0,0:0:0:0:
57,119,198910,1,2,0:0:0:0:
46,97,198987,1,0,0:0:0:0:
36,75,199064,2,0,L|9:19,1,47.5
142,0,199218,2,0,L|96:98,1,95,0|2,0:0|0:0,0:0:0:0:
34,238,199449,5,0,0:0:0:0:
58,251,199525,2,0,L|125:292,1,47.5
210,185,199679,1,0,0:0:0:0:
234,170,199756,1,0,0:0:0:0:
257,154,199833,2,0,L|325:109,1,47.5
365,255,199987,6,0,P|311:273|263:267,1,95,2|0,0:0|0:0,0:0:0:0:
167,172,200218,1,0,0:0:0:0:
163,143,200295,2,0,L|157:80,1,47.5,2|0,0:0|0:0,0:0:0:0:
291,37,200449,2,0,L|286:84,1,47.5
226,214,200602,70,0,P|182:242|133:235,1,95,2|0,0:0|0:0,0:0:0:0:
40,132,200833,1,0,0:0:0:0:
65,119,200910,2,0,L|117:92,1,47.5
245,140,201064,2,0,P|291:173|300:227,1,95,0|2,0:0|0:0,0:0:0:0:
78,288,201372,5,0,0:0:0:0:
67,261,201448,1,0,0:0:0:0:
65,233,201525,1,0,0:0:0:0:
73,206,201602,1,0,0:0:0:0:
89,183,201679,2,0,L|132:156,1,47.5
269,76,201833,6,0,P|231:36|189:13,1,95,2|0,0:0|0:0,0:0:0:0:
40,26,202064,2,0,L|28:79,1,47.5
178,123,202218,2,0,L|167:76,1,47.5
31,148,202372,1,0,0:0:0:0:
37,180,202449,2,0,P|64:229|109:260,1,95,2|0,0:0|0:0,0:0:0:0:
248,290,202679,1,0,0:0:0:0:
281,294,202756,2,0,L|340:300,1,47.5
393,190,202910,2,0,L|440:185,1,47.5
500,296,203064,54,0,P|443:339|393:335,1,95,2|0,0:0|0:0,0:0:0:0:
338,235,203295,1,0,0:0:0:0:
325,204,203372,2,0,P|336:147|401:126,1,95
405,254,203602,1,0,0:0:0:0:
387,282,203679,2,0,P|335:305|284:276,1,95
213,191,203910,1,0,0:0:0:0:
193,163,203987,1,2,0:0:0:0:
173,135,204064,1,0,0:0:0:0:
154,107,204141,2,0,P|133:90|100:76,1,47.5,2|0,0:0|0:0,0:0:0:0:
86,218,204295,6,0,P|113:274|163:313,1,95,2|0,0:0|0:0,0:0:0:0:
272,316,204525,1,0,0:0:0:0:
309,310,204602,2,0,L|385:302,1,47.5
351,165,204756,2,0,L|390:111,1,47.5
504,187,204910,6,0,P|471:234|419:252,1,95,2|0,0:0|0:0,0:0:0:0:
300,228,205141,1,0,0:0:0:0:
262,221,205218,1,0,0:0:0:0:
224,214,205295,1,0,0:0:0:0:
186,208,205372,2,0,P|150:196|125:177,1,47.5
62,78,205525,6,0,P|22:114|-1:168,1,95,2|0,0:0|0:0,0:0:0:0:
23,289,205756,1,0,0:0:0:0:
47,317,205833,2,0,P|85:349|153:355,1,95
252,294,206064,1,0,0:0:0:0:
285,276,206141,2,0,P|338:285|376:342,1,95
235,362,206372,1,0,0:0:0:0:
203,339,206449,2,0,L|168:292,1,47.5,2|0,0:0|0:0,0:0:0:0:
259,192,206602,2,0,L|286:148,1,47.5
407,217,206756,54,0,P|474:235|512:230,1,95,2|0,0:0|0:0,0:0:0:0:
476,95,206987,1,0,0:0:0:0:
443,87,207064,2,0,P|372:85|350:341,1,380,2|0,0:0|0:0,0:0:0:0:
213,152,207218,6,0,P|202:198|206:256,1,95,0|2,0:0|0:0,0:0:0:0:
337,200,207449,1,0,0:0:0:0:
347,163,207525,1,0,0:0:0:0:
345,124,207602,1,0,0:0:0:0:
331,88,207679,2,0,L|310:44,1,47.5
172,68,207833,2,0,L|121:103,1,47.5
122,234,207987,86,0,P|75:221|26:178,1,95,2|0,0:0|0:0,0:0:0:0:
175,163,208218,1,0,0:0:0:0:
198,188,208295,2,0,P|202:276|44:186,1,380,2|0,0:0|0:0,0:0:0:0:
249,332,208449,6,0,P|215:368|159:387,1,95,0|2,0:0|0:0,0:0:0:0:
182,247,208679,1,0,0:0:0:0:
215,229,208756,1,0,0:0:0:0:
252,221,208833,1,0,0:0:0:0:
289,218,208910,2,0,L|350:222,1,47.5
407,339,209064,2,0,L|459:368,1,47.5
493,228,209218,86,0,P|480:165|454:117,1,95,2|0,0:0|0:0,0:0:0:0:
359,50,209449,1,0,0:0:0:0:
334,80,209525,2,0,P|282:291|413:440,1,380,2|0,0:0|0:0,0:0:0:0:
205,232,209679,6,0,P|208:278|226:340,1,95,0|2,0:0|0:0,0:0:0:0:
391,152,209987,1,0,0:0:0:0:
405,116,210064,1,0,0:0:0:0:
417,80,210141,2,0,P|416:26|379:-11,1,95,2|0,0:0|0:0,0:0:0:0:
228,35,210372,5,0,0:0:0:0:
207,66,210449,2,0,L|285:158,1,95,2|0,0:0|0:0,0:0:0:0:
405,289,210679,1,0,0:0:0:0:
402,327,210756,2,0,P|366:377|301:386,1,95
286,272,210987,1,0,0:0:0:0:
310,242,211064,2,0,P|359:205|425:199,1,95
504,312,211295,1,0,0:0:0:0:
481,342,211372,2,0,L|421:381,1,47.5
263,357,211525,5,0,0:0:0:0:
219,337,211602,1,0,0:0:0:0:
175,318,211679,2,0,L|113:286,1,52.2500015945435,4|0,0:0|0:0,0:0:0:0:
44,239,211833,2,0,P|91:199|157:199,1,104.500003189087
220,241,212064,2,0,P|231:207|231:167,1,52.2500015945435
206,93,212218,37,0,0:0:0:0:
253,89,212295,2,0,P|282:97|309:119,1,52.2500015945435
315,208,212449,2,0,P|371:182|396:134,1,104.500003189087
419,51,212679,1,0,0:0:0:0:
462,71,212756,2,0,P|481:98|496:145,1,52.2500015945435
483,216,212910,85,0,0:0:0:0:
447,247,212987,1,0,0:0:0:0:
401,258,213064,2,0,P|350:243|314:207,1,104.500003189087
280,112,213295,1,0,0:0:0:0:
239,135,213372,2,0,P|224:152|213:183,1,52.2500015945435
215,278,213525,37,0,0:0:0:0:
196,321,213602,1,0,0:0:0:0:
171,361,213679,2,0,P|140:385|79:374,1,104.500003189087
9,301,213910,1,0,0:0:0:0:
34,261,213987,2,0,L|66:215,1,52.2500015945435
122,136,214141,5,0,0:0:0:0:
169,131,214218,1,0,0:0:0:0:
215,141,214295,2,0,P|283:158|337:144,1,104.500003189087
400,100,214525,1,0,0:0:0:0:
419,143,214602,2,0,P|417:170|410:195,1,52.2500015945435
376,288,214756,5,0,0:0:0:0:
336,262,214833,1,0,0:0:0:0:
313,221,214910,2,0,L|317:109,1,104.500003189087
270,27,215141,1,0,0:0:0:0:
234,57,215218,2,0,P|218:99|225:140,1,52.2500015945435
240,203,215372,37,0,0:0:0:0:
193,203,215449,1,0,0:0:0:0:
151,182,215525,2,0,P|117:126|133:57,1,104.500003189087
187,15,215756,1,0,0:0:0:0:
234,12,215833,2,0,P|265:18|292:52,1,52.2500015945435
331,117,215987,85,0,0:0:0:0:
344,163,216064,1,0,0:0:0:0:
354,209,216141,2,0,P|380:261|436:286,1,104.500003189087
498,221,216372,1,0,0:0:0:0:
462,192,216449,2,0,P|427:180|396:189,1,52.2500015945435
314,195,216602,5,0,0:0:0:0:
267,200,216679,1,0,0:0:0:0:
220,207,216756,2,0,P|167:200|120:155,1,104.500003189087
88,76,216987,1,0,0:0:0:0:
50,104,217064,1,0,0:0:0:0:
27,145,217141,2,0,P|40:219|94:262,1,104.500003189087
144,290,217372,54,0,L|246:296,1,52.2500015945435
295,289,217525,1,0,0:0:0:0:
283,243,217602,2,0,P|252:211|209:197,1,52.2500015945435
152,170,217756,85,0,0:0:0:0:
180,132,217833,2,0,P|201:119|239:106,1,52.2500015945435
321,142,217987,2,0,P|345:214|321:260,1,104.500003189087
310,335,218218,1,0,0:0:0:0:
357,338,218295,2,0,P|380:330|424:290,1,52.2500015945435
451,226,218449,54,0,L|448:163,1,52.2500015945435
511,96,218602,2,0,P|464:73|389:90,1,104.500003189087
325,127,218833,1,0,0:0:0:0:
285,152,218910,2,0,P|251:165|223:164,1,52.2500015945435
144,123,219064,85,0,0:0:0:0:
114,159,219141,1,0,0:0:0:0:
98,203,219218,2,0,P|105:271|144:315,1,104.500003189087
210,352,219449,1,0,0:0:0:0:
256,362,219525,2,0,L|309:334,1,52.2500015945435
378,272,219679,6,0,L|325:237,1,52.2500015945435
238,213,219833,2,0,P|280:156|334:144,1,104.500003189087
410,143,220064,1,0,0:0:0:0:
457,143,220141,2,0,P|483:133|510:99,1,52.2500015945435
425,48,220295,54,0,L|357:51,1,52.2500015945435
272,40,220449,2,0,P|212:91|202:135,1,104.500003189087
222,210,220679,1,0,0:0:0:0:
231,256,220756,2,0,P|234:296|224:336,1,52.2500015945435
152,246,220910,38,0,P|145:222|159:169,1,52.2500015945435
238,154,221064,2,0,L|336:163,1,52.2500015945435
390,166,221218,1,0,0:0:0:0:
437,169,221295,1,0,0:0:0:0:
484,172,221372,2,0,L|561:180,1,52.2500015945435
471,281,221525,6,0,P|412:315|378:94,1,380,4|0,0:0|0:0,0:0:0:0:
303,279,221832,1,4,0:0:0:0:
326,111,222140,6,0,P|257:17|155:207,1,380,4|0,0:0|0:0,0:0:0:0:
219,119,222448,1,4,0:0:0:0:
118,162,222755,6,0,P|216:227|246:13,1,380,4|0,0:0|0:0,0:0:0:0:
219,119,223063,1,4,0:0:0:0:
296,43,223371,6,0,P|185:19|194:227,1,380,4|0,0:0|0:0,0:0:0:0:
219,119,223678,1,4,0:0:0:0:
177,221,223986,38,0,P|340:275|194:369,1,380,4|0,0:0|0:0,0:0:0:0:
245,287,224294,1,4,0:0:0:0:
241,383,224601,6,0,P|150:297|324:235,1,380,4|0,0:0|0:0,0:0:0:0:
245,287,224909,1,4,0:0:0:0:
318,228,225217,6,0,P|371:218|246:107,1,380,4|0,0:0|0:0,0:0:0:0:
328,139,225525,1,4,0:0:0:0:
253,92,225832,6,0,P|170:143|334:254,1,380,4|0,0:0|0:0,0:0:0:0:
161,217,226140,1,4,0:0:0:0:
322,265,226448,6,0,P|351:161|158:187,1,380,4|0,0:0|0:0,0:0:0:0:
323,118,226601,1,4,0:0:0:0:
159,177,226755,22,0,P|200:275|321:118,1,380,4|0,0:0|0:0,0:0:0:0:
275,292,226909,1,4,0:0:0:0:
342,144,227063,6,0,P|249:95|234:290,1,380,4|0,0:0|0:0,0:0:0:0:
180,132,227217,1,4,0:0:0:0:
222,286,227371,6,0,P|345:240|218:104,1,380,4|0,0:0|0:0,0:0:0:0:
356,194,227525,1,4,0:0:0:0:
223,101,227678,6,0,P|159:194|352:219,1,380,4|0,0:0|0:0,0:0:0:0:
183,258,227832,1,4,0:0:0:0:
343,240,227986,6,0,P|346:151|170:238,1,380,4|0,0:0|0:0,0:0:0:0:
273,95,228140,1,4,0:0:0:0:
161,215,228294,6,0,P|303:281|312:111,1,380,4|0,0:0|0:0,0:0:0:0:
312,275,228448,1,4,0:0:0:0:
315,113,228601,70,0,P|217:104|278:291,1,380,4|0,0:0|0:0,0:0:0:0:
162,168,228755,1,4,0:0:0:0:
265,292,228909,6,0,L|256:192|256:192,1,100,4|0,0:0|0:0,0:0:0:0:
312,275,228986,2,0,L|253:189,1,100,4|0,0:0|0:0,0:0:0:0:
350,226,229063,6,0,B|256:192|256:192,1,100,4|0,0:0|0:0,0:0:0:0:
352,171,229140,2,0,L|252:194,1,100,4|0,0:0|0:0,0:0:0:0:
326,121,229217,38,0,B|256:192|256:192,1,100,4|0,0:0|0:0,0:0:0:0:
278,96,229294,2,0,L|256:197,1,100,4|0,0:0|0:0,0:0:0:0:
221,98,229371,86,0,B|256:192|256:192,1,100,4|0,0:0|0:0,0:0:0:0:
175,131,229448,2,0,L|268:199,1,100,4|0,0:0|0:0,0:0:0:0:
156,183,229525,38,0,B|256:192|256:192,1,100,4|0,0:0|0:0,0:0:0:0:
168,239,229601,2,0,L|264:187,1,100,4|0,0:0|0:0,0:0:0:0:
206,278,229678,86,0,B|256:192|256:192,1,100,4|0,0:0|0:0,0:0:0:0:
257,291,229755,2,0,L|255:180,1,100,4|0,0:0|0:0,0:0:0:0:
313,274,229832,38,0,B|256:192|256:192,1,100,4|0,0:0|0:0,0:0:0:0:
347,231,229909,2,0,L|250:189,1,100,4|0,0:0|0:0,0:0:0:0:
354,175,229986,38,0,B|256:192|256:192,1,100,4|0,0:0|0:0,0:0:0:0:
326,121,230063,2,0,L|255:191,1,100,4|0,0:0|0:0,0:0:0:0:
280,94,230140,38,0,B|252:91|252:91|222:96|222:96|198:113|198:113|175:132|175:132|163:160|163:160|156:185|156:185|160:216|160:216|168:240|168:240|187:262|187:262|205:279|205:279|231:286|231:286|259:294|259:294|288:285|288:285|315:274|315:274|332:253|332:253|348:232|348:232|354:204|354:204|354:175|354:175|342:142|342:142|327:121|327:121|286:97|286:97|267:99|267:99|239:103|239:103|218:119|218:119|195:135|195:135|185:159|185:159|176:182|176:182|176:205|176:205|179:226|179:226|193:246|193:246|208:260|208:260|230:269|230:269|254:273|254:273|279:271|279:271|303:261|303:261|320:242|320:242|331:221|331:221|335:192|335:192|334:171|334:171|321:146|321:146|308:132|308:132|282:121|282:121|250:118|250:118|231:125|231:125|213:147|213:147|202:169|202:169|200:192|200:192|205:212|205:212|215:228|215:228|233:239|233:239|254:243|254:243|277:235|277:235|293:221|293:221|300:197|300:197|297:173|297:173|284:157|284:157|262:146|262:146|240:154|240:154|228:174|228:174|226:197|226:197|238:215|238:215|257:220|257:220|274:212|274:212|279:190|279:190|268:173|268:173|252:171|252:171|239:182|239:182|240:198|240:198|265:201|265:201|267:185|267:185|254:182|254:182|248:193|248:193|258:196|258:196|259:188|259:188|255:193|255:193|257:191|257:191|255:193|255:193|257:191|257:191|255:193|255:193|257:191|257:191|255:193|255:193|257:191|257:191|255:193|255:193|257:191|257:191|255:193|255:193|257:191|257:191|255:193|255:193|257:191|257:191|255:193|255:193|257:191|257:191|255:193|255:193|257:191|257:191|255:193|255:193|257:191|257:191|255:193|255:193|257:191|257:191|255:193|255:193|257:191|257:191|255:193|255:193|257:191|257:191|255:193|255:193|257:191|257:191|255:193|255:193|257:191|257:191|255:193|255:193|257:191|257:191|255:193|255:193|257:191|257:191|255:193|255:193|257:191|257:191|255:193|255:193|257:191|257:191|255:193|255:193|257:191|257:191|255:193|255:193|257:191|257:191|255:193|255:193|257:191|257:191|255:193|255:193|257:191|257:191|255:193|255:193|257:191|257:191|255:193|255:193|257:191|257:191|255:193|255:193|257:191|257:191|255:193|255:193|257:191|257:191|255:193|255:193|257:191|257:191|255:193|255:193|257:191|257:191|255:193|255:193|257:191|257:191|255:193|255:193|257:191|257:191|255:193|255:193|257:191|257:191|255:193|255:193|257:191|257:191,1,1900,4|0,0:0|0:0,0:0:0:0:
255,192,232602,6,0,L|255:381,1,190,4|0,0:0|0:0,0:0:0:0:
401,232,232832,1,0,0:0:0:0:
401,255,232909,2,0,L|401:363,1,95,4|0,0:0|0:0,0:0:0:0:
175,209,233063,2,0,L|175:317,1,95
348,138,233217,54,0,P|394:100|412:-40,1,190,4|0,0:0|0:0,0:0:0:0:
227,103,233448,1,0,0:0:0:0:
225,140,233525,2,0,P|237:197|291:246,1,95,4|0,0:0|0:0,0:0:0:0:
290,16,233678,2,0,P|266:4|176:9,1,95
77,141,233832,6,0,P|20:71|11:-48,1,190,4|0,0:0|0:0,0:0:0:0:
154,141,234063,1,0,0:0:0:0:
142,177,234140,2,0,P|93:215|34:199,1,95,4|0,0:0|0:0,0:0:0:0:
177,67,234294,2,0,P|214:90|228:155,1,95
240,341,234448,6,0,P|350:308|418:218,1,190,4|0,0:0|0:0,0:0:0:0:
359,61,234678,1,0,0:0:0:0:
337,92,234755,2,0,P|319:152|354:226,1,95,4|0,0:0|0:0,0:0:0:0:
474,308,234909,2,0,P|490:266|457:184,1,95
236,224,235063,6,0,P|179:206|167:73,1,190,4|0,0:0|0:0,0:0:0:0:
315,273,235294,1,0,0:0:0:0:
288,299,235371,2,0,P|244:317|198:305,1,95,4|0,0:0|0:0,0:0:0:0:
400,224,235525,2,0,P|411:273|387:336,1,95
324,182,235678,38,0,P|385:136|485:236,1,190,4|0,0:0|0:0,0:0:0:0:
310,369,235909,1,0,0:0:0:0:
271,369,235986,2,0,P|232:344|222:284,1,95,4|0,0:0|0:0,0:0:0:0:
284,114,236140,2,0,P|324:80|384:63,1,95
145,268,236294,6,0,L|32:319,1,95,4|0,0:0|0:0,0:0:0:0:
180,124,236448,5,0,0:0:0:0:
171,128,236525,1,0,0:0:0:0:
163,133,236602,2,0,L|50:184,1,95,4|0,0:0|0:0,0:0:0:0:
375,233,236755,5,0,0:0:0:0:
358,242,236832,1,0,0:0:0:0:
341,250,236909,2,0,L|195:317,1,95,4|0,0:0|0:0,0:0:0:0:
277,0,237063,5,0,0:0:0:0:
243,17,237140,1,0,0:0:0:0:
208,33,237217,2,0,L|111:81,1,95,4|0,0:0|0:0,0:0:0:0:
460,74,237371,53,0,0:0:0:0:
428,95,237448,1,0,0:0:0:0:
397,114,237525,2,0,P|315:90|277:-2,1,190,4|0,0:0|0:0,0:0:0:0:
448,127,237755,1,0,0:0:0:0:
467,159,237832,2,0,P|479:202|451:271,1,95,4|0,0:0|0:0,0:0:0:0:
315,277,237986,2,0,P|326:248|393:193,1,95
406,381,238140,6,0,P|338:412|224:381,1,190,4|0,0:0|0:0,0:0:0:0:
197,216,238371,1,0,0:0:0:0:
219,185,238448,2,0,L|301:69,1,95,4|0,0:0|0:0,0:0:0:0:
233,297,238602,2,0,P|183:304|128:258,1,95
203,72,238755,6,0,P|260:29|350:108,1,190,4|0,0:0|0:0,0:0:0:0:
119,137,238986,5,0,0:0:0:0:
100,104,239063,2,0,P|106:17|266:120,1,380,4|0,0:0|0:0,0:0:0:0:
197,235,239294,53,0,0:0:0:0:
165,254,239371,2,0,P|36:288|206:77,1,760,4|0,0:0|0:0,0:0:0:0:
286,244,239602,5,0,0:0:0:0:
310,283,239678,2,0,P|315:341|81:130,1,950,4|0,0:0|0:0,0:0:0:0:
273,109,239909,5,0,0:0:0:0:
310,103,239986,2,0,P|372:103|429:244,1,190,4|0,0:0|0:0,0:0:0:0:
171,212,240217,1,0,0:0:0:0:
153,178,240294,2,0,P|137:139|145:58,1,95,4|0,0:0|0:0,0:0:0:0:
262,281,240448,2,0,P|227:318|175:328,1,95
279,167,240602,6,0,P|308:174|180:371,1,380,4|0,0:0|0:0,0:0:0:0:
85,252,240832,53,0,0:0:0:0:
53,233,240909,2,0,P|-27:78|276:174,1,760,4|0,0:0|0:0,0:0:0:0:
376,229,241217,38,0,L|410:250,1,38,4|0,0:0|0:0,0:0:0:0:
136,86,242140,1,4,0:0:0:0:
408,248,242448,38,0,P|470:267|569:190,1,190,4|0,0:0|0:0,0:0:0:0:
333,123,242678,1,0,0:0:0:0:
296,145,242755,2,0,P|266:194|263:264,1,95,4|0,0:0|0:0,0:0:0:0:
466,155,242909,2,0,P|465:98|451:51,1,95
242,54,243063,6,0,P|204:84|188:150,1,95,4|0,0:0|0:0,0:0:0:0:
398,297,243217,1,0,0:0:0:0:
373,331,243293,1,0,0:0:0:0:
348,367,243371,2,0,P|322:402|262:432,1,95,4|0,0:0|0:0,0:0:0:0:
317,217,243524,2,0,P|347:191|408:178,1,95
186,307,243678,6,0,P|162:225|203:104,1,190,4|0,0:0|0:0,0:0:0:0:
96,355,243909,1,0,0:0:0:0:
80,315,243986,2,0,P|65:272|64:203,1,95,4|0,0:0|0:0,0:0:0:0:
281,290,244140,2,0,P|283:328|243:386,1,95
272,150,244294,6,0,P|326:156|372:185,1,95,4|0,0:0|0:0,0:0:0:0:
144,216,244448,1,0,0:0:0:0:
129,171,244524,1,0,0:0:0:0:
126,123,244601,2,0,P|150:60|182:33,1,95,4|0,0:0|0:0,0:0:0:0:
236,220,244755,5,0,0:0:0:0:
224,266,244832,1,0,0:0:0:0:
191,300,244909,2,0,P|110:308|55:223,1,190,4|0,0:0|0:0,0:0:0:0:
201,102,245140,1,0,0:0:0:0:
242,77,245217,2,0,P|266:49|283:-16,1,95,4|0,0:0|0:0,0:0:0:0:
82,147,245371,2,0,P|105:188|179:225,1,95
355,181,245524,54,0,P|425:277|385:366,1,190,4|0,0:0|0:0,0:0:0:0:
269,224,245755,1,0,0:0:0:0:
263,176,245832,2,0,P|280:123|339:100,1,95,4|0,0:0|0:0,0:0:0:0:
472,163,245986,5,0,0:0:0:0:
498,123,246063,1,0,0:0:0:0:
508,76,246140,2,0,P|516:42|482:-36,1,95,4|0,0:0|0:0,0:0:0:0:
338,39,246294,1,0,0:0:0:0:
290,45,246371,1,0,0:0:0:0:
243,52,246448,2,0,L|136:70,1,95,4|0,0:0|0:0,0:0:0:0:
378,132,246601,2,0,P|418:100|427:32,1,95
267,125,246755,6,0,P|308:217|452:212,1,190,4|0,0:0|0:0,0:0:0:0:
338,39,246986,1,0,0:0:0:0:
291,46,247063,1,4,0:0:0:0:
244,53,247140,1,0,0:0:0:0:
197,60,247217,2,0,L|99:77,1,95
175,218,247371,6,0,P|317:154|314:-12,1,285,4|0,0:0|0:0,0:0:0:0:
167,125,247678,54,0,B|47:117|22:307|166:321|166:321|231:329|605:281|472:6|253:-759,1,1425
11,313,247832,6,0,P|-14:245|31:105,1,190
21,122,247985,1,4,0:0:0:0:
171,216,248139,1,0,0:0:0:0:
218,209,248216,1,0,0:0:0:0:
261,190,248293,2,0,P|306:146|331:90,1,95
237,0,248447,2,0,P|220:60|226:121,1,95
385,211,248601,6,0,P|331:271|117:311,1,285,4|0,0:0|0:0,0:0:0:0:
321,118,248908,70,0,B|-1639:93,1,48640
171,216,249062,6,0,P|76:183|50:62,1,190
47,85,249215,1,4,0:0:0:0:
223,63,249369,1,0,0:0:0:0:
239,107,249446,1,0,0:0:0:0:
260,150,249523,2,0,P|275:196|268:265,1,95
129,354,249677,2,0,P|161:318|224:289,1,95
367,374,249831,5,4,0:0:0:0:
196,213,249985,1,4,0:0:0:0:
320,303,250294,5,4,0:0:0:0:
358,74,250447,1,4,0:0:0:0:
447,290,250601,1,4,0:0:0:0:
241,179,250755,5,4,0:0:0:0:
472,215,250909,1,4,0:0:0:0:
246,274,251063,2,0,P|188:263|161:208,1,95,4|0,0:0|0:0,0:0:0:0:
420,284,251524,6,0,P|357:284|296:172,1,190
372,158,251908,5,0,0:0:0:0:
391,171,251985,2,0,L|392:192,1,19,4|0,0:0|0:0,0:0:0:0:
391,189,252294,6,0,P|444:103|414:6,1,190,4|0,0:0|0:0,0:0:0:0:
215,78,252524,1,0,0:0:0:0:
218,125,252601,2,0,P|241:168|288:197,1,95,4|0,0:0|0:0,0:0:0:0:
257,2,252755,2,0,P|209:-8|163:9,1,95
327,88,252909,6,0,P|361:39|331:-80,1,190,4|0,0:0|0:0,0:0:0:0:
127,82,253140,1,0,0:0:0:0:
109,126,253217,2,0,L|62:224,1,95,4|0,0:0|0:0,0:0:0:0:
266,286,253370,2,0,P|280:239|275:181,1,95
8,143,253524,38,0,P|-22:228|40:298,1,190,4|0,0:0|0:0,0:0:0:0:
188,191,253755,1,0,0:0:0:0:
205,146,253832,2,0,P|200:89|162:45,1,95,4|0,0:0|0:0,0:0:0:0:
122,237,253986,2,0,P|166:270|221:259,1,95
390,197,254140,6,0,P|407:299|374:385,1,190,4|0,0:0|0:0,0:0:0:0:
307,164,254370,1,0,0:0:0:0:
338,128,254447,2,0,P|395:108|445:129,1,95,4|0,0:0|0:0,0:0:0:0:
267,238,254601,2,0,P|234:203|228:147,1,95
486,33,254755,6,0,P|530:116|466:212,1,190,4|0,0:0|0:0,0:0:0:0:
364,55,254986,1,0,0:0:0:0:
364,7,255063,2,0,P|379:-36|417:-78,1,95,4|0,0:0|0:0,0:0:0:0:
418,187,255217,2,0,P|378:197|318:183,1,95
139,98,255370,6,0,P|115:185|142:285,1,190,4|0,0:0|0:0,0:0:0:0:
267,84,255601,1,0,0:0:0:0:
250,39,255678,2,0,P|224:-6|183:-32,1,95,4|0,0:0|0:0,0:0:0:0:
185,192,255832,2,0,P|228:217|299:218,1,95
468,144,255986,6,0,L|441:267,1,95,4|0,0:0|0:0,0:0:0:0:
326,361,256140,53,0,0:0:0:0:
338,315,256217,1,0,0:0:0:0:
347,268,256294,2,0,L|378:130,1,95,4|0,0:0|0:0,0:0:0:0:
284,0,256447,5,0,0:0:0:0:
271,53,256524,1,0,0:0:0:0:
260,106,256601,2,0,L|224:262,1,142.500005435944,4|0,0:0|0:0,0:0:0:0:
74,384,256755,5,0,0:0:0:0:
86,327,256832,1,0,0:0:0:0:
99,271,256909,2,0,L|156:14,1,190,4|0,0:0|0:0,0:0:0:0:
41,0,257063,5,0,0:0:0:0:
20,68,257140,1,0,0:0:0:0:
2,137,257217,2,0,L|-53:368,1,237.5,4|0,0:0|0:0,0:0:0:0:
234,314,257370,69,0,0:0:0:0:
276,293,257447,1,0,0:0:0:0:
298,251,257524,2,0,P|256:179|159:229,1,190,4|0,0:0|0:0,0:0:0:0:
362,328,257755,1,0,0:0:0:0:
382,285,257832,2,0,P|387:241|364:183,1,95,4|0,0:0|0:0,0:0:0:0:
94,227,257986,2,0,P|120:269|184:280,1,95
257,82,258140,6,0,P|168:54|68:94,1,190,4|0,0:0|0:0,0:0:0:0:
271,179,258370,5,0,0:0:0:0:
314,159,258447,2,0,P|346:118|208:163,1,380,4|0,0:0|0:0,0:0:0:0:
79,156,258678,37,0,0:0:0:0:
39,182,258755,2,0,P|40:325|258:263,1,380,4|0,0:0|0:0,0:0:0:0:
272,34,258986,5,0,0:0:0:0:
329,26,259063,2,0,P|358:297|227:58,1,760,4|0,0:0|0:0,0:0:0:0:
159,280,259293,5,0,0:0:0:0:
104,262,259370,2,0,P|6:55|314:160,1,760,4|0,0:0|0:0,0:0:0:0:
301,236,259601,5,0,0:0:0:0:
357,225,259678,2,0,P|392:144|323:83,1,190,4|0,0:0|0:0,0:0:0:0:
143,175,259909,1,0,0:0:0:0:
85,175,259986,2,0,P|42:164|-17:122,1,95,4|0,0:0|0:0,0:0:0:0:
192,81,260140,2,0,P|229:110|253:178,1,95
100,341,260294,5,4,0:0:0:0:
47,323,260370,2,0,P|7:104|166:331,1,760
320,262,260601,69,4,0:0:0:0:
370,289,260678,2,0,P|460:364|180:324,1,950
371,150,260909,6,0,L|387:136,1,19,4|0,0:0|0:0,0:0:0:0:
385,137,261217,6,0,P|360:115|379:146,2,95,4|0|0,0:0|0:0|0:0,0:0:0:0:
385,137,261524,2,0,P|420:184|470:212,1,95,4|0,0:0|0:0,0:0:0:0:
487,102,261755,1,0,0:0:0:0:
460,90,261832,2,0,L|389:63,1,47.5,4|0,0:0|0:0,0:0:0:0:
333,85,261986,2,0,L|288:101,1,47.5
197,75,262140,70,0,P|215:1|317:-47,1,190,4|0,0:0|0:0,0:0:0:0:
223,169,262370,1,0,0:0:0:0:
165,169,262447,2,0,P|121:141|101:95,1,95,4|0,0:0|0:0,0:0:0:0:
380,200,262601,2,0,P|359:253|322:289,1,95
138,347,262755,6,0,P|127:250|177:155,1,190,4|0,0:0|0:0,0:0:0:0:
394,328,262986,1,0,0:0:0:0:
343,355,263063,2,0,P|296:349|266:289,1,95,4|0,0:0|0:0,0:0:0:0:
418,134,263217,2,0,P|447:163|447:237,1,95
209,95,263370,6,0,P|123:93|96:217,1,190,4|0,0:0|0:0,0:0:0:0:
303,160,263601,1,0,0:0:0:0:
325,107,263678,2,0,P|323:49|290:0,1,95,4|0,0:0|0:0,0:0:0:0:
205,205,263832,2,0,P|237:250|299:264,1,95
470,290,263986,86,0,P|444:372|366:442,1,190,4|0,0:0|0:0,0:0:0:0:
361,154,264217,1,0,0:0:0:0:
409,124,264294,2,0,P|457:106|526:123,1,95,4|0,0:0|0:0,0:0:0:0:
363,238,264447,2,0,P|315:223|285:152,1,95
232,18,264601,5,4,0:0:0:0:
175,11,264678,1,0,0:0:0:0:
117,11,264755,2,0,P|76:29|39:92,1,95
183,216,264909,2,0,P|207:188|224:123,1,95,4|0,0:0|0:0,0:0:0:0:
49,279,265063,2,0,P|72:320|146:357,1,95
328,308,265216,22,0,P|445:326|496:390,1,190,4|0,0:0|0:0,0:0:0:0:
206,317,265447,1,0,0:0:0:0:
156,288,265524,2,0,P|118:260|107:214,1,95,4|0,0:0|0:0,0:0:0:0:
369,183,265678,5,0,0:0:0:0:
395,223,265755,1,0,0:0:0:0:
405,270,265832,2,0,P|413:304|379:382,1,95,4|0,0:0|0:0,0:0:0:0:
206,317,265986,1,0,0:0:0:0:
158,311,266063,1,0,0:0:0:0:
111,304,266140,2,0,L|4:286,1,95,4|0,0:0|0:0,0:0:0:0:
246,224,266293,2,0,P|286:256|295:324,1,95
126,213,266447,6,0,P|167:121|311:126,1,190,4|0,0:0|0:0,0:0:0:0:
206,317,266678,1,0,0:0:0:0:
159,310,266755,1,4,0:0:0:0:
112,303,266832,1,0,0:0:0:0:
65,296,266909,2,0,L|-41:279,1,95
19,55,267063,6,0,P|50:97|64:165,1,95,4|0,0:0|0:0,0:0:0:0:
82,379,267217,2,0,P|125:385|174:357,1,95
324,193,267370,6,0,L|299:192,1,18240,4|0,0:0|0:0,0:0:0:0:
157,239,267523,6,0,P|189:291|329:343,1,190
315,343,267676,1,4,0:0:0:0:
236,127,267830,1,0,0:0:0:0:
193,105,267906,1,0,0:0:0:0:
146,100,267983,1,4,0:0:0:0:
100,110,268060,1,0,0:0:0:0:
60,136,268138,2,0,P|40:172|31:246,1,95
281,242,268292,54,0,P|334:210|340:78,1,190,4|0,0:0|0:0,0:0:0:0:
151,219,268600,6,0,L|185:262,1,48640,4|0,0:0|0:0,0:0:0:0:
418,344,268753,6,0,P|461:262|427:141,1,190
439,156,268906,1,4,0:0:0:0:
192,33,269060,1,0,0:0:0:0:
181,79,269136,1,0,0:0:0:0:
171,125,269213,1,4,0:0:0:0:
161,172,269290,1,0,0:0:0:0:
150,218,269368,2,0,P|172:273|203:296,1,95
455,192,269525,70,0,B|331:192|331:192|332:109|226:48|101:120|140:256|190:311|296:299|334:246|331:192|331:192|336:106|213:61|136:130|158:241|205:256|233:267|233:267|196:383|196:383|196:382|196:382|196:383|196:383|196:382|196:382|196:383|196:383|196:382|196:382|196:383|196:383|196:382|196:382|196:383|196:383|196:382|196:382|196:383|196:383|196:382|196:382|196:383|196:383|196:382|196:382|196:383|196:383|196:382|196:382|196:383|196:383|196:382|196:382|196:383|196:383|196:382|196:382|196:383|196:383|196:382|196:382|196:383|196:383|196:382|196:382|196:383|196:383|196:382|196:382|196:383|196:383|196:382|196:382|196:383|196:383|196:382|196:382|196:383|196:383|196:382|196:382|196:383|196:383|196:382|196:382|196:383|196:383|196:382|196:382|196:383|196:383|196:382|196:382|196:383|196:383|196:382|196:382|196:383|196:383|196:382|196:382|196:383|196:383|196:382|196:382|196:383|196:383|196:382|196:382|196:383|196:383|196:382|196:382|196:383|196:383|196:382|196:382|196:383|196:383|196:382|196:382|196:383|196:383|196:382|196:382|196:383|196:383|196:382|196:382|196:383|196:383|196:382|196:382|196:383|196:383|196:382|196:382|196:383|196:383|196:382|196:382|196:383|196:383|196:382|196:382|196:383|196:383|196:382|196:382|196:383|196:383|196:382|196:382|196:383|196:383|196:382|196:382|196:383|196:383|196:382|196:382|196:383|196:383|196:382|196:382|196:383|196:383|196:382|196:382|196:383|196:383|196:382|196:382|196:383|196:383|196:382|196:382|196:383|196:383|196:382|196:382|196:383|196:383|196:382|196:382|196:383|196:383|196:382|196:382|196:383|196:383|196:382|196:382|196:383|196:383|196:382|196:382|196:383|196:383|196:382|196:382|196:383|196:383|196:382|196:382|196:383|196:383|196:382|196:382|196:383|196:383|196:382|196:382|196:383|196:383|196:382|196:382|196:383|196:383|196:382|196:382|196:383|196:383|196:382|196:382|196:383|196:383|196:382|196:382|196:383|196:383|196:382|196:382|196:383|196:383|196:382|196:382|196:383|196:383|196:382|196:382,1,1140,4|4,0:0|0:0,0:0:0:0:
317,0,269832,6,0,B|276:119|276:119|200:91|109:173|144:321|280:319|350:294|366:191|331:134|276:119|276:119|201:89|117:189|157:285|271:297|300:257|319:234|319:234|418:305|418:305|417:305|417:305|418:305|418:305|417:305|417:305|418:305|418:305|417:305|417:305|418:305|418:305|417:305|417:305|418:305|418:305|417:305|417:305|418:305|418:305|417:305|417:305|418:305|418:305|417:305|417:305|418:305|418:305|417:305|417:305|418:305|418:305|417:305|417:305|418:305|418:305|417:305|417:305|418:305|418:305|417:305|417:305|418:305|418:305|417:305|417:305|418:305|418:305|417:305|417:305|418:305|418:305|417:305|417:305|418:305|418:305|417:305|417:305|418:305|418:305|417:305|417:305|418:305|418:305|417:305|417:305|418:305|418:305|417:305|417:305|418:305|418:305|417:305|417:305|418:305|418:305|417:305|417:305|418:305|418:305|417:305|417:305|418:305|418:305|417:305|417:305|418:305|418:305|417:305|417:305|418:305|418:305|417:305|417:305|418:305|418:305|417:305|417:305|418:305|418:305|417:305|417:305|418:305|418:305|417:305|417:305|418:305|418:305|417:305|417:305|418:305|418:305|417:305|417:305|418:305|418:305|417:305|417:305|418:305|418:305|417:305|417:305|418:305|418:305|417:305|417:305|418:305|418:305|417:305|417:305|418:305|418:305|417:305|417:305|418:305|418:305|417:305|417:305|418:305|418:305|417:305|417:305|418:305|418:305|417:305|417:305|418:305|418:305|417:305|417:305|418:305|418:305|417:305|417:305|418:305|418:305|417:305|417:305|418:305|418:305|417:305|417:305|418:305|418:305|417:305|417:305|418:305|418:305|417:305|417:305|418:305|418:305|417:305|417:305|418:305|418:305|417:305|417:305|418:305|418:305|417:305|417:305|418:305|418:305|417:305|417:305|418:305|418:305|417:305|417:305|418:305|418:305|417:305|417:305|418:305|418:305|417:305|417:305|418:305|418:305|417:305|417:305|418:305|418:305|417:305|417:305|418:305|418:305|417:305|417:305|418:305|418:305|417:305|417:305|418:305|418:305|417:305|417:305|418:305|418:305|417:305|417:305,1,1140.4750321942,4|4,0:0|0:0,0:0:0:0:
93,73,270140,6,0,B|193:148|193:148|143:212|193:324|344:336|390:210|368:135|289:85|224:101|193:148|193:148|141:210|211:321|319:315|362:207|332:168|316:142|316:142|414:70|414:70|414:71|414:71|414:70|414:70|414:71|414:71|414:70|414:70|414:71|414:71|414:70|414:70|414:71|414:71|414:70|414:70|414:71|414:71|414:70|414:70|414:71|414:71|414:70|414:70|414:71|414:71|414:70|414:70|414:71|414:71|414:70|414:70|414:71|414:71|414:70|414:70|414:71|414:71|414:70|414:70|414:71|414:71|414:70|414:70|414:71|414:71|414:70|414:70|414:71|414:71|414:70|414:70|414:71|414:71|414:70|414:70|414:71|414:71|414:70|414:70|414:71|414:71|414:70|414:70|414:71|414:71|414:70|414:70|414:71|414:71|414:70|414:70|414:71|414:71|414:70|414:70|414:71|414:71|414:70|414:70|414:71|414:71|414:70|414:70|414:71|414:71|414:70|414:70|414:71|414:71|414:70|414:70|414:71|414:71|414:70|414:70|414:71|414:71|414:70|414:70|414:71|414:71|414:70|414:70|414:71|414:71|414:70|414:70|414:71|414:71|414:70|414:70|414:71|414:71|414:70|414:70|414:71|414:71|414:70|414:70|414:71|414:71|414:70|414:70|414:71|414:71|414:70|414:70|414:71|414:71|414:70|414:70|414:71|414:71|414:70|414:70|414:71|414:71|414:70|414:70|414:71|414:71|414:70|414:70|414:71|414:71|414:70|414:70|414:71|414:71|414:70|414:70|414:71|414:71|414:70|414:70|414:71|414:71|414:70|414:70|414:71|414:71|414:70|414:70|414:71|414:71|414:70|414:70|414:71|414:71|414:70|414:70|414:71|414:71|414:70|414:70|414:71|414:71|414:70|414:70|414:71|414:71|414:70|414:70|414:71|414:71|414:70|414:70|414:71|414:71|414:70|414:70|414:71|414:71|414:70|414:70|414:71|414:71|414:70|414:70|414:71|414:71|414:70|414:70|414:71|414:71|414:70|414:70|414:71|414:71|414:70|414:70|414:71|414:71|414:70|414:70|414:71|414:71|414:70|414:70|414:71|414:71,1,1140.4750321942,4|0,0:0|0:0,0:0:0:0:
93,310,270448,54,0,B|195:239|195:239|241:304|362:291|421:151|315:69|236:67|165:126|160:193|195:239|195:239|239:306|365:273|392:169|304:95|257:111|228:118|228:118|190:3|190:3|190:4|190:4|190:3|190:3|190:4|190:4|190:3|190:3|190:4|190:4|190:3|190:3|190:4|190:4|190:3|190:3|190:4|190:4|190:3|190:3|190:4|190:4|190:3|190:3|190:4|190:4|190:3|190:3|190:4|190:4|190:3|190:3|190:4|190:4|190:3|190:3|190:4|190:4|190:3|190:3|190:4|190:4|190:3|190:3|190:4|190:4|190:3|190:3|190:4|190:4|190:3|190:3|190:4|190:4|190:3|190:3|190:4|190:4|190:3|190:3|190:4|190:4|190:3|190:3|190:4|190:4|190:3|190:3|190:4|190:4|190:3|190:3|190:4|190:4|190:3|190:3|190:4|190:4|190:3|190:3|190:4|190:4|190:3|190:3|190:4|190:4|190:3|190:3|190:4|190:4|190:3|190:3|190:4|190:4|190:3|190:3|190:4|190:4|190:3|190:3|190:4|190:4|190:3|190:3|190:4|190:4|190:3|190:3|190:4|190:4|190:3|190:3|190:4|190:4|190:3|190:3|190:4|190:4|190:3|190:3|190:4|190:4|190:3|190:3|190:4|190:4|190:3|190:3|190:4|190:4|190:3|190:3|190:4|190:4|190:3|190:3|190:4|190:4|190:3|190:3|190:4|190:4|190:3|190:3|190:4|190:4|190:3|190:3|190:4|190:4|190:3|190:3|190:4|190:4|190:3|190:3|190:4|190:4|190:3|190:3|190:4|190:4|190:3|190:3|190:4|190:4|190:3|190:3|190:4|190:4|190:3|190:3|190:4|190:4|190:3|190:3|190:4|190:4|190:3|190:3|190:4|190:4|190:3|190:3|190:4|190:4|190:3|190:3|190:4|190:4|190:3|190:3|190:4|190:4|190:3|190:3|190:4|190:4|190:3|190:3|190:4|190:4|190:3|190:3|190:4|190:4|190:3|190:3|190:4|190:4|190:3|190:3|190:4|190:4|190:3|190:3|190:4|190:4|190:3|190:3|190:4|190:4,1,1140,4|4,0:0|0:0,0:0:0:0:
317,384,270755,54,0,B|280:265|280:265|357:241|383:121|268:22|157:98|130:172|165:258|226:283|280:265|280:265|358:243|366:113|276:55|178:116|178:166|177:196|177:196|55:196|55:196|56:196|56:196|55:196|55:196|56:196|56:196|55:196|55:196|56:196|56:196|55:196|55:196|56:196|56:196|55:196|55:196|56:196|56:196|55:196|55:196|56:196|56:196|55:196|55:196|56:196|56:196|55:196|55:196|56:196|56:196|55:196|55:196|56:196|56:196|55:196|55:196|56:196|56:196|55:196|55:196|56:196|56:196|55:196|55:196|56:196|56:196|55:196|55:196|56:196|56:196|55:196|55:196|56:196|56:196|55:196|55:196|56:196|56:196|55:196|55:196|56:196|56:196|55:196|55:196|56:196|56:196|55:196|55:196|56:196|56:196|55:196|55:196|56:196|56:196|55:196|55:196|56:196|56:196|55:196|55:196|56:196|56:196|55:196|55:196|56:196|56:196|55:196|55:196|56:196|56:196|55:196|55:196|56:196|56:196|55:196|55:196|56:196|56:196|55:196|55:196|56:196|56:196|55:196|55:196|56:196|56:196|55:196|55:196|56:196|56:196|55:196|55:196|56:196|56:196|55:196|55:196|56:196|56:196|55:196|55:196|56:196|56:196|55:196|55:196|56:196|56:196|55:196|55:196|56:196|56:196|55:196|55:196|56:196|56:196|55:196|55:196|56:196|56:196|55:196|55:196|56:196|56:196|55:196|55:196|56:196|56:196|55:196|55:196|56:196|56:196|55:196|55:196|56:196|56:196|55:196|55:196|56:196|56:196|55:196|55:196|56:196|56:196|55:196|55:196|56:196|56:196|55:196|55:196|56:196|56:196|55:196|55:196|56:196|56:196|55:196|55:196|56:196|56:196|55:196|55:196|56:196|56:196|55:196|55:196|56:196|56:196|55:196|55:196|56:196|56:196|55:196|55:196|56:196|56:196|55:196|55:196|56:196|56:196|55:196|55:196|56:196|56:196|55:196|55:196|56:196|56:196|55:196|55:196|56:196|56:196|55:196|55:196|56:196|56:196|55:196|55:196|56:196|56:196|55:196|55:196|56:196|56:196,1,1140,4|0,0:0|0:0,0:0:0:0:
256,192,271985,22,0,P|303:174|336:107,1,95,6|0,0:0|0:0,0:0:0:0:
128,192,272292,1,4,0:0:0:0:
253,115,272446,6,0,P|262:52|241:5,1,95,0|4,0:0|0:0,0:0:0:0:
173,253,272753,1,0,0:0:0:0:
183,68,272908,5,4,0:0:0:0:
160,76,272984,1,0,0:0:0:0:
138,84,273061,1,0,0:0:0:0:
116,92,273138,1,0,0:0:0:0:
93,100,273215,1,4,0:0:0:0:
1,247,273369,1,4,0:0:0:0:
173,253,273523,6,0,L|196:254,1,23.75,4|0,0:0|0:0,0:0:0:0:
253,115,273677,5,0,0:0:0:0:
261,92,273753,1,0,0:0:0:0:
264,69,273830,1,4,0:0:0:0:
261,45,273907,1,0,0:0:0:0:
253,23,273984,1,0,0:0:0:0:
223,185,274138,6,0,P|251:192|287:180,1,47.5,4|0,0:0|0:0,0:0:0:0:
358,136,274369,1,0,0:0:0:0:
377,114,274446,2,0,P|420:89|489:106,1,95,4|0,0:0|0:0,0:0:0:0:
447,227,274754,1,4,0:0:0:0:
280,119,274908,70,0,P|306:76|358:58,1,95,0|4,0:0|0:0,0:0:0:0:
395,196,275215,1,0,0:0:0:0:
210,157,275369,5,4,0:0:0:0:
186,151,275445,1,0,0:0:0:0:
163,146,275522,1,0,0:0:0:0:
140,141,275599,1,0,0:0:0:0:
117,135,275677,2,0,P|75:102|60:60,1,95,6|0,0:0|0:0,0:0:0:0:
241,11,275985,5,4,0:0:0:0:
265,166,276138,2,0,L|229:230,1,47.5
101,253,276292,2,0,L|124:211,1,47.5,6|0,0:0|0:0,0:0:0:0:
286,123,276446,2,0,L|233:222,1,95,0|4,0:0|0:0,0:0:0:0:
123,331,276754,85,4,0:0:0:0:
99,333,276831,1,0,0:0:0:0:
75,329,276908,2,0,P|30:294|26:220,1,95,6|0,0:0|0:0,0:0:0:0:
185,244,277215,1,4,0:0:0:0:
91,113,277369,6,0,P|111:54|139:24,1,95,0|4,0:0|0:0,0:0:0:0:
230,193,277677,1,0,0:0:0:0:
22,169,277831,37,4,0:0:0:0:
9,148,277907,1,0,0:0:0:0:
3,125,277984,1,0,0:0:0:0:
4,102,278061,1,0,0:0:0:0:
11,79,278138,1,4,0:0:0:0:
194,110,278292,1,4,0:0:0:0:
107,264,278446,6,0,L|93:288,1,23.75,4|0,0:0|0:0,0:0:0:0:
284,297,278600,5,0,0:0:0:0:
307,301,278676,1,0,0:0:0:0:
330,306,278753,1,4,0:0:0:0:
353,311,278830,1,0,0:0:0:0:
376,316,278907,1,0,0:0:0:0:
202,250,279061,6,0,P|190:281|192:305,1,47.5,4|0,0:0|0:0,0:0:0:0:
320,215,279292,1,0,0:0:0:0:
331,194,279369,2,0,P|336:158|316:94,1,95,4|0,0:0|0:0,0:0:0:0:
177,169,279677,1,4,0:0:0:0:
406,96,279831,6,0,P|392:62|343:16,1,95,0|4,0:0|0:0,0:0:0:0:
260,151,280139,1,0,0:0:0:0:
394,263,280292,37,4,0:0:0:0:
415,252,280368,1,0,0:0:0:0:
436,241,280445,1,0,0:0:0:0:
457,230,280522,1,0,0:0:0:0:
478,219,280599,1,6,0:0:0:0:
312,213,280754,1,4,0:0:0:0:
443,103,280908,5,4,0:0:0:0:
282,48,281061,1,0,0:0:0:0:
286,71,281137,1,0,0:0:0:0:
290,94,281214,1,6,0:0:0:0:
294,118,281291,1,0,0:0:0:0:
298,141,281368,1,0,0:0:0:0:
335,329,281523,5,4,0:0:0:0:
158,256,281677,1,4,0:0:0:0:
180,246,281754,1,0,0:0:0:0:
203,235,281831,2,0,P|256:223|327:261,1,104.500003189087,6|0,0:0|0:0,0:0:0:0:
127,336,282138,1,4,0:0:0:0:
317,158,282292,6,0,P|362:186|386:264,1,104.500003189087,0|4,0:0|0:0,0:0:0:0:
191,175,282599,1,0,0:0:0:0:
460,196,282754,5,4,0:0:0:0:
466,221,282830,1,0,0:0:0:0:
465,247,282907,1,0,0:0:0:0:
457,271,282984,1,0,0:0:0:0:
442,293,283061,1,4,0:0:0:0:
302,238,283215,1,0,0:0:0:0:
436,115,283369,54,0,L|464:93,1,26.1250007972718,4|0,0:0|0:0,0:0:0:0:
373,269,283523,5,0,0:0:0:0:
358,290,283599,1,0,0:0:0:0:
337,305,283676,1,4,0:0:0:0:
312,312,283753,1,0,0:0:0:0:
286,311,283831,2,0,P|240:283|235:212,1,104.500003189087,0|4,0:0|0:0,0:0:0:0:
427,184,284138,5,0,0:0:0:0:
447,199,284215,1,0,0:0:0:0:
461,220,284292,2,0,P|472:275|447:341,1,104.500003189087,4|0,0:0|0:0,0:0:0:0:
302,238,284600,1,4,0:0:0:0:
430,88,284754,6,0,P|481:110|521:168,1,104.500003189087,0|6,0:0|0:0,0:0:0:0:
382,238,285062,1,0,0:0:0:0:
349,72,285215,69,4,0:0:0:0:
357,47,285291,1,0,0:0:0:0:
372,26,285368,1,4,0:0:0:0:
394,12,285445,1,0,0:0:0:0:
419,5,285522,1,4,0:0:0:0:
512,146,285677,1,0,0:0:0:0:
337,163,285831,6,0,P|305:156|286:137,1,52.2500015945435,4|0,0:0|0:0,0:0:0:0:
233,44,286061,1,0,0:0:0:0:
212,27,286138,1,6,0:0:0:0:
186,21,286215,1,0,0:0:0:0:
159,21,286292,2,0,P|106:37|84:84,1,104.500003189087,0|4,0:0|0:0,0:0:0:0:
92,242,286600,6,0,P|131:228|165:185,1,52.2500015945435
255,100,286754,2,0,P|308:85|380:142,1,104.500003189087,6|0,0:0|0:0,0:0:0:0:
471,260,287061,1,4,0:0:0:0:
303,166,287215,38,0,P|342:204|329:295,1,104.500003189087,0|4,0:0|0:0,0:0:0:0:
256,420,287523,1,0,0:0:0:0:
272,240,287677,5,4,0:0:0:0:
270,265,287753,1,0,0:0:0:0:
260,289,287830,1,0,0:0:0:0:
243,309,287907,1,0,0:0:0:0:
221,323,287984,1,4,0:0:0:0:
114,217,288138,1,4,0:0:0:0:
259,134,288292,6,0,L|286:117,1,26.1250007972718,4|0,0:0|0:0,0:0:0:0:
128,24,288446,5,0,0:0:0:0:
102,22,288522,1,0,0:0:0:0:
76,28,288599,1,4,0:0:0:0:
55,43,288676,1,0,0:0:0:0:
39,63,288753,1,0,0:0:0:0:
211,72,288908,6,0,P|222:45|219:8,1,52.2500015945435,4|0,0:0|0:0,0:0:0:0:
125,147,289138,1,0,0:0:0:0:
146,162,289215,2,0,P|190:185|251:179,1,104.500003189087,4|0,0:0|0:0,0:0:0:0:
376,57,289523,1,4,0:0:0:0:
261,264,289677,22,0,P|302:237|328:181,1,104.500003189087,0|4,0:0|0:0,0:0:0:0:
222,22,289985,1,0,0:0:0:0:
408,217,290138,5,4,0:0:0:0:
410,191,290214,1,0,0:0:0:0:
405,165,290291,1,0,0:0:0:0:
393,142,290368,1,0,0:0:0:0:
376,122,290446,2,0,P|326:108|276:127,1,104.500003189087,4|0,0:0|0:0,0:0:0:0:
145,260,290754,1,4,0:0:0:0:
327,307,290908,5,0,0:0:0:0:
352,314,290984,1,0,0:0:0:0:
377,321,291061,1,4,0:0:0:0:
402,328,291138,1,0,0:0:0:0:
427,335,291215,2,0,P|475:334|516:293,1,104.500003189087,0|4,0:0|0:0,0:0:0:0:
464,115,291523,6,0,L|414:168,1,52.2500015945435,4|0,0:0|0:0,0:0:0:0:
384,72,291677,2,0,P|431:29|507:39,1,113.999996520996,6|0,0:0|0:0,0:0:0:0:
344,234,291985,6,0,L|297:185,1,56.9999982604981,4|0,0:0|0:0,0:0:0:0:
274,292,292138,2,0,P|326:324|398:310,1,113.999996520996,0|4,0:0|0:0,0:0:0:0:
359,146,292446,1,0,0:0:0:0:
164,152,292600,6,0,L|116:210,1,56.9999982604981,4|0,0:0|0:0,0:0:0:0:
53,203,292754,2,0,L|79:273,1,56.9999982604981
36,322,292908,1,4,0:0:0:0:
214,290,293061,1,4,0:0:0:0:
87,132,293215,22,0,P|117:85|198:83,1,113.999996520996,4|0,0:0|0:0,0:0:0:0:
199,75,293446,1,0,0:0:0:0:
226,81,293523,1,4,0:0:0:0:
253,87,293600,1,0,0:0:0:0:
280,94,293677,1,0,0:0:0:0:
445,141,293831,1,4,0:0:0:0:
302,271,293985,6,0,L|289:187,1,56.9999982604981
380,225,294138,2,0,P|394:279|348:354,1,113.999996520996,4|0,0:0|0:0,0:0:0:0:
152,126,294446,6,0,L|218:72,1,56.9999982604981,4|0,0:0|0:0,0:0:0:0:
230,170,294599,2,0,P|190:209|102:206,1,113.999996520996,0|4,0:0|0:0,0:0:0:0:
133,48,294908,1,0,0:0:0:0:
279,96,295061,6,0,L|340:119,1,56.9999982604981,4|0,0:0|0:0,0:0:0:0:
305,186,295215,2,0,L|315:250,1,56.9999982604981
232,252,295369,1,6,0:0:0:0:
225,25,295523,6,0,P|268:8|342:35,1,113.999996520996,0|4,0:0|0:0,0:0:0:0:
428,200,295831,2,0,L|370:166,1,56.9999982604981
388,61,295985,2,0,L|437:89,1,56.9999982604981,6|0,0:0|0:0,0:0:0:0:
474,232,296138,2,0,L|377:170,1,113.999996520996,0|4,0:0|0:0,0:0:0:0:
237,101,296446,6,0,L|199:150,1,56.9999982604981,4|0,0:0|0:0,0:0:0:0:
299,176,296600,2,0,P|331:121|322:62,1,113.999996520996,6|0,0:0|0:0,0:0:0:0:
68,101,296908,54,0,L|91:158,1,56.9999982604981,4|0,0:0|0:0,0:0:0:0:
163,84,297062,2,0,P|131:28|75:7,1,113.999996520996,0|4,0:0|0:0,0:0:0:0:
18,225,297369,1,0,0:0:0:0:
203,279,297523,6,0,L|281:305,1,56.9999982604981,4|0,0:0|0:0,0:0:0:0:
266,216,297677,2,0,L|327:161,1,56.9999982604981
263,112,297831,1,4,0:0:0:0:
123,278,297985,6,0,P|146:341|203:363,1,113.999996520996,4|4,0:0|0:0,0:0:0:0:
172,167,298292,2,0,L|123:131,1,56.9999982604981
53,149,298446,2,0,L|59:88,1,56.9999982604981,4|0,0:0|0:0,0:0:0:0:
39,22,298600,1,0,0:0:0:0:
105,207,298754,1,4,0:0:0:0:
237,63,298908,6,0,L|292:89,1,56.9999982604981
176,8,299061,2,0,P|154:72|206:137,1,113.999996520996,4|0,0:0|0:0,0:0:0:0:
359,150,299369,38,0,L|409:115,1,56.9999982604981,4|0,0:0|0:0,0:0:0:0:
280,175,299522,2,0,P|324:226|406:213,1,113.999996520996,0|4,0:0|0:0,0:0:0:0:
509,128,299831,1,0,0:0:0:0:
366,34,299985,6,0,L|353:97,1,56.9999982604981,4|0,0:0|0:0,0:0:0:0:
285,61,300138,2,0,L|272:124,1,56.9999982604981
202,93,300292,1,6,0:0:0:0:
359,150,300446,1,4,0:0:0:0:
191,196,300600,6,0,P|136:170|104:102,1,113.999996520996,4|0,0:0|0:0,0:0:0:0:
125,26,300831,1,0,0:0:0:0:
151,16,300908,2,0,L|210:0,1,56.9999982604981,6|0,0:0|0:0,0:0:0:0:
281,92,301061,2,0,P|351:78|385:11,1,113.999996520996,0|4,0:0|0:0,0:0:0:0:
189,101,301369,6,0,L|250:160,1,56.9999982604981
295,165,301523,2,0,P|365:151|420:108,1,123.499994346619,6|0,0:0|0:0,0:0:0:0:
166,175,301831,6,0,L|145:257,1,56.9999982604981,4|0,0:0|0:0,0:0:0:0:
163,298,301985,2,0,P|210:351|274:377,1,123.499994346619,0|4,0:0|0:0,0:0:0:0:
441,366,302292,1,0,0:0:0:0:
329,226,302446,86,0,L|297:295,1,61.7499971733095,4|0,0:0|0:0,0:0:0:0:
245,157,302600,2,0,L|271:228,1,61.7499971733095
147,177,302754,1,4,0:0:0:0:
327,145,302908,6,0,P|356:91|356:22,1,123.499994346619,0|4,0:0|0:0,0:0:0:0:
156,26,303215,2,0,L|178:89,1,61.7499971733095
266,214,303369,2,0,L|245:155,1,61.7499971733095,4|0,0:0|0:0,0:0:0:0:
156,26,303523,2,0,L|200:152,1,123.499994346619,0|4,0:0|0:0,0:0:0:0:
263,332,303831,38,0,L|197:331,1,61.7499971733095,4|0,0:0|0:0,0:0:0:0:
367,280,303985,2,0,P|386:337|363:402,1,123.499994346619,4|0,0:0|0:0,0:0:0:0:
196,142,304292,6,0,L|163:84,1,61.7499971733095,4|0,0:0|0:0,0:0:0:0:
293,206,304446,2,0,P|253:250|185:263,1,123.499994346619,0|6,0:0|0:0,0:0:0:0:
46,170,304754,1,0,0:0:0:0:
239,75,304908,6,0,L|275:139,1,61.7499971733095,4|0,0:0|0:0,0:0:0:0:
354,143,305061,2,0,L|372:214,1,61.7499971733095
448,239,305215,1,4,0:0:0:0:
267,321,305369,6,0,P|269:245|315:186,1,123.499994346619,4|4,0:0|0:0,0:0:0:0:
456,145,305677,6,0,L|521:128,1,61.7499971733095
471,76,305831,2,0,L|504:18,1,61.7499971733095,6|0,0:0|0:0,0:0:0:0:
434,8,305985,1,0,0:0:0:0:
321,152,306138,1,4,0:0:0:0:
218,12,306292,22,0,L|139:29,1,61.7499971733095,4|0,0:0|0:0,0:0:0:0:
315,37,306446,2,0,P|293:84|205:113,1,123.499994346619,6|0,0:0|0:0,0:0:0:0:
0,178,306754,6,0,L|30:262,1,61.7499971733095,4|0,0:0|0:0,0:0:0:0:
55,92,306908,2,0,P|-5:76|-63:97,1,123.499994346619,0|4,0:0|0:0,0:0:0:0:
99,276,307215,1,0,0:0:0:0:
235,175,307369,6,0,L|304:199,1,61.7499971733095,4|0,0:0|0:0,0:0:0:0:
344,137,307523,2,0,L|375:202,1,61.7499971733095
447,179,307677,1,4,0:0:0:0:
374,383,307831,6,0,P|341:321|339:250,1,123.499994346619,0|4,0:0|0:0,0:0:0:0:
458,59,308138,6,0,L|401:125,1,61.7499971733095
243,137,308292,2,0,L|283:90,1,61.7499971733095,4|0,0:0|0:0,0:0:0:0:
458,59,308446,2,0,L|344:191,1,123.499994346619,0|4,0:0|0:0,0:0:0:0:
239,287,308754,6,0,L|192:223,1,61.7499971733095
326,335,308908,2,0,P|267:383|204:373,1,123.499994346619,6|0,0:0|0:0,0:0:0:0:
143,156,309215,70,0,L|207:109,1,61.7499971733095,4|0,0:0|0:0,0:0:0:0:
95,243,309369,2,0,P|47:184|57:121,1,123.499994346619,0|4,0:0|0:0,0:0:0:0:
246,87,309677,1,0,0:0:0:0:
317,280,309831,6,0,L|332:358,1,61.7499971733095,4|0,0:0|0:0,0:0:0:0:
413,320,309985,2,0,L|459:369,1,61.7499971733095
509,294,310138,1,4,0:0:0:0:
424,138,310292,6,0,P|368:163|330:227,1,123.499994346619,4|4,0:0|0:0,0:0:0:0:
495,111,310600,54,0,L|434:60,1,61.7499971733095
380,79,310754,2,0,L|300:86,1,61.7499971733095,4|0,0:0|0:0,0:0:0:0:
300,150,310908,2,0,P|258:117|270:39,1,123.499994346619,0|4,0:0|0:0,0:0:0:0:
459,219,311215,1,0,0:0:0:0:
413,269,311292,1,0,0:0:0:0:
356,307,311369,1,0,0:0:0:0:
