osu file format v14

[General]
AudioFilename: audio.mp3
AudioLeadIn: 0
PreviewTime: 192923
Countdown: 0
SampleSet: None
StackLeniency: 0.5
Mode: 0
LetterboxInBreaks: 0
WidescreenStoryboard: 0

[Editor]
DistanceSpacing: 3.1
BeatDivisor: 4
GridSize: 16
TimelineZoom: 1.6

[Metadata]
Title:The Solace of Oblivion
TitleUnicode:The Solace of Oblivion
Artist:Helblinde
ArtistUnicode:Helblinde
Creator:Leonlxrd
Version:Oblibvion
Source:
Tags:
BeatmapID:1623567
BeatmapSetID:772309

[Difficulty]
HPDrainRate:6
CircleSize:4
OverallDifficulty:7
ApproachRate:9.4
SliderMultiplier:1.4
SliderTickRate:1

[Events]
//Background and Video events
0,0,"menu-background.jpg",0,0
//Break Periods
2,141892,161921
2,182430,191460
//Storyboard Layer 0 (Background)
//Storyboard Layer 1 (Fail)
//Storyboard Layer 2 (Pass)
//Storyboard Layer 3 (Foreground)
//Storyboard Sound Samples

[TimingPoints]
0,307.692307692308,4,1,0,50,1,0
25538,-50,4,1,0,50,0,0
26153,-181.818181818181,4,1,0,50,0,0
28307,-100,4,1,0,50,0,0
29692,-50,4,1,0,50,0,0
31076,-66.6666666666667,4,1,0,50,0,0
32307,-100,4,1,0,50,0,0
34769,-66.6666666666667,4,1,0,50,0,0
36000,-62.5,4,1,0,50,0,0
41230,-66.6666666666667,4,1,0,50,0,0
44307,-100,4,1,0,50,0,0
48307,-133.333333333333,4,1,0,50,0,0
48615,-66.6666666666667,4,1,0,50,0,0
48923,-50,4,1,0,50,0,0
49846,-100,4,1,0,50,0,0
54153,-133.333333333333,4,1,0,50,0,0
54769,-100,4,1,0,50,0,0
55384,-66.6666666666667,4,1,0,50,0,0
56000,-50,4,1,0,50,0,0
59076,-50,4,1,0,75,0,1
61384,-66.6666666666667,4,1,0,75,0,1
64076,-50,4,1,0,75,0,1
65230,-100,4,1,0,50,0,0
66461,-100,4,1,0,75,0,1
67692,-100,4,1,0,50,0,0
69076,-100,4,1,0,75,0,1
70230,-100,4,1,0,50,0,0
71461,-100,4,1,0,75,0,1
72692,-50,4,1,0,75,0,1
76846,-200,4,1,0,75,0,1
77153,-100,4,1,0,75,0,1
77384,-100,4,1,0,50,0,0
77769,-50,4,1,0,50,0,0
78769,-100,4,1,0,50,0,0
85538,-50,4,1,0,50,0,0
91153,-66.6666666666667,4,1,0,50,0,0
93461,-66.6666666666667,4,1,0,75,0,1
96615,-133.333333333333,4,1,0,75,0,1
96923,-50,4,1,0,75,0,1
99846,-100,4,1,0,75,0,1
100615,-66.6666666666667,4,1,0,75,0,1
102538,-57.1428571428571,4,1,0,75,0,1
102846,-50,4,1,0,75,0,1
103615,-100,4,1,0,75,0,1
108307,-66.6666666666667,4,1,0,75,0,1
112615,-50,4,1,0,50,0,0
113230,-50,4,1,0,75,0,1
116923,-133.333333333333,4,1,0,50,0,0
118384,-66.6666666666667,4,1,0,75,0,1
123000,-200,4,1,0,75,0,1
126538,-50,4,1,0,75,0,1
129923,-100,4,1,0,75,0,1
132538,-100,4,1,0,50,0,0
132923,-100,4,1,0,75,0,1
133692,-66.6666666666667,4,1,0,75,0,1
136692,-133.333333333333,4,1,0,75,0,1
138153,-66.6666666666667,4,1,0,75,0,1
142769,-66.6666666666667,4,1,0,50,0,0
163923,-50,4,1,0,50,0,0
165153,-100,4,1,0,50,0,0
170769,-66.6666666666667,4,1,0,50,0,0
178692,-50,4,1,0,50,0,0
191923,-66.6666666666667,4,1,0,75,0,1
200538,-133.333333333333,4,1,0,75,0,1
201315,-66.6666666666667,4,1,0,75,0,1
209076,-100,4,1,0,50,0,0
217923,-133.333333333333,4,1,0,50,0,0
218230,-100,4,1,0,50,0,0
218538,-66.6666666666667,4,1,0,50,0,0
218846,-50,4,1,0,50,0,0
219769,-100,4,1,0,50,0,0
232615,-100,4,1,0,75,0,1
234538,-66.6666666666667,4,1,0,75,0,1
236384,-50,4,1,0,75,0,1
242461,-66.6666666666667,4,1,0,75,0,1
249923,-50,4,1,0,75,0,1
252461,-66.6666666666667,4,1,0,75,0,1
262307,-50,4,1,0,75,0,1
263769,-66.6666666666667,4,1,0,75,0,1
270769,-66.6666666666667,4,1,0,50,0,0
272000,-66.6666666666667,4,1,0,75,0,1
311384,-66.6666666666667,4,1,0,50,0,0
320000,-100,4,1,0,50,0,0

[HitObjects]
144,80,19692,6,0,L|424:52,2,280
272,176,21230,1,0,0:0:0:0:
272,176,21538,1,0,0:0:0:0:
352,80,21846,6,0,L|192:80,1,140
352,80,22461,1,0,0:0:0:0:
352,80,22769,6,0,L|192:80,1,140
192,176,23384,1,0,0:0:0:0:
288,240,23692,2,0,L|432:160,1,140
336,96,24307,5,0,0:0:0:0:
192,112,24615,2,0,L|352:96,1,140
336,96,25230,5,0,0:0:0:0:
336,96,25538,2,0,L|48:96,1,280
64,96,26153,5,0,0:0:0:0:
144,112,26461,2,0,L|64:96,1,77.0000023498536
288,80,27076,5,0,0:0:0:0:
352,96,27384,1,0,0:0:0:0:
400,144,27692,1,0,0:0:0:0:
416,208,28000,1,0,0:0:0:0:
400,272,28307,6,0,P|384:224|304:240,1,134.750004112244
256,192,28923,6,0,L|256:32,1,140
80,128,29538,1,0,0:0:0:0:
80,128,29846,6,0,L|384:128,1,280
416,128,30461,1,0,0:0:0:0:
416,128,30769,1,0,0:0:0:0:
416,128,31076,6,0,L|160:128,1,210.000008010865
416,128,31692,1,0,0:0:0:0:
256,192,32000,1,0,0:0:0:0:
64,320,32307,6,0,L|64:160,1,140
256,160,32923,1,0,0:0:0:0:
256,160,33230,1,0,0:0:0:0:
256,160,33538,6,0,L|112:160,1,140
256,192,34153,12,0,39307,0:0:0:0:
48,48,39384,5,0,0:0:0:0:
144,48,39692,5,0,0:0:0:0:
240,48,40000,5,0,0:0:0:0:
352,48,40307,5,0,0:0:0:0:
464,48,40615,5,0,0:0:0:0:
464,160,40923,5,0,0:0:0:0:
464,272,41230,6,0,L|240:272,1,210.000008010865
144,272,41846,5,0,0:0:0:0:
144,176,42153,5,0,0:0:0:0:
144,80,42461,5,0,0:0:0:0:
256,80,42769,5,0,0:0:0:0:
368,80,43076,5,0,0:0:0:0:
480,80,43384,5,0,0:0:0:0:
480,192,43692,5,0,0:0:0:0:
480,304,44000,5,0,0:0:0:0:
368,304,44307,5,0,0:0:0:0:
256,304,44615,6,0,L|112:304,1,140
16,304,45230,5,0,0:0:0:0:
16,192,45538,5,0,0:0:0:0:
16,80,45846,5,0,0:0:0:0:
128,80,46153,5,0,0:0:0:0:
128,80,46461,5,0,0:0:0:0:
16,80,46769,5,0,0:0:0:0:
128,80,47076,5,0,0:0:0:0:
240,80,47384,5,0,0:0:0:0:
128,80,47692,5,0,0:0:0:0:
240,80,48000,6,0,L|336:80,1,70
384,80,48307,6,0,L|384:144,1,52.5000020027161
384,208,48615,6,0,L|384:336,1,105.000004005432
288,320,48923,6,0,L|128:320,1,140
64,320,49230,6,0,L|64:160,1,140
64,96,49538,6,0,L|224:96,1,140
304,96,49846,6,0,L|224:224,1,140
128,192,50461,6,0,L|80:48,1,140
176,32,51076,6,0,L|320:96,1,140
304,176,51692,6,0,L|160:240,1,140
144,144,52307,6,0,B|64:16|64:16|64:16,1,140
352,48,52923,6,0,L|240:160,1,140
352,336,53538,6,0,L|240:224,1,140
128,96,54153,6,0,L|192:96,1,52.5000020027161
128,96,54769,6,0,L|224:96,1,70
128,96,55384,6,0,L|256:96,1,105.000004005432
128,96,56000,6,0,L|272:96,1,140
128,96,56615,6,0,L|288:96,1,140
128,96,56923,6,0,L|128:240,1,140
128,96,57230,6,0,L|288:96,1,140
128,96,57538,6,0,L|128:240,1,140
256,192,57846,12,0,59000,0:0:0:0:
224,80,59076,5,0,0:0:0:0:
176,96,59153,1,0,0:0:0:0:
144,112,59230,2,0,L|80:240,1,140
304,272,59538,5,0,0:0:0:0:
320,272,59615,1,0,0:0:0:0:
336,272,59692,2,0,L|384:96,1,140
240,80,60000,5,0,0:0:0:0:
96,144,60153,1,0,0:0:0:0:
208,256,60307,1,0,0:0:0:0:
128,64,60461,2,0,L|320:16,1,140
416,112,60769,1,0,0:0:0:0:
336,128,60923,1,0,0:0:0:0:
288,304,61076,5,0,0:0:0:0:
240,320,61153,1,0,0:0:0:0:
192,304,61230,2,0,L|80:256,1,105.000004005432
320,112,61461,5,0,0:0:0:0:
320,112,61538,1,0,0:0:0:0:
320,112,61615,2,0,L|224:192,1,105.000004005432
112,192,61846,1,0,0:0:0:0:
208,80,62000,1,0,0:0:0:0:
239,179,62153,5,0,0:0:0:0:
288,160,62230,1,0,0:0:0:0:
336,144,62307,2,0,L|416:256,1,105.000004005432
480,32,62615,1,0,0:0:0:0:
480,128,62769,1,0,0:0:0:0:
480,224,62923,1,0,0:0:0:0:
400,272,63076,5,0,0:0:0:0:
336,272,63153,1,0,0:0:0:0:
272,272,63230,1,0,0:0:0:0:
208,272,63307,2,0,L|128:176,1,105.000004005432
272,96,63615,5,0,0:0:0:0:
432,176,63769,1,0,0:0:0:0:
272,240,63923,1,0,0:0:0:0:
272,96,64076,2,0,L|112:96,1,140
80,144,64307,5,0,0:0:0:0:
112,208,64461,1,0,0:0:0:0:
208,160,64615,1,0,0:0:0:0:
112,64,64769,1,0,0:0:0:0:
208,160,64923,6,0,L|352:160,1,140
160,304,65230,2,0,L|160:208,1,70
352,240,65538,2,0,L|352:144,1,70
160,128,65846,2,0,L|160:48,1,70
352,64,66153,2,0,L|432:64,1,70
432,176,66461,1,0,0:0:0:0:
176,176,66615,5,0,0:0:0:0:
144,160,66692,1,0,0:0:0:0:
112,144,66769,2,0,L|112:64,1,70
288,48,67076,1,0,0:0:0:0:
288,192,67230,1,0,0:0:0:0:
416,256,67384,1,0,0:0:0:0:
432,96,67538,1,0,0:0:0:0:
288,32,67692,6,0,L|368:32,1,70
208,32,68000,2,0,L|112:32,1,70
256,256,68307,2,0,L|192:192,1,70
288,128,68615,2,0,L|368:128,1,70
144,96,68923,1,0,0:0:0:0:
144,192,69076,5,0,0:0:0:0:
176,224,69153,1,0,0:0:0:0:
224,240,69230,2,0,L|320:256,1,70
368,192,69538,1,0,0:0:0:0:
272,144,69692,5,0,0:0:0:0:
176,112,69846,1,0,0:0:0:0:
128,112,69923,1,0,0:0:0:0:
80,128,70000,2,0,L|80:208,1,70
192,224,70230,2,0,L|272:224,1,70
208,64,70538,2,0,L|208:144,1,70
288,272,70846,2,0,L|384:272,1,70
336,64,71153,2,0,L|256:112,1,70
80,96,71461,5,0,0:0:0:0:
112,224,71615,1,0,0:0:0:0:
176,128,71769,5,0,0:0:0:0:
224,144,71846,2,0,L|320:192,1,105
384,96,72153,1,0,0:0:0:0:
192,240,72307,5,0,0:0:0:0:
144,208,72384,2,0,L|96:144,1,70
176,64,72692,2,0,L|336:96,1,140
320,272,73000,2,0,L|176:192,1,140
80,112,73307,2,0,L|96:288,1,140
208,96,73615,2,0,L|368:112,1,140
192,192,73923,2,0,L|400:192,1,140
80,64,74230,2,0,L|64:224,1,140
192,96,74461,5,0,0:0:0:0:
192,96,74538,2,0,L|368:96,1,140
400,96,74846,1,0,0:0:0:0:
432,208,75077,6,0,L|240:256,1,140
64,80,75384,6,0,P|128:208|112:240,1,140
272,48,75692,6,0,P|416:64|432:80,1,140
405,55,76000,6,0,P|339:33|272:48,1,140
96,48,76307,6,0,L|192:160,1,140
128,256,76615,6,0,L|304:224,1,140
112,144,76923,6,0,L|160:144,1,35
352,96,77230,6,0,L|448:96,1,70
128,80,77615,5,0,0:0:0:0:
128,80,77769,2,0,L|128:176,1,70
272,96,78153,5,0,0:0:0:0:
272,96,78307,2,0,L|272:192,1,70
144,112,78846,6,0,L|160:208,1,70
336,128,79153,6,0,L|384:192,1,70
240,64,79461,6,0,L|208:128,1,70
208,128,79769,6,0,L|240:64,1,70
96,160,80076,1,0,0:0:0:0:
160,240,80307,6,0,L|256:240,1,70
288,240,80615,6,0,L|368:240,1,70
384,128,80923,1,0,0:0:0:0:
224,96,81076,1,0,0:0:0:0:
96,96,81230,2,0,L|112:176,1,70
224,96,81615,6,0,L|224:160,1,35
224,192,81769,1,0,0:0:0:0:
400,80,82000,6,0,L|400:128,1,35
400,176,82153,1,0,0:0:0:0:
400,176,82307,1,0,0:0:0:0:
64,64,82615,6,0,L|64:112,1,35
64,160,82768,1,0,0:0:0:0:
64,160,82923,1,0,0:0:0:0:
256,64,83153,6,0,L|256:112,1,35
256,160,83384,1,0,0:0:0:0:
256,160,83538,1,0,0:0:0:0:
112,64,83692,6,0,L|240:64,1,105
320,64,84076,5,0,0:0:0:0:
320,64,84230,2,0,P|256:96|272:112,2,105
160,112,84846,5,0,0:0:0:0:
160,112,85000,1,0,0:0:0:0:
160,112,85153,2,0,L|272:112,1,105
80,112,85538,6,0,L|80:224,1,70
256,112,85769,6,0,L|256:192,1,70
432,112,86000,6,0,L|432:192,1,70
112,80,86230,5,0,0:0:0:0:
112,80,86384,1,0,0:0:0:0:
112,80,86538,1,0,0:0:0:0:
112,80,86692,2,0,L|240:80,1,105
217,80,86923,5,0,0:0:0:0:
224,80,87076,1,0,0:0:0:0:
224,80,87230,1,0,0:0:0:0:
224,208,87384,2,0,L|80:208,1,140
16,208,87692,1,0,0:0:0:0:
16,208,87846,1,0,0:0:0:0:
128,80,88000,6,0,L|208:80,1,70
128,176,88230,6,0,L|208:176,1,70
128,272,88461,6,0,L|208:272,1,70
304,64,88692,5,0,0:0:0:0:
384,176,88846,1,0,0:0:0:0:
240,192,89000,1,0,0:0:0:0:
304,128,89153,2,0,L|160:128,1,140
112,192,89461,2,0,L|208:304,1,140
288,336,89769,1,0,0:0:0:0:
368,128,89923,1,0,0:0:0:0:
128,160,90076,1,0,0:0:0:0:
240,64,90461,6,0,L|336:64,1,70
240,64,90692,6,0,L|320:64,1,70
240,64,90922,6,0,L|320:64,1,70
64,80,91153,6,0,L|96:208,1,105.000004005432
128,48,91461,2,0,L|256:64,1,105.000004005432
192,160,91769,1,0,0:0:0:0:
112,128,91923,1,0,0:0:0:0:
128,48,92076,5,0,0:0:0:0:
128,48,92230,2,0,L|240:48,1,105.000004005432
320,48,92538,1,0,0:0:0:0:
80,80,93538,5,0,0:0:0:0:
320,272,93692,1,0,0:0:0:0:
80,80,93846,1,0,0:0:0:0:
320,272,94000,1,0,0:0:0:0:
80,80,94153,2,0,L|176:160,1,105.000004005432
320,272,94461,2,0,L|208:192,1,105.000004005432
224,80,94769,5,0,0:0:0:0:
80,240,94923,1,0,0:0:0:0:
48,96,95076,1,0,0:0:0:0:
240,256,95230,1,0,0:0:0:0:
144,128,95384,2,0,L|272:144,1,105.000004005432
336,112,95692,1,0,0:0:0:0:
336,112,95846,5,0,0:0:0:0:
80,240,96000,6,0,L|80:128,1,105.000004005432
176,176,96307,6,0,L|288:96,1,105.000004005432
464,32,96615,6,0,L|432:96,1,52.5000020027161
288,240,96923,6,0,L|192:112,1,140
64,96,97230,6,0,L|208:64,1,140
160,208,97538,6,0,L|336:128,1,140
432,304,97846,6,0,L|480:160,1,140
80,288,98153,6,0,L|32:128,1,140
144,80,98461,1,0,0:0:0:0:
480,64,98615,6,0,L|368:160,1,140
224,96,98923,1,0,0:0:0:0:
80,144,99076,6,0,L|160:288,1,140
368,304,99384,1,0,0:0:0:0:
128,64,99538,6,0,L|320:64,1,140
208,160,99846,2,0,L|272:112,2,70
128,64,100307,6,0,L|224:96,1,70
128,64,100615,2,0,L|256:112,1,105.000004005432
320,80,100923,5,0,0:0:0:0:
224,288,101076,1,0,0:0:0:0:
240,80,101230,5,0,0:0:0:0:
336,288,101384,1,0,0:0:0:0:
80,240,101538,5,0,0:0:0:0:
64,32,101692,1,0,0:0:0:0:
144,256,101846,6,0,L|240:160,1,105.000004005432
112,96,102153,6,0,P|176:160|224:128,1,157.500006008148
112,96,102538,6,0,P|176:160|215:135,1,122.500001168251
112,96,102846,6,0,P|176:160|211:131,1,122.500001168251
112,96,103153,6,0,P|176:160|211:131,1,122.500001168251
224,80,103461,5,0,0:0:0:0:
240,128,103538,1,0,0:0:0:0:
256,176,103615,1,0,0:0:0:0:
272,224,103692,2,0,L|304:304,1,70
64,96,104000,5,0,0:0:0:0:
160,208,104153,1,0,0:0:0:0:
176,96,104307,6,0,L|256:160,1,70
230,139,104615,6,0,L|176:96,1,70
176,96,104923,6,0,L|256:160,1,70
64,112,105230,5,0,0:0:0:0:
160,240,105384,1,0,0:0:0:0:
64,112,105538,1,0,0:0:0:0:
224,112,105692,1,0,0:0:0:0:
144,112,105846,6,0,L|192:192,1,70
128,32,106153,1,0,0:0:0:0:
224,64,106307,1,0,0:0:0:0:
128,192,106461,1,0,0:0:0:0:
320,80,106615,1,0,0:0:0:0:
256,256,106769,1,0,0:0:0:0:
96,80,106923,5,0,0:0:0:0:
144,272,107076,1,0,0:0:0:0:
224,32,107230,1,0,0:0:0:0:
352,224,107384,1,0,0:0:0:0:
64,208,107538,5,0,0:0:0:0:
352,80,107692,1,0,0:0:0:0:
240,320,107846,1,0,0:0:0:0:
96,96,108000,1,0,0:0:0:0:
384,256,108153,1,0,0:0:0:0:
240,112,108307,6,0,L|352:160,1,105.000004005432
144,160,108615,5,0,0:0:0:0:
144,160,108769,6,0,L|256:96,1,105.000004005432
144,160,109076,5,0,0:0:0:0:
240,112,109230,5,0,0:0:0:0:
128,48,109384,1,0,0:0:0:0:
224,208,109538,1,0,0:0:0:0:
352,144,109692,1,0,0:0:0:0:
64,176,109846,6,0,L|112:288,1,105.000004005432
128,128,110153,5,0,0:0:0:0:
176,128,110230,1,0,0:0:0:0:
224,128,110307,2,0,L|336:80,1,105.000004005432
320,86,110615,5,0,0:0:0:0:
352,128,110692,1,0,0:0:0:0:
368,176,110769,2,0,L|240:208,1,105.000004005432
128,208,111076,1,0,0:0:0:0:
240,112,111230,1,0,0:0:0:0:
128,208,111384,1,0,0:0:0:0:
336,160,111538,1,0,0:0:0:0:
240,256,111692,1,0,0:0:0:0:
112,80,111846,6,0,L|208:160,1,105.000004005432
240,144,112615,6,0,L|336:144,1,70
240,144,112846,6,0,L|336:144,1,70
240,144,113076,6,0,L|336:144,1,70
80,64,113307,5,0,0:0:0:0:
96,112,113384,1,0,0:0:0:0:
112,160,113461,1,0,0:0:0:0:
128,208,113538,1,0,0:0:0:0:
144,256,113615,1,0,0:0:0:0:
160,304,113692,1,0,0:0:0:0:
288,96,113846,5,0,0:0:0:0:
384,192,114000,1,0,0:0:0:0:
192,176,114153,1,0,0:0:0:0:
400,128,114307,1,0,0:0:0:0:
224,240,114461,1,0,0:0:0:0:
160,112,114615,1,0,0:0:0:0:
368,256,114769,1,0,0:0:0:0:
288,80,114923,1,0,0:0:0:0:
16,48,115076,5,0,0:0:0:0:
64,64,115153,1,0,0:0:0:0:
112,80,115230,2,0,L|208:32,1,70
272,48,115384,5,0,0:0:0:0:
64,208,115538,1,0,0:0:0:0:
352,112,115692,5,0,0:0:0:0:
384,144,115769,1,0,0:0:0:0:
384,192,115846,2,0,L|304:208,1,70
176,80,116076,5,0,0:0:0:0:
192,256,116230,1,0,0:0:0:0:
64,80,116384,6,0,L|128:192,1,70
208,176,116538,1,0,0:0:0:0:
384,208,116692,1,0,0:0:0:0:
384,208,116846,1,0,0:0:0:0:
80,272,116923,6,0,P|336:112|368:144,1,420.000016021729
304,256,118230,5,0,0:0:0:0:
272,272,118307,1,0,0:0:0:0:
240,288,118384,2,0,L|144:224,1,105.000004005432
96,80,118615,5,0,0:0:0:0:
320,80,118769,1,0,0:0:0:0:
192,192,118923,1,0,0:0:0:0:
96,80,119076,1,0,0:0:0:0:
96,256,119230,1,0,0:0:0:0:
240,80,119384,1,0,0:0:0:0:
192,192,119538,1,0,0:0:0:0:
96,80,119692,1,0,0:0:0:0:
80,160,119846,5,0,0:0:0:0:
144,176,119999,1,0,0:0:0:0:
304,64,120153,5,0,0:0:0:0:
352,96,120307,1,0,0:0:0:0:
176,96,120461,1,0,0:0:0:0:
224,240,120615,1,0,0:0:0:0:
304,144,120769,5,0,0:0:0:0:
304,144,120846,1,0,0:0:0:0:
304,144,120923,1,0,0:0:0:0:
80,64,121076,5,0,0:0:0:0:
112,224,121230,1,0,0:0:0:0:
256,64,121384,1,0,0:0:0:0:
240,240,121538,1,0,0:0:0:0:
176,128,121692,5,0,0:0:0:0:
96,64,121846,1,0,0:0:0:0:
96,176,121999,1,0,0:0:0:0:
176,224,122153,1,0,0:0:0:0:
96,176,122307,1,0,0:0:0:0:
96,64,122461,1,0,0:0:0:0:
176,224,122615,1,0,0:0:0:0:
192,128,122769,1,0,0:0:0:0:
192,128,123000,6,0,L|224:96,1,35
288,176,123230,5,0,0:0:0:0:
352,240,123384,1,0,0:0:0:0:
272,256,123538,1,0,0:0:0:0:
192,240,123692,5,0,0:0:0:0:
160,320,123846,1,0,0:0:0:0:
240,320,123999,1,0,0:0:0:0:
240,320,124153,5,0,0:0:0:0:
320,320,124307,1,0,0:0:0:0:
288,240,124461,1,0,0:0:0:0:
288,240,124615,5,0,0:0:0:0:
128,96,124769,1,0,0:0:0:0:
352,96,124923,1,0,0:0:0:0:
112,208,125076,1,0,0:0:0:0:
256,112,125230,1,0,0:0:0:0:
240,272,125384,1,0,0:0:0:0:
144,96,125538,1,0,0:0:0:0:
256,192,125692,1,0,0:0:0:0:
48,320,125846,5,0,0:0:0:0:
304,64,125999,1,0,0:0:0:0:
288,320,126153,1,0,0:0:0:0:
64,64,126307,1,0,0:0:0:0:
160,144,126538,6,0,L|288:224,1,140
160,144,126769,6,0,L|224:192,1,70
64,176,126923,5,0,0:0:0:0:
256,272,127076,1,0,0:0:0:0:
416,48,127230,1,0,0:0:0:0:
432,304,127384,1,0,0:0:0:0:
176,80,127538,1,0,0:0:0:0:
112,160,127692,5,0,0:0:0:0:
224,256,127846,2,0,L|112:160,1,140
288,96,128153,5,0,0:0:0:0:
336,112,128230,1,0,0:0:0:0:
367,127,128307,2,0,P|392:191|361:252,1,140
160,112,128615,5,0,0:0:0:0:
224,272,128769,1,0,0:0:0:0:
288,96,128923,1,0,0:0:0:0:
224,272,129076,1,0,0:0:0:0:
448,272,129230,1,0,0:0:0:0:
288,96,129384,1,0,0:0:0:0:
80,64,129538,2,0,L|144:96,2,70
192,160,129923,6,0,L|272:192,1,70
64,80,130230,1,0,0:0:0:0:
320,80,130384,5,0,0:0:0:0:
320,80,130461,1,0,0:0:0:0:
320,80,130538,2,0,L|320:160,1,70
176,208,130769,5,0,0:0:0:0:
192,96,130923,1,0,0:0:0:0:
272,176,131076,1,0,0:0:0:0:
416,80,131230,1,0,0:0:0:0:
368,304,131384,1,0,0:0:0:0:
48,80,131538,1,0,0:0:0:0:
64,96,131615,5,0,0:0:0:0:
80,112,131692,1,0,0:0:0:0:
192,128,131846,1,0,0:0:0:0:
240,240,131999,1,0,0:0:0:0:
64,224,132153,1,0,0:0:0:0:
400,112,132307,1,0,0:0:0:0:
400,112,132461,1,0,0:0:0:0:
208,224,133000,5,0,0:0:0:0:
208,224,133153,2,0,L|288:176,1,70
352,112,133384,1,0,0:0:0:0:
160,128,133538,1,0,0:0:0:0:
256,144,133692,2,0,L|320:256,1,105.000004005432
80,112,133999,5,0,0:0:0:0:
80,112,134076,1,0,0:0:0:0:
80,112,134153,2,0,L|128:224,1,105.000004005432
320,112,134461,5,0,0:0:0:0:
224,256,134615,1,0,0:0:0:0:
144,112,134769,1,0,0:0:0:0:
336,256,134923,1,0,0:0:0:0:
224,160,135076,1,0,0:0:0:0:
64,208,135230,6,0,L|192:224,1,105.000004005432
96,112,135538,1,0,0:0:0:0:
160,288,135692,1,0,0:0:0:0:
240,64,135846,1,0,0:0:0:0:
256,192,135999,1,0,0:0:0:0:
256,192,136076,6,0,L|320:240,1,52.5000020027161
112,144,136307,1,0,0:0:0:0:
224,256,136461,1,0,0:0:0:0:
160,64,136615,1,0,0:0:0:0:
256,64,136769,2,0,L|320:96,1,52.5000020027161
400,112,137076,1,0,0:0:0:0:
192,160,137230,1,0,0:0:0:0:
336,224,137384,1,0,0:0:0:0:
304,80,137538,1,0,0:0:0:0:
224,304,137692,1,0,0:0:0:0:
112,192,137846,1,0,0:0:0:0:
64,80,138000,5,0,0:0:0:0:
80,96,138076,1,0,0:0:0:0:
96,112,138153,2,0,P|144:128|192:96,1,105.000004005432
304,112,138461,1,0,0:0:0:0:
240,256,138615,1,0,0:0:0:0:
432,176,138769,5,0,0:0:0:0:
384,192,138846,1,0,0:0:0:0:
336,208,138923,1,0,0:0:0:0:
128,144,139076,1,0,0:0:0:0:
224,80,139230,1,0,0:0:0:0:
112,240,139384,2,0,L|224:240,1,105.000004005432
384,128,139692,5,0,0:0:0:0:
352,144,139769,1,0,0:0:0:0:
320,160,139846,2,0,P|224:176|192:160,1,105.000004005432
96,128,140153,1,0,0:0:0:0:
128,240,140307,1,0,0:0:0:0:
224,144,140461,1,0,0:0:0:0:
224,144,140615,6,0,L|352:160,1,105.000004005432
64,112,140923,1,0,0:0:0:0:
176,240,141076,1,0,0:0:0:0:
80,224,141230,1,0,0:0:0:0:
80,224,141384,2,0,L|176:160,1,105.000004005432
112,96,141692,1,0,0:0:0:0:
144,96,162461,6,0,P|224:80|256:144,1,157.500006008148
160,224,162846,1,0,0:0:0:0:
256,192,163000,1,0,0:0:0:0:
320,96,163153,1,0,0:0:0:0:
320,96,163230,5,0,0:0:0:0:
320,96,163307,5,0,0:0:0:0:
128,144,163461,5,0,0:0:0:0:
128,144,163615,2,0,L|224:80,1,105.000004005432
215,85,163923,2,0,L|368:128,1,140
350,123,164230,5,0,0:0:0:0:
350,123,164384,2,0,L|192:80,1,140
128,128,164692,2,0,L|144:208,2,70
224,224,165000,5,0,0:0:0:0:
224,224,165076,1,0,0:0:0:0:
224,224,165153,2,0,L|304:240,1,70
416,80,165461,1,0,0:0:0:0:
336,112,165615,1,0,0:0:0:0:
416,80,165769,2,0,L|352:32,1,70
272,48,166076,1,0,0:0:0:0:
208,192,166230,2,0,L|256:224,2,35
112,128,166538,5,0,0:0:0:0:
160,160,166615,1,0,0:0:0:0:
208,192,166692,1,0,0:0:0:0:
48,192,166846,2,0,L|80:272,1,70
256,256,167153,1,0,0:0:0:0:
144,80,167307,5,0,0:0:0:0:
144,80,167384,1,0,0:0:0:0:
144,80,167461,2,0,L|208:128,1,70
384,128,167769,1,0,0:0:0:0:
160,256,167923,1,0,0:0:0:0:
192,144,168076,2,0,L|272:192,1,70
192,144,168384,5,0,0:0:0:0:
144,112,168461,1,0,0:0:0:0:
96,80,168538,1,0,0:0:0:0:
240,240,168692,6,0,L|336:240,1,70
48,240,169000,5,0,0:0:0:0:
96,240,169076,1,0,0:0:0:0:
144,240,169153,1,0,0:0:0:0:
192,240,169230,1,0,0:0:0:0:
224,112,169384,1,0,0:0:0:0:
224,112,169538,6,0,L|304:144,1,70
80,112,169846,5,0,0:0:0:0:
80,112,169923,1,0,0:0:0:0:
80,112,170000,1,0,0:0:0:0:
192,256,170153,1,0,0:0:0:0:
352,96,170307,1,0,0:0:0:0:
64,272,170461,5,0,0:0:0:0:
64,272,170538,1,0,0:0:0:0:
64,272,170615,1,0,0:0:0:0:
176,96,170769,2,0,L|256:176,1,105.000004005432
128,176,171076,1,0,0:0:0:0:
176,96,171230,1,0,0:0:0:0:
272,240,171384,5,0,0:0:0:0:
272,240,171461,1,0,0:0:0:0:
272,240,171538,1,0,0:0:0:0:
272,80,171692,1,0,0:0:0:0:
144,272,171846,1,0,0:0:0:0:
96,128,172000,2,0,L|192:176,1,105.000004005432
183,170,172307,5,0,0:0:0:0:
160,160,172384,1,0,0:0:0:0:
128,144,172461,1,0,0:0:0:0:
96,128,172538,1,0,0:0:0:0:
208,64,172692,1,0,0:0:0:0:
160,256,172846,1,0,0:0:0:0:
208,64,173000,6,0,L|176:176,1,105.000004005432
320,80,173307,1,0,0:0:0:0:
320,192,173461,2,0,L|320:48,1,105.000004005432
320,192,173769,5,0,0:0:0:0:
320,240,173846,1,0,0:0:0:0:
320,288,173923,1,0,0:0:0:0:
176,112,174076,5,0,0:0:0:0:
176,224,174230,6,0,L|176:112,1,105.000004005432
176,224,174538,5,0,0:0:0:0:
176,224,174692,6,0,L|176:96,1,105.000004005432
176,64,175000,5,0,0:0:0:0:
224,64,175076,1,0,0:0:0:0:
272,64,175153,1,0,0:0:0:0:
128,64,175307,2,0,L|80:192,1,105.000004005432
160,288,175615,5,0,0:0:0:0:
288,192,175769,1,0,0:0:0:0:
160,288,175923,1,0,0:0:0:0:
288,192,176076,2,0,L|192:96,1,105.000004005432
112,80,176384,5,0,0:0:0:0:
112,80,176461,1,0,0:0:0:0:
112,80,176538,1,0,0:0:0:0:
224,80,176692,6,0,L|80:80,1,105.000004005432
224,176,177000,1,0,0:0:0:0:
128,224,177153,1,0,0:0:0:0:
96,96,177307,5,0,0:0:0:0:
96,96,177384,1,0,0:0:0:0:
96,96,177461,1,0,0:0:0:0:
320,208,177615,2,0,L|320:320,1,105.000004005432
320,96,177846,5,0,0:0:0:0:
224,96,177923,1,0,0:0:0:0:
128,96,178000,1,0,0:0:0:0:
32,96,178076,1,0,0:0:0:0:
80,224,178230,5,0,0:0:0:0:
80,224,178384,6,0,L|192:224,1,105.000004005432
80,224,178692,6,0,L|80:64,1,140
80,84,179000,5,0,0:0:0:0:
96,88,179076,1,0,0:0:0:0:
112,88,179153,1,0,0:0:0:0:
208,128,179307,1,0,0:0:0:0:
208,128,179461,6,0,L|352:128,1,140
80,224,179769,5,0,0:0:0:0:
80,224,179846,1,0,0:0:0:0:
80,224,179923,1,0,0:0:0:0:
112,96,180076,1,0,0:0:0:0:
288,112,180230,1,0,0:0:0:0:
336,304,180384,5,0,0:0:0:0:
288,272,180461,1,0,0:0:0:0:
240,240,180538,1,0,0:0:0:0:
240,240,180692,6,0,L|368:336,1,140
96,112,181000,1,0,0:0:0:0:
208,128,181153,1,0,0:0:0:0:
128,256,181307,1,0,0:0:0:0:
304,128,181461,1,0,0:0:0:0:
208,224,181615,2,0,L|352:272,1,140
224,144,181923,5,0,0:0:0:0:
208,112,182000,1,0,0:0:0:0:
176,128,182076,1,0,0:0:0:0:
160,80,182153,1,0,0:0:0:0:
128,96,182230,1,0,0:0:0:0:
32,288,192000,5,0,0:0:0:0:
64,256,192076,1,0,0:0:0:0:
96,224,192153,1,0,0:0:0:0:
128,192,192230,1,0,0:0:0:0:
160,160,192307,2,0,L|256:160,2,52.5000020027161
264,112,192538,5,0,0:0:0:0:
280,112,192614,1,0,0:0:0:0:
296,112,192691,1,0,0:0:0:0:
312,112,192768,1,0,0:0:0:0:
328,112,192845,2,0,L|424:112,2,52.5000020027161
112,176,193153,5,0,0:0:0:0:
240,256,193307,1,0,0:0:0:0:
112,176,193461,2,0,L|248:160,1,105.000004005432
112,176,193769,5,0,0:0:0:0:
164,169,193845,1,0,0:0:0:0:
216,162,193922,1,0,0:0:0:0:
144,48,194076,1,0,0:0:0:0:
296,208,194230,1,0,0:0:0:0:
128,248,194384,1,0,0:0:0:0:
304,80,194538,5,0,0:0:0:0:
304,80,194615,1,0,0:0:0:0:
304,80,194692,1,0,0:0:0:0:
304,80,194769,1,0,0:0:0:0:
136,96,194923,6,0,L|200:192,1,105.000004005432
96,128,195230,5,0,0:0:0:0:
80,176,195307,5,0,0:0:0:0:
96,224,195384,5,0,0:0:0:0:
240,144,195538,5,0,0:0:0:0:
272,144,195615,1,0,0:0:0:0:
304,144,195692,1,0,0:0:0:0:
336,144,195769,2,0,L|208:144,1,105.000004005432
112,112,196076,5,0,0:0:0:0:
160,240,196230,1,0,0:0:0:0:
272,48,196384,1,0,0:0:0:0:
272,240,196538,1,0,0:0:0:0:
64,208,196692,5,0,0:0:0:0:
64,208,196769,1,0,0:0:0:0:
64,208,196846,1,0,0:0:0:0:
176,112,197000,1,0,0:0:0:0:
272,144,197153,2,0,P|320:64|336:48,1,105.000004005432
256,160,197461,5,0,0:0:0:0:
240,176,197538,1,0,0:0:0:0:
224,192,197615,1,0,0:0:0:0:
80,80,197769,5,0,0:0:0:0:
144,80,197846,1,0,0:0:0:0:
208,80,197923,1,0,0:0:0:0:
272,80,198000,6,0,L|272:192,1,105.000004005432
128,256,198307,6,0,L|240:192,1,105.000004005432
96,64,198615,5,0,0:0:0:0:
128,96,198692,1,0,0:0:0:0:
144,144,198769,1,0,0:0:0:0:
144,192,198846,1,0,0:0:0:0:
208,160,199000,2,0,L|304:224,1,105.000004005432
208,160,199307,5,0,0:0:0:0:
248,184,199384,1,0,0:0:0:0:
288,216,199461,1,0,0:0:0:0:
288,208,199615,2,0,L|384:128,1,105.000004005432
288,208,199923,5,0,0:0:0:0:
248,184,200000,1,0,0:0:0:0:
208,160,200076,1,0,0:0:0:0:
128,144,200230,1,0,0:0:0:0:
128,256,200384,1,0,0:0:0:0:
128,48,200538,2,0,L|192:64,1,52.5000020027161
240,32,200846,5,0,0:0:0:0:
256,64,200923,1,0,0:0:0:0:
272,96,201000,1,0,0:0:0:0:
288,128,201076,1,0,0:0:0:0:
304,160,201153,1,0,0:0:0:0:
112,48,201307,5,0,0:0:0:0:
112,48,201384,2,0,L|112:176,1,105.000004005432
128,256,201692,1,0,0:0:0:0:
160,128,201846,1,0,0:0:0:0:
288,208,202000,5,0,0:0:0:0:
256,192,202076,1,0,0:0:0:0:
224,176,202153,1,0,0:0:0:0:
192,160,202230,1,0,0:0:0:0:
320,224,202307,6,0,L|432:288,1,105.000004005432
80,80,202615,6,0,L|160:96,2,52.5000020027161
224,80,202923,1,0,0:0:0:0:
304,128,203076,1,0,0:0:0:0:
160,208,203230,5,0,0:0:0:0:
160,208,203307,1,0,0:0:0:0:
160,208,203384,1,0,0:0:0:0:
64,80,203538,1,0,0:0:0:0:
256,256,203692,1,0,0:0:0:0:
224,80,203846,5,0,0:0:0:0:
224,80,203923,1,0,0:0:0:0:
224,80,204000,1,0,0:0:0:0:
400,96,204153,6,0,L|288:160,1,105.000004005432
96,192,204461,5,0,0:0:0:0:
160,192,204538,1,0,0:0:0:0:
224,192,204615,1,0,0:0:0:0:
288,192,204692,2,0,L|400:192,1,105.000004005432
144,48,205000,5,0,0:0:0:0:
288,192,205153,1,0,0:0:0:0:
96,224,205307,1,0,0:0:0:0:
64,96,205461,5,0,0:0:0:0:
64,96,205538,1,0,0:0:0:0:
64,96,205615,1,0,0:0:0:0:
240,128,205769,1,0,0:0:0:0:
192,304,205923,1,0,0:0:0:0:
112,176,206076,6,0,L|176:208,1,52.5000020027161
224,224,206230,5,0,0:0:0:0:
272,224,206307,1,0,0:0:0:0:
320,208,206384,1,0,0:0:0:0:
224,96,206538,1,0,0:0:0:0:
108,260,206692,1,0,0:0:0:0:
80,160,206846,6,0,L|112:272,1,105.000004005432
128,64,207153,1,0,0:0:0:0:
208,192,207307,1,0,0:0:0:0:
224,102,207461,5,0,0:0:0:0:
224,102,207538,1,0,0:0:0:0:
224,102,207615,1,0,0:0:0:0:
128,144,207769,2,0,L|240:96,1,105.000004005432
128,272,208076,5,0,0:0:0:0:
160,256,208153,1,0,0:0:0:0:
192,240,208230,1,0,0:0:0:0:
224,224,208307,1,0,0:0:0:0:
128,272,208461,2,0,L|240:224,1,105.000004005432
208,80,208769,1,0,0:0:0:0:
336,240,208923,1,0,0:0:0:0:
144,112,209076,2,0,L|176:192,1,70
128,288,209384,5,0,0:0:0:0:
162,292,209460,1,0,0:0:0:0:
193,276,209537,1,0,0:0:0:0:
192,192,209692,2,0,L|256:224,1,70
64,128,210000,1,0,0:0:0:0:
104,147,210076,1,0,0:0:0:0:
145,167,210153,1,0,0:0:0:0:
256,192,210307,12,0,211615,0:0:0:0:
192,112,211692,5,0,0:0:0:0:
144,192,211846,5,0,0:0:0:0:
176,192,211923,1,0,0:0:0:0:
208,192,212000,2,0,L|288:192,1,70
112,80,212307,5,0,0:0:0:0:
320,112,212461,1,0,0:0:0:0:
224,272,212615,1,0,0:0:0:0:
64,256,212769,5,0,0:0:0:0:
112,224,212846,1,0,0:0:0:0:
160,192,212923,1,0,0:0:0:0:
208,160,213000,1,0,0:0:0:0:
256,128,213076,1,0,0:0:0:0:
112,80,213230,5,0,0:0:0:0:
224,272,213384,1,0,0:0:0:0:
352,208,213538,2,0,L|272:144,1,70
80,240,213846,1,0,0:0:0:0:
176,112,214000,1,0,0:0:0:0:
272,176,214153,5,0,0:0:0:0:
304,208,214230,1,0,0:0:0:0:
336,240,214307,1,0,0:0:0:0:
368,272,214384,2,0,L|448:208,1,70
160,256,214692,5,0,0:0:0:0:
112,96,214846,1,0,0:0:0:0:
256,240,215000,1,0,0:0:0:0:
288,96,215153,1,0,0:0:0:0:
96,192,215307,1,0,0:0:0:0:
208,112,215461,5,0,0:0:0:0:
208,144,215538,1,0,0:0:0:0:
208,176,215615,2,0,L|208:80,1,70
288,256,215923,5,0,0:0:0:0:
64,256,216076,1,0,0:0:0:0:
80,96,216230,1,0,0:0:0:0:
192,112,216384,5,0,0:0:0:0:
192,112,216461,1,0,0:0:0:0:
192,112,216538,1,0,0:0:0:0:
64,256,216692,5,0,0:0:0:0:
160,208,216846,1,0,0:0:0:0:
320,144,216999,1,0,0:0:0:0:
272,288,217153,1,0,0:0:0:0:
272,288,217307,1,0,0:0:0:0:
144,48,217461,2,0,L|208:96,1,70
144,48,217769,1,0,0:0:0:0:
160,192,217923,6,0,L|224:192,1,52.5000020027161
368,64,218230,2,0,L|352:160,1,70
48,128,218538,2,0,L|96:240,1,105.000004005432
208,96,218846,2,0,L|272:224,1,140
128,144,219153,5,0,0:0:0:0:
128,144,219307,1,0,0:0:0:0:
240,208,219461,6,0,L|384:144,1,140
128,240,219769,2,0,L|160:320,1,70
112,32,220076,5,0,0:0:0:0:
112,32,220230,1,0,0:0:0:0:
144,128,220384,6,0,L|240:128,1,70
144,128,220692,2,0,L|224:128,1,70
96,272,221000,5,0,0:0:0:0:
96,272,221153,1,0,0:0:0:0:
240,192,221307,6,0,L|320:160,1,70
112,96,221615,5,0,0:0:0:0:
112,96,221692,1,0,0:0:0:0:
112,96,221769,1,0,0:0:0:0:
96,208,221923,2,0,L|128:240,2,35
208,144,222230,5,0,0:0:0:0:
208,144,222384,1,0,0:0:0:0:
208,272,222538,6,0,L|288:208,1,70
80,96,222846,5,0,0:0:0:0:
240,80,223000,1,0,0:0:0:0:
96,208,223153,1,0,0:0:0:0:
96,208,223307,6,0,L|192:192,1,70
320,176,223615,5,0,0:0:0:0:
320,176,223692,1,0,0:0:0:0:
320,176,223769,1,0,0:0:0:0:
144,112,223923,1,0,0:0:0:0:
192,256,224076,1,0,0:0:0:0:
192,256,224230,6,0,L|160:160,1,70
304,128,224538,5,0,0:0:0:0:
288,272,224692,1,0,0:0:0:0:
160,160,224846,1,0,0:0:0:0:
224,80,225000,1,0,0:0:0:0:
208,272,225153,1,0,0:0:0:0:
368,144,225307,1,0,0:0:0:0:
336,288,225461,1,0,0:0:0:0:
224,80,225615,1,0,0:0:0:0:
112,112,225769,5,0,0:0:0:0:
112,112,225846,1,0,0:0:0:0:
112,112,225923,1,0,0:0:0:0:
112,208,226076,2,0,L|192:224,1,70
288,160,226384,1,0,0:0:0:0:
256,272,226538,1,0,0:0:0:0:
176,160,226692,1,0,0:0:0:0:
144,272,226846,1,0,0:0:0:0:
144,64,227000,6,0,L|224:80,1,70
212,77,227307,2,0,L|144:64,1,70
144,160,227615,5,0,0:0:0:0:
144,160,227769,1,0,0:0:0:0:
144,160,227923,1,0,0:0:0:0:
336,160,228076,5,0,0:0:0:0:
336,160,228230,1,0,0:0:0:0:
336,160,228384,1,0,0:0:0:0:
336,160,228538,1,0,0:0:0:0:
176,96,228692,5,0,0:0:0:0:
176,96,228846,1,0,0:0:0:0:
176,96,229000,1,0,0:0:0:0:
176,96,229153,1,0,0:0:0:0:
128,208,229307,5,0,0:0:0:0:
160,224,229384,1,0,0:0:0:0:
192,224,229461,1,0,0:0:0:0:
224,208,229538,1,0,0:0:0:0:
256,192,229615,1,0,0:0:0:0:
272,160,229692,1,0,0:0:0:0:
272,128,229769,1,0,0:0:0:0:
288,96,229846,1,0,0:0:0:0:
320,80,229923,1,0,0:0:0:0:
352,80,230000,1,0,0:0:0:0:
384,112,230076,1,0,0:0:0:0:
400,144,230153,1,0,0:0:0:0:
256,192,230307,12,0,232461,0:0:0:0:
256,128,232615,5,0,0:0:0:0:
96,160,232769,1,0,0:0:0:0:
160,240,232923,1,0,0:0:0:0:
128,64,233076,2,0,L|176:128,1,70
256,192,233384,5,0,0:0:0:0:
304,160,233461,1,0,0:0:0:0:
336,112,233538,1,0,0:0:0:0:
368,64,233615,1,0,0:0:0:0:
144,144,233769,5,0,0:0:0:0:
192,320,233923,1,0,0:0:0:0:
144,144,234076,2,0,L|224:112,1,70
256,176,234384,5,0,0:0:0:0:
272,192,234461,1,0,0:0:0:0:
288,208,234538,2,0,L|400:160,1,105.000004005432
144,96,234846,5,0,0:0:0:0:
144,256,235000,1,0,0:0:0:0:
32,144,235153,1,0,0:0:0:0:
256,112,235307,5,0,0:0:0:0:
256,112,235384,1,0,0:0:0:0:
256,112,235461,1,0,0:0:0:0:
96,112,235615,5,0,0:0:0:0:
240,272,235769,1,0,0:0:0:0:
112,288,235923,2,0,L|160:192,1,105.000004005432
224,80,236230,5,0,0:0:0:0:
256,80,236307,1,0,0:0:0:0:
288,80,236384,2,0,L|384:80,1,70
160,160,236615,5,0,0:0:0:0:
176,192,236692,1,0,0:0:0:0:
192,224,236769,2,0,L|224:288,1,70
80,80,237000,5,0,0:0:0:0:
80,128,237076,1,0,0:0:0:0:
80,176,237153,2,0,L|80:272,1,70
240,80,237384,2,0,L|336:208,1,140
208,272,237692,5,0,0:0:0:0:
144,80,237846,1,0,0:0:0:0:
352,176,238000,1,0,0:0:0:0:
112,208,238153,5,0,0:0:0:0:
112,208,238230,1,0,0:0:0:0:
112,208,238307,1,0,0:0:0:0:
240,80,238461,5,0,0:0:0:0:
240,240,238615,1,0,0:0:0:0:
80,64,238769,2,0,L|192:192,1,140
160,304,239076,5,0,0:0:0:0:
64,192,239230,1,0,0:0:0:0:
192,144,239384,2,0,L|336:144,1,140
96,96,239692,5,0,0:0:0:0:
96,128,239769,1,0,0:0:0:0:
96,160,239846,1,0,0:0:0:0:
192,256,240000,5,0,0:0:0:0:
320,112,240153,1,0,0:0:0:0:
320,272,240307,1,0,0:0:0:0:
48,192,240461,2,0,L|128:320,1,140
168,80,240769,5,0,0:0:0:0:
240,240,240923,1,0,0:0:0:0:
152,216,241076,1,0,0:0:0:0:
328,104,241230,1,0,0:0:0:0:
80,112,241384,5,0,0:0:0:0:
80,112,241461,1,0,0:0:0:0:
80,112,241538,1,0,0:0:0:0:
280,176,241692,5,0,0:0:0:0:
208,312,241846,1,0,0:0:0:0:
184,96,242000,2,0,L|120:248,1,140
432,96,242307,5,0,0:0:0:0:
384,112,242384,1,0,0:0:0:0:
352,144,242461,1,0,0:0:0:0:
320,176,242538,1,0,0:0:0:0:
304,224,242615,1,0,0:0:0:0:
288,272,242692,1,0,0:0:0:0:
240,288,242769,1,0,0:0:0:0:
192,288,242846,1,0,0:0:0:0:
144,272,242923,1,0,0:0:0:0:
144,64,243076,6,0,L|96:160,1,105.000004005432
288,160,243384,1,0,0:0:0:0:
384,272,243538,1,0,0:0:0:0:
128,304,243692,1,0,0:0:0:0:
160,80,243846,1,0,0:0:0:0:
272,288,244000,1,0,0:0:0:0:
80,176,244153,5,0,0:0:0:0:
80,176,244230,1,0,0:0:0:0:
80,176,244307,1,0,0:0:0:0:
288,80,244461,2,0,L|272:192,1,105.000004005432
128,96,244769,5,0,0:0:0:0:
144,128,244846,1,0,0:0:0:0:
160,160,244923,2,0,P|181:205|231:211,1,105.000004005432
368,96,245230,5,0,0:0:0:0:
304,256,245384,1,0,0:0:0:0:
224,128,245538,1,0,0:0:0:0:
112,80,245692,2,0,L|112:192,1,105.000004005432
304,64,246000,5,0,0:0:0:0:
336,128,246076,1,0,0:0:0:0:
368,192,246153,2,0,L|272:272,1,105.000004005432
176,48,246461,5,0,0:0:0:0:
144,240,246615,1,0,0:0:0:0:
224,144,246846,6,0,L|352:144,1,105.000004005432
112,224,247153,6,0,L|224:272,1,105.000004005432
160,96,247461,6,0,L|272:64,1,105.000004005432
304,208,247769,6,0,L|176:160,1,105.000004005432
80,128,248076,6,0,L|80:240,1,105.000004005432
224,48,248384,6,0,L|352:80,1,105.000004005432
160,256,248692,6,0,L|96:144,1,105.000004005432
352,240,249000,6,0,L|288:144,1,105.000004005432
128,96,249307,6,0,L|224:160,1,105.000004005432
80,224,249615,6,0,L|224:256,1,105.000004005432
224,112,249923,6,0,L|304:112,1,70
224,224,250153,6,0,L|304:224,1,70
80,128,250384,6,0,L|80:208,1,70
176,112,250615,6,0,L|256:128,1,70
160,240,250846,6,0,L|208:304,1,70
304,128,251076,6,0,L|368:96,1,70
96,112,251384,5,0,0:0:0:0:
192,192,251692,1,0,0:0:0:0:
352,112,252000,1,0,0:0:0:0:
96,80,252153,1,0,0:0:0:0:
240,112,252307,5,0,0:0:0:0:
256,144,252384,1,0,0:0:0:0:
272,176,252461,2,0,L|336:288,1,105.000004005432
112,208,252769,5,0,0:0:0:0:
208,64,252923,1,0,0:0:0:0:
224,256,253076,5,0,0:0:0:0:
224,256,253153,1,0,0:0:0:0:
224,256,253230,1,0,0:0:0:0:
304,128,253384,5,0,0:0:0:0:
128,144,253538,1,0,0:0:0:0:
224,240,253692,5,0,0:0:0:0:
224,272,253769,1,0,0:0:0:0:
224,304,253846,1,0,0:0:0:0:
224,208,254000,2,0,L|224:96,1,105.000004005432
96,112,254307,5,0,0:0:0:0:
112,256,254461,1,0,0:0:0:0:
272,128,254615,5,0,0:0:0:0:
272,128,254692,1,0,0:0:0:0:
272,128,254769,1,0,0:0:0:0:
288,240,254923,2,0,L|400:256,1,105.000004005432
112,112,255230,5,0,0:0:0:0:
112,112,255307,1,0,0:0:0:0:
112,112,255384,1,0,0:0:0:0:
112,272,255538,5,0,0:0:0:0:
256,144,255692,1,0,0:0:0:0:
224,256,255846,5,0,0:0:0:0:
192,208,255923,1,0,0:0:0:0:
160,160,256000,1,0,0:0:0:0:
160,160,256153,2,0,L|240:288,1,105.000004005432
288,112,256461,5,0,0:0:0:0:
304,128,256538,1,0,0:0:0:0:
320,144,256615,1,0,0:0:0:0:
80,64,256769,5,0,0:0:0:0:
96,224,256923,1,0,0:0:0:0:
224,80,257076,2,0,L|240:208,1,105.000004005432
352,176,257384,5,0,0:0:0:0:
352,176,257461,1,0,0:0:0:0:
352,176,257538,1,0,0:0:0:0:
128,160,257692,5,0,0:0:0:0:
192,272,257846,1,0,0:0:0:0:
256,112,258000,1,0,0:0:0:0:
48,160,258153,5,0,0:0:0:0:
48,160,258230,1,0,0:0:0:0:
48,160,258307,1,0,0:0:0:0:
208,176,258461,5,0,0:0:0:0:
256,208,258538,1,0,0:0:0:0:
304,240,258615,1,0,0:0:0:0:
352,272,258692,2,0,L|416:176,1,105.000004005432
192,112,259000,5,0,0:0:0:0:
128,272,259153,1,0,0:0:0:0:
96,144,259307,1,0,0:0:0:0:
240,224,259461,5,0,0:0:0:0:
240,224,259538,1,0,0:0:0:0:
240,224,259615,2,0,L|352:160,1,105.000004005432
208,112,259923,5,0,0:0:0:0:
112,256,260076,1,0,0:0:0:0:
64,80,260230,2,0,L|144:192,1,105.000004005432
160,216,260538,5,0,0:0:0:0:
192,264,260615,1,0,0:0:0:0:
224,312,260692,1,0,0:0:0:0:
256,64,260846,6,0,L|352:176,1,105.000004005432
96,96,261153,5,0,0:0:0:0:
80,288,261307,1,0,0:0:0:0:
224,160,261461,1,0,0:0:0:0:
320,112,261615,1,0,0:0:0:0:
112,208,261769,1,0,0:0:0:0:
320,112,261923,1,0,0:0:0:0:
160,96,262076,5,0,0:0:0:0:
176,144,262153,1,0,0:0:0:0:
192,192,262230,1,0,0:0:0:0:
304,48,262307,6,0,L|384:16,1,70
320,96,262461,2,0,L|400:64,1,70
336,144,262615,2,0,L|416:112,1,70
112,272,262846,5,0,0:0:0:0:
368,192,263000,1,0,0:0:0:0:
272,304,263153,1,0,0:0:0:0:
176,128,263307,1,0,0:0:0:0:
80,80,263461,6,0,L|128:224,1,140
80,80,263769,2,0,L|128:224,1,105.000004005432
288,112,264076,5,0,0:0:0:0:
288,112,264153,1,0,0:0:0:0:
288,112,264230,1,0,0:0:0:0:
192,224,264384,6,0,L|288:288,1,105.000004005432
144,80,264692,5,0,0:0:0:0:
80,256,264846,1,0,0:0:0:0:
304,176,265000,1,0,0:0:0:0:
80,128,265153,5,0,0:0:0:0:
112,160,265230,1,0,0:0:0:0:
144,192,265307,1,0,0:0:0:0:
240,96,265461,6,0,L|336:176,1,105.000004005432
240,96,265769,5,0,0:0:0:0:
240,96,265846,1,0,0:0:0:0:
240,96,265923,1,0,0:0:0:0:
96,224,266076,5,0,0:0:0:0:
272,240,266230,1,0,0:0:0:0:
96,112,266384,5,0,0:0:0:0:
144,128,266461,1,0,0:0:0:0:
160,176,266538,1,0,0:0:0:0:
224,64,266692,6,0,L|320:128,1,105.000004005432
160,64,267000,5,0,0:0:0:0:
96,64,267076,1,0,0:0:0:0:
32,64,267153,1,0,0:0:0:0:
112,224,267307,5,0,0:0:0:0:
320,160,267461,1,0,0:0:0:0:
224,256,267615,5,0,0:0:0:0:
208,240,267692,1,0,0:0:0:0:
192,224,267769,1,0,0:0:0:0:
176,112,267923,5,0,0:0:0:0:
176,112,268000,1,0,0:0:0:0:
176,112,268076,1,0,0:0:0:0:
320,96,268230,5,0,0:0:0:0:
320,128,268307,1,0,0:0:0:0:
320,160,268384,1,0,0:0:0:0:
96,224,268538,5,0,0:0:0:0:
128,256,268615,1,0,0:0:0:0:
160,288,268692,1,0,0:0:0:0:
176,144,268846,5,0,0:0:0:0:
176,144,268923,1,0,0:0:0:0:
176,144,269000,1,0,0:0:0:0:
400,96,269153,5,0,0:0:0:0:
400,120,269230,1,0,0:0:0:0:
400,144,269307,1,0,0:0:0:0:
80,144,269461,5,0,0:0:0:0:
96,208,269538,1,0,0:0:0:0:
112,272,269615,1,0,0:0:0:0:
256,80,269769,5,0,0:0:0:0:
256,128,269846,1,0,0:0:0:0:
256,176,269923,1,0,0:0:0:0:
112,96,270076,5,0,0:0:0:0:
144,144,270153,1,0,0:0:0:0:
176,192,270230,1,0,0:0:0:0:
224,288,270384,5,0,0:0:0:0:
288,288,270461,1,0,0:0:0:0:
352,288,270538,1,0,0:0:0:0:
416,80,270769,5,0,0:0:0:0:
256,192,270846,12,0,271923,0:0:0:0:
176,112,272000,5,0,0:0:0:0:
224,128,272076,1,0,0:0:0:0:
272,144,272153,1,0,0:0:0:0:
128,272,272307,5,0,0:0:0:0:
80,128,272461,1,0,0:0:0:0:
240,224,272615,2,0,L|352:224,1,105.000004005432
304,64,272923,5,0,0:0:0:0:
304,64,273000,1,0,0:0:0:0:
304,64,273076,1,0,0:0:0:0:
144,112,273230,5,0,0:0:0:0:
144,272,273384,1,0,0:0:0:0:
288,208,273538,5,0,0:0:0:0:
336,208,273615,1,0,0:0:0:0:
384,208,273692,1,0,0:0:0:0:
288,208,273846,2,0,L|176:208,1,105.000004005432
128,64,274153,5,0,0:0:0:0:
112,224,274307,1,0,0:0:0:0:
224,112,274461,5,0,0:0:0:0:
224,112,274538,1,0,0:0:0:0:
224,112,274615,1,0,0:0:0:0:
240,208,274769,5,0,0:0:0:0:
80,96,274923,2,0,L|160:192,1,105.000004005432
80,272,275230,1,0,0:0:0:0:
80,96,275384,1,0,0:0:0:0:
208,96,275538,5,0,0:0:0:0:
224,80,275615,1,0,0:0:0:0:
240,64,275692,1,0,0:0:0:0:
224,208,275846,1,0,0:0:0:0:
352,160,276000,2,0,L|416:64,1,105.000004005432
320,208,276307,5,0,0:0:0:0:
288,256,276384,1,0,0:0:0:0:
256,304,276461,1,0,0:0:0:0:
112,112,276615,1,0,0:0:0:0:
128,256,276769,1,0,0:0:0:0:
272,80,276923,5,0,0:0:0:0:
272,112,277000,1,0,0:0:0:0:
272,144,277076,1,0,0:0:0:0:
272,176,277230,2,0,L|176:240,1,105.000004005432
144,304,277538,5,0,0:0:0:0:
112,80,277692,1,0,0:0:0:0:
400,208,277846,1,0,0:0:0:0:
256,272,278000,1,0,0:0:0:0:
240,128,278153,5,0,0:0:0:0:
224,160,278230,1,0,0:0:0:0:
208,192,278307,1,0,0:0:0:0:
128,256,278461,1,0,0:0:0:0:
96,96,278615,1,0,0:0:0:0:
288,64,278769,2,0,L|416:80,1,105.000004005432
256,176,279076,5,0,0:0:0:0:
256,176,279153,1,0,0:0:0:0:
256,176,279230,1,0,0:0:0:0:
272,304,279384,5,0,0:0:0:0:
112,144,279538,1,0,0:0:0:0:
128,288,279692,1,0,0:0:0:0:
352,112,279846,2,0,L|224:64,1,105.000004005432
256,192,280153,5,0,0:0:0:0:
144,112,280307,1,0,0:0:0:0:
112,304,280461,1,0,0:0:0:0:
64,144,280615,5,0,0:0:0:0:
64,144,280692,1,0,0:0:0:0:
64,144,280769,1,0,0:0:0:0:
352,128,280923,5,0,0:0:0:0:
224,256,281076,1,0,0:0:0:0:
208,128,281230,1,0,0:0:0:0:
128,288,281384,1,0,0:0:0:0:
336,224,281538,1,0,0:0:0:0:
112,112,281692,6,0,L|128:224,1,105.000004005432
272,128,282000,5,0,0:0:0:0:
192,288,282153,1,0,0:0:0:0:
240,192,282307,6,0,L|304:208,2,52.5000020027161
144,96,282615,5,0,0:0:0:0:
112,240,282769,1,0,0:0:0:0:
144,96,282923,1,0,0:0:0:0:
224,240,283076,1,0,0:0:0:0:
144,96,283230,1,0,0:0:0:0:
112,240,283384,1,0,0:0:0:0:
224,144,283538,5,0,0:0:0:0:
224,144,283615,1,0,0:0:0:0:
224,144,283692,1,0,0:0:0:0:
384,208,283846,5,0,0:0:0:0:
224,144,284000,1,0,0:0:0:0:
272,256,284153,1,0,0:0:0:0:
144,272,284307,1,0,0:0:0:0:
96,144,284461,5,0,0:0:0:0:
96,144,284538,1,0,0:0:0:0:
96,144,284615,1,0,0:0:0:0:
256,80,284769,5,0,0:0:0:0:
304,96,284846,1,0,0:0:0:0:
320,144,284923,1,0,0:0:0:0:
192,176,285076,2,0,L|224:288,1,105.000004005432
160,32,285384,5,0,0:0:0:0:
112,224,285538,1,0,0:0:0:0:
64,128,285692,5,0,0:0:0:0:
64,128,285769,1,0,0:0:0:0:
64,128,285846,1,0,0:0:0:0:
256,112,286000,2,0,L|352:208,1,105.000004005432
160,272,286307,1,0,0:0:0:0:
144,48,286461,2,0,L|192:160,1,105.000004005432
320,192,286769,5,0,0:0:0:0:
272,192,286846,1,0,0:0:0:0:
224,192,286923,1,0,0:0:0:0:
176,192,287000,1,0,0:0:0:0:
128,192,287076,1,0,0:0:0:0:
368,192,287230,2,0,L|384:64,1,105.000004005432
96,64,287538,5,0,0:0:0:0:
144,272,287692,1,0,0:0:0:0:
224,112,287846,1,0,0:0:0:0:
80,192,288000,2,0,L|224:192,1,105.000004005432
384,144,288307,5,0,0:0:0:0:
336,144,288384,1,0,0:0:0:0:
288,144,288461,1,0,0:0:0:0:
256,304,288615,5,0,0:0:0:0:
128,128,288769,1,0,0:0:0:0:
160,272,288923,2,0,L|224:160,1,105.000004005432
128,128,289230,1,0,0:0:0:0:
272,96,289384,5,0,0:0:0:0:
272,96,289461,1,0,0:0:0:0:
272,96,289538,1,0,0:0:0:0:
48,192,289692,1,0,0:0:0:0:
144,256,289846,1,0,0:0:0:0:
144,128,290000,5,0,0:0:0:0:
144,128,290076,1,0,0:0:0:0:
144,128,290153,1,0,0:0:0:0:
224,176,290307,2,0,L|336:96,1,105.000004005432
160,272,290615,5,0,0:0:0:0:
64,144,290769,1,0,0:0:0:0:
224,64,290923,1,0,0:0:0:0:
128,192,291076,1,0,0:0:0:0:
320,176,291230,6,0,L|448:176,1,105.000004005432
192,240,291538,1,0,0:0:0:0:
224,144,291692,1,0,0:0:0:0:
96,128,291846,1,0,0:0:0:0:
160,64,292000,5,0,0:0:0:0:
160,64,292076,1,0,0:0:0:0:
160,64,292153,1,0,0:0:0:0:
192,256,292307,1,0,0:0:0:0:
304,128,292461,1,0,0:0:0:0:
48,160,292615,5,0,0:0:0:0:
96,160,292692,1,0,0:0:0:0:
144,160,292769,1,0,0:0:0:0:
192,160,292846,1,0,0:0:0:0:
240,160,292923,2,0,L|352:160,1,105.000004005432
400,64,293230,5,0,0:0:0:0:
320,272,293384,1,0,0:0:0:0:
144,64,293538,1,0,0:0:0:0:
128,224,293692,5,0,0:0:0:0:
128,224,293769,1,0,0:0:0:0:
128,224,293846,1,0,0:0:0:0:
240,144,294000,2,0,L|352:128,1,105.000004005432
128,96,294307,5,0,0:0:0:0:
144,128,294384,1,0,0:0:0:0:
160,160,294461,1,0,0:0:0:0:
192,256,294615,5,0,0:0:0:0:
304,208,294769,1,0,0:0:0:0:
80,192,294923,1,0,0:0:0:0:
128,48,295076,2,0,L|256:96,1,105.000004005432
192,192,295384,5,0,0:0:0:0:
192,224,295461,1,0,0:0:0:0:
192,256,295538,1,0,0:0:0:0:
192,288,295615,1,0,0:0:0:0:
192,304,295692,2,0,L|192:192,1,105.000004005432
272,80,296000,5,0,0:0:0:0:
336,192,296153,1,0,0:0:0:0:
112,160,296307,5,0,0:0:0:0:
112,208,296384,1,0,0:0:0:0:
112,256,296461,1,0,0:0:0:0:
160,80,296615,2,0,L|240:192,1,105.000004005432
256,224,296923,5,0,0:0:0:0:
224,176,297000,1,0,0:0:0:0:
192,128,297077,1,0,0:0:0:0:
352,128,297230,1,0,0:0:0:0:
352,128,297384,5,0,0:0:0:0:
96,240,297538,2,0,P|80:144|112:128,1,105.000004005432
160,96,297846,1,0,0:0:0:0:
256,224,298000,1,0,0:0:0:0:
336,64,298153,2,0,L|416:144,1,105.000004005432
368,272,298461,5,0,0:0:0:0:
368,272,298538,1,0,0:0:0:0:
368,272,298615,1,0,0:0:0:0:
112,128,298769,1,0,0:0:0:0:
176,272,298923,1,0,0:0:0:0:
256,96,299076,1,0,0:0:0:0:
96,224,299230,5,0,0:0:0:0:
128,208,299307,1,0,0:0:0:0:
160,192,299384,1,0,0:0:0:0:
240,192,299538,2,0,L|368:192,1,105.000004005432
112,64,299846,5,0,0:0:0:0:
224,128,300000,1,0,0:0:0:0:
128,256,300153,1,0,0:0:0:0:
128,256,300307,2,0,L|240:240,1,105.000004005432
368,80,300615,5,0,0:0:0:0:
368,80,300692,1,0,0:0:0:0:
368,80,300769,1,0,0:0:0:0:
176,112,300923,1,0,0:0:0:0:
288,208,301076,1,0,0:0:0:0:
96,112,301230,5,0,0:0:0:0:
96,144,301307,1,0,0:0:0:0:
96,176,301384,1,0,0:0:0:0:
192,256,301538,5,0,0:0:0:0:
304,80,301692,1,0,0:0:0:0:
192,256,301846,2,0,L|272:144,1,105.000004005432
144,96,302153,1,0,0:0:0:0:
192,256,302307,5,0,0:0:0:0:
192,256,302384,1,0,0:0:0:0:
192,256,302461,1,0,0:0:0:0:
320,128,302615,1,0,0:0:0:0:
368,224,302769,1,0,0:0:0:0:
96,240,302923,5,0,0:0:0:0:
64,208,303000,1,0,0:0:0:0:
48,160,303076,1,0,0:0:0:0:
48,112,303230,2,0,P|92:65|137:65,1,105.000004005432
304,128,303538,5,0,0:0:0:0:
224,272,303692,1,0,0:0:0:0:
144,128,303846,1,0,0:0:0:0:
48,224,304000,5,0,0:0:0:0:
112,224,304076,1,0,0:0:0:0:
176,224,304153,1,0,0:0:0:0:
320,128,304307,5,0,0:0:0:0:
368,256,304461,1,0,0:0:0:0:
192,112,304615,1,0,0:0:0:0:
320,128,304769,1,0,0:0:0:0:
96,192,304923,2,0,L|192:256,1,105.000004005432
64,80,305230,5,0,0:0:0:0:
64,80,305307,1,0,0:0:0:0:
64,80,305384,1,0,0:0:0:0:
184,104,305538,5,0,0:0:0:0:
240,256,305692,1,0,0:0:0:0:
112,176,305846,2,0,L|195:99,1,105.000004005432
112,176,306153,5,0,0:0:0:0:
144,144,306230,1,0,0:0:0:0:
176,112,306307,1,0,0:0:0:0:
336,144,306461,1,0,0:0:0:0:
288,256,306615,1,0,0:0:0:0:
224,160,306769,1,0,0:0:0:0:
336,144,306923,5,0,0:0:0:0:
336,144,307000,1,0,0:0:0:0:
336,144,307076,1,0,0:0:0:0:
96,112,307230,5,0,0:0:0:0:
112,240,307384,1,0,0:0:0:0:
208,96,307538,1,0,0:0:0:0:
240,256,307692,1,0,0:0:0:0:
384,96,307846,1,0,0:0:0:0:
208,96,308000,5,0,0:0:0:0:
208,96,308076,1,0,0:0:0:0:
208,96,308153,1,0,0:0:0:0:
80,160,308307,1,0,0:0:0:0:
128,272,308461,1,0,0:0:0:0:
208,192,308615,2,0,L|336:192,1,105.000004005432
160,192,308923,5,0,0:0:0:0:
112,192,309000,1,0,0:0:0:0:
64,192,309076,1,0,0:0:0:0:
304,80,309230,1,0,0:0:0:0:
288,224,309384,1,0,0:0:0:0:
288,224,309538,2,0,L|192:272,1,105.000004005432
128,96,309846,5,0,0:0:0:0:
224,176,310000,1,0,0:0:0:0:
96,208,310153,1,0,0:0:0:0:
96,208,310307,2,0,L|112:320,1,105.000004005432
352,144,310615,5,0,0:0:0:0:
352,192,310692,1,0,0:0:0:0:
352,240,310769,1,0,0:0:0:0:
144,64,310923,1,0,0:0:0:0:
224,224,311076,1,0,0:0:0:0:
272,96,311230,1,0,0:0:0:0:
256,192,311384,12,0,315000,0:0:0:0:
144,96,315076,6,0,P|320:96|320:192,1,315.000012016297
319,192,315692,6,0,P|280:56|144:96,1,315.000012016297
64,208,316307,6,0,L|368:288,1,315.000012016297
256,192,316923,12,0,319923,0:0:0:0:
128,144,320000,6,0,L|352:48,1,210
321,61,320615,6,0,L|128:144,1,210
208,320,321230,6,0,P|336:224|368:240,1,210
256,192,321846,12,0,324153,0:0:0:0:
208,128,324307,6,0,P|288:96|224:304,1,490
32,144,325538,6,0,P|192:48|240:48,1,210
209,46,326153,6,0,P|109:74|32:144,1,210
256,192,326769,12,0,328461,0:0:0:0:
128,112,328615,6,0,P|288:80|320:112,1,210
