osu file format v14

[General]
AudioFilename: audio.mp3
AudioLeadIn: 0
PreviewTime: -1
Countdown: 0
SampleSet: Normal
StackLeniency: 0.7
Mode: 0
LetterboxInBreaks: 0
WidescreenStoryboard: 0

[Editor]
DistanceSpacing: 2
BeatDivisor: 4
GridSize: 4
TimelineZoom: 1.9

[Metadata]
Title:The Solace of Oblivion
TitleUnicode:The Solace of Oblivion
Artist:Helblinde
ArtistUnicode:Helblinde
Creator:Kanye
Version:Not Aspire
Source:
Tags:
BeatmapID:1259763
BeatmapSetID:595692

[Difficulty]
HPDrainRate:6
CircleSize:4
OverallDifficulty:8
ApproachRate:9.4
SliderMultiplier:2.1
SliderTickRate:1

[Events]
//Background and Video events
//Break Periods
//Storyboard Layer 0 (Background)
//Storyboard Layer 1 (Fail)
//Storyboard Layer 2 (Pass)
//Storyboard Layer 3 (Foreground)
//Storyboard Sound Samples

[TimingPoints]
0,615.384615384615,4,1,0,100,1,0
19692,-100,4,1,0,100,0,0
28307,-166.666666666667,4,1,0,100,0,0
39384,-153.846153846154,4,1,0,100,0,0
47999,-66.6666666666667,4,1,0,100,0,0
48153,-66.6666666666667,4,2,0,15,0,0
48230,-66.6666666666667,4,1,0,100,0,0
48384,-66.6666666666667,4,2,0,15,0,0
48461,-66.6666666666667,4,1,0,100,0,0
48615,-66.6666666666667,4,2,0,15,0,0
48692,-66.6666666666667,4,1,0,100,0,0
48846,-66.6666666666667,4,2,0,15,0,0
48923,-66.6666666666667,4,1,0,100,0,0
49076,-66.6666666666667,4,2,0,15,0,0
49230,-153.846153846154,4,1,0,100,0,0
56615,-117.647058823529,4,1,0,100,0,0
56923,-80,4,1,0,100,0,0
57230,-64.5161290322581,4,1,0,100,0,0
57330,-54.054054054054,4,1,0,100,0,0
57846,-153.846153846154,4,1,0,100,0,0
58769,-153.846153846154,4,2,0,15,0,0
59076,307.692307692308,4,1,0,100,1,0
59076,-100,4,1,0,100,0,0
63383,-66.6666666666667,4,1,0,100,0,0
63691,-100,4,1,0,100,0,0
65229,-66.6666666666667,4,1,0,100,0,0
65306,-66.6666666666667,4,2,0,15,0,0
65383,-125,4,1,0,100,0,0
65460,-125,4,2,0,15,0,0
65537,-83.3333333333333,4,1,0,100,0,0
65614,-83.3333333333333,4,2,0,15,0,0
65691,-153.846153846154,4,1,0,100,0,0
65922,-153.846153846154,4,2,0,15,0,0
65999,-66.6666666666667,4,1,0,100,0,0
66076,-153.846153846154,4,2,0,15,0,0
66152,-153.846153846154,4,1,0,100,0,0
66229,-153.846153846154,4,2,0,15,0,0
66306,-100,4,1,0,100,0,0
66383,-153.846153846154,4,2,0,15,0,0
66460,-100,4,1,0,100,0,0
67768,-153.846153846154,4,2,0,15,0,0
67845,-100,4,1,0,100,0,0
67922,-153.846153846154,4,2,0,15,0,0
67999,-100,4,1,0,100,0,0
68076,-153.846153846154,4,2,0,15,0,0
68152,-153.846153846154,4,1,0,100,0,0
68383,-153.846153846154,4,2,0,15,0,0
68460,-100,4,1,0,100,0,0
68537,-153.846153846154,4,2,0,15,0,0
68614,-100,4,1,0,100,0,0
68691,-153.846153846154,4,2,0,15,0,0
68768,-100,4,1,0,100,0,0
68845,-153.846153846154,4,2,0,15,0,0
68922,-100,4,1,0,100,0,0
70229,-153.846153846154,4,2,0,15,0,0
70306,-100,4,1,0,100,0,0
70383,-153.846153846154,4,2,0,15,0,0
70460,-100,4,1,0,100,0,0
70537,-153.846153846154,4,2,0,15,0,0
70614,-153.846153846154,4,1,0,100,0,0
70845,-153.846153846154,4,2,0,15,0,0
70922,-153.846153846154,4,1,0,100,0,0
70999,-153.846153846154,4,2,0,15,0,0
71076,-66.6666666666667,4,1,0,100,0,0
71152,-153.846153846154,4,2,0,15,0,0
71229,-66.6666666666667,4,1,0,100,0,0
71306,-153.846153846154,4,2,0,15,0,0
71383,-100,4,1,0,100,0,0
72768,-153.846153846154,4,2,0,15,0,0
72845,-100,4,1,0,100,0,0
72999,-153.846153846154,4,2,0,15,0,0
73076,-133.333333333333,4,1,0,100,0,0
73152,-153.846153846154,4,2,0,15,0,0
73229,-76.9230769230769,4,1,0,100,0,0
73845,-83.3333333333333,4,1,0,100,0,0

[HitObjects]
356,76,19692,5,0,0:0:0:0:
284,152,20307,1,0,0:0:0:0:
208,224,20923,1,0,0:0:0:0:
128,28,22153,5,0,0:0:0:0:
172,124,22769,1,0,0:0:0:0:
272,308,23384,1,0,0:0:0:0:
324,216,23692,1,0,0:0:0:0:
292,116,23999,1,0,0:0:0:0:
224,196,24307,1,0,0:0:0:0:
72,240,24615,6,0,P|92:312|224:364,1,210
388,260,25846,1,0,0:0:0:0:
396,52,26461,1,0,0:0:0:0:
188,28,27076,5,0,0:0:0:0:
236,120,27384,1,0,0:0:0:0:
80,112,27692,1,0,0:0:0:0:
156,184,27999,1,0,0:0:0:0:
8,236,28307,2,0,L|196:296,1,188.999994232178
312,308,29538,5,0,0:0:0:0:
264,124,30153,1,0,0:0:0:0:
116,244,30769,1,0,0:0:0:0:
396,284,31692,1,0,0:0:0:0:
460,212,31999,6,0,L|420:84,1,125.999996154785
244,32,33230,2,0,P|252:136|216:240,1,188.999994232178
144,256,34461,6,0,P|140:184|192:132,1,125.999996154785
348,76,35692,1,0,0:0:0:0:
388,260,36307,1,0,0:0:0:0:
212,332,36923,5,0,0:0:0:0:
228,240,37230,1,0,0:0:0:0:
108,284,37538,1,0,0:0:0:0:
136,192,37846,1,0,0:0:0:0:
12,204,38153,2,0,B|48:116|48:116|136:64,1,188.999994232178
264,40,39384,6,0,L|316:84,1,68.2499968757631
392,196,39999,2,0,L|336:244,1,68.2499968757631
236,332,40615,2,0,L|188:276,1,68.2499968757631
144,152,41230,1,0,0:0:0:0:
284,52,41538,1,0,0:0:0:0:
260,116,41692,1,0,0:0:0:0:
244,184,41846,6,0,P|252:240|264:260,1,68.2499968757631
388,292,42461,2,0,P|380:236|368:216,1,68.2499968757631
300,112,43076,2,0,L|260:104,1,34.1249984378815
228,48,43384,2,0,P|204:72|200:88,1,34.1249984378815
216,140,43692,2,0,L|228:188,1,34.1249984378815
292,176,43999,2,0,P|292:196|276:224,1,34.1249984378815
304,276,44307,6,0,P|252:272|224:244,1,68.2499968757631
104,260,44923,2,0,P|92:220|92:188,1,68.2499968757631
228,200,45538,2,0,L|252:116,1,68.2499968757631
276,268,46153,2,0,L|356:248,1,68.2499968757631
296,112,46769,6,0,P|276:152|236:168,1,68.2499968757631
128,120,47384,1,0,0:0:0:0:
172,248,47692,1,0,0:0:0:0:
296,300,47999,6,0,P|336:296|372:252,1,78.7500030040742
344,244,48230,2,0,P|352:196|376:160,1,78.7500030040742
404,176,48461,2,0,P|414:116|404:76,1,78.7500030040742
404,64,48692,2,0,P|368:44|308:52,1,78.7500030040742
296,44,48923,2,0,P|248:53|208:44,1,78.7500030040742
152,36,49230,6,0,L|120:76,1,34.1249984378815
188,124,49538,2,0,L|204:184,1,34.1249984378815
140,224,49846,2,0,L|120:260,1,34.1249984378815
204,284,50153,2,0,L|236:232,1,34.1249984378815
260,180,50461,2,0,L|312:160,1,34.1249984378815
376,188,50769,2,0,L|400:128,1,34.1249984378815
424,80,51076,2,0,L|376:80,1,34.1249984378815
268,80,51384,1,0,0:0:0:0:
328,140,51538,1,0,0:0:0:0:
248,168,51692,6,0,L|228:220,1,34.1249984378815
156,232,51999,2,0,L|172:288,1,34.1249984378815
80,256,52307,2,0,L|68:204,1,34.1249984378815
36,144,52615,2,0,L|64:104,1,34.1249984378815
124,64,52923,2,0,B|152:100|144:128|144:128|176:112|204:108|204:108|240:124|276:120|276:120,1,204.749990627289
396,64,54153,6,0,P|408:100|408:120,1,34.1249984378815
244,224,54615,1,0,0:0:0:0:
200,316,54769,2,0,P|188:280|188:260,1,34.1249984378815
384,224,55230,1,0,0:0:0:0:
428,316,55384,2,0,P|440:280|440:260,1,34.1249984378815
288,144,55846,1,0,0:0:0:0:
244,52,56000,2,0,P|232:88|232:108,1,34.1249984378815
144,268,56461,1,0,0:0:0:0:
276,272,56615,6,0,B|308:256|308:256|288:240,1,44.6250008511543
276,272,56923,6,0,B|308:256|308:256|276:232,1,65.625
276,272,57230,6,0,B|308:256|308:256|268:224,1,81.375000620842
276,272,57538,6,0,B|308:256|308:256|252:212,1,97.1249996294975
232,200,57846,6,0,B|176:160|176:160|216:140|216:140|224:40,1,204.749990627289
432,36,59076,6,0,P|452:76|444:148,1,105
292,276,59383,1,0,0:0:0:0:
84,248,59537,1,0,0:0:0:0:
88,208,59614,1,0,0:0:0:0:
100,168,59691,1,0,0:0:0:0:
124,136,59768,1,0,0:0:0:0:
156,112,59845,1,0,0:0:0:0:
364,120,59999,2,0,L|320:220,1,105
100,356,60306,5,0,0:0:0:0:
100,356,60383,1,0,0:0:0:0:
100,356,60460,1,0,0:0:0:0:
200,172,60614,1,0,0:0:0:0:
244,376,60768,1,0,0:0:0:0:
220,348,60845,1,0,0:0:0:0:
196,320,60922,1,0,0:0:0:0:
172,292,60999,1,0,0:0:0:0:
148,264,61076,1,0,0:0:0:0:
76,68,61229,2,0,P|120:24|176:16,1,105
320,156,61537,6,0,P|276:200|220:208,1,105
32,156,61845,1,0,0:0:0:0:
208,40,61999,1,0,0:0:0:0:
204,64,62076,1,0,0:0:0:0:
200,88,62152,1,0,0:0:0:0:
196,112,62229,1,0,0:0:0:0:
192,136,62306,1,0,0:0:0:0:
84,316,62460,2,0,B|88:372|88:372|148:340|160:340,1,105
384,272,62768,5,0,0:0:0:0:
384,272,62845,1,0,0:0:0:0:
384,272,62922,1,0,0:0:0:0:
344,64,63076,2,0,L|296:168,1,105
252,252,63306,1,0,0:0:0:0:
252,252,63383,6,0,B|188:216|196:140|196:140|172:128,1,157.500006008148
380,172,63691,1,0,0:0:0:0:
272,352,63845,1,0,0:0:0:0:
272,352,63922,1,0,0:0:0:0:
272,352,63999,6,0,P|184:312|160:288,1,105
240,108,64306,1,0,0:0:0:0:
108,272,64460,1,0,0:0:0:0:
96,232,64537,1,0,0:0:0:0:
88,192,64614,2,0,P|88:140|108:88,1,105
313,35,64922,2,0,P|265:91|225:115,1,105
260,328,65229,6,0,L|208:224,1,78.7500030040742
204,208,65383,6,0,P|244:208|272:196,1,42
276,192,65537,6,0,P|268:160|232:132,1,62.9999980773926
216,100,65691,6,0,P|292:116|336:96,1,102.374995313645
352,60,65999,6,0,L|280:28,1,78.7500030040742
232,16,66152,6,0,L|240:52,1,34.1249984378815
172,36,66306,6,0,P|145:77|136:112,1,52.5
136,136,66460,6,0,P|152:168|232:192,1,105
408,112,66768,1,0,0:0:0:0:
404,148,66845,1,0,0:0:0:0:
396,184,66922,1,0,0:0:0:0:
384,220,66999,1,0,0:0:0:0:
364,248,67076,2,0,P|316:288|268:300,1,105
84,212,67383,1,0,0:0:0:0:
240,72,67537,1,0,0:0:0:0:
212,280,67691,6,0,P|200:312|176:332,1,52.5
164,220,67845,2,0,P|204:200|240:196,1,52.5
280,216,67999,2,0,P|280:184|252:140,1,52.5
216,124,68153,6,0,P|256:96|320:116,1,102.374995313645
364,196,68461,6,0,P|348:156|328:136,1,52.5
284,236,68614,2,0,P|276:192|260:156,1,52.5
180,232,68768,2,0,P|196:184|180:140,1,52.5
100,136,68922,2,0,P|128:180|188:208,1,105
344,84,69229,1,0,0:0:0:0:
312,68,69306,1,0,0:0:0:0:
276,56,69383,1,0,0:0:0:0:
240,52,69460,1,0,0:0:0:0:
204,56,69537,2,0,P|212:116|200:172,1,105
52,304,69845,2,0,P|56:224|64:184,1,105
268,216,70152,6,0,P|256:248|260:280,1,52.5
300,364,70306,2,0,P|340:344|352:312,1,52.5
428,276,70460,2,0,P|396:248|368:232,1,52.5
388,172,70614,6,0,P|340:192|316:244,1,102.374995313645
264,280,70922,2,0,P|248:240|248:224,1,34.1249984378815
184,212,71076,6,0,P|216:184|276:180,1,78.7500030040742
300,120,71229,2,0,P|248:104|200:112,1,78.7500030040742
144,32,71383,6,0,P|120:72|124:136,1,105
312,220,71691,2,0,L|360:192,1,52.5
344,300,71845,2,0,L|276:288,1,52.5
196,340,71999,2,0,P|176:284|188:240,1,105
288,56,72306,1,0,0:0:0:0:
404,232,72460,1,0,0:0:0:0:
208,160,72614,6,0,P|184:72|192:32,1,105
264,0,72845,2,0,P|288:88|280:128,1,105
340,160,73076,2,0,P|268:172|252:164,1,52.5
204,160,73229,2,0,B|96:80|216:76|216:76|200:-16|80:24|80:24|92:140,1,409.499981254579
216,328,73845,6,0,P|300:304|344:244,1,136.499993751526
264,48,74152,2,0,P|248:140|252:184,1,125.999996154785
452,328,74460,2,0,P|448:248|428:188,1,125.999996154785
188,260,74768,2,0,P|260:260|316:220,1,125.999996154785
68,20,75076,6,0,P|40:88|40:144,1,125.999996154785
224,308,75383,2,0,B|260:292|260:292|296:228|296:228|348:196,1,125.999996154785
464,20,75691,2,0,L|296:68,1,125.999996154785
120,180,75999,2,0,L|240:232,1,125.999996154785
