osu file format v14

[General]
AudioFilename: Helblinde - The Solace of Oblivion.mp3
AudioLeadIn: 0
PreviewTime: -1
Countdown: 0
SampleSet: None
StackLeniency: 0.7
Mode: 3
LetterboxInBreaks: 0
SpecialStyle: 0
WidescreenStoryboard: 0

[Editor]
DistanceSpacing: 0.8
BeatDivisor: 2
GridSize: 32
TimelineZoom: 1

[Metadata]
Title:The Solace of Oblivion
TitleUnicode:The Solace of Oblivion
Artist:Helblinde
ArtistUnicode:Helblinde
Creator:Guilhermeziat
Version:Speedy Technicality
Source:Some Helblinde album
Tags:238ru3289fj289fd
BeatmapID:1258690
BeatmapSetID:595188

[Difficulty]
HPDrainRate:8.5
CircleSize:4
OverallDifficulty:9
ApproachRate:5
SliderMultiplier:1.4
SliderTickRate:1

[Events]
//Background and Video events
//Break Periods
//Storyboard Layer 0 (Background)
//Storyboard Layer 1 (Fail)
//Storyboard Layer 2 (Pass)
//Storyboard Layer 3 (Foreground)
//Storyboard Sound Samples

[TimingPoints]
188,307.692308,4,1,0,100,1,0

[HitObjects]
64,192,18649,128,0,19765:0:0:0:0:
64,192,19880,1,0,0:0:0:0:
192,192,19880,1,0,0:0:0:0:
320,192,19880,1,0,0:0:0:0:
448,192,19880,1,0,0:0:0:0:
192,192,20495,1,0,0:0:0:0:
448,192,21111,1,0,0:0:0:0:
64,192,22342,1,0,0:0:0:0:
320,192,22957,1,0,0:0:0:0:
448,192,23572,1,0,0:0:0:0:
320,192,23880,1,0,0:0:0:0:
64,192,24188,1,0,0:0:0:0:
448,192,24495,1,0,0:0:0:0:
192,192,24803,1,0,0:0:0:0:
320,192,25419,1,0,0:0:0:0:
64,192,26034,1,0,0:0:0:0:
192,192,26649,1,0,0:0:0:0:
320,192,27265,1,0,0:0:0:0:
320,192,27572,1,0,0:0:0:0:
192,192,27880,1,0,0:0:0:0:
320,192,28188,1,0,0:0:0:0:
448,192,28495,1,0,0:0:0:0:
448,192,29419,1,0,0:0:0:0:
448,192,29726,1,0,0:0:0:0:
192,192,30342,1,0,0:0:0:0:
320,192,30957,1,0,0:0:0:0:
448,192,30957,1,0,0:0:0:0:
64,192,31880,1,0,0:0:0:0:
64,192,32188,1,0,0:0:0:0:
320,192,32803,1,0,0:0:0:0:
64,192,33419,1,0,0:0:0:0:
192,192,33419,1,0,0:0:0:0:
320,192,34342,1,0,0:0:0:0:
192,192,34649,1,0,0:0:0:0:
320,192,35880,1,0,0:0:0:0:
192,192,36495,1,0,0:0:0:0:
192,192,37111,1,0,0:0:0:0:
192,192,37419,1,0,0:0:0:0:
320,192,37726,1,0,0:0:0:0:
192,192,38034,1,0,0:0:0:0:
64,192,38342,1,0,0:0:0:0:
64,192,39572,128,0,39611:0:0:0:0:
192,192,39572,1,0,0:0:0:0:
320,192,39765,1,0,0:0:0:0:
64,192,39880,1,0,0:0:0:0:
448,192,39880,1,0,0:0:0:0:
192,192,40072,1,0,0:0:0:0:
320,192,40188,1,0,0:0:0:0:
448,192,40188,128,0,40226:0:0:0:0:
192,192,40380,1,0,0:0:0:0:
64,192,40495,1,0,0:0:0:0:
448,192,40495,1,0,0:0:0:0:
320,192,40688,1,0,0:0:0:0:
64,192,40803,128,0,40842:0:0:0:0:
192,192,40803,1,0,0:0:0:0:
192,192,40995,1,0,0:0:0:0:
64,192,41111,1,0,0:0:0:0:
320,192,41111,1,0,0:0:0:0:
320,192,41303,1,0,0:0:0:0:
64,192,41419,1,0,0:0:0:0:
448,192,41419,1,0,0:0:0:0:
64,192,41611,1,0,0:0:0:0:
192,192,41726,1,0,0:0:0:0:
448,192,41726,1,0,0:0:0:0:
448,192,41880,1,0,0:0:0:0:
320,192,42034,1,0,0:0:0:0:
448,192,42034,128,0,42072:0:0:0:0:
192,192,42226,1,0,0:0:0:0:
64,192,42342,1,0,0:0:0:0:
448,192,42342,1,0,0:0:0:0:
320,192,42534,1,0,0:0:0:0:
64,192,42649,1,0,0:0:0:0:
192,192,42649,128,0,42688:0:0:0:0:
320,192,42842,1,0,0:0:0:0:
64,192,42957,1,0,0:0:0:0:
448,192,42957,1,0,0:0:0:0:
192,192,43149,1,0,0:0:0:0:
64,192,43265,128,0,43303:0:0:0:0:
320,192,43265,1,0,0:0:0:0:
64,192,43457,1,0,0:0:0:0:
192,192,43572,128,0,43611:0:0:0:0:
320,192,43572,1,0,0:0:0:0:
320,192,43765,1,0,0:0:0:0:
192,192,43880,1,0,0:0:0:0:
448,192,43880,128,0,43919:0:0:0:0:
192,192,44072,1,0,0:0:0:0:
320,192,44188,128,0,44226:0:0:0:0:
448,192,44188,1,0,0:0:0:0:
448,192,44380,1,0,0:0:0:0:
64,192,44495,1,0,0:0:0:0:
192,192,44495,128,0,44534:0:0:0:0:
320,192,44688,1,0,0:0:0:0:
192,192,44803,1,0,0:0:0:0:
448,192,44803,1,0,0:0:0:0:
64,192,44995,1,0,0:0:0:0:
192,192,45111,1,0,0:0:0:0:
320,192,45111,128,0,45149:0:0:0:0:
64,192,45303,1,0,0:0:0:0:
320,192,45419,1,0,0:0:0:0:
448,192,45419,1,0,0:0:0:0:
192,192,45611,1,0,0:0:0:0:
64,192,45726,128,0,45765:0:0:0:0:
320,192,45726,1,0,0:0:0:0:
192,192,45919,1,0,0:0:0:0:
64,192,46034,1,0,0:0:0:0:
448,192,46034,1,0,0:0:0:0:
320,192,46226,1,0,0:0:0:0:
192,192,46342,128,0,46380:0:0:0:0:
448,192,46342,1,0,0:0:0:0:
320,192,46534,1,0,0:0:0:0:
64,192,46649,1,0,0:0:0:0:
192,192,46649,1,0,0:0:0:0:
448,192,46842,1,0,0:0:0:0:
192,192,46957,1,0,0:0:0:0:
320,192,46957,128,0,46995:0:0:0:0:
448,192,47149,1,0,0:0:0:0:
192,192,47265,1,0,0:0:0:0:
320,192,47265,128,0,47303:0:0:0:0:
448,192,47457,1,0,0:0:0:0:
64,192,47572,1,0,0:0:0:0:
192,192,47572,128,0,47611:0:0:0:0:
448,192,47765,1,0,0:0:0:0:
192,192,47880,1,0,0:0:0:0:
320,192,47880,128,0,47919:0:0:0:0:
448,192,48072,1,0,0:0:0:0:
64,192,48188,128,0,48316:0:0:0:0:
320,192,48188,1,0,0:0:0:0:
320,192,48393,128,0,48547:0:0:0:0:
192,192,48624,128,0,48803:0:0:0:0:
448,192,48880,128,0,49060:0:0:0:0:
192,192,49111,1,0,0:0:0:0:
320,192,49162,128,0,49265:0:0:0:0:
64,192,49342,1,0,0:0:0:0:
320,192,49419,1,0,0:0:0:0:
448,192,49419,128,0,49457:0:0:0:0:
320,192,49611,1,0,0:0:0:0:
64,192,49726,1,0,0:0:0:0:
448,192,49726,1,0,0:0:0:0:
448,192,49919,1,0,0:0:0:0:
64,192,50034,1,0,0:0:0:0:
192,192,50034,128,0,50072:0:0:0:0:
192,192,50226,1,0,0:0:0:0:
64,192,50342,1,0,0:0:0:0:
448,192,50342,1,0,0:0:0:0:
64,192,50534,1,0,0:0:0:0:
320,192,50649,128,0,50688:0:0:0:0:
448,192,50649,1,0,0:0:0:0:
64,192,50842,1,0,0:0:0:0:
192,192,50957,1,0,0:0:0:0:
448,192,50957,1,0,0:0:0:0:
320,192,51149,1,0,0:0:0:0:
64,192,51265,1,0,0:0:0:0:
448,192,51265,1,0,0:0:0:0:
192,192,51457,1,0,0:0:0:0:
64,192,51572,128,0,51611:0:0:0:0:
320,192,51572,1,0,0:0:0:0:
448,192,51765,1,0,0:0:0:0:
64,192,51880,128,0,51919:0:0:0:0:
192,192,51880,1,0,0:0:0:0:
192,192,52072,1,0,0:0:0:0:
64,192,52188,1,0,0:0:0:0:
448,192,52188,1,0,0:0:0:0:
64,192,52380,1,0,0:0:0:0:
320,192,52495,128,0,52534:0:0:0:0:
448,192,52495,1,0,0:0:0:0:
320,192,52688,1,0,0:0:0:0:
64,192,52803,1,0,0:0:0:0:
448,192,52803,1,0,0:0:0:0:
448,192,52995,1,0,0:0:0:0:
64,192,53111,1,0,0:0:0:0:
192,192,53111,128,0,53149:0:0:0:0:
448,192,53303,1,0,0:0:0:0:
192,192,53419,1,0,0:0:0:0:
320,192,53419,1,0,0:0:0:0:
448,192,53611,1,0,0:0:0:0:
64,192,53726,1,0,0:0:0:0:
192,192,53726,1,0,0:0:0:0:
448,192,53919,1,0,0:0:0:0:
192,192,54034,1,0,0:0:0:0:
320,192,54034,1,0,0:0:0:0:
64,192,54226,1,0,0:0:0:0:
320,192,54342,1,0,0:0:0:0:
448,192,54342,1,0,0:0:0:0:
64,192,54534,1,0,0:0:0:0:
64,192,54842,1,0,0:0:0:0:
320,192,54957,1,0,0:0:0:0:
448,192,54957,1,0,0:0:0:0:
64,192,55149,1,0,0:0:0:0:
64,192,55457,1,0,0:0:0:0:
320,192,55572,1,0,0:0:0:0:
448,192,55572,1,0,0:0:0:0:
64,192,55765,128,0,55803:0:0:0:0:
64,192,56072,128,0,56111:0:0:0:0:
320,192,56188,1,0,0:0:0:0:
448,192,56188,1,0,0:0:0:0:
64,192,56380,128,0,56457:0:0:0:0:
64,192,56688,128,0,56765:0:0:0:0:
320,192,56803,1,0,0:0:0:0:
448,192,56803,1,0,0:0:0:0:
192,192,56995,128,0,57111:0:0:0:0:
64,192,57111,1,0,0:0:0:0:
448,192,57111,1,0,0:0:0:0:
192,192,57303,128,0,57419:0:0:0:0:
320,192,57419,1,0,0:0:0:0:
448,192,57419,1,0,0:0:0:0:
64,192,57611,128,0,57726:0:0:0:0:
192,192,57726,1,0,0:0:0:0:
320,192,57726,1,0,0:0:0:0:
448,192,57919,128,0,58034:0:0:0:0:
64,192,58034,128,0,59265:0:0:0:0:
192,192,58034,128,0,59265:0:0:0:0:
320,192,58034,128,0,59213:0:0:0:0:
320,192,59265,1,0,0:0:0:0:
448,192,59265,1,0,0:0:0:0:
320,192,59419,1,0,0:0:0:0:
64,192,59572,1,0,0:0:0:0:
448,192,59572,1,0,0:0:0:0:
320,192,59726,1,0,0:0:0:0:
64,192,59803,1,0,0:0:0:0:
448,192,59803,1,0,0:0:0:0:
320,192,59880,1,0,0:0:0:0:
64,192,59957,1,0,0:0:0:0:
192,192,59957,1,0,0:0:0:0:
64,192,60034,1,0,0:0:0:0:
448,192,60034,1,0,0:0:0:0:
192,192,60188,1,0,0:0:0:0:
320,192,60188,1,0,0:0:0:0:
448,192,60188,1,0,0:0:0:0:
320,192,60342,1,0,0:0:0:0:
192,192,60419,1,0,0:0:0:0:
448,192,60419,1,0,0:0:0:0:
192,192,60495,1,0,0:0:0:0:
320,192,60495,1,0,0:0:0:0:
448,192,60572,1,0,0:0:0:0:
64,192,60649,1,0,0:0:0:0:
192,192,60649,1,0,0:0:0:0:
64,192,60803,1,0,0:0:0:0:
448,192,60803,1,0,0:0:0:0:
320,192,60957,1,0,0:0:0:0:
64,192,61034,1,0,0:0:0:0:
192,192,61034,1,0,0:0:0:0:
320,192,61111,1,0,0:0:0:0:
192,192,61188,1,0,0:0:0:0:
448,192,61188,1,0,0:0:0:0:
64,192,61265,1,0,0:0:0:0:
448,192,61265,1,0,0:0:0:0:
64,192,61419,1,0,0:0:0:0:
320,192,61419,1,0,0:0:0:0:
192,192,61572,1,0,0:0:0:0:
320,192,61649,1,0,0:0:0:0:
64,192,61726,1,0,0:0:0:0:
192,192,61726,1,0,0:0:0:0:
192,192,61880,1,0,0:0:0:0:
64,192,62034,1,0,0:0:0:0:
448,192,62034,1,0,0:0:0:0:
192,192,62188,1,0,0:0:0:0:
64,192,62265,1,0,0:0:0:0:
448,192,62265,1,0,0:0:0:0:
192,192,62342,1,0,0:0:0:0:
64,192,62419,1,0,0:0:0:0:
448,192,62419,1,0,0:0:0:0:
320,192,62495,1,0,0:0:0:0:
448,192,62495,1,0,0:0:0:0:
64,192,62649,1,0,0:0:0:0:
192,192,62649,1,0,0:0:0:0:
320,192,62688,1,0,0:0:0:0:
448,192,62726,1,0,0:0:0:0:
64,192,62765,1,0,0:0:0:0:
192,192,62803,1,0,0:0:0:0:
320,192,62842,1,0,0:0:0:0:
448,192,62880,1,0,0:0:0:0:
64,192,62957,1,0,0:0:0:0:
448,192,62957,1,0,0:0:0:0:
64,192,63034,1,0,0:0:0:0:
192,192,63111,1,0,0:0:0:0:
320,192,63111,1,0,0:0:0:0:
192,192,63265,1,0,0:0:0:0:
448,192,63265,1,0,0:0:0:0:
320,192,63419,1,0,0:0:0:0:
448,192,63419,1,0,0:0:0:0:
64,192,63495,1,0,0:0:0:0:
64,192,63572,128,0,63726:0:0:0:0:
192,192,63572,128,0,63726:0:0:0:0:
320,192,63572,128,0,63726:0:0:0:0:
448,192,63572,128,0,63649:0:0:0:0:
448,192,63726,1,0,0:0:0:0:
64,192,63880,1,0,0:0:0:0:
192,192,63880,1,0,0:0:0:0:
320,192,64034,1,0,0:0:0:0:
192,192,64111,1,0,0:0:0:0:
192,192,64188,1,0,0:0:0:0:
320,192,64188,128,0,64342:0:0:0:0:
192,192,64342,1,0,0:0:0:0:
64,192,64495,1,0,0:0:0:0:
448,192,64495,128,0,64572:0:0:0:0:
192,192,64572,128,0,64649:0:0:0:0:
320,192,64649,128,0,64726:0:0:0:0:
64,192,64726,128,0,64803:0:0:0:0:
448,192,64726,1,0,0:0:0:0:
320,192,64803,128,0,64957:0:0:0:0:
448,192,64803,1,0,0:0:0:0:
192,192,64880,1,0,0:0:0:0:
192,192,64957,1,0,0:0:0:0:
448,192,64957,1,0,0:0:0:0:
64,192,65034,128,0,65188:0:0:0:0:
320,192,65111,1,0,0:0:0:0:
448,192,65111,1,0,0:0:0:0:
320,192,65265,128,0,65419:0:0:0:0:
64,192,65419,1,0,0:0:0:0:
448,192,65457,1,0,0:0:0:0:
192,192,65495,1,0,0:0:0:0:
64,192,65534,1,0,0:0:0:0:
320,192,65572,128,0,65649:0:0:0:0:
448,192,65572,128,0,65726:0:0:0:0:
320,192,65726,128,0,65803:0:0:0:0:
64,192,65880,128,0,66034:0:0:0:0:
192,192,65880,1,0,0:0:0:0:
320,192,65931,1,0,0:0:0:0:
448,192,65983,1,0,0:0:0:0:
192,192,66034,1,0,0:0:0:0:
320,192,66085,1,0,0:0:0:0:
448,192,66136,1,0,0:0:0:0:
64,192,66188,1,0,0:0:0:0:
320,192,66226,1,0,0:0:0:0:
192,192,66265,1,0,0:0:0:0:
64,192,66342,1,0,0:0:0:0:
448,192,66380,1,0,0:0:0:0:
192,192,66419,1,0,0:0:0:0:
320,192,66495,128,0,66572:0:0:0:0:
192,192,66649,128,0,66803:0:0:0:0:
320,192,66649,1,0,0:0:0:0:
320,192,66803,1,0,0:0:0:0:
64,192,66957,128,0,67034:0:0:0:0:
448,192,66957,1,0,0:0:0:0:
320,192,67034,128,0,67111:0:0:0:0:
192,192,67111,128,0,67188:0:0:0:0:
64,192,67188,1,0,0:0:0:0:
448,192,67188,128,0,67265:0:0:0:0:
64,192,67265,1,0,0:0:0:0:
192,192,67265,128,0,67419:0:0:0:0:
320,192,67342,1,0,0:0:0:0:
64,192,67419,1,0,0:0:0:0:
320,192,67419,1,0,0:0:0:0:
448,192,67495,128,0,67649:0:0:0:0:
64,192,67572,1,0,0:0:0:0:
192,192,67572,1,0,0:0:0:0:
192,192,67726,128,0,67880:0:0:0:0:
448,192,67880,1,0,0:0:0:0:
64,192,67919,1,0,0:0:0:0:
320,192,67957,1,0,0:0:0:0:
64,192,68034,1,0,0:0:0:0:
448,192,68072,1,0,0:0:0:0:
64,192,68188,1,0,0:0:0:0:
320,192,68188,1,0,0:0:0:0:
448,192,68226,1,0,0:0:0:0:
448,192,68342,1,0,0:0:0:0:
192,192,68380,1,0,0:0:0:0:
320,192,68419,1,0,0:0:0:0:
448,192,68495,1,0,0:0:0:0:
192,192,68534,1,0,0:0:0:0:
320,192,68572,1,0,0:0:0:0:
64,192,68649,1,0,0:0:0:0:
448,192,68688,1,0,0:0:0:0:
64,192,68803,1,0,0:0:0:0:
320,192,68803,1,0,0:0:0:0:
448,192,68842,1,0,0:0:0:0:
448,192,68957,1,0,0:0:0:0:
64,192,68995,1,0,0:0:0:0:
320,192,69034,1,0,0:0:0:0:
320,192,69111,128,0,69265:0:0:0:0:
448,192,69111,1,0,0:0:0:0:
192,192,69265,1,0,0:0:0:0:
192,192,69419,128,0,69495:0:0:0:0:
448,192,69419,1,0,0:0:0:0:
64,192,69495,128,0,69572:0:0:0:0:
320,192,69572,128,0,69649:0:0:0:0:
192,192,69649,1,0,0:0:0:0:
448,192,69649,128,0,69726:0:0:0:0:
192,192,69726,1,0,0:0:0:0:
320,192,69726,128,0,69880:0:0:0:0:
64,192,69803,1,0,0:0:0:0:
64,192,69880,1,0,0:0:0:0:
192,192,69880,1,0,0:0:0:0:
448,192,69957,128,0,70111:0:0:0:0:
64,192,70034,1,0,0:0:0:0:
320,192,70034,1,0,0:0:0:0:
320,192,70188,128,0,70342:0:0:0:0:
64,192,70342,1,0,0:0:0:0:
448,192,70380,1,0,0:0:0:0:
192,192,70419,1,0,0:0:0:0:
64,192,70457,1,0,0:0:0:0:
320,192,70495,128,0,70572:0:0:0:0:
320,192,70649,128,0,70726:0:0:0:0:
192,192,70803,1,0,0:0:0:0:
320,192,70854,1,0,0:0:0:0:
448,192,70906,1,0,0:0:0:0:
192,192,70957,1,0,0:0:0:0:
320,192,71008,1,0,0:0:0:0:
448,192,71060,1,0,0:0:0:0:
64,192,71111,1,0,0:0:0:0:
320,192,71149,1,0,0:0:0:0:
192,192,71188,1,0,0:0:0:0:
64,192,71265,1,0,0:0:0:0:
448,192,71303,1,0,0:0:0:0:
192,192,71342,1,0,0:0:0:0:
320,192,71419,128,0,71495:0:0:0:0:
64,192,71572,1,0,0:0:0:0:
192,192,71572,128,0,71726:0:0:0:0:
320,192,71726,1,0,0:0:0:0:
64,192,71880,1,0,0:0:0:0:
320,192,71880,128,0,71957:0:0:0:0:
448,192,71957,128,0,72034:0:0:0:0:
192,192,72034,128,0,72111:0:0:0:0:
64,192,72111,128,0,72188:0:0:0:0:
320,192,72111,1,0,0:0:0:0:
192,192,72188,128,0,72342:0:0:0:0:
320,192,72188,1,0,0:0:0:0:
448,192,72265,1,0,0:0:0:0:
320,192,72342,1,0,0:0:0:0:
448,192,72342,1,0,0:0:0:0:
64,192,72419,128,0,72572:0:0:0:0:
192,192,72495,1,0,0:0:0:0:
448,192,72495,1,0,0:0:0:0:
192,192,72649,128,0,72803:0:0:0:0:
64,192,72803,1,0,0:0:0:0:
320,192,72842,1,0,0:0:0:0:
192,192,72880,1,0,0:0:0:0:
64,192,72919,1,0,0:0:0:0:
448,192,72957,1,0,0:0:0:0:
192,192,73034,1,0,0:0:0:0:
320,192,73072,1,0,0:0:0:0:
448,192,73111,1,0,0:0:0:0:
64,192,73149,1,0,0:0:0:0:
320,192,73188,1,0,0:0:0:0:
192,192,73265,1,0,0:0:0:0:
64,192,73303,1,0,0:0:0:0:
448,192,73342,1,0,0:0:0:0:
320,192,73380,1,0,0:0:0:0:
192,192,73419,1,0,0:0:0:0:
64,192,73470,1,0,0:0:0:0:
192,192,73521,1,0,0:0:0:0:
320,192,73572,1,0,0:0:0:0:
192,192,73624,1,0,0:0:0:0:
64,192,73675,1,0,0:0:0:0:
448,192,73726,1,0,0:0:0:0:
192,192,73778,1,0,0:0:0:0:
320,192,73829,1,0,0:0:0:0:
448,192,73880,1,0,0:0:0:0:
192,192,73931,1,0,0:0:0:0:
320,192,73983,1,0,0:0:0:0:
64,192,74034,1,0,0:0:0:0:
192,192,74034,1,0,0:0:0:0:
448,192,74034,128,0,74188:0:0:0:0:
64,192,74188,1,0,0:0:0:0:
448,192,74265,1,0,0:0:0:0:
64,192,74342,128,0,74495:0:0:0:0:
320,192,74342,1,0,0:0:0:0:
320,192,74495,1,0,0:0:0:0:
64,192,74572,1,0,0:0:0:0:
192,192,74649,1,0,0:0:0:0:
320,192,74649,128,0,74803:0:0:0:0:
64,192,74803,128,0,74957:0:0:0:0:
448,192,74803,1,0,0:0:0:0:
320,192,74957,1,0,0:0:0:0:
448,192,74957,128,0,75111:0:0:0:0:
64,192,75111,1,0,0:0:0:0:
192,192,75111,128,0,75265:0:0:0:0:
64,192,75265,1,0,0:0:0:0:
320,192,75265,128,0,75419:0:0:0:0:
64,192,75419,1,0,0:0:0:0:
320,192,75495,1,0,0:0:0:0:
64,192,75572,128,0,75726:0:0:0:0:
448,192,75572,1,0,0:0:0:0:
448,192,75726,1,0,0:0:0:0:
64,192,75803,1,0,0:0:0:0:
192,192,75880,1,0,0:0:0:0:
448,192,75880,128,0,76034:0:0:0:0:
192,192,76034,1,0,0:0:0:0:
448,192,76111,1,0,0:0:0:0:
192,192,76188,128,0,76342:0:0:0:0:
320,192,76188,1,0,0:0:0:0:
320,192,76342,1,0,0:0:0:0:
192,192,76419,1,0,0:0:0:0:
64,192,76495,128,0,76649:0:0:0:0:
448,192,76495,1,0,0:0:0:0:
448,192,76649,1,0,0:0:0:0:
64,192,76803,1,0,0:0:0:0:
192,192,76803,128,0,76957:0:0:0:0:
64,192,76957,1,0,0:0:0:0:
320,192,76957,128,0,77111:0:0:0:0:
192,192,77111,1,0,0:0:0:0:
320,192,77265,1,0,0:0:0:0:
448,192,77265,128,0,77419:0:0:0:0:
64,192,77419,1,0,0:0:0:0:
192,192,77419,128,0,77572:0:0:0:0:
64,192,77572,1,0,0:0:0:0:
320,192,77572,128,0,77649:0:0:0:0:
64,192,77726,128,0,78188:0:0:0:0:
192,192,77726,128,0,77880:0:0:0:0:
320,192,77726,128,0,77880:0:0:0:0:
448,192,77726,128,0,77880:0:0:0:0:
192,192,77957,128,0,78188:0:0:0:0:
320,192,77957,128,0,78188:0:0:0:0:
448,192,77957,128,0,78188:0:0:0:0:
64,192,78342,128,0,78495:0:0:0:0:
192,192,78342,128,0,78495:0:0:0:0:
320,192,78342,128,0,78495:0:0:0:0:
448,192,78342,128,0,78880:0:0:0:0:
64,192,78572,128,0,78880:0:0:0:0:
192,192,78572,128,0,78726:0:0:0:0:
320,192,78572,128,0,78726:0:0:0:0:
192,192,78803,1,0,0:0:0:0:
320,192,78803,1,0,0:0:0:0:
64,192,78957,128,0,79111:0:0:0:0:
448,192,78957,1,0,0:0:0:0:
448,192,79111,1,0,0:0:0:0:
64,192,79188,1,0,0:0:0:0:
192,192,79265,1,0,0:0:0:0:
448,192,79265,128,0,79419:0:0:0:0:
192,192,79419,1,0,0:0:0:0:
448,192,79495,1,0,0:0:0:0:
192,192,79572,128,0,79726:0:0:0:0:
320,192,79572,1,0,0:0:0:0:
64,192,79726,1,0,0:0:0:0:
448,192,79726,128,0,79880:0:0:0:0:
64,192,79880,128,0,80034:0:0:0:0:
192,192,79880,1,0,0:0:0:0:
320,192,80034,128,0,80188:0:0:0:0:
448,192,80034,1,0,0:0:0:0:
192,192,80188,128,0,80342:0:0:0:0:
448,192,80188,1,0,0:0:0:0:
448,192,80342,1,0,0:0:0:0:
192,192,80419,1,0,0:0:0:0:
64,192,80495,1,0,0:0:0:0:
448,192,80495,128,0,80649:0:0:0:0:
64,192,80649,1,0,0:0:0:0:
448,192,80726,1,0,0:0:0:0:
64,192,80803,128,0,80957:0:0:0:0:
320,192,80803,1,0,0:0:0:0:
320,192,80957,1,0,0:0:0:0:
64,192,81034,1,0,0:0:0:0:
192,192,81111,1,0,0:0:0:0:
320,192,81111,128,0,81265:0:0:0:0:
192,192,81265,1,0,0:0:0:0:
320,192,81342,1,0,0:0:0:0:
64,192,81419,1,0,0:0:0:0:
448,192,81419,128,0,81572:0:0:0:0:
192,192,81572,128,0,81726:0:0:0:0:
320,192,81726,1,0,0:0:0:0:
448,192,81726,128,0,81880:0:0:0:0:
192,192,81880,1,0,0:0:0:0:
320,192,81880,128,0,82034:0:0:0:0:
64,192,82188,1,0,0:0:0:0:
192,192,82188,128,0,82342:0:0:0:0:
64,192,82342,1,0,0:0:0:0:
448,192,82342,128,0,82495:0:0:0:0:
64,192,82495,1,0,0:0:0:0:
320,192,82495,128,0,82649:0:0:0:0:
192,192,82803,128,0,82957:0:0:0:0:
448,192,82803,1,0,0:0:0:0:
320,192,82957,128,0,83111:0:0:0:0:
448,192,82957,1,0,0:0:0:0:
64,192,83111,128,0,83265:0:0:0:0:
448,192,83111,1,0,0:0:0:0:
192,192,83419,128,0,83572:0:0:0:0:
320,192,83419,1,0,0:0:0:0:
64,192,83572,128,0,83726:0:0:0:0:
320,192,83572,1,0,0:0:0:0:
192,192,83726,128,0,83880:0:0:0:0:
320,192,83726,1,0,0:0:0:0:
64,192,83880,128,0,84342:0:0:0:0:
320,192,83880,1,0,0:0:0:0:
448,192,83880,1,0,0:0:0:0:
192,192,84034,128,0,84495:0:0:0:0:
320,192,84188,128,0,84342:0:0:0:0:
448,192,84342,128,0,84495:0:0:0:0:
320,192,84495,128,0,84649:0:0:0:0:
64,192,84649,128,0,85111:0:0:0:0:
192,192,84803,128,0,85265:0:0:0:0:
320,192,84957,128,0,85111:0:0:0:0:
448,192,85111,128,0,85265:0:0:0:0:
320,192,85265,128,0,85419:0:0:0:0:
64,192,85726,1,0,0:0:0:0:
192,192,85726,1,0,0:0:0:0:
448,192,85726,1,0,0:0:0:0:
192,192,85957,1,0,0:0:0:0:
64,192,86034,1,0,0:0:0:0:
448,192,86034,1,0,0:0:0:0:
192,192,86188,1,0,0:0:0:0:
448,192,86342,128,0,86803:0:0:0:0:
320,192,86495,128,0,86957:0:0:0:0:
192,192,86649,128,0,86803:0:0:0:0:
64,192,86803,128,0,86957:0:0:0:0:
192,192,86957,128,0,87111:0:0:0:0:
448,192,87111,128,0,87572:0:0:0:0:
320,192,87265,128,0,87726:0:0:0:0:
192,192,87419,128,0,87572:0:0:0:0:
64,192,87572,128,0,87726:0:0:0:0:
192,192,87726,128,0,87880:0:0:0:0:
64,192,88188,1,0,0:0:0:0:
320,192,88188,1,0,0:0:0:0:
448,192,88188,1,0,0:0:0:0:
320,192,88419,1,0,0:0:0:0:
64,192,88495,1,0,0:0:0:0:
448,192,88495,1,0,0:0:0:0:
320,192,88649,1,0,0:0:0:0:
64,192,88803,128,0,89265:0:0:0:0:
448,192,88957,128,0,89419:0:0:0:0:
192,192,89111,128,0,89265:0:0:0:0:
320,192,89265,128,0,89419:0:0:0:0:
192,192,89419,128,0,89572:0:0:0:0:
448,192,89572,128,0,90034:0:0:0:0:
64,192,89726,128,0,90188:0:0:0:0:
320,192,89880,128,0,90034:0:0:0:0:
192,192,90034,128,0,90188:0:0:0:0:
320,192,90188,128,0,90342:0:0:0:0:
64,192,90649,1,0,0:0:0:0:
192,192,90649,1,0,0:0:0:0:
320,192,90649,1,0,0:0:0:0:
448,192,90880,1,0,0:0:0:0:
64,192,90957,1,0,0:0:0:0:
192,192,90957,1,0,0:0:0:0:
320,192,91111,1,0,0:0:0:0:
64,192,91265,128,0,91726:0:0:0:0:
320,192,91419,128,0,91880:0:0:0:0:
448,192,91572,128,0,91726:0:0:0:0:
192,192,91726,128,0,91880:0:0:0:0:
448,192,91880,128,0,92034:0:0:0:0:
64,192,92034,128,0,93649:0:0:0:0:
320,192,92188,128,0,93649:0:0:0:0:
448,192,92342,128,0,92495:0:0:0:0:
192,192,92495,128,0,93649:0:0:0:0:
448,192,92649,128,0,93649:0:0:0:0:
64,192,93726,1,0,0:0:0:0:
192,192,93726,1,0,0:0:0:0:
448,192,93803,1,0,0:0:0:0:
64,192,93880,1,0,0:0:0:0:
320,192,93880,1,0,0:0:0:0:
448,192,93957,1,0,0:0:0:0:
192,192,94034,1,0,0:0:0:0:
320,192,94034,1,0,0:0:0:0:
64,192,94111,1,0,0:0:0:0:
320,192,94188,1,0,0:0:0:0:
448,192,94188,1,0,0:0:0:0:
64,192,94265,1,0,0:0:0:0:
192,192,94342,1,0,0:0:0:0:
448,192,94342,1,0,0:0:0:0:
320,192,94419,1,0,0:0:0:0:
64,192,94495,1,0,0:0:0:0:
448,192,94495,1,0,0:0:0:0:
192,192,94572,1,0,0:0:0:0:
64,192,94649,1,0,0:0:0:0:
320,192,94649,1,0,0:0:0:0:
448,192,94726,1,0,0:0:0:0:
192,192,94803,1,0,0:0:0:0:
320,192,94803,1,0,0:0:0:0:
448,192,94880,1,0,0:0:0:0:
64,192,94957,1,0,0:0:0:0:
192,192,94957,1,0,0:0:0:0:
448,192,95034,1,0,0:0:0:0:
64,192,95111,1,0,0:0:0:0:
320,192,95111,1,0,0:0:0:0:
448,192,95188,1,0,0:0:0:0:
192,192,95265,1,0,0:0:0:0:
320,192,95265,1,0,0:0:0:0:
64,192,95342,1,0,0:0:0:0:
320,192,95419,1,0,0:0:0:0:
448,192,95419,1,0,0:0:0:0:
64,192,95495,1,0,0:0:0:0:
192,192,95572,1,0,0:0:0:0:
448,192,95572,1,0,0:0:0:0:
320,192,95649,1,0,0:0:0:0:
192,192,95726,1,0,0:0:0:0:
448,192,95726,1,0,0:0:0:0:
320,192,95803,1,0,0:0:0:0:
64,192,95880,1,0,0:0:0:0:
192,192,95880,1,0,0:0:0:0:
448,192,95957,1,0,0:0:0:0:
64,192,96034,1,0,0:0:0:0:
192,192,96034,1,0,0:0:0:0:
448,192,96111,1,0,0:0:0:0:
64,192,96188,1,0,0:0:0:0:
320,192,96188,1,0,0:0:0:0:
192,192,96265,1,0,0:0:0:0:
320,192,96342,1,0,0:0:0:0:
448,192,96342,1,0,0:0:0:0:
64,192,96419,1,0,0:0:0:0:
192,192,96495,1,0,0:0:0:0:
320,192,96495,1,0,0:0:0:0:
448,192,96572,1,0,0:0:0:0:
64,192,96649,1,0,0:0:0:0:
192,192,96649,1,0,0:0:0:0:
448,192,96726,1,0,0:0:0:0:
64,192,96803,1,0,0:0:0:0:
320,192,96803,1,0,0:0:0:0:
448,192,96880,1,0,0:0:0:0:
192,192,96957,1,0,0:0:0:0:
320,192,96957,1,0,0:0:0:0:
64,192,97034,1,0,0:0:0:0:
192,192,97111,1,0,0:0:0:0:
448,192,97111,1,0,0:0:0:0:
64,192,97188,1,0,0:0:0:0:
320,192,97265,1,0,0:0:0:0:
448,192,97265,1,0,0:0:0:0:
192,192,97342,1,0,0:0:0:0:
64,192,97419,1,0,0:0:0:0:
448,192,97419,1,0,0:0:0:0:
320,192,97470,1,0,0:0:0:0:
64,192,97521,1,0,0:0:0:0:
192,192,97572,1,0,0:0:0:0:
320,192,97624,1,0,0:0:0:0:
448,192,97675,1,0,0:0:0:0:
64,192,97726,1,0,0:0:0:0:
192,192,97726,1,0,0:0:0:0:
320,192,97778,1,0,0:0:0:0:
64,192,97829,1,0,0:0:0:0:
448,192,97880,1,0,0:0:0:0:
192,192,97931,1,0,0:0:0:0:
320,192,97983,1,0,0:0:0:0:
64,192,98034,1,0,0:0:0:0:
448,192,98034,1,0,0:0:0:0:
192,192,98085,1,0,0:0:0:0:
448,192,98136,1,0,0:0:0:0:
320,192,98188,1,0,0:0:0:0:
192,192,98239,1,0,0:0:0:0:
64,192,98290,1,0,0:0:0:0:
320,192,98342,1,0,0:0:0:0:
448,192,98342,1,0,0:0:0:0:
192,192,98393,1,0,0:0:0:0:
448,192,98444,1,0,0:0:0:0:
64,192,98495,1,0,0:0:0:0:
320,192,98547,1,0,0:0:0:0:
192,192,98598,1,0,0:0:0:0:
320,192,98649,1,0,0:0:0:0:
448,192,98649,1,0,0:0:0:0:
64,192,98726,1,0,0:0:0:0:
192,192,98803,1,0,0:0:0:0:
448,192,98803,1,0,0:0:0:0:
64,192,98880,1,0,0:0:0:0:
192,192,98957,1,0,0:0:0:0:
320,192,98957,1,0,0:0:0:0:
448,192,99034,1,0,0:0:0:0:
64,192,99111,1,0,0:0:0:0:
192,192,99111,1,0,0:0:0:0:
448,192,99188,1,0,0:0:0:0:
64,192,99265,1,0,0:0:0:0:
320,192,99265,1,0,0:0:0:0:
192,192,99342,1,0,0:0:0:0:
64,192,99419,1,0,0:0:0:0:
448,192,99419,1,0,0:0:0:0:
320,192,99495,1,0,0:0:0:0:
192,192,99572,1,0,0:0:0:0:
448,192,99572,1,0,0:0:0:0:
64,192,99649,1,0,0:0:0:0:
192,192,99726,1,0,0:0:0:0:
320,192,99726,1,0,0:0:0:0:
64,192,99803,1,0,0:0:0:0:
320,192,99880,1,0,0:0:0:0:
448,192,99880,1,0,0:0:0:0:
64,192,99957,1,0,0:0:0:0:
192,192,100034,1,0,0:0:0:0:
448,192,100034,1,0,0:0:0:0:
64,192,100111,1,0,0:0:0:0:
192,192,100188,1,0,0:0:0:0:
320,192,100188,1,0,0:0:0:0:
448,192,100265,1,0,0:0:0:0:
64,192,100342,1,0,0:0:0:0:
192,192,100342,1,0,0:0:0:0:
448,192,100419,1,0,0:0:0:0:
64,192,100495,1,0,0:0:0:0:
320,192,100495,1,0,0:0:0:0:
448,192,100572,1,0,0:0:0:0:
192,192,100649,1,0,0:0:0:0:
320,192,100649,1,0,0:0:0:0:
64,192,100726,1,0,0:0:0:0:
192,192,100803,1,0,0:0:0:0:
448,192,100803,1,0,0:0:0:0:
64,192,100880,1,0,0:0:0:0:
320,192,100957,1,0,0:0:0:0:
448,192,100957,1,0,0:0:0:0:
192,192,101034,1,0,0:0:0:0:
64,192,101111,1,0,0:0:0:0:
448,192,101111,1,0,0:0:0:0:
320,192,101188,1,0,0:0:0:0:
64,192,101265,1,0,0:0:0:0:
192,192,101265,1,0,0:0:0:0:
448,192,101342,1,0,0:0:0:0:
192,192,101419,1,0,0:0:0:0:
320,192,101419,1,0,0:0:0:0:
64,192,101495,1,0,0:0:0:0:
320,192,101572,1,0,0:0:0:0:
448,192,101572,1,0,0:0:0:0:
64,192,101649,1,0,0:0:0:0:
192,192,101726,1,0,0:0:0:0:
448,192,101726,1,0,0:0:0:0:
64,192,101803,1,0,0:0:0:0:
192,192,101880,1,0,0:0:0:0:
320,192,101880,1,0,0:0:0:0:
448,192,101957,1,0,0:0:0:0:
64,192,102034,1,0,0:0:0:0:
320,192,102034,1,0,0:0:0:0:
448,192,102111,1,0,0:0:0:0:
64,192,102188,1,0,0:0:0:0:
192,192,102188,1,0,0:0:0:0:
320,192,102265,1,0,0:0:0:0:
64,192,102342,1,0,0:0:0:0:
448,192,102342,128,0,102649:0:0:0:0:
64,192,102495,128,0,102649:0:0:0:0:
192,192,102649,128,0,102957:0:0:0:0:
448,192,102803,128,0,102957:0:0:0:0:
64,192,102957,128,0,103265:0:0:0:0:
320,192,103111,128,0,103265:0:0:0:0:
192,192,103265,128,0,103572:0:0:0:0:
448,192,103419,128,0,103572:0:0:0:0:
64,192,103572,1,0,0:0:0:0:
320,192,103572,1,0,0:0:0:0:
448,192,103649,1,0,0:0:0:0:
64,192,103726,1,0,0:0:0:0:
192,192,103726,1,0,0:0:0:0:
320,192,103803,1,0,0:0:0:0:
192,192,103880,1,0,0:0:0:0:
448,192,103880,1,0,0:0:0:0:
64,192,103957,1,0,0:0:0:0:
320,192,104034,1,0,0:0:0:0:
448,192,104034,1,0,0:0:0:0:
64,192,104111,1,0,0:0:0:0:
192,192,104188,1,0,0:0:0:0:
448,192,104188,1,0,0:0:0:0:
320,192,104265,1,0,0:0:0:0:
64,192,104342,1,0,0:0:0:0:
192,192,104342,1,0,0:0:0:0:
448,192,104419,1,0,0:0:0:0:
64,192,104495,1,0,0:0:0:0:
320,192,104495,1,0,0:0:0:0:
192,192,104572,1,0,0:0:0:0:
320,192,104649,1,0,0:0:0:0:
448,192,104649,1,0,0:0:0:0:
64,192,104726,1,0,0:0:0:0:
192,192,104803,1,0,0:0:0:0:
320,192,104803,1,0,0:0:0:0:
448,192,104880,1,0,0:0:0:0:
64,192,104957,1,0,0:0:0:0:
192,192,104957,1,0,0:0:0:0:
448,192,105034,1,0,0:0:0:0:
64,192,105111,1,0,0:0:0:0:
320,192,105111,1,0,0:0:0:0:
448,192,105188,1,0,0:0:0:0:
64,192,105265,1,0,0:0:0:0:
192,192,105265,1,0,0:0:0:0:
448,192,105342,1,0,0:0:0:0:
192,192,105419,1,0,0:0:0:0:
320,192,105419,1,0,0:0:0:0:
448,192,105495,1,0,0:0:0:0:
64,192,105572,1,0,0:0:0:0:
192,192,105572,1,0,0:0:0:0:
448,192,105649,1,0,0:0:0:0:
64,192,105726,1,0,0:0:0:0:
320,192,105726,1,0,0:0:0:0:
192,192,105803,1,0,0:0:0:0:
320,192,105880,1,0,0:0:0:0:
448,192,105880,1,0,0:0:0:0:
64,192,105957,1,0,0:0:0:0:
320,192,106034,1,0,0:0:0:0:
448,192,106034,1,0,0:0:0:0:
192,192,106111,1,0,0:0:0:0:
64,192,106188,1,0,0:0:0:0:
320,192,106188,1,0,0:0:0:0:
192,192,106265,1,0,0:0:0:0:
64,192,106342,1,0,0:0:0:0:
448,192,106342,1,0,0:0:0:0:
320,192,106419,1,0,0:0:0:0:
192,192,106495,1,0,0:0:0:0:
448,192,106495,1,0,0:0:0:0:
64,192,106572,1,0,0:0:0:0:
192,192,106649,1,0,0:0:0:0:
320,192,106649,1,0,0:0:0:0:
448,192,106726,1,0,0:0:0:0:
64,192,106803,1,0,0:0:0:0:
320,192,106803,1,0,0:0:0:0:
448,192,106880,1,0,0:0:0:0:
64,192,106957,1,0,0:0:0:0:
192,192,106957,1,0,0:0:0:0:
320,192,107034,1,0,0:0:0:0:
192,192,107111,1,0,0:0:0:0:
448,192,107111,1,0,0:0:0:0:
320,192,107188,1,0,0:0:0:0:
64,192,107265,1,0,0:0:0:0:
448,192,107265,1,0,0:0:0:0:
320,192,107316,1,0,0:0:0:0:
192,192,107367,1,0,0:0:0:0:
64,192,107419,1,0,0:0:0:0:
320,192,107470,1,0,0:0:0:0:
192,192,107521,1,0,0:0:0:0:
64,192,107572,1,0,0:0:0:0:
448,192,107572,1,0,0:0:0:0:
192,192,107624,1,0,0:0:0:0:
320,192,107675,1,0,0:0:0:0:
64,192,107726,1,0,0:0:0:0:
192,192,107778,1,0,0:0:0:0:
320,192,107829,1,0,0:0:0:0:
64,192,107880,1,0,0:0:0:0:
448,192,107880,1,0,0:0:0:0:
320,192,107931,1,0,0:0:0:0:
192,192,107983,1,0,0:0:0:0:
64,192,108034,1,0,0:0:0:0:
448,192,108085,1,0,0:0:0:0:
64,192,108136,1,0,0:0:0:0:
192,192,108188,1,0,0:0:0:0:
320,192,108188,1,0,0:0:0:0:
448,192,108239,1,0,0:0:0:0:
64,192,108290,1,0,0:0:0:0:
448,192,108342,1,0,0:0:0:0:
320,192,108393,1,0,0:0:0:0:
192,192,108444,1,0,0:0:0:0:
64,192,108495,1,0,0:0:0:0:
448,192,108495,1,0,0:0:0:0:
192,192,108572,1,0,0:0:0:0:
320,192,108649,1,0,0:0:0:0:
448,192,108649,1,0,0:0:0:0:
192,192,108726,1,0,0:0:0:0:
64,192,108803,1,0,0:0:0:0:
320,192,108803,1,0,0:0:0:0:
448,192,108880,1,0,0:0:0:0:
64,192,108957,1,0,0:0:0:0:
192,192,108957,1,0,0:0:0:0:
448,192,109034,1,0,0:0:0:0:
64,192,109111,1,0,0:0:0:0:
320,192,109111,1,0,0:0:0:0:
192,192,109188,1,0,0:0:0:0:
320,192,109265,1,0,0:0:0:0:
448,192,109265,1,0,0:0:0:0:
192,192,109342,1,0,0:0:0:0:
64,192,109419,1,0,0:0:0:0:
448,192,109419,1,0,0:0:0:0:
320,192,109495,1,0,0:0:0:0:
64,192,109572,1,0,0:0:0:0:
192,192,109572,1,0,0:0:0:0:
448,192,109649,1,0,0:0:0:0:
64,192,109726,1,0,0:0:0:0:
320,192,109726,1,0,0:0:0:0:
192,192,109803,1,0,0:0:0:0:
320,192,109880,1,0,0:0:0:0:
448,192,109880,1,0,0:0:0:0:
192,192,109957,1,0,0:0:0:0:
64,192,110034,1,0,0:0:0:0:
448,192,110034,1,0,0:0:0:0:
192,192,110111,1,0,0:0:0:0:
320,192,110188,1,0,0:0:0:0:
448,192,110188,1,0,0:0:0:0:
192,192,110265,1,0,0:0:0:0:
64,192,110342,1,0,0:0:0:0:
320,192,110342,1,0,0:0:0:0:
192,192,110419,1,0,0:0:0:0:
320,192,110495,1,0,0:0:0:0:
448,192,110495,1,0,0:0:0:0:
64,192,110572,1,0,0:0:0:0:
192,192,110649,1,0,0:0:0:0:
448,192,110649,1,0,0:0:0:0:
320,192,110726,1,0,0:0:0:0:
64,192,110803,1,0,0:0:0:0:
192,192,110803,1,0,0:0:0:0:
448,192,110880,1,0,0:0:0:0:
64,192,110957,1,0,0:0:0:0:
192,192,110957,1,0,0:0:0:0:
320,192,111034,1,0,0:0:0:0:
192,192,111111,1,0,0:0:0:0:
448,192,111111,1,0,0:0:0:0:
320,192,111188,1,0,0:0:0:0:
64,192,111265,1,0,0:0:0:0:
448,192,111265,1,0,0:0:0:0:
192,192,111342,1,0,0:0:0:0:
64,192,111419,1,0,0:0:0:0:
320,192,111419,1,0,0:0:0:0:
448,192,111495,1,0,0:0:0:0:
192,192,111572,1,0,0:0:0:0:
320,192,111572,1,0,0:0:0:0:
64,192,111649,1,0,0:0:0:0:
192,192,111726,1,0,0:0:0:0:
448,192,111726,1,0,0:0:0:0:
64,192,111803,1,0,0:0:0:0:
320,192,111880,1,0,0:0:0:0:
448,192,111880,1,0,0:0:0:0:
192,192,111957,1,0,0:0:0:0:
64,192,112034,1,0,0:0:0:0:
448,192,112034,1,0,0:0:0:0:
192,192,112111,1,0,0:0:0:0:
64,192,112188,1,0,0:0:0:0:
320,192,112188,1,0,0:0:0:0:
448,192,112188,1,0,0:0:0:0:
320,192,112419,1,0,0:0:0:0:
64,192,112572,128,0,112649:0:0:0:0:
192,192,112572,128,0,112649:0:0:0:0:
448,192,112572,128,0,112649:0:0:0:0:
320,192,112688,1,0,0:0:0:0:
192,192,112803,128,0,112957:0:0:0:0:
192,192,113034,128,0,113188:0:0:0:0:
192,192,113265,128,0,113342:0:0:0:0:
320,192,113419,1,0,0:0:0:0:
448,192,113419,1,0,0:0:0:0:
64,192,113495,1,0,0:0:0:0:
192,192,113572,1,0,0:0:0:0:
320,192,113572,1,0,0:0:0:0:
64,192,113624,1,0,0:0:0:0:
320,192,113675,1,0,0:0:0:0:
192,192,113726,1,0,0:0:0:0:
448,192,113726,1,0,0:0:0:0:
64,192,113803,1,0,0:0:0:0:
320,192,113880,1,0,0:0:0:0:
448,192,113880,1,0,0:0:0:0:
192,192,113931,1,0,0:0:0:0:
320,192,113983,1,0,0:0:0:0:
64,192,114034,1,0,0:0:0:0:
448,192,114034,1,0,0:0:0:0:
192,192,114111,1,0,0:0:0:0:
64,192,114188,1,0,0:0:0:0:
320,192,114188,1,0,0:0:0:0:
192,192,114239,1,0,0:0:0:0:
64,192,114290,1,0,0:0:0:0:
320,192,114342,1,0,0:0:0:0:
448,192,114342,1,0,0:0:0:0:
192,192,114419,1,0,0:0:0:0:
64,192,114495,1,0,0:0:0:0:
448,192,114495,1,0,0:0:0:0:
320,192,114547,1,0,0:0:0:0:
64,192,114598,1,0,0:0:0:0:
192,192,114649,1,0,0:0:0:0:
448,192,114649,1,0,0:0:0:0:
320,192,114726,1,0,0:0:0:0:
192,192,114803,1,0,0:0:0:0:
448,192,114803,1,0,0:0:0:0:
64,192,114854,1,0,0:0:0:0:
448,192,114906,1,0,0:0:0:0:
64,192,114957,1,0,0:0:0:0:
320,192,114957,1,0,0:0:0:0:
192,192,115034,1,0,0:0:0:0:
64,192,115111,1,0,0:0:0:0:
448,192,115111,1,0,0:0:0:0:
320,192,115162,1,0,0:0:0:0:
448,192,115213,1,0,0:0:0:0:
64,192,115265,1,0,0:0:0:0:
192,192,115265,1,0,0:0:0:0:
320,192,115342,1,0,0:0:0:0:
192,192,115419,1,0,0:0:0:0:
448,192,115419,1,0,0:0:0:0:
320,192,115470,1,0,0:0:0:0:
192,192,115521,1,0,0:0:0:0:
64,192,115572,1,0,0:0:0:0:
448,192,115572,1,0,0:0:0:0:
320,192,115649,1,0,0:0:0:0:
64,192,115726,1,0,0:0:0:0:
192,192,115726,1,0,0:0:0:0:
448,192,115778,1,0,0:0:0:0:
192,192,115829,1,0,0:0:0:0:
64,192,115880,1,0,0:0:0:0:
320,192,115880,1,0,0:0:0:0:
448,192,115957,1,0,0:0:0:0:
64,192,116034,1,0,0:0:0:0:
192,192,116034,1,0,0:0:0:0:
320,192,116085,1,0,0:0:0:0:
64,192,116136,1,0,0:0:0:0:
192,192,116188,1,0,0:0:0:0:
448,192,116188,1,0,0:0:0:0:
320,192,116265,1,0,0:0:0:0:
64,192,116342,1,0,0:0:0:0:
448,192,116342,1,0,0:0:0:0:
192,192,116393,1,0,0:0:0:0:
448,192,116444,1,0,0:0:0:0:
64,192,116495,1,0,0:0:0:0:
320,192,116495,1,0,0:0:0:0:
448,192,116572,1,0,0:0:0:0:
192,192,116649,1,0,0:0:0:0:
320,192,116649,1,0,0:0:0:0:
64,192,116701,1,0,0:0:0:0:
192,192,116752,1,0,0:0:0:0:
320,192,116803,1,0,0:0:0:0:
448,192,116803,1,0,0:0:0:0:
64,192,116880,1,0,0:0:0:0:
192,192,116957,1,0,0:0:0:0:
320,192,116957,1,0,0:0:0:0:
448,192,117034,1,0,0:0:0:0:
64,192,117111,1,0,0:0:0:0:
192,192,117111,1,0,0:0:0:0:
320,192,117162,1,0,0:0:0:0:
448,192,117213,1,0,0:0:0:0:
192,192,117265,1,0,0:0:0:0:
320,192,117316,1,0,0:0:0:0:
448,192,117367,1,0,0:0:0:0:
64,192,117419,1,0,0:0:0:0:
320,192,117470,1,0,0:0:0:0:
192,192,117521,1,0,0:0:0:0:
64,192,117572,1,0,0:0:0:0:
448,192,117611,1,0,0:0:0:0:
320,192,117649,1,0,0:0:0:0:
192,192,117688,1,0,0:0:0:0:
64,192,117726,1,0,0:0:0:0:
448,192,117765,1,0,0:0:0:0:
320,192,117803,1,0,0:0:0:0:
192,192,117842,1,0,0:0:0:0:
64,192,117880,1,0,0:0:0:0:
448,192,117919,1,0,0:0:0:0:
320,192,117957,1,0,0:0:0:0:
192,192,117995,1,0,0:0:0:0:
64,192,118034,1,0,0:0:0:0:
448,192,118072,1,0,0:0:0:0:
320,192,118111,1,0,0:0:0:0:
192,192,118149,1,0,0:0:0:0:
64,192,118188,1,0,0:0:0:0:
448,192,118226,1,0,0:0:0:0:
320,192,118265,1,0,0:0:0:0:
192,192,118303,1,0,0:0:0:0:
64,192,118342,1,0,0:0:0:0:
448,192,118342,1,0,0:0:0:0:
320,192,118419,1,0,0:0:0:0:
192,192,118495,1,0,0:0:0:0:
448,192,118495,1,0,0:0:0:0:
320,192,118547,1,0,0:0:0:0:
192,192,118598,1,0,0:0:0:0:
64,192,118649,1,0,0:0:0:0:
320,192,118649,1,0,0:0:0:0:
448,192,118726,1,0,0:0:0:0:
64,192,118803,1,0,0:0:0:0:
192,192,118803,1,0,0:0:0:0:
320,192,118854,1,0,0:0:0:0:
192,192,118906,1,0,0:0:0:0:
64,192,118957,1,0,0:0:0:0:
448,192,118957,1,0,0:0:0:0:
320,192,119034,1,0,0:0:0:0:
192,192,119111,1,0,0:0:0:0:
448,192,119111,1,0,0:0:0:0:
320,192,119162,1,0,0:0:0:0:
448,192,119213,1,0,0:0:0:0:
64,192,119265,1,0,0:0:0:0:
192,192,119265,1,0,0:0:0:0:
320,192,119342,1,0,0:0:0:0:
64,192,119419,1,0,0:0:0:0:
448,192,119419,1,0,0:0:0:0:
192,192,119470,1,0,0:0:0:0:
448,192,119521,1,0,0:0:0:0:
64,192,119572,1,0,0:0:0:0:
320,192,119572,1,0,0:0:0:0:
192,192,119649,1,0,0:0:0:0:
64,192,119726,1,0,0:0:0:0:
320,192,119726,1,0,0:0:0:0:
448,192,119778,1,0,0:0:0:0:
64,192,119829,1,0,0:0:0:0:
192,192,119880,1,0,0:0:0:0:
448,192,119880,1,0,0:0:0:0:
320,192,119957,1,0,0:0:0:0:
64,192,120034,1,0,0:0:0:0:
448,192,120034,1,0,0:0:0:0:
192,192,120085,1,0,0:0:0:0:
64,192,120136,1,0,0:0:0:0:
320,192,120188,1,0,0:0:0:0:
448,192,120188,1,0,0:0:0:0:
192,192,120265,1,0,0:0:0:0:
64,192,120342,1,0,0:0:0:0:
320,192,120342,1,0,0:0:0:0:
192,192,120393,1,0,0:0:0:0:
320,192,120444,1,0,0:0:0:0:
64,192,120495,1,0,0:0:0:0:
448,192,120495,1,0,0:0:0:0:
192,192,120572,1,0,0:0:0:0:
320,192,120649,1,0,0:0:0:0:
448,192,120649,1,0,0:0:0:0:
64,192,120701,1,0,0:0:0:0:
320,192,120752,1,0,0:0:0:0:
192,192,120803,1,0,0:0:0:0:
448,192,120803,1,0,0:0:0:0:
64,192,120880,1,0,0:0:0:0:
320,192,120957,1,0,0:0:0:0:
448,192,120957,1,0,0:0:0:0:
192,192,121008,1,0,0:0:0:0:
448,192,121060,1,0,0:0:0:0:
64,192,121111,1,0,0:0:0:0:
320,192,121111,1,0,0:0:0:0:
192,192,121188,1,0,0:0:0:0:
64,192,121265,1,0,0:0:0:0:
448,192,121265,1,0,0:0:0:0:
320,192,121316,1,0,0:0:0:0:
64,192,121367,1,0,0:0:0:0:
192,192,121419,1,0,0:0:0:0:
448,192,121419,1,0,0:0:0:0:
64,192,121495,1,0,0:0:0:0:
192,192,121572,1,0,0:0:0:0:
320,192,121572,1,0,0:0:0:0:
448,192,121624,1,0,0:0:0:0:
320,192,121675,1,0,0:0:0:0:
64,192,121726,1,0,0:0:0:0:
192,192,121726,1,0,0:0:0:0:
448,192,121803,1,0,0:0:0:0:
192,192,121880,1,0,0:0:0:0:
320,192,121880,1,0,0:0:0:0:
64,192,121957,1,0,0:0:0:0:
64,192,122034,128,0,122342:0:0:0:0:
320,192,122034,128,0,122188:0:0:0:0:
448,192,122188,128,0,122342:0:0:0:0:
192,192,122342,128,0,122495:0:0:0:0:
64,192,122495,128,0,122649:0:0:0:0:
320,192,122649,128,0,122803:0:0:0:0:
192,192,122803,128,0,122957:0:0:0:0:
448,192,122957,128,0,123111:0:0:0:0:
320,192,123111,128,0,123265:0:0:0:0:
64,192,123265,1,0,0:0:0:0:
192,192,123265,128,0,123342:0:0:0:0:
448,192,123342,1,0,0:0:0:0:
320,192,123419,128,0,123495:0:0:0:0:
64,192,123495,1,0,0:0:0:0:
192,192,123572,128,0,123649:0:0:0:0:
448,192,123572,1,0,0:0:0:0:
64,192,123649,1,0,0:0:0:0:
320,192,123726,128,0,123803:0:0:0:0:
448,192,123803,1,0,0:0:0:0:
64,192,123880,128,0,124034:0:0:0:0:
320,192,123880,1,0,0:0:0:0:
192,192,123957,1,0,0:0:0:0:
448,192,124034,128,0,124188:0:0:0:0:
64,192,124111,1,0,0:0:0:0:
192,192,124188,128,0,124342:0:0:0:0:
320,192,124188,1,0,0:0:0:0:
448,192,124265,1,0,0:0:0:0:
320,192,124342,128,0,124419:0:0:0:0:
64,192,124419,1,0,0:0:0:0:
192,192,124495,128,0,124572:0:0:0:0:
448,192,124495,1,0,0:0:0:0:
64,192,124572,1,0,0:0:0:0:
320,192,124649,128,0,124726:0:0:0:0:
448,192,124726,1,0,0:0:0:0:
64,192,124803,1,0,0:0:0:0:
192,192,124803,128,0,124880:0:0:0:0:
448,192,124880,1,0,0:0:0:0:
320,192,124957,128,0,125034:0:0:0:0:
192,192,125034,1,0,0:0:0:0:
64,192,125111,1,0,0:0:0:0:
448,192,125111,128,0,125265:0:0:0:0:
192,192,125188,1,0,0:0:0:0:
320,192,125265,128,0,125419:0:0:0:0:
448,192,125342,1,0,0:0:0:0:
64,192,125419,128,0,125572:0:0:0:0:
192,192,125419,1,0,0:0:0:0:
320,192,125495,1,0,0:0:0:0:
448,192,125572,128,0,125726:0:0:0:0:
64,192,125649,1,0,0:0:0:0:
192,192,125726,128,0,125803:0:0:0:0:
320,192,125726,1,0,0:0:0:0:
448,192,125803,1,0,0:0:0:0:
320,192,125880,128,0,125957:0:0:0:0:
64,192,125957,1,0,0:0:0:0:
192,192,126034,128,0,126111:0:0:0:0:
448,192,126034,1,0,0:0:0:0:
320,192,126111,1,0,0:0:0:0:
448,192,126188,128,0,126265:0:0:0:0:
64,192,126265,1,0,0:0:0:0:
192,192,126342,128,0,126419:0:0:0:0:
320,192,126342,1,0,0:0:0:0:
448,192,126419,1,0,0:0:0:0:
64,192,126495,128,0,126649:0:0:0:0:
192,192,126572,1,0,0:0:0:0:
320,192,126649,128,0,126803:0:0:0:0:
448,192,126649,1,0,0:0:0:0:
192,192,126726,1,0,0:0:0:0:
64,192,126803,128,0,126880:0:0:0:0:
192,192,126880,1,0,0:0:0:0:
64,192,126957,1,0,0:0:0:0:
448,192,126957,1,0,0:0:0:0:
320,192,127008,1,0,0:0:0:0:
192,192,127060,1,0,0:0:0:0:
64,192,127111,1,0,0:0:0:0:
448,192,127162,1,0,0:0:0:0:
192,192,127213,1,0,0:0:0:0:
320,192,127265,1,0,0:0:0:0:
64,192,127316,1,0,0:0:0:0:
192,192,127367,1,0,0:0:0:0:
320,192,127419,1,0,0:0:0:0:
448,192,127457,1,0,0:0:0:0:
64,192,127495,1,0,0:0:0:0:
192,192,127534,1,0,0:0:0:0:
320,192,127572,1,0,0:0:0:0:
448,192,127611,1,0,0:0:0:0:
64,192,127649,1,0,0:0:0:0:
192,192,127688,1,0,0:0:0:0:
320,192,127726,1,0,0:0:0:0:
448,192,127765,1,0,0:0:0:0:
64,192,127803,1,0,0:0:0:0:
192,192,127842,1,0,0:0:0:0:
320,192,127880,1,0,0:0:0:0:
448,192,127919,1,0,0:0:0:0:
64,192,127957,1,0,0:0:0:0:
192,192,127995,1,0,0:0:0:0:
320,192,128034,1,0,0:0:0:0:
448,192,128072,1,0,0:0:0:0:
64,192,128111,1,0,0:0:0:0:
192,192,128149,1,0,0:0:0:0:
320,192,128188,128,0,128265:0:0:0:0:
448,192,128188,1,0,0:0:0:0:
64,192,128265,1,0,0:0:0:0:
192,192,128342,128,0,128419:0:0:0:0:
448,192,128419,1,0,0:0:0:0:
64,192,128495,1,0,0:0:0:0:
320,192,128495,128,0,128572:0:0:0:0:
448,192,128572,1,0,0:0:0:0:
192,192,128649,128,0,128726:0:0:0:0:
64,192,128726,1,0,0:0:0:0:
192,192,128803,1,0,0:0:0:0:
448,192,128803,128,0,128957:0:0:0:0:
320,192,128880,1,0,0:0:0:0:
64,192,128957,128,0,129111:0:0:0:0:
448,192,129034,1,0,0:0:0:0:
192,192,129111,1,0,0:0:0:0:
320,192,129111,128,0,129265:0:0:0:0:
64,192,129188,1,0,0:0:0:0:
192,192,129265,128,0,129342:0:0:0:0:
448,192,129342,1,0,0:0:0:0:
64,192,129419,1,0,0:0:0:0:
320,192,129419,128,0,129495:0:0:0:0:
448,192,129495,1,0,0:0:0:0:
192,192,129572,128,0,129649:0:0:0:0:
64,192,129649,1,0,0:0:0:0:
320,192,129726,128,0,129803:0:0:0:0:
448,192,129726,1,0,0:0:0:0:
64,192,129803,1,0,0:0:0:0:
192,192,129880,128,0,129957:0:0:0:0:
320,192,129957,1,0,0:0:0:0:
64,192,130034,128,0,130188:0:0:0:0:
448,192,130034,1,0,0:0:0:0:
320,192,130111,1,0,0:0:0:0:
192,192,130188,128,0,130342:0:0:0:0:
64,192,130265,1,0,0:0:0:0:
320,192,130342,1,0,0:0:0:0:
448,192,130342,128,0,130495:0:0:0:0:
192,192,130419,1,0,0:0:0:0:
64,192,130495,128,0,130649:0:0:0:0:
448,192,130572,1,0,0:0:0:0:
192,192,130649,1,0,0:0:0:0:
320,192,130649,128,0,130726:0:0:0:0:
64,192,130726,1,0,0:0:0:0:
192,192,130803,128,0,130880:0:0:0:0:
448,192,130880,1,0,0:0:0:0:
64,192,130957,1,0,0:0:0:0:
320,192,130957,128,0,131034:0:0:0:0:
192,192,131034,1,0,0:0:0:0:
64,192,131111,128,0,131188:0:0:0:0:
448,192,131188,1,0,0:0:0:0:
192,192,131265,1,0,0:0:0:0:
320,192,131265,128,0,131342:0:0:0:0:
64,192,131342,1,0,0:0:0:0:
448,192,131419,128,0,131572:0:0:0:0:
320,192,131495,1,0,0:0:0:0:
64,192,131572,1,0,0:0:0:0:
192,192,131572,128,0,131726:0:0:0:0:
320,192,131649,1,0,0:0:0:0:
448,192,131726,128,0,131803:0:0:0:0:
320,192,131803,1,0,0:0:0:0:
64,192,131880,1,0,0:0:0:0:
448,192,131880,1,0,0:0:0:0:
192,192,131931,1,0,0:0:0:0:
320,192,131983,1,0,0:0:0:0:
448,192,132034,1,0,0:0:0:0:
192,192,132085,1,0,0:0:0:0:
64,192,132136,1,0,0:0:0:0:
320,192,132188,1,0,0:0:0:0:
192,192,132239,1,0,0:0:0:0:
64,192,132290,1,0,0:0:0:0:
448,192,132342,1,0,0:0:0:0:
320,192,132380,1,0,0:0:0:0:
192,192,132419,1,0,0:0:0:0:
64,192,132457,1,0,0:0:0:0:
448,192,132495,1,0,0:0:0:0:
320,192,132534,1,0,0:0:0:0:
192,192,132572,1,0,0:0:0:0:
64,192,132611,1,0,0:0:0:0:
448,192,132649,1,0,0:0:0:0:
320,192,132688,1,0,0:0:0:0:
192,192,132726,1,0,0:0:0:0:
64,192,132765,1,0,0:0:0:0:
448,192,132803,1,0,0:0:0:0:
320,192,132842,1,0,0:0:0:0:
192,192,132880,1,0,0:0:0:0:
64,192,132919,1,0,0:0:0:0:
448,192,132957,1,0,0:0:0:0:
320,192,132995,1,0,0:0:0:0:
192,192,133034,1,0,0:0:0:0:
64,192,133072,1,0,0:0:0:0:
320,192,133111,1,0,0:0:0:0:
448,192,133111,128,0,133188:0:0:0:0:
192,192,133188,1,0,0:0:0:0:
64,192,133265,128,0,133342:0:0:0:0:
320,192,133342,1,0,0:0:0:0:
192,192,133419,1,0,0:0:0:0:
448,192,133419,128,0,133495:0:0:0:0:
320,192,133495,1,0,0:0:0:0:
64,192,133572,128,0,133649:0:0:0:0:
192,192,133649,1,0,0:0:0:0:
320,192,133726,128,0,133880:0:0:0:0:
448,192,133726,1,0,0:0:0:0:
64,192,133803,1,0,0:0:0:0:
192,192,133880,128,0,134034:0:0:0:0:
320,192,133957,1,0,0:0:0:0:
64,192,134034,1,0,0:0:0:0:
448,192,134034,128,0,134188:0:0:0:0:
192,192,134111,1,0,0:0:0:0:
64,192,134188,128,0,134265:0:0:0:0:
320,192,134265,1,0,0:0:0:0:
192,192,134342,1,0,0:0:0:0:
448,192,134342,128,0,134419:0:0:0:0:
320,192,134419,1,0,0:0:0:0:
64,192,134495,128,0,134572:0:0:0:0:
192,192,134572,1,0,0:0:0:0:
320,192,134649,1,0,0:0:0:0:
448,192,134649,128,0,134726:0:0:0:0:
192,192,134726,1,0,0:0:0:0:
64,192,134803,128,0,134880:0:0:0:0:
320,192,134880,1,0,0:0:0:0:
192,192,134957,128,0,135111:0:0:0:0:
448,192,134957,1,0,0:0:0:0:
64,192,135034,1,0,0:0:0:0:
448,192,135111,128,0,135265:0:0:0:0:
192,192,135188,1,0,0:0:0:0:
64,192,135265,1,0,0:0:0:0:
320,192,135265,128,0,135419:0:0:0:0:
448,192,135342,1,0,0:0:0:0:
192,192,135419,128,0,135572:0:0:0:0:
320,192,135495,1,0,0:0:0:0:
64,192,135572,1,0,0:0:0:0:
448,192,135572,128,0,135649:0:0:0:0:
192,192,135649,1,0,0:0:0:0:
64,192,135726,128,0,135803:0:0:0:0:
320,192,135803,1,0,0:0:0:0:
192,192,135880,1,0,0:0:0:0:
448,192,135880,128,0,135957:0:0:0:0:
64,192,135957,1,0,0:0:0:0:
192,192,136034,128,0,136111:0:0:0:0:
320,192,136111,1,0,0:0:0:0:
64,192,136188,1,0,0:0:0:0:
448,192,136188,128,0,136265:0:0:0:0:
192,192,136265,1,0,0:0:0:0:
64,192,136342,128,0,136419:0:0:0:0:
448,192,136419,1,0,0:0:0:0:
192,192,136495,128,0,136572:0:0:0:0:
320,192,136495,1,0,0:0:0:0:
64,192,136572,1,0,0:0:0:0:
320,192,136649,128,0,136726:0:0:0:0:
448,192,136726,1,0,0:0:0:0:
64,192,136803,1,0,0:0:0:0:
192,192,136803,1,0,0:0:0:0:
320,192,136854,1,0,0:0:0:0:
448,192,136906,1,0,0:0:0:0:
192,192,136957,1,0,0:0:0:0:
320,192,137008,1,0,0:0:0:0:
64,192,137060,1,0,0:0:0:0:
192,192,137111,1,0,0:0:0:0:
448,192,137111,1,0,0:0:0:0:
320,192,137162,1,0,0:0:0:0:
64,192,137213,1,0,0:0:0:0:
448,192,137265,1,0,0:0:0:0:
320,192,137316,1,0,0:0:0:0:
192,192,137367,1,0,0:0:0:0:
64,192,137419,1,0,0:0:0:0:
448,192,137419,1,0,0:0:0:0:
320,192,137470,1,0,0:0:0:0:
192,192,137521,1,0,0:0:0:0:
64,192,137572,1,0,0:0:0:0:
448,192,137624,1,0,0:0:0:0:
320,192,137675,1,0,0:0:0:0:
64,192,137726,1,0,0:0:0:0:
192,192,137726,1,0,0:0:0:0:
448,192,137778,1,0,0:0:0:0:
320,192,137829,1,0,0:0:0:0:
192,192,137880,1,0,0:0:0:0:
64,192,137931,1,0,0:0:0:0:
448,192,137983,1,0,0:0:0:0:
192,192,138034,1,0,0:0:0:0:
320,192,138034,1,0,0:0:0:0:
64,192,138085,1,0,0:0:0:0:
448,192,138136,1,0,0:0:0:0:
192,192,138188,1,0,0:0:0:0:
64,192,138239,1,0,0:0:0:0:
320,192,138290,1,0,0:0:0:0:
192,192,138342,1,0,0:0:0:0:
448,192,138342,1,0,0:0:0:0:
64,192,138393,1,0,0:0:0:0:
320,192,138444,1,0,0:0:0:0:
448,192,138495,1,0,0:0:0:0:
64,192,138547,1,0,0:0:0:0:
192,192,138598,1,0,0:0:0:0:
320,192,138649,1,0,0:0:0:0:
448,192,138649,1,0,0:0:0:0:
64,192,138701,1,0,0:0:0:0:
192,192,138752,1,0,0:0:0:0:
320,192,138803,1,0,0:0:0:0:
448,192,138854,1,0,0:0:0:0:
64,192,138906,1,0,0:0:0:0:
192,192,138957,1,0,0:0:0:0:
320,192,138957,1,0,0:0:0:0:
448,192,139008,1,0,0:0:0:0:
64,192,139060,1,0,0:0:0:0:
192,192,139111,1,0,0:0:0:0:
320,192,139162,1,0,0:0:0:0:
448,192,139213,1,0,0:0:0:0:
64,192,139265,1,0,0:0:0:0:
192,192,139265,1,0,0:0:0:0:
320,192,139316,1,0,0:0:0:0:
448,192,139367,1,0,0:0:0:0:
192,192,139419,1,0,0:0:0:0:
320,192,139470,1,0,0:0:0:0:
64,192,139521,1,0,0:0:0:0:
192,192,139572,1,0,0:0:0:0:
448,192,139572,1,0,0:0:0:0:
320,192,139624,1,0,0:0:0:0:
64,192,139675,1,0,0:0:0:0:
448,192,139726,1,0,0:0:0:0:
320,192,139778,1,0,0:0:0:0:
192,192,139829,1,0,0:0:0:0:
64,192,139880,1,0,0:0:0:0:
448,192,139880,1,0,0:0:0:0:
320,192,139931,1,0,0:0:0:0:
192,192,139983,1,0,0:0:0:0:
64,192,140034,1,0,0:0:0:0:
448,192,140085,1,0,0:0:0:0:
320,192,140136,1,0,0:0:0:0:
64,192,140188,1,0,0:0:0:0:
192,192,140188,1,0,0:0:0:0:
448,192,140239,1,0,0:0:0:0:
320,192,140290,1,0,0:0:0:0:
192,192,140342,1,0,0:0:0:0:
64,192,140393,1,0,0:0:0:0:
448,192,140444,1,0,0:0:0:0:
192,192,140495,1,0,0:0:0:0:
320,192,140495,1,0,0:0:0:0:
64,192,140547,1,0,0:0:0:0:
448,192,140598,1,0,0:0:0:0:
192,192,140649,1,0,0:0:0:0:
320,192,140701,1,0,0:0:0:0:
64,192,140752,1,0,0:0:0:0:
192,192,140803,1,0,0:0:0:0:
448,192,140803,1,0,0:0:0:0:
320,192,140854,1,0,0:0:0:0:
64,192,140906,1,0,0:0:0:0:
192,192,140957,1,0,0:0:0:0:
320,192,141008,1,0,0:0:0:0:
448,192,141060,1,0,0:0:0:0:
64,192,141111,1,0,0:0:0:0:
192,192,141111,1,0,0:0:0:0:
320,192,141162,1,0,0:0:0:0:
448,192,141213,1,0,0:0:0:0:
64,192,141265,1,0,0:0:0:0:
192,192,141316,1,0,0:0:0:0:
320,192,141367,1,0,0:0:0:0:
64,192,141419,1,0,0:0:0:0:
448,192,141419,1,0,0:0:0:0:
192,192,141470,1,0,0:0:0:0:
320,192,141521,1,0,0:0:0:0:
448,192,141572,1,0,0:0:0:0:
64,192,141624,1,0,0:0:0:0:
192,192,141675,1,0,0:0:0:0:
320,192,141726,1,0,0:0:0:0:
448,192,141726,1,0,0:0:0:0:
64,192,141765,1,0,0:0:0:0:
192,192,141803,1,0,0:0:0:0:
320,192,141842,1,0,0:0:0:0:
448,192,141880,1,0,0:0:0:0:
64,192,141919,1,0,0:0:0:0:
192,192,141957,1,0,0:0:0:0:
320,192,141995,1,0,0:0:0:0:
448,192,142034,1,0,0:0:0:0:
64,192,142072,1,0,0:0:0:0:
192,192,142111,1,0,0:0:0:0:
320,192,142149,1,0,0:0:0:0:
448,192,142188,1,0,0:0:0:0:
64,192,142226,1,0,0:0:0:0:
192,192,142265,1,0,0:0:0:0:
320,192,142303,1,0,0:0:0:0:
448,192,142342,1,0,0:0:0:0:
64,192,142380,1,0,0:0:0:0:
192,192,142419,1,0,0:0:0:0:
320,192,142457,1,0,0:0:0:0:
448,192,142495,1,0,0:0:0:0:
64,192,142534,1,0,0:0:0:0:
192,192,142572,1,0,0:0:0:0:
320,192,142611,1,0,0:0:0:0:
448,192,142649,1,0,0:0:0:0:
64,192,142688,1,0,0:0:0:0:
192,192,142726,1,0,0:0:0:0:
320,192,142765,1,0,0:0:0:0:
64,192,142803,1,0,0:0:0:0:
448,192,142842,1,0,0:0:0:0:
320,192,142880,1,0,0:0:0:0:
192,192,142919,1,0,0:0:0:0:
64,192,142957,1,0,0:0:0:0:
448,192,142957,128,0,143149:0:0:0:0:
192,192,143188,128,0,143367:0:0:0:0:
320,192,143444,128,0,143598:0:0:0:0:
448,192,143675,128,0,143829:0:0:0:0:
192,192,143906,128,0,144034:0:0:0:0:
320,192,144136,128,0,144265:0:0:0:0:
64,192,144367,128,0,144470:0:0:0:0:
192,192,144598,128,0,144701:0:0:0:0:
320,192,144829,128,0,144931:0:0:0:0:
64,192,145060,128,0,145136:0:0:0:0:
192,192,145290,128,0,145342:0:0:0:0:
320,192,146649,1,0,0:0:0:0:
448,192,147265,1,0,0:0:0:0:
64,192,147880,128,0,148072:0:0:0:0:
192,192,147880,1,0,0:0:0:0:
320,192,148111,128,0,148265:0:0:0:0:
192,192,148342,128,0,148495:0:0:0:0:
64,192,148572,128,0,148726:0:0:0:0:
320,192,148803,128,0,148931:0:0:0:0:
192,192,149034,128,0,149162:0:0:0:0:
448,192,149303,128,0,149380:0:0:0:0:
320,192,149495,128,0,149572:0:0:0:0:
192,192,149765,128,0,149803:0:0:0:0:
320,192,151572,1,0,0:0:0:0:
192,192,152188,1,0,0:0:0:0:
320,192,152803,1,0,0:0:0:0:
448,192,152803,128,0,152995:0:0:0:0:
192,192,153034,128,0,153188:0:0:0:0:
64,192,153265,128,0,153419:0:0:0:0:
320,192,153495,128,0,153624:0:0:0:0:
192,192,153726,128,0,153854:0:0:0:0:
64,192,153957,128,0,154060:0:0:0:0:
320,192,154188,128,0,154290:0:0:0:0:
448,192,154419,128,0,154495:0:0:0:0:
192,192,154649,128,0,154726:0:0:0:0:
320,192,154880,128,0,154931:0:0:0:0:
64,192,156598,1,0,0:0:0:0:
448,192,157111,1,0,0:0:0:0:
192,192,157726,128,0,157919:0:0:0:0:
320,192,157726,1,0,0:0:0:0:
64,192,157957,128,0,158111:0:0:0:0:
320,192,158188,128,0,158342:0:0:0:0:
192,192,158419,128,0,158547:0:0:0:0:
64,192,158649,128,0,158778:0:0:0:0:
320,192,158880,128,0,158983:0:0:0:0:
448,192,159111,128,0,159213:0:0:0:0:
192,192,159367,128,0,159444:0:0:0:0:
320,192,159624,128,0,159701:0:0:0:0:
448,192,159880,128,0,159931:0:0:0:0:
320,192,160188,1,0,0:0:0:0:
64,192,160265,128,0,160457:0:0:0:0:
192,192,160495,128,0,160649:0:0:0:0:
320,192,160726,128,0,160880:0:0:0:0:
64,192,160957,128,0,161085:0:0:0:0:
192,192,161188,128,0,161316:0:0:0:0:
448,192,161419,128,0,161547:0:0:0:0:
320,192,161649,128,0,161752:0:0:0:0:
192,192,161880,128,0,161957:0:0:0:0:
448,192,162111,128,0,162162:0:0:0:0:
320,192,162342,128,0,162367:0:0:0:0:
64,192,162649,128,0,162688:0:0:0:0:
192,192,162649,1,0,0:0:0:0:
448,192,162649,128,0,162688:0:0:0:0:
64,192,162803,1,0,0:0:0:0:
448,192,162803,1,0,0:0:0:0:
320,192,162957,1,0,0:0:0:0:
448,192,162957,1,0,0:0:0:0:
64,192,163111,1,0,0:0:0:0:
192,192,163188,1,0,0:0:0:0:
320,192,163188,1,0,0:0:0:0:
64,192,163265,1,0,0:0:0:0:
320,192,163342,1,0,0:0:0:0:
448,192,163342,1,0,0:0:0:0:
64,192,163419,1,0,0:0:0:0:
192,192,163419,1,0,0:0:0:0:
64,192,163572,1,0,0:0:0:0:
320,192,163572,1,0,0:0:0:0:
448,192,163726,1,0,0:0:0:0:
192,192,163803,1,0,0:0:0:0:
320,192,163803,1,0,0:0:0:0:
448,192,163880,1,0,0:0:0:0:
64,192,163957,1,0,0:0:0:0:
192,192,163957,1,0,0:0:0:0:
320,192,164034,1,0,0:0:0:0:
448,192,164034,1,0,0:0:0:0:
192,192,164188,1,0,0:0:0:0:
448,192,164188,1,0,0:0:0:0:
64,192,164342,1,0,0:0:0:0:
320,192,164419,1,0,0:0:0:0:
448,192,164419,1,0,0:0:0:0:
64,192,164495,1,0,0:0:0:0:
192,192,164572,1,0,0:0:0:0:
320,192,164572,1,0,0:0:0:0:
64,192,164649,1,0,0:0:0:0:
448,192,164649,1,0,0:0:0:0:
64,192,164803,1,0,0:0:0:0:
320,192,164803,1,0,0:0:0:0:
448,192,164957,1,0,0:0:0:0:
64,192,165034,1,0,0:0:0:0:
64,192,165111,1,0,0:0:0:0:
448,192,165111,1,0,0:0:0:0:
64,192,165265,1,0,0:0:0:0:
448,192,165265,1,0,0:0:0:0:
64,192,165419,1,0,0:0:0:0:
192,192,165419,1,0,0:0:0:0:
320,192,165572,1,0,0:0:0:0:
64,192,165649,1,0,0:0:0:0:
448,192,165649,1,0,0:0:0:0:
320,192,165726,1,0,0:0:0:0:
64,192,165803,1,0,0:0:0:0:
192,192,165803,1,0,0:0:0:0:
320,192,165880,1,0,0:0:0:0:
448,192,165880,1,0,0:0:0:0:
64,192,166034,1,0,0:0:0:0:
320,192,166034,1,0,0:0:0:0:
192,192,166188,1,0,0:0:0:0:
64,192,166265,1,0,0:0:0:0:
448,192,166265,1,0,0:0:0:0:
192,192,166342,1,0,0:0:0:0:
320,192,166419,1,0,0:0:0:0:
448,192,166419,1,0,0:0:0:0:
64,192,166495,1,0,0:0:0:0:
192,192,166495,1,0,0:0:0:0:
192,192,166649,1,0,0:0:0:0:
448,192,166649,1,0,0:0:0:0:
320,192,166803,1,0,0:0:0:0:
64,192,166880,1,0,0:0:0:0:
192,192,166880,1,0,0:0:0:0:
320,192,166957,1,0,0:0:0:0:
64,192,167034,1,0,0:0:0:0:
448,192,167034,1,0,0:0:0:0:
192,192,167111,1,0,0:0:0:0:
320,192,167111,1,0,0:0:0:0:
64,192,167265,1,0,0:0:0:0:
320,192,167265,1,0,0:0:0:0:
192,192,167419,1,0,0:0:0:0:
448,192,167495,1,0,0:0:0:0:
192,192,167572,128,0,167611:0:0:0:0:
448,192,167572,128,0,167611:0:0:0:0:
192,192,167726,1,0,0:0:0:0:
448,192,167726,1,0,0:0:0:0:
192,192,167880,1,0,0:0:0:0:
320,192,167880,1,0,0:0:0:0:
448,192,168034,1,0,0:0:0:0:
64,192,168111,1,0,0:0:0:0:
320,192,168111,1,0,0:0:0:0:
448,192,168188,1,0,0:0:0:0:
192,192,168265,1,0,0:0:0:0:
320,192,168265,1,0,0:0:0:0:
64,192,168342,1,0,0:0:0:0:
448,192,168342,1,0,0:0:0:0:
320,192,168495,1,0,0:0:0:0:
448,192,168495,1,0,0:0:0:0:
64,192,168649,1,0,0:0:0:0:
192,192,168726,1,0,0:0:0:0:
448,192,168726,1,0,0:0:0:0:
64,192,168803,1,0,0:0:0:0:
192,192,168880,1,0,0:0:0:0:
320,192,168880,1,0,0:0:0:0:
64,192,168957,1,0,0:0:0:0:
448,192,168957,1,0,0:0:0:0:
64,192,169111,1,0,0:0:0:0:
192,192,169111,1,0,0:0:0:0:
448,192,169265,1,0,0:0:0:0:
192,192,169342,1,0,0:0:0:0:
320,192,169342,1,0,0:0:0:0:
448,192,169419,1,0,0:0:0:0:
64,192,169495,1,0,0:0:0:0:
192,192,169495,1,0,0:0:0:0:
320,192,169572,1,0,0:0:0:0:
448,192,169572,1,0,0:0:0:0:
64,192,169726,1,0,0:0:0:0:
448,192,169726,1,0,0:0:0:0:
192,192,169880,1,0,0:0:0:0:
64,192,169957,1,0,0:0:0:0:
64,192,170034,1,0,0:0:0:0:
448,192,170034,1,0,0:0:0:0:
64,192,170188,1,0,0:0:0:0:
448,192,170188,1,0,0:0:0:0:
192,192,170342,1,0,0:0:0:0:
448,192,170342,1,0,0:0:0:0:
320,192,170495,1,0,0:0:0:0:
192,192,170572,1,0,0:0:0:0:
448,192,170572,1,0,0:0:0:0:
320,192,170649,1,0,0:0:0:0:
64,192,170726,1,0,0:0:0:0:
192,192,170726,1,0,0:0:0:0:
320,192,170803,1,0,0:0:0:0:
448,192,170803,1,0,0:0:0:0:
64,192,170957,1,0,0:0:0:0:
320,192,170957,1,0,0:0:0:0:
192,192,171111,1,0,0:0:0:0:
64,192,171188,1,0,0:0:0:0:
320,192,171188,1,0,0:0:0:0:
192,192,171265,1,0,0:0:0:0:
320,192,171342,1,0,0:0:0:0:
448,192,171342,1,0,0:0:0:0:
64,192,171419,1,0,0:0:0:0:
192,192,171419,1,0,0:0:0:0:
192,192,171572,1,0,0:0:0:0:
448,192,171572,1,0,0:0:0:0:
320,192,171726,1,0,0:0:0:0:
64,192,171803,1,0,0:0:0:0:
448,192,171803,1,0,0:0:0:0:
320,192,171880,1,0,0:0:0:0:
192,192,171957,1,0,0:0:0:0:
448,192,171957,1,0,0:0:0:0:
64,192,172034,1,0,0:0:0:0:
320,192,172034,1,0,0:0:0:0:
64,192,172188,128,0,172226:0:0:0:0:
192,192,172188,128,0,172226:0:0:0:0:
448,192,172342,1,0,0:0:0:0:
192,192,172419,1,0,0:0:0:0:
192,192,172495,128,0,172534:0:0:0:0:
320,192,172495,128,0,172534:0:0:0:0:
192,192,172649,1,0,0:0:0:0:
320,192,172649,1,0,0:0:0:0:
64,192,172803,1,0,0:0:0:0:
320,192,172803,1,0,0:0:0:0:
192,192,172957,1,0,0:0:0:0:
64,192,173034,1,0,0:0:0:0:
448,192,173034,1,0,0:0:0:0:
320,192,173111,1,0,0:0:0:0:
64,192,173188,1,0,0:0:0:0:
192,192,173188,1,0,0:0:0:0:
320,192,173265,1,0,0:0:0:0:
448,192,173265,1,0,0:0:0:0:
64,192,173419,1,0,0:0:0:0:
448,192,173419,1,0,0:0:0:0:
320,192,173572,1,0,0:0:0:0:
64,192,173649,1,0,0:0:0:0:
448,192,173649,1,0,0:0:0:0:
192,192,173726,1,0,0:0:0:0:
320,192,173803,1,0,0:0:0:0:
448,192,173803,1,0,0:0:0:0:
64,192,173880,1,0,0:0:0:0:
192,192,173880,1,0,0:0:0:0:
64,192,174034,1,0,0:0:0:0:
448,192,174034,1,0,0:0:0:0:
320,192,174188,1,0,0:0:0:0:
64,192,174265,1,0,0:0:0:0:
192,192,174265,1,0,0:0:0:0:
448,192,174342,1,0,0:0:0:0:
64,192,174419,1,0,0:0:0:0:
320,192,174419,1,0,0:0:0:0:
192,192,174495,1,0,0:0:0:0:
448,192,174495,1,0,0:0:0:0:
192,192,174649,1,0,0:0:0:0:
320,192,174649,1,0,0:0:0:0:
64,192,174803,1,0,0:0:0:0:
448,192,174880,1,0,0:0:0:0:
192,192,174957,1,0,0:0:0:0:
448,192,174957,1,0,0:0:0:0:
192,192,175111,1,0,0:0:0:0:
448,192,175111,1,0,0:0:0:0:
64,192,175265,1,0,0:0:0:0:
448,192,175265,1,0,0:0:0:0:
320,192,175419,1,0,0:0:0:0:
64,192,175495,1,0,0:0:0:0:
192,192,175495,1,0,0:0:0:0:
448,192,175572,1,0,0:0:0:0:
192,192,175649,1,0,0:0:0:0:
320,192,175649,1,0,0:0:0:0:
64,192,175726,1,0,0:0:0:0:
448,192,175726,1,0,0:0:0:0:
192,192,175880,1,0,0:0:0:0:
320,192,175880,1,0,0:0:0:0:
192,192,176034,1,0,0:0:0:0:
320,192,176111,1,0,0:0:0:0:
448,192,176111,1,0,0:0:0:0:
64,192,176188,1,0,0:0:0:0:
192,192,176265,1,0,0:0:0:0:
320,192,176265,1,0,0:0:0:0:
64,192,176342,1,0,0:0:0:0:
448,192,176342,1,0,0:0:0:0:
192,192,176495,1,0,0:0:0:0:
320,192,176495,1,0,0:0:0:0:
320,192,176649,1,0,0:0:0:0:
64,192,176726,1,0,0:0:0:0:
448,192,176726,1,0,0:0:0:0:
192,192,176803,1,0,0:0:0:0:
64,192,176880,1,0,0:0:0:0:
448,192,176880,1,0,0:0:0:0:
192,192,176957,1,0,0:0:0:0:
320,192,176957,1,0,0:0:0:0:
64,192,177111,1,0,0:0:0:0:
448,192,177111,1,0,0:0:0:0:
192,192,177265,1,0,0:0:0:0:
448,192,177342,1,0,0:0:0:0:
320,192,177419,128,0,177457:0:0:0:0:
448,192,177419,128,0,177457:0:0:0:0:
320,192,177572,1,0,0:0:0:0:
448,192,177572,1,0,0:0:0:0:
64,192,177726,1,0,0:0:0:0:
448,192,177726,1,0,0:0:0:0:
192,192,177880,1,0,0:0:0:0:
64,192,177957,1,0,0:0:0:0:
320,192,177957,1,0,0:0:0:0:
448,192,178034,1,0,0:0:0:0:
64,192,178111,1,0,0:0:0:0:
192,192,178111,1,0,0:0:0:0:
320,192,178188,1,0,0:0:0:0:
448,192,178188,1,0,0:0:0:0:
64,192,178342,1,0,0:0:0:0:
192,192,178342,1,0,0:0:0:0:
320,192,178495,1,0,0:0:0:0:
192,192,178572,1,0,0:0:0:0:
448,192,178572,1,0,0:0:0:0:
64,192,178649,1,0,0:0:0:0:
320,192,178726,1,0,0:0:0:0:
448,192,178726,1,0,0:0:0:0:
64,192,178803,1,0,0:0:0:0:
192,192,178803,1,0,0:0:0:0:
320,192,178957,1,0,0:0:0:0:
448,192,178957,1,0,0:0:0:0:
192,192,179111,1,0,0:0:0:0:
64,192,179188,1,0,0:0:0:0:
448,192,179188,1,0,0:0:0:0:
320,192,179265,1,0,0:0:0:0:
192,192,179342,1,0,0:0:0:0:
448,192,179342,1,0,0:0:0:0:
64,192,179419,1,0,0:0:0:0:
320,192,179419,1,0,0:0:0:0:
192,192,179572,1,0,0:0:0:0:
448,192,179572,1,0,0:0:0:0:
320,192,179726,1,0,0:0:0:0:
64,192,179803,1,0,0:0:0:0:
64,192,179880,128,0,179919:0:0:0:0:
192,192,179880,128,0,179919:0:0:0:0:
64,192,180034,1,0,0:0:0:0:
192,192,180034,1,0,0:0:0:0:
64,192,180188,1,0,0:0:0:0:
448,192,180188,1,0,0:0:0:0:
320,192,180342,1,0,0:0:0:0:
192,192,180419,1,0,0:0:0:0:
448,192,180419,1,0,0:0:0:0:
64,192,180495,1,0,0:0:0:0:
320,192,180572,1,0,0:0:0:0:
448,192,180572,1,0,0:0:0:0:
64,192,180649,1,0,0:0:0:0:
192,192,180649,1,0,0:0:0:0:
320,192,180803,1,0,0:0:0:0:
448,192,180803,1,0,0:0:0:0:
192,192,180957,1,0,0:0:0:0:
64,192,181034,1,0,0:0:0:0:
320,192,181034,1,0,0:0:0:0:
448,192,181111,1,0,0:0:0:0:
64,192,181188,1,0,0:0:0:0:
192,192,181188,1,0,0:0:0:0:
320,192,181265,1,0,0:0:0:0:
448,192,181265,1,0,0:0:0:0:
64,192,181419,1,0,0:0:0:0:
192,192,181419,1,0,0:0:0:0:
320,192,181572,1,0,0:0:0:0:
64,192,181649,1,0,0:0:0:0:
448,192,181649,1,0,0:0:0:0:
192,192,181726,1,0,0:0:0:0:
64,192,181803,1,0,0:0:0:0:
320,192,181803,1,0,0:0:0:0:
192,192,181880,1,0,0:0:0:0:
448,192,181880,1,0,0:0:0:0:
64,192,182034,1,0,0:0:0:0:
320,192,182034,1,0,0:0:0:0:
192,192,182188,1,0,0:0:0:0:
320,192,182265,1,0,0:0:0:0:
64,192,182342,1,0,0:0:0:0:
192,192,182342,1,0,0:0:0:0:
320,192,182342,1,0,0:0:0:0:
448,192,182342,1,0,0:0:0:0:
192,192,183726,1,0,0:0:0:0:
448,192,183803,1,0,0:0:0:0:
64,192,183880,1,0,0:0:0:0:
320,192,183957,1,0,0:0:0:0:
192,192,184034,1,0,0:0:0:0:
192,192,184188,1,0,0:0:0:0:
320,192,184342,1,0,0:0:0:0:
64,192,184419,1,0,0:0:0:0:
448,192,184495,1,0,0:0:0:0:
192,192,184572,1,0,0:0:0:0:
320,192,184649,128,0,184726:0:0:0:0:
320,192,184803,128,0,184880:0:0:0:0:
64,192,184957,1,0,0:0:0:0:
320,192,185034,1,0,0:0:0:0:
192,192,185111,1,0,0:0:0:0:
320,192,185188,1,0,0:0:0:0:
64,192,185265,128,0,185342:0:0:0:0:
64,192,185419,128,0,185495:0:0:0:0:
448,192,185572,1,0,0:0:0:0:
192,192,185649,1,0,0:0:0:0:
320,192,185726,1,0,0:0:0:0:
192,192,185803,1,0,0:0:0:0:
448,192,185880,128,0,185957:0:0:0:0:
448,192,186034,128,0,186111:0:0:0:0:
64,192,186188,1,0,0:0:0:0:
320,192,186265,1,0,0:0:0:0:
192,192,186342,1,0,0:0:0:0:
320,192,186419,1,0,0:0:0:0:
192,192,186495,128,0,186572:0:0:0:0:
192,192,186649,128,0,186726:0:0:0:0:
448,192,186803,128,0,186842:0:0:0:0:
192,192,186880,128,0,186919:0:0:0:0:
320,192,186957,128,0,186995:0:0:0:0:
192,192,187034,128,0,187072:0:0:0:0:
320,192,187111,128,0,187188:0:0:0:0:
320,192,187265,128,0,187342:0:0:0:0:
192,192,187419,128,0,187457:0:0:0:0:
448,192,187495,128,0,187534:0:0:0:0:
192,192,187572,128,0,187611:0:0:0:0:
320,192,187649,128,0,187688:0:0:0:0:
192,192,187726,128,0,187803:0:0:0:0:
192,192,187880,128,0,187957:0:0:0:0:
320,192,188034,128,0,188072:0:0:0:0:
192,192,188111,128,0,188149:0:0:0:0:
320,192,188188,128,0,188226:0:0:0:0:
64,192,188265,128,0,188303:0:0:0:0:
320,192,188342,128,0,188419:0:0:0:0:
64,192,191957,128,0,192188:0:0:0:0:
192,192,192188,1,0,0:0:0:0:
320,192,192188,1,0,0:0:0:0:
448,192,192188,1,0,0:0:0:0:
448,192,192342,1,0,0:0:0:0:
320,192,192419,1,0,0:0:0:0:
192,192,192495,1,0,0:0:0:0:
64,192,192572,1,0,0:0:0:0:
320,192,192649,1,0,0:0:0:0:
64,192,192803,1,0,0:0:0:0:
64,192,192957,1,0,0:0:0:0:
448,192,193034,1,0,0:0:0:0:
192,192,193111,1,0,0:0:0:0:
320,192,193188,1,0,0:0:0:0:
64,192,193265,1,0,0:0:0:0:
448,192,193419,1,0,0:0:0:0:
448,192,193572,1,0,0:0:0:0:
192,192,193649,1,0,0:0:0:0:
320,192,193726,1,0,0:0:0:0:
192,192,193803,1,0,0:0:0:0:
448,192,193880,1,0,0:0:0:0:
320,192,194034,1,0,0:0:0:0:
320,192,194188,1,0,0:0:0:0:
64,192,194265,1,0,0:0:0:0:
192,192,194342,1,0,0:0:0:0:
64,192,194419,1,0,0:0:0:0:
320,192,194495,1,0,0:0:0:0:
64,192,194649,1,0,0:0:0:0:
64,192,194803,1,0,0:0:0:0:
320,192,194880,1,0,0:0:0:0:
192,192,194957,1,0,0:0:0:0:
320,192,195034,1,0,0:0:0:0:
448,192,195111,1,0,0:0:0:0:
320,192,195265,1,0,0:0:0:0:
320,192,195419,1,0,0:0:0:0:
192,192,195495,1,0,0:0:0:0:
320,192,195572,1,0,0:0:0:0:
64,192,195649,1,0,0:0:0:0:
192,192,195726,1,0,0:0:0:0:
448,192,195880,1,0,0:0:0:0:
448,192,196034,1,0,0:0:0:0:
192,192,196111,1,0,0:0:0:0:
64,192,196188,1,0,0:0:0:0:
320,192,196265,1,0,0:0:0:0:
192,192,196342,1,0,0:0:0:0:
320,192,196495,1,0,0:0:0:0:
320,192,196649,1,0,0:0:0:0:
192,192,196726,1,0,0:0:0:0:
64,192,196803,1,0,0:0:0:0:
320,192,196880,1,0,0:0:0:0:
64,192,196957,1,0,0:0:0:0:
448,192,197111,1,0,0:0:0:0:
448,192,197265,1,0,0:0:0:0:
64,192,197342,1,0,0:0:0:0:
192,192,197419,1,0,0:0:0:0:
320,192,197495,1,0,0:0:0:0:
64,192,197572,1,0,0:0:0:0:
320,192,197726,1,0,0:0:0:0:
320,192,197880,1,0,0:0:0:0:
192,192,197957,1,0,0:0:0:0:
64,192,198034,1,0,0:0:0:0:
320,192,198111,1,0,0:0:0:0:
448,192,198188,1,0,0:0:0:0:
192,192,198342,1,0,0:0:0:0:
192,192,198495,1,0,0:0:0:0:
64,192,198572,1,0,0:0:0:0:
320,192,198649,1,0,0:0:0:0:
64,192,198726,1,0,0:0:0:0:
192,192,198803,1,0,0:0:0:0:
448,192,198957,1,0,0:0:0:0:
320,192,199111,1,0,0:0:0:0:
64,192,199188,1,0,0:0:0:0:
192,192,199265,1,0,0:0:0:0:
448,192,199342,1,0,0:0:0:0:
320,192,199419,1,0,0:0:0:0:
64,192,199572,1,0,0:0:0:0:
64,192,199726,1,0,0:0:0:0:
320,192,199803,1,0,0:0:0:0:
192,192,199880,1,0,0:0:0:0:
320,192,199957,1,0,0:0:0:0:
64,192,200034,1,0,0:0:0:0:
448,192,200188,1,0,0:0:0:0:
448,192,200342,1,0,0:0:0:0:
192,192,200419,1,0,0:0:0:0:
320,192,200495,1,0,0:0:0:0:
64,192,200572,1,0,0:0:0:0:
320,192,200649,1,0,0:0:0:0:
192,192,200803,1,0,0:0:0:0:
192,192,200957,1,0,0:0:0:0:
320,192,201034,1,0,0:0:0:0:
64,192,201111,1,0,0:0:0:0:
448,192,201188,1,0,0:0:0:0:
192,192,201265,1,0,0:0:0:0:
320,192,201419,1,0,0:0:0:0:
320,192,201572,1,0,0:0:0:0:
192,192,201649,1,0,0:0:0:0:
448,192,201726,1,0,0:0:0:0:
64,192,201803,1,0,0:0:0:0:
320,192,201880,1,0,0:0:0:0:
192,192,202034,1,0,0:0:0:0:
192,192,202188,1,0,0:0:0:0:
192,192,202265,1,0,0:0:0:0:
320,192,202342,1,0,0:0:0:0:
320,192,202419,1,0,0:0:0:0:
64,192,202495,1,0,0:0:0:0:
448,192,202649,1,0,0:0:0:0:
448,192,202803,1,0,0:0:0:0:
448,192,202880,1,0,0:0:0:0:
192,192,202957,1,0,0:0:0:0:
192,192,203034,1,0,0:0:0:0:
320,192,203111,1,0,0:0:0:0:
64,192,203265,1,0,0:0:0:0:
64,192,203419,1,0,0:0:0:0:
64,192,203495,1,0,0:0:0:0:
448,192,203572,1,0,0:0:0:0:
448,192,203649,1,0,0:0:0:0:
192,192,203726,1,0,0:0:0:0:
320,192,203880,1,0,0:0:0:0:
320,192,204034,1,0,0:0:0:0:
320,192,204111,1,0,0:0:0:0:
64,192,204188,1,0,0:0:0:0:
64,192,204265,1,0,0:0:0:0:
64,192,204342,1,0,0:0:0:0:
448,192,204495,1,0,0:0:0:0:
448,192,204649,1,0,0:0:0:0:
448,192,204726,1,0,0:0:0:0:
320,192,204803,1,0,0:0:0:0:
320,192,204880,1,0,0:0:0:0:
192,192,204957,1,0,0:0:0:0:
320,192,205111,1,0,0:0:0:0:
192,192,205265,1,0,0:0:0:0:
192,192,205342,1,0,0:0:0:0:
64,192,205419,1,0,0:0:0:0:
64,192,205495,1,0,0:0:0:0:
448,192,205572,1,0,0:0:0:0:
192,192,205726,1,0,0:0:0:0:
320,192,205880,1,0,0:0:0:0:
320,192,205957,1,0,0:0:0:0:
448,192,206034,1,0,0:0:0:0:
448,192,206111,1,0,0:0:0:0:
64,192,206188,1,0,0:0:0:0:
192,192,206342,1,0,0:0:0:0:
192,192,206495,1,0,0:0:0:0:
192,192,206572,1,0,0:0:0:0:
320,192,206649,1,0,0:0:0:0:
320,192,206726,1,0,0:0:0:0:
320,192,206803,1,0,0:0:0:0:
64,192,206957,1,0,0:0:0:0:
64,192,207111,1,0,0:0:0:0:
64,192,207188,1,0,0:0:0:0:
320,192,207265,1,0,0:0:0:0:
192,192,207342,1,0,0:0:0:0:
192,192,207419,1,0,0:0:0:0:
448,192,207572,1,0,0:0:0:0:
448,192,207726,1,0,0:0:0:0:
448,192,207803,1,0,0:0:0:0:
192,192,207880,1,0,0:0:0:0:
192,192,207957,1,0,0:0:0:0:
320,192,208034,1,0,0:0:0:0:
64,192,208188,1,0,0:0:0:0:
64,192,208342,1,0,0:0:0:0:
64,192,208419,1,0,0:0:0:0:
320,192,208495,1,0,0:0:0:0:
192,192,208572,1,0,0:0:0:0:
192,192,208649,1,0,0:0:0:0:
320,192,208803,1,0,0:0:0:0:
320,192,208957,1,0,0:0:0:0:
320,192,209034,1,0,0:0:0:0:
64,192,209111,1,0,0:0:0:0:
64,192,209188,1,0,0:0:0:0:
448,192,209265,1,0,0:0:0:0:
64,192,209419,1,0,0:0:0:0:
64,192,209572,1,0,0:0:0:0:
64,192,209649,1,0,0:0:0:0:
320,192,209726,1,0,0:0:0:0:
192,192,209803,1,0,0:0:0:0:
192,192,209880,1,0,0:0:0:0:
448,192,210034,128,0,210111:0:0:0:0:
448,192,210188,128,0,210265:0:0:0:0:
192,192,210265,128,0,210342:0:0:0:0:
320,192,210342,128,0,210419:0:0:0:0:
64,192,210419,128,0,210572:0:0:0:0:
448,192,210495,128,0,210649:0:0:0:0:
192,192,210649,128,0,210726:0:0:0:0:
192,192,210803,128,0,210957:0:0:0:0:
320,192,210880,128,0,210957:0:0:0:0:
64,192,210957,128,0,211188:0:0:0:0:
320,192,211034,128,0,211265:0:0:0:0:
192,192,211111,128,0,211803:0:0:0:0:
448,192,211265,128,0,211342:0:0:0:0:
448,192,211419,128,0,211649:0:0:0:0:
64,192,211495,128,0,211572:0:0:0:0:
320,192,211572,128,0,211803:0:0:0:0:
64,192,211649,128,0,211803:0:0:0:0:
448,192,211726,128,0,211803:0:0:0:0:
64,192,211880,1,0,0:0:0:0:
192,192,211880,1,0,0:0:0:0:
320,192,211880,1,0,0:0:0:0:
448,192,211880,1,0,0:0:0:0:
192,192,211957,1,0,0:0:0:0:
320,192,212034,1,0,0:0:0:0:
448,192,212188,1,0,0:0:0:0:
64,192,212265,1,0,0:0:0:0:
320,192,212419,1,0,0:0:0:0:
192,192,212572,1,0,0:0:0:0:
448,192,212649,1,0,0:0:0:0:
192,192,212803,1,0,0:0:0:0:
320,192,212880,1,0,0:0:0:0:
64,192,213034,1,0,0:0:0:0:
320,192,213188,1,0,0:0:0:0:
192,192,213265,1,0,0:0:0:0:
448,192,213419,1,0,0:0:0:0:
64,192,213495,1,0,0:0:0:0:
320,192,213649,1,0,0:0:0:0:
192,192,213803,1,0,0:0:0:0:
448,192,213880,1,0,0:0:0:0:
192,192,214034,1,0,0:0:0:0:
320,192,214111,1,0,0:0:0:0:
64,192,214265,1,0,0:0:0:0:
448,192,214419,1,0,0:0:0:0:
320,192,214495,1,0,0:0:0:0:
192,192,214649,1,0,0:0:0:0:
64,192,214726,1,0,0:0:0:0:
448,192,214880,1,0,0:0:0:0:
320,192,215034,1,0,0:0:0:0:
192,192,215111,1,0,0:0:0:0:
320,192,215265,1,0,0:0:0:0:
448,192,215342,1,0,0:0:0:0:
64,192,215495,1,0,0:0:0:0:
448,192,215649,1,0,0:0:0:0:
320,192,215726,1,0,0:0:0:0:
192,192,215880,1,0,0:0:0:0:
64,192,215957,1,0,0:0:0:0:
448,192,216111,1,0,0:0:0:0:
320,192,216265,1,0,0:0:0:0:
192,192,216342,1,0,0:0:0:0:
320,192,216495,1,0,0:0:0:0:
448,192,216572,1,0,0:0:0:0:
64,192,216726,1,0,0:0:0:0:
320,192,216803,1,0,0:0:0:0:
192,192,216829,1,0,0:0:0:0:
448,192,216880,1,0,0:0:0:0:
320,192,216957,1,0,0:0:0:0:
192,192,217111,1,0,0:0:0:0:
320,192,217188,1,0,0:0:0:0:
64,192,217342,1,0,0:0:0:0:
448,192,217495,1,0,0:0:0:0:
192,192,217572,1,0,0:0:0:0:
448,192,217726,1,0,0:0:0:0:
64,192,217803,1,0,0:0:0:0:
320,192,217957,1,0,0:0:0:0:
64,192,218111,1,0,0:0:0:0:
448,192,218188,1,0,0:0:0:0:
192,192,218342,1,0,0:0:0:0:
320,192,218419,1,0,0:0:0:0:
64,192,218572,1,0,0:0:0:0:
448,192,218726,1,0,0:0:0:0:
192,192,218803,1,0,0:0:0:0:
448,192,218957,1,0,0:0:0:0:
64,192,219034,1,0,0:0:0:0:
320,192,219188,1,0,0:0:0:0:
64,192,219342,1,0,0:0:0:0:
448,192,219419,1,0,0:0:0:0:
192,192,219572,128,0,219649:0:0:0:0:
320,192,219649,1,0,0:0:0:0:
448,192,219726,1,0,0:0:0:0:
64,192,219803,1,0,0:0:0:0:
448,192,219957,1,0,0:0:0:0:
192,192,220034,1,0,0:0:0:0:
64,192,220188,1,0,0:0:0:0:
448,192,220265,1,0,0:0:0:0:
192,192,220342,1,0,0:0:0:0:
320,192,220419,1,0,0:0:0:0:
448,192,220572,1,0,0:0:0:0:
64,192,220649,1,0,0:0:0:0:
192,192,220803,128,0,220880:0:0:0:0:
448,192,220880,1,0,0:0:0:0:
320,192,220957,1,0,0:0:0:0:
192,192,221034,1,0,0:0:0:0:
448,192,221111,1,0,0:0:0:0:
64,192,221188,1,0,0:0:0:0:
448,192,221265,1,0,0:0:0:0:
64,192,221419,1,0,0:0:0:0:
448,192,221495,1,0,0:0:0:0:
64,192,221572,1,0,0:0:0:0:
320,192,221726,1,0,0:0:0:0:
448,192,221726,1,0,0:0:0:0:
64,192,222034,1,0,0:0:0:0:
448,192,222034,1,0,0:0:0:0:
64,192,222342,1,0,0:0:0:0:
192,192,222342,1,0,0:0:0:0:
64,192,222649,1,0,0:0:0:0:
448,192,222649,1,0,0:0:0:0:
192,192,222957,1,0,0:0:0:0:
448,192,222957,1,0,0:0:0:0:
64,192,223265,1,0,0:0:0:0:
448,192,223265,1,0,0:0:0:0:
64,192,223572,1,0,0:0:0:0:
320,192,223572,1,0,0:0:0:0:
64,192,223880,1,0,0:0:0:0:
448,192,223880,1,0,0:0:0:0:
192,192,224188,1,0,0:0:0:0:
320,192,224188,1,0,0:0:0:0:
192,192,224495,1,0,0:0:0:0:
448,192,224495,1,0,0:0:0:0:
192,192,224803,1,0,0:0:0:0:
320,192,224803,1,0,0:0:0:0:
64,192,225111,1,0,0:0:0:0:
320,192,225111,1,0,0:0:0:0:
192,192,225419,1,0,0:0:0:0:
320,192,225419,1,0,0:0:0:0:
320,192,225726,1,0,0:0:0:0:
448,192,225726,1,0,0:0:0:0:
192,192,226034,1,0,0:0:0:0:
320,192,226034,1,0,0:0:0:0:
64,192,226342,1,0,0:0:0:0:
192,192,226342,1,0,0:0:0:0:
192,192,226649,1,0,0:0:0:0:
448,192,226649,1,0,0:0:0:0:
64,192,226803,1,0,0:0:0:0:
448,192,226803,1,0,0:0:0:0:
320,192,226957,1,0,0:0:0:0:
448,192,226957,1,0,0:0:0:0:
192,192,227111,1,0,0:0:0:0:
448,192,227111,1,0,0:0:0:0:
64,192,227265,1,0,0:0:0:0:
320,192,227265,1,0,0:0:0:0:
64,192,227419,1,0,0:0:0:0:
448,192,227419,1,0,0:0:0:0:
64,192,227572,1,0,0:0:0:0:
192,192,227572,1,0,0:0:0:0:
64,192,227726,1,0,0:0:0:0:
320,192,227726,1,0,0:0:0:0:
320,192,227880,1,0,0:0:0:0:
448,192,227880,1,0,0:0:0:0:
64,192,228034,1,0,0:0:0:0:
448,192,228034,1,0,0:0:0:0:
192,192,228188,1,0,0:0:0:0:
320,192,228188,1,0,0:0:0:0:
64,192,228342,1,0,0:0:0:0:
320,192,228342,1,0,0:0:0:0:
64,192,228495,1,0,0:0:0:0:
192,192,228495,1,0,0:0:0:0:
64,192,228649,1,0,0:0:0:0:
448,192,228649,1,0,0:0:0:0:
192,192,228803,1,0,0:0:0:0:
320,192,228803,1,0,0:0:0:0:
192,192,228957,1,0,0:0:0:0:
448,192,228957,1,0,0:0:0:0:
320,192,229111,1,0,0:0:0:0:
448,192,229111,1,0,0:0:0:0:
64,192,229188,1,0,0:0:0:0:
192,192,229188,1,0,0:0:0:0:
320,192,229265,1,0,0:0:0:0:
448,192,229265,1,0,0:0:0:0:
64,192,229342,1,0,0:0:0:0:
192,192,229342,1,0,0:0:0:0:
320,192,229419,1,0,0:0:0:0:
448,192,229419,1,0,0:0:0:0:
64,192,229495,1,0,0:0:0:0:
192,192,229495,1,0,0:0:0:0:
320,192,229572,1,0,0:0:0:0:
448,192,229572,1,0,0:0:0:0:
64,192,229649,1,0,0:0:0:0:
192,192,229649,1,0,0:0:0:0:
320,192,229726,1,0,0:0:0:0:
448,192,229726,1,0,0:0:0:0:
64,192,229803,1,0,0:0:0:0:
192,192,229803,1,0,0:0:0:0:
320,192,229880,1,0,0:0:0:0:
448,192,229880,1,0,0:0:0:0:
64,192,229957,1,0,0:0:0:0:
192,192,229957,1,0,0:0:0:0:
320,192,230034,1,0,0:0:0:0:
448,192,230034,1,0,0:0:0:0:
64,192,230111,1,0,0:0:0:0:
192,192,230111,1,0,0:0:0:0:
320,192,230188,1,0,0:0:0:0:
448,192,230188,1,0,0:0:0:0:
64,192,230265,1,0,0:0:0:0:
448,192,230265,1,0,0:0:0:0:
64,192,230342,128,0,232649:0:0:0:0:
192,192,230342,128,0,232649:0:0:0:0:
320,192,230342,128,0,232649:0:0:0:0:
64,192,232803,1,0,0:0:0:0:
192,192,232803,1,0,0:0:0:0:
448,192,232854,1,0,0:0:0:0:
64,192,232906,1,0,0:0:0:0:
320,192,232957,1,0,0:0:0:0:
192,192,233008,1,0,0:0:0:0:
64,192,233060,1,0,0:0:0:0:
320,192,233111,1,0,0:0:0:0:
448,192,233111,1,0,0:0:0:0:
192,192,233162,1,0,0:0:0:0:
64,192,233213,1,0,0:0:0:0:
320,192,233265,1,0,0:0:0:0:
448,192,233316,1,0,0:0:0:0:
64,192,233367,1,0,0:0:0:0:
192,192,233419,1,0,0:0:0:0:
320,192,233419,1,0,0:0:0:0:
448,192,233470,1,0,0:0:0:0:
192,192,233521,1,0,0:0:0:0:
320,192,233572,1,0,0:0:0:0:
448,192,233624,1,0,0:0:0:0:
64,192,233675,1,0,0:0:0:0:
192,192,233726,1,0,0:0:0:0:
320,192,233726,1,0,0:0:0:0:
448,192,233778,1,0,0:0:0:0:
64,192,233829,1,0,0:0:0:0:
320,192,233880,1,0,0:0:0:0:
448,192,233931,1,0,0:0:0:0:
192,192,233983,1,0,0:0:0:0:
64,192,234034,1,0,0:0:0:0:
320,192,234034,1,0,0:0:0:0:
448,192,234085,1,0,0:0:0:0:
320,192,234136,1,0,0:0:0:0:
192,192,234188,1,0,0:0:0:0:
64,192,234239,1,0,0:0:0:0:
320,192,234290,1,0,0:0:0:0:
192,192,234342,1,0,0:0:0:0:
448,192,234342,1,0,0:0:0:0:
64,192,234393,1,0,0:0:0:0:
320,192,234444,1,0,0:0:0:0:
192,192,234495,1,0,0:0:0:0:
448,192,234547,1,0,0:0:0:0:
320,192,234598,1,0,0:0:0:0:
64,192,234649,1,0,0:0:0:0:
192,192,234649,1,0,0:0:0:0:
448,192,234701,1,0,0:0:0:0:
320,192,234752,1,0,0:0:0:0:
192,192,234803,1,0,0:0:0:0:
448,192,234854,1,0,0:0:0:0:
64,192,234906,1,0,0:0:0:0:
192,192,234957,1,0,0:0:0:0:
320,192,234957,1,0,0:0:0:0:
448,192,235008,1,0,0:0:0:0:
64,192,235060,1,0,0:0:0:0:
320,192,235111,1,0,0:0:0:0:
192,192,235162,1,0,0:0:0:0:
64,192,235213,1,0,0:0:0:0:
320,192,235265,1,0,0:0:0:0:
448,192,235265,1,0,0:0:0:0:
192,192,235316,1,0,0:0:0:0:
448,192,235367,1,0,0:0:0:0:
320,192,235419,1,0,0:0:0:0:
192,192,235470,1,0,0:0:0:0:
64,192,235521,1,0,0:0:0:0:
320,192,235572,1,0,0:0:0:0:
448,192,235572,1,0,0:0:0:0:
192,192,235624,1,0,0:0:0:0:
64,192,235675,1,0,0:0:0:0:
320,192,235726,1,0,0:0:0:0:
448,192,235778,1,0,0:0:0:0:
192,192,235829,1,0,0:0:0:0:
64,192,235880,1,0,0:0:0:0:
320,192,235880,1,0,0:0:0:0:
448,192,235931,1,0,0:0:0:0:
64,192,235983,1,0,0:0:0:0:
320,192,236034,1,0,0:0:0:0:
448,192,236085,1,0,0:0:0:0:
192,192,236136,1,0,0:0:0:0:
64,192,236188,1,0,0:0:0:0:
320,192,236188,1,0,0:0:0:0:
448,192,236239,1,0,0:0:0:0:
192,192,236290,1,0,0:0:0:0:
320,192,236342,1,0,0:0:0:0:
64,192,236393,1,0,0:0:0:0:
192,192,236444,1,0,0:0:0:0:
320,192,236495,1,0,0:0:0:0:
448,192,236495,1,0,0:0:0:0:
64,192,236547,1,0,0:0:0:0:
448,192,236598,1,0,0:0:0:0:
192,192,236649,1,0,0:0:0:0:
320,192,236701,1,0,0:0:0:0:
448,192,236752,1,0,0:0:0:0:
64,192,236803,1,0,0:0:0:0:
192,192,236803,1,0,0:0:0:0:
320,192,236854,1,0,0:0:0:0:
192,192,236906,1,0,0:0:0:0:
448,192,236957,1,0,0:0:0:0:
64,192,237008,1,0,0:0:0:0:
192,192,237060,1,0,0:0:0:0:
320,192,237111,1,0,0:0:0:0:
448,192,237111,1,0,0:0:0:0:
64,192,237162,1,0,0:0:0:0:
320,192,237213,1,0,0:0:0:0:
192,192,237265,1,0,0:0:0:0:
448,192,237316,1,0,0:0:0:0:
320,192,237367,1,0,0:0:0:0:
64,192,237419,1,0,0:0:0:0:
192,192,237419,1,0,0:0:0:0:
448,192,237470,1,0,0:0:0:0:
64,192,237521,1,0,0:0:0:0:
320,192,237572,1,0,0:0:0:0:
192,192,237624,1,0,0:0:0:0:
64,192,237675,1,0,0:0:0:0:
320,192,237726,1,0,0:0:0:0:
448,192,237726,1,0,0:0:0:0:
192,192,237778,1,0,0:0:0:0:
320,192,237829,1,0,0:0:0:0:
448,192,237880,1,0,0:0:0:0:
64,192,237931,1,0,0:0:0:0:
320,192,237983,1,0,0:0:0:0:
192,192,238034,1,0,0:0:0:0:
448,192,238034,1,0,0:0:0:0:
64,192,238085,1,0,0:0:0:0:
320,192,238136,1,0,0:0:0:0:
448,192,238188,1,0,0:0:0:0:
192,192,238239,1,0,0:0:0:0:
320,192,238290,1,0,0:0:0:0:
64,192,238342,1,0,0:0:0:0:
448,192,238342,1,0,0:0:0:0:
192,192,238393,1,0,0:0:0:0:
448,192,238444,1,0,0:0:0:0:
320,192,238495,1,0,0:0:0:0:
192,192,238547,1,0,0:0:0:0:
64,192,238598,1,0,0:0:0:0:
320,192,238649,1,0,0:0:0:0:
448,192,238649,1,0,0:0:0:0:
192,192,238701,1,0,0:0:0:0:
64,192,238752,1,0,0:0:0:0:
320,192,238803,1,0,0:0:0:0:
192,192,238854,1,0,0:0:0:0:
448,192,238906,1,0,0:0:0:0:
64,192,238957,1,0,0:0:0:0:
320,192,238957,1,0,0:0:0:0:
192,192,239008,1,0,0:0:0:0:
320,192,239060,1,0,0:0:0:0:
64,192,239111,1,0,0:0:0:0:
192,192,239162,1,0,0:0:0:0:
320,192,239213,1,0,0:0:0:0:
64,192,239265,1,0,0:0:0:0:
448,192,239265,1,0,0:0:0:0:
192,192,239316,1,0,0:0:0:0:
320,192,239367,1,0,0:0:0:0:
448,192,239419,1,0,0:0:0:0:
192,192,239470,1,0,0:0:0:0:
320,192,239521,1,0,0:0:0:0:
64,192,239572,1,0,0:0:0:0:
448,192,239572,1,0,0:0:0:0:
192,192,239624,1,0,0:0:0:0:
448,192,239675,1,0,0:0:0:0:
64,192,239726,1,0,0:0:0:0:
320,192,239778,1,0,0:0:0:0:
64,192,239829,1,0,0:0:0:0:
192,192,239880,1,0,0:0:0:0:
448,192,239880,1,0,0:0:0:0:
320,192,239931,1,0,0:0:0:0:
64,192,239983,1,0,0:0:0:0:
448,192,240034,1,0,0:0:0:0:
320,192,240085,1,0,0:0:0:0:
192,192,240136,1,0,0:0:0:0:
64,192,240188,1,0,0:0:0:0:
448,192,240188,1,0,0:0:0:0:
320,192,240239,1,0,0:0:0:0:
64,192,240290,1,0,0:0:0:0:
192,192,240342,1,0,0:0:0:0:
320,192,240393,1,0,0:0:0:0:
448,192,240444,1,0,0:0:0:0:
64,192,240495,1,0,0:0:0:0:
192,192,240495,1,0,0:0:0:0:
448,192,240547,1,0,0:0:0:0:
320,192,240598,1,0,0:0:0:0:
192,192,240649,1,0,0:0:0:0:
64,192,240701,1,0,0:0:0:0:
448,192,240752,1,0,0:0:0:0:
64,192,240803,1,0,0:0:0:0:
320,192,240803,1,0,0:0:0:0:
192,192,240854,1,0,0:0:0:0:
320,192,240906,1,0,0:0:0:0:
448,192,240957,1,0,0:0:0:0:
64,192,241008,1,0,0:0:0:0:
192,192,241060,1,0,0:0:0:0:
320,192,241111,1,0,0:0:0:0:
448,192,241111,1,0,0:0:0:0:
64,192,241162,1,0,0:0:0:0:
448,192,241213,1,0,0:0:0:0:
192,192,241265,1,0,0:0:0:0:
64,192,241316,1,0,0:0:0:0:
320,192,241367,1,0,0:0:0:0:
192,192,241419,1,0,0:0:0:0:
448,192,241419,1,0,0:0:0:0:
64,192,241470,1,0,0:0:0:0:
320,192,241521,1,0,0:0:0:0:
192,192,241572,1,0,0:0:0:0:
448,192,241624,1,0,0:0:0:0:
320,192,241675,1,0,0:0:0:0:
192,192,241726,1,0,0:0:0:0:
448,192,241778,1,0,0:0:0:0:
320,192,241829,1,0,0:0:0:0:
64,192,241880,1,0,0:0:0:0:
192,192,241931,1,0,0:0:0:0:
320,192,241983,1,0,0:0:0:0:
64,192,242034,1,0,0:0:0:0:
192,192,242085,1,0,0:0:0:0:
448,192,242136,1,0,0:0:0:0:
320,192,242188,1,0,0:0:0:0:
192,192,242239,1,0,0:0:0:0:
448,192,242290,1,0,0:0:0:0:
64,192,242342,1,0,0:0:0:0:
320,192,242342,1,0,0:0:0:0:
192,192,242393,1,0,0:0:0:0:
448,192,242444,1,0,0:0:0:0:
64,192,242495,1,0,0:0:0:0:
192,192,242547,1,0,0:0:0:0:
448,192,242598,1,0,0:0:0:0:
64,192,242649,1,0,0:0:0:0:
320,192,242649,1,0,0:0:0:0:
192,192,242701,1,0,0:0:0:0:
64,192,242752,1,0,0:0:0:0:
448,192,242803,1,0,0:0:0:0:
192,192,242854,1,0,0:0:0:0:
320,192,242906,1,0,0:0:0:0:
64,192,242957,1,0,0:0:0:0:
448,192,242957,1,0,0:0:0:0:
192,192,243008,1,0,0:0:0:0:
320,192,243060,1,0,0:0:0:0:
64,192,243111,1,0,0:0:0:0:
448,192,243162,1,0,0:0:0:0:
320,192,243213,1,0,0:0:0:0:
64,192,243265,1,0,0:0:0:0:
192,192,243265,1,0,0:0:0:0:
448,192,243316,1,0,0:0:0:0:
192,192,243367,1,0,0:0:0:0:
64,192,243419,1,0,0:0:0:0:
320,192,243470,1,0,0:0:0:0:
192,192,243521,1,0,0:0:0:0:
64,192,243572,1,0,0:0:0:0:
448,192,243572,1,0,0:0:0:0:
320,192,243624,1,0,0:0:0:0:
192,192,243675,1,0,0:0:0:0:
448,192,243726,1,0,0:0:0:0:
64,192,243778,1,0,0:0:0:0:
192,192,243829,1,0,0:0:0:0:
320,192,243880,1,0,0:0:0:0:
448,192,243880,1,0,0:0:0:0:
64,192,243931,1,0,0:0:0:0:
320,192,243983,1,0,0:0:0:0:
192,192,244034,1,0,0:0:0:0:
64,192,244085,1,0,0:0:0:0:
320,192,244136,1,0,0:0:0:0:
192,192,244188,1,0,0:0:0:0:
448,192,244188,1,0,0:0:0:0:
64,192,244239,1,0,0:0:0:0:
320,192,244290,1,0,0:0:0:0:
192,192,244342,1,0,0:0:0:0:
448,192,244393,1,0,0:0:0:0:
320,192,244444,1,0,0:0:0:0:
64,192,244495,1,0,0:0:0:0:
192,192,244495,1,0,0:0:0:0:
448,192,244547,1,0,0:0:0:0:
320,192,244598,1,0,0:0:0:0:
64,192,244649,1,0,0:0:0:0:
192,192,244701,1,0,0:0:0:0:
320,192,244752,1,0,0:0:0:0:
64,192,244803,1,0,0:0:0:0:
448,192,244803,1,0,0:0:0:0:
192,192,244854,1,0,0:0:0:0:
448,192,244906,1,0,0:0:0:0:
64,192,244957,1,0,0:0:0:0:
320,192,245008,1,0,0:0:0:0:
192,192,245060,1,0,0:0:0:0:
64,192,245111,1,0,0:0:0:0:
448,192,245111,1,0,0:0:0:0:
320,192,245162,1,0,0:0:0:0:
448,192,245213,1,0,0:0:0:0:
192,192,245265,1,0,0:0:0:0:
320,192,245316,1,0,0:0:0:0:
64,192,245367,1,0,0:0:0:0:
192,192,245419,1,0,0:0:0:0:
448,192,245419,1,0,0:0:0:0:
320,192,245470,1,0,0:0:0:0:
64,192,245521,1,0,0:0:0:0:
448,192,245572,1,0,0:0:0:0:
192,192,245624,1,0,0:0:0:0:
320,192,245675,1,0,0:0:0:0:
64,192,245726,1,0,0:0:0:0:
448,192,245726,1,0,0:0:0:0:
192,192,245778,1,0,0:0:0:0:
64,192,245829,1,0,0:0:0:0:
320,192,245880,1,0,0:0:0:0:
192,192,245931,1,0,0:0:0:0:
448,192,245983,1,0,0:0:0:0:
64,192,246034,1,0,0:0:0:0:
320,192,246034,1,0,0:0:0:0:
192,192,246085,1,0,0:0:0:0:
448,192,246136,1,0,0:0:0:0:
320,192,246188,1,0,0:0:0:0:
64,192,246239,1,0,0:0:0:0:
448,192,246290,1,0,0:0:0:0:
192,192,246342,1,0,0:0:0:0:
320,192,246342,1,0,0:0:0:0:
64,192,246393,1,0,0:0:0:0:
320,192,246444,1,0,0:0:0:0:
448,192,246495,1,0,0:0:0:0:
64,192,246547,1,0,0:0:0:0:
192,192,246598,1,0,0:0:0:0:
320,192,246649,1,0,0:0:0:0:
448,192,246649,1,0,0:0:0:0:
64,192,246701,1,0,0:0:0:0:
192,192,246752,1,0,0:0:0:0:
448,192,246803,1,0,0:0:0:0:
64,192,246854,1,0,0:0:0:0:
320,192,246906,1,0,0:0:0:0:
192,192,246957,1,0,0:0:0:0:
448,192,246957,1,0,0:0:0:0:
64,192,247008,1,0,0:0:0:0:
320,192,247060,1,0,0:0:0:0:
192,192,247111,1,0,0:0:0:0:
448,192,247162,1,0,0:0:0:0:
320,192,247213,1,0,0:0:0:0:
64,192,247265,1,0,0:0:0:0:
192,192,247265,1,0,0:0:0:0:
448,192,247316,1,0,0:0:0:0:
64,192,247367,1,0,0:0:0:0:
192,192,247419,1,0,0:0:0:0:
320,192,247470,1,0,0:0:0:0:
64,192,247521,1,0,0:0:0:0:
192,192,247572,1,0,0:0:0:0:
448,192,247572,1,0,0:0:0:0:
320,192,247726,1,0,0:0:0:0:
192,192,247803,1,0,0:0:0:0:
64,192,247880,1,0,0:0:0:0:
448,192,247880,1,0,0:0:0:0:
192,192,247957,1,0,0:0:0:0:
320,192,248034,1,0,0:0:0:0:
64,192,248188,1,0,0:0:0:0:
192,192,248188,1,0,0:0:0:0:
448,192,248342,1,0,0:0:0:0:
448,192,248495,1,0,0:0:0:0:
320,192,248572,1,0,0:0:0:0:
448,192,248649,1,0,0:0:0:0:
192,192,248803,1,0,0:0:0:0:
320,192,248803,1,0,0:0:0:0:
64,192,248957,1,0,0:0:0:0:
320,192,249034,1,0,0:0:0:0:
192,192,249111,1,0,0:0:0:0:
448,192,249111,1,0,0:0:0:0:
320,192,249188,1,0,0:0:0:0:
64,192,249265,1,0,0:0:0:0:
192,192,249419,1,0,0:0:0:0:
448,192,249419,1,0,0:0:0:0:
64,192,249572,1,0,0:0:0:0:
64,192,249726,1,0,0:0:0:0:
192,192,249803,1,0,0:0:0:0:
64,192,249880,1,0,0:0:0:0:
320,192,250034,1,0,0:0:0:0:
448,192,250034,1,0,0:0:0:0:
192,192,250111,1,0,0:0:0:0:
64,192,250188,1,0,0:0:0:0:
448,192,250188,1,0,0:0:0:0:
192,192,250265,1,0,0:0:0:0:
320,192,250342,1,0,0:0:0:0:
448,192,250342,1,0,0:0:0:0:
192,192,250419,1,0,0:0:0:0:
64,192,250495,1,0,0:0:0:0:
448,192,250495,1,0,0:0:0:0:
320,192,250572,1,0,0:0:0:0:
64,192,250649,1,0,0:0:0:0:
192,192,250649,1,0,0:0:0:0:
320,192,250726,1,0,0:0:0:0:
64,192,250803,1,0,0:0:0:0:
448,192,250803,1,0,0:0:0:0:
320,192,250880,1,0,0:0:0:0:
64,192,250957,1,0,0:0:0:0:
192,192,250957,1,0,0:0:0:0:
320,192,251034,1,0,0:0:0:0:
64,192,251111,1,0,0:0:0:0:
448,192,251111,1,0,0:0:0:0:
192,192,251265,128,0,252419:0:0:0:0:
320,192,251265,128,0,252111:0:0:0:0:
448,192,251419,1,0,0:0:0:0:
64,192,251495,1,0,0:0:0:0:
448,192,251572,1,0,0:0:0:0:
64,192,251649,1,0,0:0:0:0:
448,192,251726,1,0,0:0:0:0:
64,192,251880,1,0,0:0:0:0:
64,192,252034,1,0,0:0:0:0:
448,192,252111,1,0,0:0:0:0:
64,192,252188,1,0,0:0:0:0:
320,192,252188,1,0,0:0:0:0:
320,192,252342,1,0,0:0:0:0:
64,192,252419,1,0,0:0:0:0:
192,192,252495,1,0,0:0:0:0:
448,192,252495,1,0,0:0:0:0:
320,192,252547,1,0,0:0:0:0:
192,192,252598,1,0,0:0:0:0:
448,192,252649,1,0,0:0:0:0:
64,192,252701,1,0,0:0:0:0:
192,192,252752,1,0,0:0:0:0:
320,192,252803,1,0,0:0:0:0:
448,192,252803,1,0,0:0:0:0:
64,192,252854,1,0,0:0:0:0:
192,192,252906,1,0,0:0:0:0:
320,192,252957,1,0,0:0:0:0:
64,192,253008,1,0,0:0:0:0:
448,192,253060,1,0,0:0:0:0:
192,192,253111,1,0,0:0:0:0:
320,192,253111,1,0,0:0:0:0:
64,192,253162,1,0,0:0:0:0:
320,192,253213,1,0,0:0:0:0:
448,192,253265,1,0,0:0:0:0:
192,192,253316,1,0,0:0:0:0:
320,192,253367,1,0,0:0:0:0:
64,192,253419,1,0,0:0:0:0:
448,192,253419,1,0,0:0:0:0:
192,192,253470,1,0,0:0:0:0:
320,192,253521,1,0,0:0:0:0:
64,192,253572,1,0,0:0:0:0:
448,192,253624,1,0,0:0:0:0:
192,192,253675,1,0,0:0:0:0:
64,192,253726,1,0,0:0:0:0:
320,192,253726,1,0,0:0:0:0:
448,192,253778,1,0,0:0:0:0:
64,192,253829,1,0,0:0:0:0:
320,192,253880,1,0,0:0:0:0:
192,192,253931,1,0,0:0:0:0:
64,192,253983,1,0,0:0:0:0:
320,192,254034,1,0,0:0:0:0:
448,192,254034,1,0,0:0:0:0:
192,192,254085,1,0,0:0:0:0:
64,192,254136,1,0,0:0:0:0:
448,192,254188,1,0,0:0:0:0:
192,192,254239,1,0,0:0:0:0:
320,192,254290,1,0,0:0:0:0:
64,192,254342,1,0,0:0:0:0:
448,192,254342,1,0,0:0:0:0:
192,192,254393,1,0,0:0:0:0:
320,192,254444,1,0,0:0:0:0:
64,192,254495,1,0,0:0:0:0:
192,192,254547,1,0,0:0:0:0:
448,192,254598,1,0,0:0:0:0:
64,192,254649,1,0,0:0:0:0:
320,192,254649,1,0,0:0:0:0:
192,192,254701,1,0,0:0:0:0:
448,192,254752,1,0,0:0:0:0:
320,192,254803,1,0,0:0:0:0:
192,192,254854,1,0,0:0:0:0:
64,192,254906,1,0,0:0:0:0:
320,192,254957,1,0,0:0:0:0:
448,192,254957,1,0,0:0:0:0:
192,192,255008,1,0,0:0:0:0:
448,192,255060,1,0,0:0:0:0:
64,192,255111,1,0,0:0:0:0:
192,192,255162,1,0,0:0:0:0:
320,192,255213,1,0,0:0:0:0:
64,192,255265,1,0,0:0:0:0:
448,192,255265,1,0,0:0:0:0:
192,192,255316,1,0,0:0:0:0:
320,192,255367,1,0,0:0:0:0:
64,192,255419,1,0,0:0:0:0:
448,192,255470,1,0,0:0:0:0:
192,192,255521,1,0,0:0:0:0:
64,192,255572,1,0,0:0:0:0:
320,192,255572,1,0,0:0:0:0:
448,192,255624,1,0,0:0:0:0:
64,192,255675,1,0,0:0:0:0:
320,192,255726,1,0,0:0:0:0:
192,192,255778,1,0,0:0:0:0:
448,192,255829,1,0,0:0:0:0:
64,192,255880,1,0,0:0:0:0:
320,192,255880,1,0,0:0:0:0:
192,192,255931,1,0,0:0:0:0:
448,192,255983,1,0,0:0:0:0:
320,192,256034,1,0,0:0:0:0:
64,192,256085,1,0,0:0:0:0:
448,192,256136,1,0,0:0:0:0:
192,192,256188,1,0,0:0:0:0:
320,192,256188,1,0,0:0:0:0:
64,192,256239,1,0,0:0:0:0:
192,192,256290,1,0,0:0:0:0:
448,192,256342,1,0,0:0:0:0:
320,192,256393,1,0,0:0:0:0:
192,192,256444,1,0,0:0:0:0:
64,192,256495,1,0,0:0:0:0:
448,192,256495,1,0,0:0:0:0:
320,192,256547,1,0,0:0:0:0:
64,192,256598,1,0,0:0:0:0:
192,192,256649,1,0,0:0:0:0:
320,192,256701,1,0,0:0:0:0:
64,192,256752,1,0,0:0:0:0:
192,192,256803,1,0,0:0:0:0:
448,192,256803,1,0,0:0:0:0:
320,192,256854,1,0,0:0:0:0:
448,192,256906,1,0,0:0:0:0:
192,192,256957,1,0,0:0:0:0:
320,192,257008,1,0,0:0:0:0:
64,192,257060,1,0,0:0:0:0:
192,192,257111,1,0,0:0:0:0:
448,192,257111,1,0,0:0:0:0:
320,192,257162,1,0,0:0:0:0:
192,192,257213,1,0,0:0:0:0:
448,192,257265,1,0,0:0:0:0:
64,192,257316,1,0,0:0:0:0:
320,192,257367,1,0,0:0:0:0:
192,192,257419,1,0,0:0:0:0:
448,192,257419,1,0,0:0:0:0:
64,192,257470,1,0,0:0:0:0:
448,192,257521,1,0,0:0:0:0:
320,192,257572,1,0,0:0:0:0:
192,192,257624,1,0,0:0:0:0:
64,192,257675,1,0,0:0:0:0:
320,192,257726,1,0,0:0:0:0:
448,192,257726,1,0,0:0:0:0:
192,192,257778,1,0,0:0:0:0:
64,192,257829,1,0,0:0:0:0:
448,192,257880,1,0,0:0:0:0:
192,192,257931,1,0,0:0:0:0:
320,192,257983,1,0,0:0:0:0:
64,192,258034,1,0,0:0:0:0:
448,192,258034,1,0,0:0:0:0:
192,192,258085,1,0,0:0:0:0:
64,192,258136,1,0,0:0:0:0:
320,192,258188,1,0,0:0:0:0:
448,192,258239,1,0,0:0:0:0:
192,192,258290,1,0,0:0:0:0:
64,192,258342,1,0,0:0:0:0:
320,192,258342,1,0,0:0:0:0:
448,192,258393,1,0,0:0:0:0:
192,192,258444,1,0,0:0:0:0:
64,192,258495,1,0,0:0:0:0:
448,192,258547,1,0,0:0:0:0:
192,192,258598,1,0,0:0:0:0:
64,192,258649,1,0,0:0:0:0:
320,192,258649,1,0,0:0:0:0:
448,192,258701,1,0,0:0:0:0:
320,192,258752,1,0,0:0:0:0:
192,192,258803,1,0,0:0:0:0:
64,192,258854,1,0,0:0:0:0:
320,192,258906,1,0,0:0:0:0:
192,192,258957,1,0,0:0:0:0:
448,192,258957,1,0,0:0:0:0:
64,192,259008,1,0,0:0:0:0:
320,192,259060,1,0,0:0:0:0:
448,192,259111,1,0,0:0:0:0:
192,192,259162,1,0,0:0:0:0:
320,192,259213,1,0,0:0:0:0:
64,192,259265,1,0,0:0:0:0:
448,192,259265,1,0,0:0:0:0:
192,192,259316,1,0,0:0:0:0:
448,192,259367,1,0,0:0:0:0:
320,192,259419,1,0,0:0:0:0:
192,192,259470,1,0,0:0:0:0:
64,192,259521,1,0,0:0:0:0:
320,192,259572,1,0,0:0:0:0:
448,192,259572,1,0,0:0:0:0:
64,192,259624,1,0,0:0:0:0:
192,192,259675,1,0,0:0:0:0:
320,192,259726,1,0,0:0:0:0:
448,192,259778,1,0,0:0:0:0:
192,192,259829,1,0,0:0:0:0:
64,192,259880,1,0,0:0:0:0:
320,192,259880,1,0,0:0:0:0:
448,192,259931,1,0,0:0:0:0:
64,192,259983,1,0,0:0:0:0:
192,192,260034,1,0,0:0:0:0:
320,192,260085,1,0,0:0:0:0:
448,192,260136,1,0,0:0:0:0:
64,192,260188,1,0,0:0:0:0:
192,192,260188,1,0,0:0:0:0:
320,192,260239,1,0,0:0:0:0:
192,192,260290,1,0,0:0:0:0:
64,192,260342,1,0,0:0:0:0:
320,192,260393,1,0,0:0:0:0:
192,192,260444,1,0,0:0:0:0:
64,192,260495,1,0,0:0:0:0:
448,192,260495,1,0,0:0:0:0:
320,192,260547,1,0,0:0:0:0:
448,192,260598,1,0,0:0:0:0:
192,192,260649,1,0,0:0:0:0:
320,192,260701,1,0,0:0:0:0:
448,192,260752,1,0,0:0:0:0:
64,192,260803,1,0,0:0:0:0:
192,192,260803,1,0,0:0:0:0:
320,192,260854,1,0,0:0:0:0:
64,192,260906,1,0,0:0:0:0:
448,192,260957,1,0,0:0:0:0:
192,192,261008,1,0,0:0:0:0:
320,192,261060,1,0,0:0:0:0:
64,192,261111,1,0,0:0:0:0:
448,192,261111,1,0,0:0:0:0:
192,192,261162,1,0,0:0:0:0:
448,192,261213,1,0,0:0:0:0:
64,192,261265,1,0,0:0:0:0:
192,192,261316,1,0,0:0:0:0:
320,192,261367,1,0,0:0:0:0:
64,192,261419,1,0,0:0:0:0:
448,192,261419,1,0,0:0:0:0:
192,192,261470,1,0,0:0:0:0:
320,192,261521,1,0,0:0:0:0:
64,192,261572,1,0,0:0:0:0:
448,192,261624,1,0,0:0:0:0:
320,192,261675,1,0,0:0:0:0:
64,192,261726,1,0,0:0:0:0:
192,192,261726,1,0,0:0:0:0:
448,192,261778,1,0,0:0:0:0:
320,192,261829,1,0,0:0:0:0:
64,192,261880,1,0,0:0:0:0:
448,192,261931,1,0,0:0:0:0:
192,192,261983,1,0,0:0:0:0:
64,192,262034,1,0,0:0:0:0:
320,192,262034,1,0,0:0:0:0:
448,192,262085,1,0,0:0:0:0:
192,192,262136,1,0,0:0:0:0:
64,192,262188,1,0,0:0:0:0:
320,192,262239,1,0,0:0:0:0:
448,192,262290,1,0,0:0:0:0:
64,192,262342,1,0,0:0:0:0:
192,192,262342,1,0,0:0:0:0:
320,192,262393,1,0,0:0:0:0:
192,192,262444,1,0,0:0:0:0:
448,192,262495,1,0,0:0:0:0:
320,192,262547,1,0,0:0:0:0:
64,192,262598,1,0,0:0:0:0:
192,192,262649,1,0,0:0:0:0:
448,192,262649,1,0,0:0:0:0:
320,192,262701,1,0,0:0:0:0:
64,192,262752,1,0,0:0:0:0:
448,192,262803,1,0,0:0:0:0:
192,192,262854,1,0,0:0:0:0:
64,192,262906,1,0,0:0:0:0:
320,192,262957,1,0,0:0:0:0:
448,192,262957,1,0,0:0:0:0:
192,192,263008,1,0,0:0:0:0:
320,192,263060,1,0,0:0:0:0:
64,192,263111,1,0,0:0:0:0:
192,192,263162,1,0,0:0:0:0:
320,192,263213,1,0,0:0:0:0:
64,192,263265,1,0,0:0:0:0:
448,192,263265,1,0,0:0:0:0:
192,192,263316,1,0,0:0:0:0:
320,192,263367,1,0,0:0:0:0:
64,192,263419,1,0,0:0:0:0:
448,192,263470,1,0,0:0:0:0:
320,192,263521,1,0,0:0:0:0:
64,192,263572,1,0,0:0:0:0:
192,192,263572,1,0,0:0:0:0:
448,192,263624,1,0,0:0:0:0:
192,192,263675,1,0,0:0:0:0:
320,192,263726,1,0,0:0:0:0:
448,192,263778,1,0,0:0:0:0:
192,192,263829,1,0,0:0:0:0:
64,192,263880,1,0,0:0:0:0:
320,192,263880,1,0,0:0:0:0:
448,192,263931,1,0,0:0:0:0:
192,192,263983,1,0,0:0:0:0:
320,192,264034,1,0,0:0:0:0:
64,192,264085,1,0,0:0:0:0:
192,192,264136,1,0,0:0:0:0:
320,192,264188,1,0,0:0:0:0:
448,192,264188,1,0,0:0:0:0:
64,192,264239,1,0,0:0:0:0:
192,192,264290,1,0,0:0:0:0:
448,192,264342,1,0,0:0:0:0:
320,192,264393,1,0,0:0:0:0:
192,192,264444,1,0,0:0:0:0:
64,192,264495,1,0,0:0:0:0:
448,192,264495,1,0,0:0:0:0:
320,192,264547,1,0,0:0:0:0:
64,192,264598,1,0,0:0:0:0:
448,192,264649,1,0,0:0:0:0:
192,192,264701,1,0,0:0:0:0:
320,192,264752,1,0,0:0:0:0:
64,192,264803,1,0,0:0:0:0:
448,192,264803,1,0,0:0:0:0:
192,192,264854,1,0,0:0:0:0:
64,192,264906,1,0,0:0:0:0:
320,192,264957,1,0,0:0:0:0:
192,192,265008,1,0,0:0:0:0:
448,192,265060,1,0,0:0:0:0:
64,192,265111,1,0,0:0:0:0:
320,192,265111,1,0,0:0:0:0:
192,192,265162,1,0,0:0:0:0:
448,192,265213,1,0,0:0:0:0:
64,192,265265,1,0,0:0:0:0:
320,192,265316,1,0,0:0:0:0:
192,192,265367,1,0,0:0:0:0:
64,192,265419,1,0,0:0:0:0:
448,192,265419,1,0,0:0:0:0:
320,192,265470,1,0,0:0:0:0:
448,192,265521,1,0,0:0:0:0:
192,192,265572,1,0,0:0:0:0:
320,192,265624,1,0,0:0:0:0:
64,192,265675,1,0,0:0:0:0:
192,192,265726,1,0,0:0:0:0:
448,192,265726,1,0,0:0:0:0:
320,192,265778,1,0,0:0:0:0:
64,192,265829,1,0,0:0:0:0:
192,192,265880,1,0,0:0:0:0:
448,192,265931,1,0,0:0:0:0:
64,192,265983,1,0,0:0:0:0:
192,192,266034,1,0,0:0:0:0:
320,192,266034,1,0,0:0:0:0:
448,192,266085,1,0,0:0:0:0:
192,192,266136,1,0,0:0:0:0:
64,192,266188,1,0,0:0:0:0:
448,192,266239,1,0,0:0:0:0:
320,192,266290,1,0,0:0:0:0:
64,192,266342,1,0,0:0:0:0:
192,192,266342,1,0,0:0:0:0:
448,192,266393,1,0,0:0:0:0:
320,192,266444,1,0,0:0:0:0:
64,192,266495,1,0,0:0:0:0:
448,192,266547,1,0,0:0:0:0:
192,192,266598,1,0,0:0:0:0:
64,192,266649,1,0,0:0:0:0:
320,192,266649,1,0,0:0:0:0:
448,192,266701,1,0,0:0:0:0:
192,192,266752,1,0,0:0:0:0:
320,192,266803,1,0,0:0:0:0:
64,192,266854,1,0,0:0:0:0:
192,192,266906,1,0,0:0:0:0:
320,192,266957,1,0,0:0:0:0:
448,192,266957,1,0,0:0:0:0:
64,192,267008,1,0,0:0:0:0:
448,192,267060,1,0,0:0:0:0:
320,192,267111,1,0,0:0:0:0:
192,192,267162,1,0,0:0:0:0:
64,192,267213,1,0,0:0:0:0:
320,192,267265,1,0,0:0:0:0:
448,192,267265,1,0,0:0:0:0:
192,192,267342,1,0,0:0:0:0:
320,192,267419,1,0,0:0:0:0:
448,192,267419,1,0,0:0:0:0:
192,192,267495,1,0,0:0:0:0:
64,192,267572,1,0,0:0:0:0:
448,192,267572,1,0,0:0:0:0:
192,192,267649,1,0,0:0:0:0:
320,192,267726,1,0,0:0:0:0:
448,192,267726,1,0,0:0:0:0:
64,192,267803,1,0,0:0:0:0:
192,192,267880,1,0,0:0:0:0:
448,192,267880,1,0,0:0:0:0:
64,192,267957,1,0,0:0:0:0:
320,192,267957,1,0,0:0:0:0:
192,192,268034,1,0,0:0:0:0:
448,192,268034,1,0,0:0:0:0:
64,192,268111,1,0,0:0:0:0:
192,192,268188,1,0,0:0:0:0:
320,192,268188,1,0,0:0:0:0:
64,192,268265,1,0,0:0:0:0:
448,192,268265,1,0,0:0:0:0:
192,192,268342,1,0,0:0:0:0:
320,192,268342,1,0,0:0:0:0:
448,192,268419,1,0,0:0:0:0:
64,192,268495,1,0,0:0:0:0:
192,192,268495,1,0,0:0:0:0:
320,192,268572,1,0,0:0:0:0:
64,192,268649,1,0,0:0:0:0:
192,192,268649,1,0,0:0:0:0:
320,192,268726,1,0,0:0:0:0:
64,192,268803,1,0,0:0:0:0:
448,192,268803,1,0,0:0:0:0:
320,192,268880,1,0,0:0:0:0:
64,192,268957,1,0,0:0:0:0:
192,192,268957,1,0,0:0:0:0:
448,192,269034,1,0,0:0:0:0:
192,192,269111,1,0,0:0:0:0:
320,192,269111,1,0,0:0:0:0:
64,192,269188,1,0,0:0:0:0:
448,192,269188,1,0,0:0:0:0:
192,192,269265,1,0,0:0:0:0:
320,192,269265,1,0,0:0:0:0:
448,192,269342,1,0,0:0:0:0:
64,192,269419,1,0,0:0:0:0:
320,192,269419,1,0,0:0:0:0:
192,192,269495,1,0,0:0:0:0:
448,192,269495,1,0,0:0:0:0:
64,192,269572,1,0,0:0:0:0:
320,192,269572,1,0,0:0:0:0:
448,192,269649,1,0,0:0:0:0:
64,192,269726,1,0,0:0:0:0:
192,192,269726,1,0,0:0:0:0:
448,192,269803,1,0,0:0:0:0:
64,192,269880,1,0,0:0:0:0:
192,192,269957,1,0,0:0:0:0:
320,192,270034,1,0,0:0:0:0:
448,192,270034,1,0,0:0:0:0:
64,192,270111,1,0,0:0:0:0:
448,192,270188,1,0,0:0:0:0:
192,192,270265,1,0,0:0:0:0:
64,192,270342,1,0,0:0:0:0:
320,192,270342,1,0,0:0:0:0:
448,192,270419,1,0,0:0:0:0:
64,192,270495,1,0,0:0:0:0:
320,192,270572,1,0,0:0:0:0:
192,192,270649,1,0,0:0:0:0:
448,192,270649,1,0,0:0:0:0:
64,192,270726,1,0,0:0:0:0:
448,192,270803,1,0,0:0:0:0:
320,192,270880,1,0,0:0:0:0:
64,192,270957,128,0,272111:0:0:0:0:
192,192,270957,128,0,272111:0:0:0:0:
64,192,272188,1,0,0:0:0:0:
320,192,272188,128,0,272226:0:0:0:0:
448,192,272188,1,0,0:0:0:0:
320,192,272342,1,0,0:0:0:0:
64,192,272495,1,0,0:0:0:0:
192,192,272495,1,0,0:0:0:0:
64,192,272649,1,0,0:0:0:0:
320,192,272649,1,0,0:0:0:0:
448,192,272649,1,0,0:0:0:0:
320,192,272803,1,0,0:0:0:0:
64,192,272957,1,0,0:0:0:0:
192,192,272957,1,0,0:0:0:0:
64,192,273111,1,0,0:0:0:0:
320,192,273188,1,0,0:0:0:0:
448,192,273188,1,0,0:0:0:0:
192,192,273265,1,0,0:0:0:0:
320,192,273342,1,0,0:0:0:0:
448,192,273342,1,0,0:0:0:0:
64,192,273419,1,0,0:0:0:0:
448,192,273419,1,0,0:0:0:0:
64,192,273572,1,0,0:0:0:0:
448,192,273572,1,0,0:0:0:0:
192,192,273726,1,0,0:0:0:0:
320,192,273726,128,0,273957:0:0:0:0:
448,192,273880,1,0,0:0:0:0:
64,192,273957,1,0,0:0:0:0:
192,192,273957,1,0,0:0:0:0:
320,192,274034,1,0,0:0:0:0:
64,192,274111,1,0,0:0:0:0:
192,192,274111,1,0,0:0:0:0:
64,192,274188,1,0,0:0:0:0:
448,192,274188,1,0,0:0:0:0:
192,192,274342,1,0,0:0:0:0:
448,192,274342,1,0,0:0:0:0:
320,192,274495,1,0,0:0:0:0:
64,192,274572,1,0,0:0:0:0:
64,192,274649,1,0,0:0:0:0:
192,192,274649,1,0,0:0:0:0:
448,192,274649,1,0,0:0:0:0:
192,192,274803,1,0,0:0:0:0:
320,192,274957,1,0,0:0:0:0:
448,192,274957,1,0,0:0:0:0:
64,192,275111,1,0,0:0:0:0:
192,192,275111,1,0,0:0:0:0:
448,192,275111,1,0,0:0:0:0:
192,192,275265,1,0,0:0:0:0:
320,192,275419,1,0,0:0:0:0:
448,192,275419,1,0,0:0:0:0:
448,192,275572,1,0,0:0:0:0:
192,192,275649,1,0,0:0:0:0:
320,192,275649,1,0,0:0:0:0:
64,192,275726,1,0,0:0:0:0:
192,192,275803,1,0,0:0:0:0:
320,192,275803,1,0,0:0:0:0:
64,192,275880,128,0,275919:0:0:0:0:
320,192,275880,1,0,0:0:0:0:
64,192,276034,1,0,0:0:0:0:
320,192,276034,1,0,0:0:0:0:
192,192,276188,1,0,0:0:0:0:
448,192,276188,1,0,0:0:0:0:
64,192,276342,1,0,0:0:0:0:
192,192,276419,1,0,0:0:0:0:
320,192,276419,1,0,0:0:0:0:
448,192,276495,128,0,276534:0:0:0:0:
192,192,276572,1,0,0:0:0:0:
320,192,276572,1,0,0:0:0:0:
192,192,276649,1,0,0:0:0:0:
448,192,276649,1,0,0:0:0:0:
64,192,276803,1,0,0:0:0:0:
192,192,276803,1,0,0:0:0:0:
64,192,276957,1,0,0:0:0:0:
448,192,277034,1,0,0:0:0:0:
192,192,277111,128,0,277149:0:0:0:0:
320,192,277111,1,0,0:0:0:0:
448,192,277111,1,0,0:0:0:0:
320,192,277265,1,0,0:0:0:0:
64,192,277419,1,0,0:0:0:0:
192,192,277419,1,0,0:0:0:0:
192,192,277572,1,0,0:0:0:0:
320,192,277572,1,0,0:0:0:0:
448,192,277572,1,0,0:0:0:0:
320,192,277726,1,0,0:0:0:0:
64,192,277880,1,0,0:0:0:0:
192,192,277880,1,0,0:0:0:0:
320,192,278034,1,0,0:0:0:0:
64,192,278111,1,0,0:0:0:0:
192,192,278111,1,0,0:0:0:0:
448,192,278188,1,0,0:0:0:0:
192,192,278265,1,0,0:0:0:0:
320,192,278265,1,0,0:0:0:0:
320,192,278342,1,0,0:0:0:0:
448,192,278342,1,0,0:0:0:0:
320,192,278495,1,0,0:0:0:0:
448,192,278495,1,0,0:0:0:0:
64,192,278649,128,0,278880:0:0:0:0:
448,192,278649,1,0,0:0:0:0:
192,192,278803,1,0,0:0:0:0:
320,192,278880,1,0,0:0:0:0:
448,192,278880,1,0,0:0:0:0:
64,192,278957,1,0,0:0:0:0:
192,192,279034,1,0,0:0:0:0:
320,192,279034,1,0,0:0:0:0:
64,192,279111,1,0,0:0:0:0:
192,192,279111,1,0,0:0:0:0:
192,192,279265,1,0,0:0:0:0:
448,192,279265,1,0,0:0:0:0:
448,192,279419,1,0,0:0:0:0:
64,192,279495,1,0,0:0:0:0:
64,192,279572,1,0,0:0:0:0:
192,192,279572,1,0,0:0:0:0:
320,192,279572,1,0,0:0:0:0:
192,192,279726,1,0,0:0:0:0:
320,192,279880,1,0,0:0:0:0:
448,192,279880,1,0,0:0:0:0:
64,192,280034,1,0,0:0:0:0:
192,192,280034,1,0,0:0:0:0:
320,192,280034,1,0,0:0:0:0:
192,192,280188,1,0,0:0:0:0:
320,192,280342,1,0,0:0:0:0:
448,192,280342,1,0,0:0:0:0:
192,192,280495,1,0,0:0:0:0:
64,192,280572,1,0,0:0:0:0:
320,192,280572,1,0,0:0:0:0:
448,192,280649,1,0,0:0:0:0:
192,192,280726,1,0,0:0:0:0:
320,192,280726,1,0,0:0:0:0:
192,192,280803,1,0,0:0:0:0:
448,192,280803,128,0,280842:0:0:0:0:
192,192,280957,1,0,0:0:0:0:
448,192,280957,1,0,0:0:0:0:
64,192,281111,1,0,0:0:0:0:
192,192,281111,1,0,0:0:0:0:
320,192,281265,1,0,0:0:0:0:
192,192,281342,1,0,0:0:0:0:
448,192,281342,1,0,0:0:0:0:
64,192,281419,128,0,281457:0:0:0:0:
192,192,281495,1,0,0:0:0:0:
320,192,281495,1,0,0:0:0:0:
64,192,281572,1,0,0:0:0:0:
320,192,281572,1,0,0:0:0:0:
64,192,281726,1,0,0:0:0:0:
448,192,281726,1,0,0:0:0:0:
320,192,281880,1,0,0:0:0:0:
64,192,281957,1,0,0:0:0:0:
64,192,282034,1,0,0:0:0:0:
320,192,282034,128,0,282072:0:0:0:0:
448,192,282034,1,0,0:0:0:0:
64,192,282188,1,0,0:0:0:0:
320,192,282342,1,0,0:0:0:0:
448,192,282342,1,0,0:0:0:0:
64,192,282495,1,0,0:0:0:0:
192,192,282495,1,0,0:0:0:0:
448,192,282495,1,0,0:0:0:0:
448,192,282649,1,0,0:0:0:0:
64,192,282803,1,0,0:0:0:0:
192,192,282803,1,0,0:0:0:0:
64,192,282957,1,0,0:0:0:0:
320,192,283034,1,0,0:0:0:0:
448,192,283034,1,0,0:0:0:0:
64,192,283111,1,0,0:0:0:0:
192,192,283188,1,0,0:0:0:0:
320,192,283188,1,0,0:0:0:0:
320,192,283265,1,0,0:0:0:0:
448,192,283265,1,0,0:0:0:0:
320,192,283419,1,0,0:0:0:0:
448,192,283419,1,0,0:0:0:0:
64,192,283572,1,0,0:0:0:0:
320,192,283572,128,0,283803:0:0:0:0:
448,192,283726,1,0,0:0:0:0:
64,192,283803,1,0,0:0:0:0:
192,192,283803,1,0,0:0:0:0:
448,192,283880,1,0,0:0:0:0:
192,192,283957,1,0,0:0:0:0:
320,192,283957,1,0,0:0:0:0:
64,192,284034,1,0,0:0:0:0:
192,192,284034,1,0,0:0:0:0:
64,192,284188,1,0,0:0:0:0:
448,192,284188,1,0,0:0:0:0:
192,192,284342,1,0,0:0:0:0:
320,192,284419,1,0,0:0:0:0:
192,192,284495,1,0,0:0:0:0:
320,192,284495,1,0,0:0:0:0:
448,192,284495,1,0,0:0:0:0:
192,192,284649,1,0,0:0:0:0:
64,192,284803,1,0,0:0:0:0:
448,192,284803,1,0,0:0:0:0:
64,192,284957,1,0,0:0:0:0:
192,192,284957,1,0,0:0:0:0:
320,192,284957,1,0,0:0:0:0:
320,192,285111,128,0,285149:0:0:0:0:
64,192,285265,1,0,0:0:0:0:
448,192,285265,1,0,0:0:0:0:
448,192,285419,1,0,0:0:0:0:
192,192,285495,1,0,0:0:0:0:
320,192,285495,1,0,0:0:0:0:
64,192,285572,1,0,0:0:0:0:
192,192,285649,1,0,0:0:0:0:
320,192,285649,1,0,0:0:0:0:
320,192,285726,1,0,0:0:0:0:
448,192,285726,1,0,0:0:0:0:
64,192,285880,1,0,0:0:0:0:
448,192,285880,1,0,0:0:0:0:
320,192,286034,1,0,0:0:0:0:
448,192,286034,1,0,0:0:0:0:
64,192,286188,1,0,0:0:0:0:
192,192,286265,1,0,0:0:0:0:
320,192,286265,1,0,0:0:0:0:
448,192,286342,128,0,286380:0:0:0:0:
192,192,286419,1,0,0:0:0:0:
320,192,286419,1,0,0:0:0:0:
64,192,286495,1,0,0:0:0:0:
192,192,286495,1,0,0:0:0:0:
64,192,286649,1,0,0:0:0:0:
320,192,286649,1,0,0:0:0:0:
192,192,286803,1,0,0:0:0:0:
448,192,286880,1,0,0:0:0:0:
64,192,286957,1,0,0:0:0:0:
192,192,286957,128,0,286995:0:0:0:0:
448,192,286957,1,0,0:0:0:0:
64,192,287111,1,0,0:0:0:0:
320,192,287265,1,0,0:0:0:0:
448,192,287265,1,0,0:0:0:0:
64,192,287419,1,0,0:0:0:0:
192,192,287419,1,0,0:0:0:0:
320,192,287419,1,0,0:0:0:0:
64,192,287572,1,0,0:0:0:0:
192,192,287726,1,0,0:0:0:0:
320,192,287880,1,0,0:0:0:0:
64,192,287957,1,0,0:0:0:0:
448,192,287957,1,0,0:0:0:0:
192,192,288034,1,0,0:0:0:0:
64,192,288111,1,0,0:0:0:0:
320,192,288111,1,0,0:0:0:0:
64,192,288188,1,0,0:0:0:0:
448,192,288188,1,0,0:0:0:0:
64,192,288342,1,0,0:0:0:0:
448,192,288342,1,0,0:0:0:0:
192,192,288495,1,0,0:0:0:0:
320,192,288495,128,0,288726:0:0:0:0:
64,192,288649,1,0,0:0:0:0:
192,192,288726,1,0,0:0:0:0:
448,192,288726,1,0,0:0:0:0:
320,192,288803,1,0,0:0:0:0:
64,192,288880,1,0,0:0:0:0:
192,192,288880,1,0,0:0:0:0:
64,192,288957,1,0,0:0:0:0:
448,192,288957,1,0,0:0:0:0:
320,192,289111,1,0,0:0:0:0:
448,192,289111,1,0,0:0:0:0:
192,192,289265,1,0,0:0:0:0:
320,192,289342,1,0,0:0:0:0:
64,192,289419,128,0,289457:0:0:0:0:
192,192,289419,1,0,0:0:0:0:
320,192,289419,1,0,0:0:0:0:
192,192,289572,1,0,0:0:0:0:
320,192,289726,1,0,0:0:0:0:
448,192,289726,1,0,0:0:0:0:
64,192,289880,1,0,0:0:0:0:
192,192,289880,1,0,0:0:0:0:
448,192,289880,1,0,0:0:0:0:
192,192,290034,1,0,0:0:0:0:
320,192,290188,1,0,0:0:0:0:
448,192,290342,1,0,0:0:0:0:
64,192,290419,1,0,0:0:0:0:
192,192,290419,1,0,0:0:0:0:
320,192,290495,1,0,0:0:0:0:
64,192,290572,1,0,0:0:0:0:
192,192,290572,1,0,0:0:0:0:
64,192,290649,1,0,0:0:0:0:
448,192,290649,1,0,0:0:0:0:
64,192,290803,1,0,0:0:0:0:
448,192,290803,1,0,0:0:0:0:
320,192,290957,1,0,0:0:0:0:
448,192,290957,1,0,0:0:0:0:
192,192,291111,1,0,0:0:0:0:
320,192,291188,1,0,0:0:0:0:
448,192,291188,1,0,0:0:0:0:
192,192,291265,1,0,0:0:0:0:
64,192,291342,1,0,0:0:0:0:
320,192,291342,1,0,0:0:0:0:
64,192,291419,1,0,0:0:0:0:
192,192,291419,1,0,0:0:0:0:
320,192,291572,1,0,0:0:0:0:
448,192,291572,1,0,0:0:0:0:
192,192,291726,1,0,0:0:0:0:
448,192,291803,1,0,0:0:0:0:
64,192,291880,1,0,0:0:0:0:
192,192,291880,128,0,291919:0:0:0:0:
448,192,291880,1,0,0:0:0:0:
192,192,292034,1,0,0:0:0:0:
320,192,292188,1,0,0:0:0:0:
448,192,292188,1,0,0:0:0:0:
64,192,292342,1,0,0:0:0:0:
192,192,292342,1,0,0:0:0:0:
448,192,292342,1,0,0:0:0:0:
192,192,292495,1,0,0:0:0:0:
320,192,292649,1,0,0:0:0:0:
448,192,292649,1,0,0:0:0:0:
448,192,292803,1,0,0:0:0:0:
64,192,292880,1,0,0:0:0:0:
192,192,292880,1,0,0:0:0:0:
320,192,292957,1,0,0:0:0:0:
64,192,293034,1,0,0:0:0:0:
192,192,293034,1,0,0:0:0:0:
64,192,293111,1,0,0:0:0:0:
448,192,293111,1,0,0:0:0:0:
64,192,293265,1,0,0:0:0:0:
448,192,293265,1,0,0:0:0:0:
192,192,293419,1,0,0:0:0:0:
320,192,293419,1,0,0:0:0:0:
64,192,293572,1,0,0:0:0:0:
320,192,293649,1,0,0:0:0:0:
448,192,293649,1,0,0:0:0:0:
192,192,293726,1,0,0:0:0:0:
320,192,293803,1,0,0:0:0:0:
448,192,293803,1,0,0:0:0:0:
64,192,293880,1,0,0:0:0:0:
448,192,293880,1,0,0:0:0:0:
64,192,294034,1,0,0:0:0:0:
320,192,294034,1,0,0:0:0:0:
192,192,294188,1,0,0:0:0:0:
448,192,294265,1,0,0:0:0:0:
64,192,294342,1,0,0:0:0:0:
320,192,294342,1,0,0:0:0:0:
448,192,294342,1,0,0:0:0:0:
320,192,294495,1,0,0:0:0:0:
64,192,294649,1,0,0:0:0:0:
192,192,294649,1,0,0:0:0:0:
64,192,294803,1,0,0:0:0:0:
320,192,294803,1,0,0:0:0:0:
448,192,294803,1,0,0:0:0:0:
320,192,294957,1,0,0:0:0:0:
64,192,295111,1,0,0:0:0:0:
192,192,295111,1,0,0:0:0:0:
64,192,295265,1,0,0:0:0:0:
192,192,295342,1,0,0:0:0:0:
320,192,295342,1,0,0:0:0:0:
448,192,295419,1,0,0:0:0:0:
192,192,295495,1,0,0:0:0:0:
320,192,295495,1,0,0:0:0:0:
192,192,295572,1,0,0:0:0:0:
448,192,295572,128,0,295611:0:0:0:0:
192,192,295726,1,0,0:0:0:0:
448,192,295726,1,0,0:0:0:0:
64,192,295880,1,0,0:0:0:0:
320,192,295880,1,0,0:0:0:0:
448,192,296034,1,0,0:0:0:0:
192,192,296111,1,0,0:0:0:0:
320,192,296111,1,0,0:0:0:0:
64,192,296188,128,0,296226:0:0:0:0:
192,192,296265,1,0,0:0:0:0:
320,192,296265,1,0,0:0:0:0:
64,192,296342,1,0,0:0:0:0:
320,192,296342,1,0,0:0:0:0:
320,192,296495,1,0,0:0:0:0:
448,192,296495,1,0,0:0:0:0:
448,192,296649,1,0,0:0:0:0:
64,192,296726,1,0,0:0:0:0:
64,192,296803,1,0,0:0:0:0:
192,192,296803,1,0,0:0:0:0:
320,192,296803,128,0,296842:0:0:0:0:
192,192,296957,1,0,0:0:0:0:
320,192,297111,1,0,0:0:0:0:
448,192,297111,1,0,0:0:0:0:
64,192,297265,1,0,0:0:0:0:
192,192,297265,1,0,0:0:0:0:
320,192,297265,1,0,0:0:0:0:
192,192,297419,1,0,0:0:0:0:
320,192,297572,1,0,0:0:0:0:
448,192,297572,1,0,0:0:0:0:
192,192,297726,1,0,0:0:0:0:
320,192,297803,1,0,0:0:0:0:
448,192,297803,1,0,0:0:0:0:
64,192,297880,1,0,0:0:0:0:
320,192,297957,1,0,0:0:0:0:
448,192,297957,1,0,0:0:0:0:
192,192,298034,1,0,0:0:0:0:
448,192,298034,1,0,0:0:0:0:
64,192,298188,1,0,0:0:0:0:
192,192,298188,1,0,0:0:0:0:
64,192,298342,1,0,0:0:0:0:
448,192,298342,1,0,0:0:0:0:
320,192,298495,1,0,0:0:0:0:
64,192,298572,1,0,0:0:0:0:
192,192,298572,1,0,0:0:0:0:
448,192,298649,1,0,0:0:0:0:
64,192,298726,1,0,0:0:0:0:
192,192,298726,1,0,0:0:0:0:
64,192,298803,1,0,0:0:0:0:
320,192,298803,1,0,0:0:0:0:
64,192,298957,1,0,0:0:0:0:
320,192,298957,1,0,0:0:0:0:
64,192,299111,1,0,0:0:0:0:
448,192,299188,1,0,0:0:0:0:
192,192,299265,1,0,0:0:0:0:
320,192,299265,1,0,0:0:0:0:
448,192,299265,1,0,0:0:0:0:
320,192,299419,1,0,0:0:0:0:
64,192,299572,1,0,0:0:0:0:
192,192,299572,1,0,0:0:0:0:
192,192,299726,1,0,0:0:0:0:
320,192,299726,1,0,0:0:0:0:
448,192,299726,1,0,0:0:0:0:
320,192,299880,1,0,0:0:0:0:
64,192,300034,1,0,0:0:0:0:
192,192,300034,1,0,0:0:0:0:
320,192,300188,1,0,0:0:0:0:
192,192,300265,1,0,0:0:0:0:
448,192,300265,1,0,0:0:0:0:
64,192,300342,1,0,0:0:0:0:
192,192,300419,1,0,0:0:0:0:
320,192,300419,1,0,0:0:0:0:
64,192,300495,128,0,300534:0:0:0:0:
320,192,300495,1,0,0:0:0:0:
64,192,300649,1,0,0:0:0:0:
320,192,300649,1,0,0:0:0:0:
320,192,300803,1,0,0:0:0:0:
448,192,300803,1,0,0:0:0:0:
192,192,300957,1,0,0:0:0:0:
64,192,301034,1,0,0:0:0:0:
320,192,301034,1,0,0:0:0:0:
448,192,301111,128,0,301149:0:0:0:0:
192,192,301188,1,0,0:0:0:0:
320,192,301188,1,0,0:0:0:0:
192,192,301265,1,0,0:0:0:0:
448,192,301265,1,0,0:0:0:0:
64,192,301419,1,0,0:0:0:0:
448,192,301419,1,0,0:0:0:0:
192,192,301572,1,0,0:0:0:0:
448,192,301649,1,0,0:0:0:0:
64,192,301726,1,0,0:0:0:0:
192,192,301726,128,0,301765:0:0:0:0:
448,192,301726,1,0,0:0:0:0:
448,192,301880,1,0,0:0:0:0:
64,192,302034,1,0,0:0:0:0:
192,192,302034,1,0,0:0:0:0:
64,192,302188,1,0,0:0:0:0:
320,192,302188,1,0,0:0:0:0:
448,192,302188,1,0,0:0:0:0:
64,192,302342,1,0,0:0:0:0:
320,192,302495,1,0,0:0:0:0:
448,192,302495,1,0,0:0:0:0:
448,192,302649,1,0,0:0:0:0:
64,192,302726,1,0,0:0:0:0:
192,192,302726,1,0,0:0:0:0:
448,192,302803,1,0,0:0:0:0:
192,192,302880,1,0,0:0:0:0:
320,192,302880,1,0,0:0:0:0:
64,192,302957,1,0,0:0:0:0:
192,192,302957,1,0,0:0:0:0:
64,192,303111,1,0,0:0:0:0:
192,192,303111,1,0,0:0:0:0:
192,192,303265,1,0,0:0:0:0:
448,192,303265,1,0,0:0:0:0:
64,192,303419,1,0,0:0:0:0:
320,192,303495,1,0,0:0:0:0:
448,192,303495,1,0,0:0:0:0:
64,192,303572,1,0,0:0:0:0:
192,192,303649,1,0,0:0:0:0:
320,192,303649,1,0,0:0:0:0:
320,192,303726,1,0,0:0:0:0:
448,192,303726,1,0,0:0:0:0:
64,192,303880,1,0,0:0:0:0:
448,192,303880,1,0,0:0:0:0:
320,192,304034,1,0,0:0:0:0:
192,192,304111,1,0,0:0:0:0:
64,192,304188,1,0,0:0:0:0:
192,192,304188,1,0,0:0:0:0:
320,192,304188,1,0,0:0:0:0:
320,192,304342,1,0,0:0:0:0:
64,192,304495,1,0,0:0:0:0:
448,192,304495,1,0,0:0:0:0:
192,192,304649,1,0,0:0:0:0:
320,192,304649,1,0,0:0:0:0:
448,192,304649,1,0,0:0:0:0:
192,192,304803,128,0,304842:0:0:0:0:
64,192,304957,1,0,0:0:0:0:
448,192,304957,1,0,0:0:0:0:
64,192,305111,1,0,0:0:0:0:
192,192,305188,1,0,0:0:0:0:
320,192,305188,1,0,0:0:0:0:
448,192,305265,1,0,0:0:0:0:
192,192,305342,1,0,0:0:0:0:
320,192,305342,1,0,0:0:0:0:
64,192,305419,1,0,0:0:0:0:
192,192,305419,1,0,0:0:0:0:
64,192,305572,1,0,0:0:0:0:
448,192,305572,1,0,0:0:0:0:
64,192,305726,1,0,0:0:0:0:
192,192,305726,1,0,0:0:0:0:
448,192,305880,1,0,0:0:0:0:
192,192,305957,1,0,0:0:0:0:
320,192,305957,1,0,0:0:0:0:
64,192,306034,128,0,306072:0:0:0:0:
192,192,306111,1,0,0:0:0:0:
320,192,306111,1,0,0:0:0:0:
320,192,306188,1,0,0:0:0:0:
448,192,306188,1,0,0:0:0:0:
192,192,306342,1,0,0:0:0:0:
448,192,306342,1,0,0:0:0:0:
320,192,306495,1,0,0:0:0:0:
64,192,306572,1,0,0:0:0:0:
64,192,306649,1,0,0:0:0:0:
320,192,306649,128,0,306688:0:0:0:0:
448,192,306649,1,0,0:0:0:0:
448,192,306803,1,0,0:0:0:0:
64,192,306957,1,0,0:0:0:0:
192,192,306957,1,0,0:0:0:0:
192,192,307111,1,0,0:0:0:0:
320,192,307111,1,0,0:0:0:0:
448,192,307111,1,0,0:0:0:0:
448,192,307265,1,0,0:0:0:0:
320,192,307419,1,0,0:0:0:0:
192,192,307572,1,0,0:0:0:0:
64,192,307649,1,0,0:0:0:0:
448,192,307649,1,0,0:0:0:0:
320,192,307726,1,0,0:0:0:0:
192,192,307803,1,0,0:0:0:0:
448,192,307803,1,0,0:0:0:0:
64,192,307880,1,0,0:0:0:0:
448,192,307880,1,0,0:0:0:0:
64,192,308034,1,0,0:0:0:0:
448,192,308034,1,0,0:0:0:0:
192,192,308188,1,0,0:0:0:0:
320,192,308188,1,0,0:0:0:0:
448,192,308342,1,0,0:0:0:0:
64,192,308419,1,0,0:0:0:0:
320,192,308419,1,0,0:0:0:0:
192,192,308495,1,0,0:0:0:0:
320,192,308572,1,0,0:0:0:0:
448,192,308572,1,0,0:0:0:0:
64,192,308649,1,0,0:0:0:0:
448,192,308649,1,0,0:0:0:0:
64,192,308803,1,0,0:0:0:0:
192,192,308803,1,0,0:0:0:0:
320,192,308957,1,0,0:0:0:0:
192,192,309034,1,0,0:0:0:0:
192,192,309111,1,0,0:0:0:0:
320,192,309111,1,0,0:0:0:0:
448,192,309111,128,0,309149:0:0:0:0:
320,192,309265,1,0,0:0:0:0:
64,192,309419,1,0,0:0:0:0:
192,192,309419,1,0,0:0:0:0:
64,192,309572,1,0,0:0:0:0:
320,192,309572,1,0,0:0:0:0:
448,192,309572,1,0,0:0:0:0:
320,192,309726,1,0,0:0:0:0:
192,192,309880,1,0,0:0:0:0:
64,192,310034,1,0,0:0:0:0:
320,192,310111,1,0,0:0:0:0:
448,192,310111,1,0,0:0:0:0:
192,192,310188,1,0,0:0:0:0:
320,192,310265,1,0,0:0:0:0:
448,192,310265,1,0,0:0:0:0:
64,192,310342,1,0,0:0:0:0:
448,192,310342,1,0,0:0:0:0:
64,192,310495,1,0,0:0:0:0:
448,192,310495,1,0,0:0:0:0:
64,192,310649,1,0,0:0:0:0:
192,192,310649,1,0,0:0:0:0:
320,192,310803,1,0,0:0:0:0:
64,192,310880,1,0,0:0:0:0:
192,192,310880,1,0,0:0:0:0:
320,192,310957,1,0,0:0:0:0:
192,192,311034,1,0,0:0:0:0:
448,192,311034,1,0,0:0:0:0:
320,192,311111,1,0,0:0:0:0:
448,192,311111,1,0,0:0:0:0:
64,192,311265,1,0,0:0:0:0:
192,192,311265,1,0,0:0:0:0:
320,192,311419,1,0,0:0:0:0:
192,192,311495,1,0,0:0:0:0:
64,192,311572,1,0,0:0:0:0:
192,192,311572,1,0,0:0:0:0:
320,192,311572,1,0,0:0:0:0:
448,192,311572,1,0,0:0:0:0:
448,192,315265,128,0,316495:0:0:0:0:
320,192,315880,128,0,317111:0:0:0:0:
192,192,316495,128,0,320188:0:0:0:0:
320,192,320188,128,0,321419:0:0:0:0:
192,192,320803,128,0,322034:0:0:0:0:
64,192,321419,128,0,324495:0:0:0:0:
320,192,324495,128,0,325726:0:0:0:0:
192,192,325726,128,0,326957:0:0:0:0:
448,192,326342,128,0,328803:0:0:0:0:
64,192,328803,128,0,332495:0:0:0:0:
