osu file format v14

[General]
AudioFilename: audio.mp3
AudioLeadIn: 0
PreviewTime: -1
Countdown: 0
SampleSet: Soft
StackLeniency: 0.2
Mode: 0
LetterboxInBreaks: 0
WidescreenStoryboard: 0

[Editor]
Bookmarks: 19692,39384,57846,59076,72615,72846,73076,73230,113230,123076,141538,162461,182153,188307,188423,188961,189326,189846,190538,190884,191230,191846,192000,210461,221538,232615,270769,272000,274460,276921,279383,281844,284306,286767,289229,291690,292152,294152,296614,299075,301537,303998,306460,308921,311384
DistanceSpacing: 0.4
BeatDivisor: 16
GridSize: 32
TimelineZoom: 1.5

[Metadata]
Title:The Solace of Oblivion
TitleUnicode:The Solace of Oblivion
Artist:Helblinde
ArtistUnicode:Helblinde
Creator:Emilia
Version:Aspire
Source:
Tags:
BeatmapID:1260108
BeatmapSetID:595854

[Difficulty]
HPDrainRate:1
CircleSize:4.4
OverallDifficulty:7
ApproachRate:9.7
SliderMultiplier:3.4
SliderTickRate:1

[Events]
//Background and Video events
0,0,"dab bg.png",0,0
//Break Periods
//Storyboard Layer 0 (Background)
//Storyboard Layer 1 (Fail)
//Storyboard Layer 2 (Pass)
//Storyboard Layer 3 (Foreground)
//Storyboard Sound Samples

[TimingPoints]
0,307.692307692308,4,2,0,100,1,0
19692,-500,4,2,0,100,0,0
28307,-750,4,2,0,100,0,0
29538,-500,4,2,0,100,0,0
30769,-750,4,2,0,100,0,0
32000,-500,4,2,0,100,0,0
33230,-750,4,2,0,100,0,0
48000,-100,4,2,0,100,0,0
48230,-111.111111111111,4,2,0,100,0,0
48461,-125,4,2,0,100,0,0
48692,-142.857142857143,4,2,0,100,0,0
48923,-166.666666666667,4,2,0,100,0,0
49153,-200,4,2,0,100,0,0
54153,-333.333333333333,4,2,0,100,0,0
54769,-142.857142857143,4,2,0,100,0,0
55384,-90.9090909090909,4,2,0,100,0,0
56000,-66.6666666666667,4,2,0,100,0,0
56615,-333.333333333333,4,2,0,100,0,0
56923,-142.857142857143,4,2,0,100,0,0
57230,-90.9090909090909,4,2,0,100,0,0
57538,-66.6666666666667,4,2,0,100,0,0
59076,-100,4,2,0,100,0,0
62461,-25,4,2,0,100,0,0
62769,-100,4,2,0,100,0,0
63384,-500,4,2,0,100,0,0
63692,-100,4,2,0,100,0,0
65230,-666.666666666667,4,2,0,100,0,0
65384,-500,4,2,0,100,0,0
65692,-1000,4,2,0,100,0,0
66000,-666.666666666667,4,2,0,100,0,0
66307,-500,4,2,0,100,0,0
66461,-100,4,2,0,100,0,0
67692,-666.666666666667,4,2,0,100,0,0
67846,-500,4,2,0,100,0,0
68153,-1000,4,2,0,100,0,0
68461,-666.666666666667,4,2,0,100,0,0
68769,-500,4,2,0,100,0,0
68923,-100,4,2,0,100,0,0
70153,-666.666666666667,4,2,0,100,0,0
70307,-500,4,2,0,100,0,0
70615,-1000,4,2,0,100,0,0
70923,-666.666666666667,4,2,0,100,0,0
71230,-500,4,2,0,100,0,0
71384,-100,4,2,0,100,0,0
72615,-66.6666666666667,4,2,0,100,0,0
73846,-100,4,2,0,100,0,0
77538,-66.6666666666667,4,2,0,100,0,0
78615,-100,4,2,0,100,0,0
81230,-133.333333333333,4,2,0,100,0,0
81538,-100,4,2,0,100,0,0
83692,-250,4,2,0,100,0,0
84923,-66.6666666666667,4,2,0,100,0,0
86153,-250,4,2,0,100,0,0
87384,-66.6666666666667,4,2,0,100,0,0
88615,-250,4,2,0,100,0,0
89846,-66.6666666666667,4,2,0,100,0,0
91076,-250,4,2,0,100,0,0
92307,-500,4,2,0,100,0,0
93538,-83.3333333333333,4,2,0,100,0,0
97230,-125,4,2,0,100,0,0
97538,-90.9090909090909,4,2,0,100,0,0
97846,-71.4285714285714,4,2,0,100,0,0
98153,-58.8235294117647,4,2,0,100,0,0
98461,-83.3333333333333,4,2,0,100,0,0
102153,-666.666666666667,4,2,0,100,0,0
103384,-83.3333333333333,4,2,0,100,0,0
107076,-125,4,2,0,100,0,0
107384,-90.9090909090909,4,2,0,100,0,0
107692,-71.4285714285714,4,2,0,100,0,0
107999,-58.8235294117647,4,2,0,100,0,0
108307,-83.3333333333333,4,2,0,100,0,0
112000,-1000,4,2,0,100,0,0
112615,-333.333333333333,4,2,0,100,0,0
113230,-66.6666666666667,4,2,0,100,0,0
116923,-500,4,2,0,100,0,0
118153,-66.6666666666667,4,2,0,100,0,0
121846,-200,4,2,0,100,0,0
123076,-83.3333333333333,4,2,0,100,0,0
126769,-66.6666666666667,4,2,0,100,0,0
128000,-83.3333333333333,4,2,0,100,0,0
131692,-66.6666666666667,4,2,0,100,0,0
132923,-83.3333333333333,4,2,0,100,0,0
136615,-66.6666666666667,4,2,0,100,0,0
137846,-83.3333333333333,4,2,0,100,0,0
139692,-100,4,2,0,100,0,0
140000,-125,4,2,0,100,0,0
140307,-133.333333333333,4,2,0,100,0,0
141538,-50,4,2,0,100,0,0
142769,-100,4,2,0,100,0,0
143000,-111.111111111111,4,2,0,100,0,0
143230,-125,4,2,0,100,0,0
143461,-142.857142857143,4,2,0,100,0,0
143692,-166.666666666667,4,2,0,100,0,0
143923,-200,4,2,0,100,0,0
144153,-250,4,2,0,100,0,0
144384,-333.333333333333,4,2,0,100,0,0
144615,-500,4,2,0,100,0,0
144846,-1000,4,2,0,100,0,0
147692,-100,4,2,0,100,0,0
147923,-111.111111111111,4,2,0,100,0,0
148153,-125,4,2,0,100,0,0
148384,-142.857142857143,4,2,0,100,0,0
148615,-166.666666666667,4,2,0,100,0,0
148846,-200,4,2,0,100,0,0
149076,-500,4,2,0,100,0,0
149538,-1000,4,2,0,100,0,0
152615,-100,4,2,0,100,0,0
152846,-111.111111111111,4,2,0,100,0,0
153076,-125,4,2,0,100,0,0
153307,-142.857142857143,4,2,0,100,0,0
153538,-166.666666666667,4,2,0,100,0,0
153769,-200,4,2,0,100,0,0
154000,-500,4,2,0,100,0,0
154461,-1000,4,2,0,100,0,0
157538,-100,4,2,0,100,0,0
157769,-111.111111111111,4,2,0,100,0,0
157999,-125,4,2,0,100,0,0
158230,-142.857142857143,4,2,0,100,0,0
158461,-166.666666666667,4,2,0,100,0,0
158692,-200,4,2,0,100,0,0
158923,-500,4,2,0,100,0,0
159384,-1000,4,2,0,100,0,0
160000,-500,4,2,0,100,0,0
160307,-200,4,2,0,100,0,0
160615,-83.3333333333333,4,2,0,100,0,0
160769,-142.857142857143,4,2,0,100,0,0
161076,-93.75,4,2,0,100,0,0
161307,-305.555555555556,4,2,0,100,0,0
162461,-500,4,2,0,100,0,0
162769,-100,4,2,0,100,0,0
167384,-500,4,2,0,100,0,0
167692,-100,4,2,0,100,0,0
171692,-500,4,2,0,100,0,0
172000,-333.333333333333,4,2,0,100,0,0
172307,-500,4,2,0,100,0,0
172615,-100,4,2,0,100,0,0
177230,-500,4,2,0,100,0,0
177538,-100,4,2,0,100,0,0
179692,-500,4,2,0,100,0,0
180000,-100,4,2,0,100,0,0
182923,-200,4,2,0,100,0,0
183538,-166.666666666667,4,2,0,100,0,0
184153,-142.857142857143,4,2,0,100,0,0
184769,-125,4,2,0,100,0,0
185384,-111.111111111111,4,2,0,100,0,0
186000,-100,4,2,0,100,0,0
186615,-90.9090909090909,4,2,0,100,0,0
187230,-83.3333333333333,4,2,0,100,0,0
188307,-200,4,2,0,100,0,0
191230,-66.6666666666667,4,2,0,100,0,0
192000,-133.333333333333,4,2,0,100,0,0
209230,-166.666666666667,4,2,0,100,0,0
209538,-200,4,2,0,100,0,0
209846,-250,4,2,0,100,0,0
210153,-333.333333333333,4,2,0,100,0,0
210461,-500,4,2,0,100,0,0
211692,-66.6666666666667,4,2,0,100,0,0
212000,-153.846153846153,4,2,0,100,0,0
221538,-15.1515151515152,4,2,0,100,0,0
222769,-20,4,2,0,100,0,0
224000,-100,4,2,0,100,0,0
226461,153.846153846154,4,2,0,100,1,0
226461,-20,4,2,0,100,0,0
226614,-19.7800000000752,4,2,0,100,0,0
226768,-19.5624658879501,4,2,0,100,0,0
226922,-19.347278280128,4,2,0,100,0,0
227076,-19.211847408365,4,2,0,100,0,0
227230,-18.6585076694574,4,2,0,100,0,0
227537,-18.4532641201097,4,2,0,100,0,0
227691,-18.3948340389561,4,2,0,100,0,0
227845,-18.266070111381,4,2,0,100,0,0
227999,-18.2112719003833,4,2,0,100,0,0
228153,-18.1021686398031,4,2,0,100,0,0
228461,-18.0400919395246,4,2,0,100,0,0
228614,-17.9859996978352,4,2,0,100,0,0
228768,-18.0579143605867,4,2,0,100,0,0
229384,-18.1120899286999,4,2,0,100,0,0
229537,-18.1845366047266,4,2,0,100,0,0
229691,-18.2391221875274,4,2,0,100,0,0
229845,-18.3120669196174,4,2,0,100,0,0
229999,-18.5134789301347,4,2,0,100,0,0
230153,2461.53846153846,4,2,0,100,1,0
230153,-19.2307692307692,4,2,0,100,0,0
232614,307.692307692308,4,2,0,100,1,0
232614,-83.3333333333333,4,2,0,100,0,0
241229,-166.666666666667,4,2,0,100,0,0
242460,-83.3333333333334,4,2,0,100,0,0
247383,-166.666666666667,4,2,0,100,0,0
247690,-83.3333333333333,4,2,0,100,0,0
247998,-166.666666666667,4,2,0,100,0,0
248921,-83.3333333333333,4,2,0,100,0,0
249229,-166.666666666667,4,2,0,100,0,0
250152,-83.3333333333333,4,2,0,100,0,0
250460,-166.666666666667,4,2,0,100,0,0
251383,-83.3333333333333,4,2,0,100,0,0
251690,-166.666666666667,4,2,0,100,0,0
252306,-83.3333333333333,4,2,0,100,0,0
268306,-90.9090909090909,4,2,0,100,0,0
268921,-111.111111111111,4,2,0,100,0,0
269537,-142.857142857143,4,2,0,100,0,0
270152,-200,4,2,0,100,0,0
271998,-66.6666666666667,4,2,0,100,0,0
272614,-100,4,2,0,100,0,0
274460,-66.6666666666667,4,2,0,100,0,0
275076,-100,4,2,0,100,0,0
276921,-66.6666666666667,4,2,0,100,0,0
277537,-100,4,2,0,100,0,0
279383,-66.6666666666667,4,2,0,100,0,0
279999,-100,4,2,0,100,0,0
281844,-66.6666666666667,4,2,0,100,0,0
282460,-100,4,2,0,100,0,0
284306,-66.6666666666667,4,2,0,100,0,0
284921,-100,4,2,0,100,0,0
286767,-66.6666666666667,4,2,0,100,0,0
287383,-100,4,2,0,100,0,0
289229,-66.6666666666667,4,2,0,100,0,0
289845,-100,4,2,0,100,0,0
291690,-66.6666666666667,4,2,0,100,0,0
292306,-100,4,2,0,100,0,0
294152,-66.6666666666667,4,2,0,100,0,0
294768,-100,4,2,0,100,0,0
296614,-66.6666666666667,4,2,0,100,0,0
297229,-100,4,2,0,100,0,0
299075,-66.6666666666667,4,2,0,100,0,0
299691,-100,4,2,0,100,0,0
301537,-66.6666666666667,4,2,0,100,0,0
302153,-100,4,2,0,100,0,0
303998,-66.6666666666667,4,2,0,100,0,0
304614,-100,4,2,0,100,0,0
306460,-66.6666666666667,4,2,0,100,0,0
307075,-100,4,2,0,100,0,0
308921,-66.6666666666667,4,2,0,100,0,0
309537,-100,4,2,0,100,0,0
311383,2461.53846153846,4,2,0,100,1,0
311383,-1000,4,2,0,100,0,0

[Colours]
Combo1 : 106,99,254
Combo2 : 255,244,108
Combo3 : 255,210,106
Combo4 : 255,121,98
Combo5 : 255,102,174
Combo6 : 190,111,255

[HitObjects]
188,192,19692,6,0,L|334:192,1,136
324,192,20923,1,0,0:0:0:0:
324,192,22153,6,0,L|178:192,1,136
188,192,23384,2,0,L|261:192,1,68
256,192,24000,2,0,L|329:192,1,68
324,192,24615,6,0,L|188:192,1,136
188,192,25846,2,0,L|334:192,1,136
324,192,27076,6,0,L|251:192,1,68
256,192,27692,2,0,L|183:192,1,68
188,192,28307,6,0,L|334:192,1,136
324,192,29538,6,0,L|178:192,1,136
188,192,30769,2,0,L|334:192,1,136
324,192,32000,6,0,L|188:192,1,136
188,192,33230,2,0,L|334:192,1,136
256,192,34461,5,0,0:0:0:0:
256,192,34480,12,0,39076,0:0:0:0:
196,64,39384,5,0,0:0:0:0:
215,62,39691,1,0,0:0:0:0:
234,61,39999,1,0,0:0:0:0:
254,60,40307,1,0,0:0:0:0:
273,59,40614,1,0,0:0:0:0:
292,58,40922,1,0,0:0:0:0:
312,56,41230,1,0,0:0:0:0:
331,55,41538,1,0,0:0:0:0:
315,182,41691,1,0,0:0:0:0:
300,308,41846,5,0,0:0:0:0:
319,309,42153,1,0,0:0:0:0:
338,310,42461,1,0,0:0:0:0:
358,311,42769,1,0,0:0:0:0:
377,312,43076,1,0,0:0:0:0:
396,313,43384,1,0,0:0:0:0:
416,315,43692,1,0,0:0:0:0:
435,316,43999,1,0,0:0:0:0:
454,317,44307,5,0,0:0:0:0:
435,316,44614,1,0,0:0:0:0:
415,314,44922,1,0,0:0:0:0:
396,313,45230,1,0,0:0:0:0:
377,312,45537,1,0,0:0:0:0:
357,311,45845,1,0,0:0:0:0:
338,310,46153,1,0,0:0:0:0:
319,309,46460,1,0,0:0:0:0:
300,308,46769,5,0,0:0:0:0:
280,306,47077,1,0,0:0:0:0:
261,305,47385,1,0,0:0:0:0:
242,304,47692,1,0,0:0:0:0:
223,303,48000,6,0,B|231:350|184:380|125:361|121:315|115:262|189:249|212:269|223:303,1,255
223,303,48230,6,0,B|230:345|188:372|135:355|131:313|126:266|193:254|213:273|223:303,1,229.499992996216
223,303,48461,6,0,B|230:340|191:364|145:349|141:312|137:270|196:259|214:276|223:303,1,204
223,303,48692,6,0,B|229:335|195:357|154:344|151:311|148:274|199:265|215:279|223:303,1,178.499994552612
223,303,48923,6,0,B|228:331|199:349|164:338|161:310|158:278|203:270|216:283|223:303,1,152.999995330811
206,303,49230,5,0,0:0:0:0:
187,305,49537,1,0,0:0:0:0:
168,306,49845,1,0,0:0:0:0:
148,307,50153,1,0,0:0:0:0:
129,308,50460,1,0,0:0:0:0:
110,309,50768,1,0,0:0:0:0:
90,311,51076,1,0,0:0:0:0:
71,312,51384,1,0,0:0:0:0:
52,311,51692,5,0,0:0:0:0:
71,312,52000,1,0,0:0:0:0:
91,314,52308,1,0,0:0:0:0:
110,315,52616,1,0,0:0:0:0:
129,316,52923,1,0,0:0:0:0:
149,317,53231,1,0,0:0:0:0:
168,318,53539,1,0,0:0:0:0:
187,320,53846,1,0,0:0:0:0:
206,322,54153,6,0,P|220:292|211:258,1,50.9999984436036
206,322,54769,6,0,P|220:292|163:237,1,118.999996368408
206,322,55384,6,0,P|220:292|122:277,1,187.000005706787
206,322,56000,6,0,P|170:237|157:335,1,255.000009727478
206,322,56615,6,0,P|220:292|211:258,1,50.9999984436036
206,322,56923,6,0,P|220:292|163:237,1,118.999996368408
206,322,57230,6,0,P|220:292|122:277,1,187.000005706787
206,322,57538,6,0,P|170:237|157:335,1,255.000009727478
256,192,57846,12,0,58923,0:0:0:0:
194,175,59076,6,0,L|392:164,1,170
482,328,59384,2,0,B|509:366|509:366|369:339,1,170
282,355,59615,1,0,0:0:0:0:
246,360,59692,2,0,L|137:372,2,85
436,230,60000,2,0,B|453:101|453:101|420:46,1,170
334,21,60230,1,0,0:0:0:0:
298,35,60307,6,0,L|177:27,1,85
281,163,60461,2,0,L|402:155,1,85
118,95,60615,2,0,B|-7:83|-7:83|48:148,1,170
208,188,60846,1,0,0:0:0:0:
183,216,60923,2,0,P|116:237|83:224,1,85
273,293,61076,2,0,P|257:361|229:383,1,85
381,172,61230,2,0,P|432:219|417:323,1,170
375,374,61461,1,0,0:0:0:0:
340,351,61538,6,0,L|543:359,1,170
162,244,61846,2,0,B|151:377|151:377|224:325,1,170
242,175,62153,1,0,0:0:0:0:
234,133,62229,1,0,0:0:0:0:
226,91,62306,1,0,0:0:0:0:
242,175,62461,6,0,B|242:175|242:175|242:175|242:175|242:175|242:175|242:175|242:175|242:175|242:175|242:175|242:175|242:175|242:175|242:175|242:175|242:175|242:175|242:175|242:175|242:175|242:175|242:175|242:175|242:175|242:175|242:175|242:175|242:175|242:175|242:175|242:175|242:175|242:175|242:175|242:175|242:175|242:175|242:175|242:175|242:175|242:175|242:175|242:175|242:175|242:175|242:175|242:175|242:175|242:175|242:175|242:175|242:175|242:175|242:175|242:175|242:175|242:175|242:175|242:175|242:175|242:175|242:175|242:175|242:175|242:175|242:175|242:175|242:175|242:175|242:175|242:175|242:175|242:175|242:175|242:175|242:175|242:175|242:175|242:175|242:175|242:175|242:175|242:175|242:175|242:175|242:175|242:175|242:175|242:175|242:175|242:175|242:175|242:175|242:175|242:175|242:175|242:175|242:175|242:175|242:175|242:175|242:175|242:175|242:175|242:175|242:175|242:175|242:175|242:175|242:175|242:175|242:175|242:175|242:175|242:175|242:175|242:175|242:175|242:175|242:175|242:175|242:175|242:175|242:175|242:175|242:175|242:175|242:175|242:175|242:175|242:175|242:175|242:175|242:175|242:175|242:175|242:175|242:175|242:175|242:175|242:175|242:175|242:175|242:175|242:175|242:175|242:175|242:175|242:175|242:175|242:175|242:175|242:175|242:175|242:175|242:175|242:175|242:175|242:175|242:175|242:175|242:175|242:175|242:175|242:175|242:175|242:175|242:175|242:175|242:175|242:175|242:175|242:175|242:175|242:175|242:175|242:175|242:175|242:175|242:175|242:175|242:175|242:175|242:175|242:175|242:175|242:174|242:174|242:175|242:175|242:174|242:174|242:175|242:175|242:174|242:174|242:175|242:175|242:174|242:174|242:175|242:175|242:174|242:174|242:175|242:175|242:174|242:174|242:175|242:175|242:174|242:174|242:175|242:175|242:174|242:174|242:175|242:175|242:174|242:174|242:175|242:175|242:174|242:174|242:175|242:175|242:174|242:174|242:175|242:175|242:174|242:174|242:175|242:175|242:174|242:174|242:175|242:175|242:174|242:174|242:175|242:175|242:174|242:174|242:175|242:175|242:174|242:174|242:175|242:175|242:174|242:174|242:175|242:175|242:174|242:174|242:175|242:175|242:174|242:174|242:175|242:175|242:174|242:174|242:175|242:175|242:174|242:174|242:175|242:175|242:174|242:174|242:175|242:175|242:174|242:174|242:175|242:175|242:174|242:174|242:175|242:175|242:174|242:174|242:175|242:175|242:174|242:174|242:175|242:175|242:174|242:174|242:175|242:175|242:174|242:174|242:175|242:175|242:174|242:174|242:175|242:175|242:174|242:174|242:175|242:175|242:174|242:174|242:175|242:175|242:174|242:174|242:175|242:175|242:174|242:174|242:175|242:175|242:174|242:174|242:175|242:175|242:174|242:174|242:175|242:175|242:174|242:174|242:175|242:175|242:174|242:174|242:175|242:175|242:174|242:174|242:175|242:175|242:174|242:174|242:175|242:175|242:174|242:174|242:175|242:175|242:174|242:174|242:175|242:175|242:174|242:174|242:175|242:175|242:174|242:174|242:175|242:175|242:174|242:174|242:175|242:175|242:174|242:174|242:175|242:175|242:174|242:174|241:173|241:173|242:174|242:174|241:173|241:173|242:174|242:174|241:173|241:173|242:174|242:174|241:173|241:173|242:174|242:174|241:173|241:173|242:174|242:174|241:173|241:173|242:174|242:174|241:173|241:173|242:174|242:174|241:173|241:173|242:174|242:174|241:173|241:173|242:174|242:174|241:173|241:173|242:174|242:174|241:173|241:173|242:174|242:174|241:173|241:173|242:174|242:174|241:173|241:173|242:174|242:174|241:173|241:173|242:174|242:174|241:173|241:173|242:174|242:174|241:173|241:173|242:174|242:174|241:173|241:173|242:174|242:174|241:173|241:173|242:174|242:174|241:173|241:173|242:174|242:174|241:173|241:173|242:174|242:174|241:173|241:173|242:174|242:174|241:173|241:173|242:174|242:174|241:173|241:173|242:174|242:174|241:173|241:173|242:174|242:174|241:173|241:173|242:174|242:174|241:173|241:173|242:174|242:174|241:173|241:173|242:174|242:174|241:173|241:173|242:174|242:174|241:173|241:173|242:174|242:174|241:173|241:173|242:174|242:174|241:173|241:173|242:174|242:174|241:173|241:173|242:174|242:174|241:173|241:173|242:174|242:174|241:173|241:173|242:174|242:174|241:173|241:173|242:174|242:174|241:173|241:173|242:174|242:174|241:173|241:173|242:174|242:174|241:173|241:173|242:174|242:174|241:173|241:173|242:174|242:174|241:173|241:173|242:174|242:174|241:173|241:173|241:172|241:172|241:173|241:173|241:172|241:172|241:173|241:173|241:172|241:172|241:173|241:173|241:172|241:172|241:173|241:173|241:172|241:172|241:173|241:173|241:172|241:172|241:173|241:173|241:172|241:172|241:173|241:173|241:172|241:172|241:173|241:173|241:172|241:172|241:173|241:173|241:172|241:172|241:173|241:173|241:172|241:172|241:173|241:173|241:172|241:172|241:173|241:173|241:172|241:172|241:173|241:173|241:172|241:172|241:173|241:173|241:172|241:172|241:173|241:173|241:172|241:172|241:173|241:173|241:172|241:172|241:173|241:173|241:172|241:172|241:173|241:173|241:172|241:172|241:173|241:173|241:172|241:172|241:173|241:173|241:172|241:172|241:173|241:173|241:172|241:172|241:173|241:173|241:172|241:172|241:173|241:173|241:172|241:172|241:173|241:173|241:172|241:172|241:173|241:173|241:172|241:172|241:173|241:173|241:172|241:172|241:173|241:173|241:172|241:172|241:173|241:173|241:172|241:172|241:173|241:173|241:172|241:172|241:173|241:173|241:172|241:172|241:173|241:173|241:172|241:172|241:173|241:173|241:172|241:172|241:173|241:173|241:172|241:172|241:173|241:173|241:172|241:172|241:173|241:173|241:172|241:172|241:171|241:173|241:172|241:172|241:171|241:173|241:172|241:172|241:171|241:173|241:172|241:172|241:171|241:173|241:172|241:172|241:171|241:173|241:172|241:172|241:171|241:173|241:172|241:172|241:171|241:173|241:172|241:172|241:171|241:173|241:172|241:172|241:171|241:173|241:172|241:172|241:171|241:173|241:172|241:172|241:171|241:173|241:172|241:172|241:171|241:173|241:172|241:172|241:171|241:173|241:172|241:172|241:171|241:173|241:172|241:172|241:171|241:173|241:172|241:172|241:171|241:173|241:172|241:172|241:171|241:173|241:172|241:172|241:171|241:173|241:172|241:172|241:171|241:173|241:172|241:172|241:171|241:173|241:172|241:172|241:171|241:173|241:172|241:172|241:171|241:173|241:172|241:172|241:171|241:173|241:172|241:172|241:171|241:173|241:172|241:172|241:171|241:173|241:172|241:172|241:171|241:173|241:172|241:172|241:171|241:173|241:172|241:172|241:171|241:173|241:172|241:172|241:171|241:173|241:172|241:172|241:171|241:173|241:172|241:172|241:171|241:171|241:171|241:171|241:171|241:171|241:171|241:171|241:171|241:171|241:171|241:171|241:171|241:171|241:171|241:171|241:171|241:171|241:171|241:171|241:171|241:171|241:171|241:171|241:171|241:171|241:171|241:171|241:171|241:171|241:171|241:171|241:171|241:171|241:171|241:171|241:171|241:171|241:171|241:171|241:171|241:171|241:171|241:171|241:171|241:171|241:171|241:171|241:171|241:171|241:171|241:171|241:171|241:171|241:171|241:171|241:171|241:171|241:171|241:171|241:171|241:171|241:171|241:171|241:171|241:171|241:171|241:171|241:171|241:171|241:171|241:171|241:171|241:171|241:171|241:171|241:171|241:171|241:171|241:171|241:171|241:171|241:171|241:171|241:171|241:171|241:171|241:171|241:171|241:171|241:171|241:171|241:171|241:171|241:171|241:171|241:171|241:171|241:171|241:171|241:171|241:171|241:171|241:171|241:171|241:171|241:171|241:171|241:170|241:170|241:171|241:171|241:170|241:170|241:171|241:171|241:170|241:170|241:171|241:171|241:170|241:170|241:171|241:171|241:170|241:170|241:171|241:171|241:170|241:170|241:171|241:171|241:170|241:170|241:171|241:171|241:170|241:170|241:171|241:171|241:170|241:170|241:171|241:171|241:170|241:170|241:171|241:171|241:170|241:170|241:171|241:171|241:170|241:170|241:171|241:171|241:170|241:170|241:171|241:171|241:170|241:170|241:171|241:171|241:170|241:170|241:171|241:171|241:170|241:170|241:171|241:171|241:170|241:170|241:171|241:171|241:170|241:170|241:171|241:171|241:170|241:170|241:171|241:171|241:170|241:170|241:171|241:171|241:170|241:170|241:171|241:171|241:170|241:170|241:171|241:171|241:170|241:170|241:169|241:169|241:170|241:170|241:169|241:169|241:170|241:170|241:169|241:169|241:170|241:170|241:169|241:169|241:170|241:170|241:169|241:169|241:170|241:170|241:169|241:169|241:170|241:170|241:169|241:169|241:170|241:170|241:169|241:169|241:170|241:170|241:169|241:169|241:170|241:170|241:169|241:169|241:170|241:170|241:169|241:169|241:170|241:170|241:169|241:169|241:170|241:170|241:169|241:169|241:170|241:170|241:169|241:169|241:170|241:170|241:169|241:169|241:170|241:170|241:169|241:169|241:170|241:170|241:169|241:169|241:170|241:170|241:169|241:169|241:170|241:170|241:169|241:169|240:168|240:168|241:169|241:169|240:168|240:168|241:169|241:169|240:168|240:168|241:169|241:169|240:168|240:168|241:169|241:169|240:168|240:168|241:169|241:169|240:168|240:168|241:169|241:169|240:168|240:168|241:169|241:169|240:168|240:168|241:169|241:169|240:168|240:168|241:169|241:169|240:168|240:168|241:169|241:169|240:168|240:168|241:169|241:169|240:168|240:168|241:169|241:169|240:168|240:168|241:169|241:169|240:168|240:168|241:169|241:169|240:168|240:168|241:169|241:169|240:168|240:168|241:169|241:169|240:168|240:168|240:167|240:167|240:168|240:168|240:167|240:167|240:168|240:168|240:167|240:167|240:168|240:168|240:167|240:167|240:168|240:168|240:167|240:167|240:168|240:168|240:167|240:167|240:168|240:168|240:167|240:167|240:168|240:168|240:167|240:167|240:168|240:168|240:167|240:167|240:168|240:168|240:167|240:167|240:168|240:168|240:167|240:167|240:168|240:168|240:167|240:167|240:168|240:168|240:167|240:167|240:167|240:167|240:167|240:167|240:167|240:167|240:167|240:167|240:167|240:167|240:167|240:167|240:167|240:167|240:167|240:167|240:167|240:167|240:167|240:167|240:167|240:167|240:167|240:167|240:167|240:167|240:167|240:167|240:167|240:167|240:167|240:167|240:167|240:167|240:167|240:167|240:167|240:167|240:166|240:166|240:167|240:167|240:166|240:166|240:167|240:167|240:166|240:166|240:167|240:167|240:166|240:166|240:167|240:167|240:166|240:166|240:167|240:167|240:166|240:166|240:167|240:167|240:166|240:166|240:167|240:167|240:166|240:166|240:165|240:165|240:166|240:166|240:165|240:165|240:166|240:166|240:165|240:165|240:166|240:166|240:165|240:165|240:166|240:166|240:165|240:165|240:166|240:166|240:165|240:165|240:164|240:164|240:165|240:165|240:164|240:164|240:165|240:165|240:164|240:164|240:165|240:165|240:164|240:164|240:164|240:164|240:164|240:164|240:164|240:164|240:164|240:164|240:164|240:164|239:163|239:163|240:164|240:164|239:163|239:163|204:-19,1,680
337,50,62769,5,0,0:0:0:0:
360,85,62845,1,0,0:0:0:0:
363,127,62922,1,0,0:0:0:0:
234,251,63076,1,0,0:0:0:0:
62,182,63230,2,0,L|168:191,1,85
322,188,63384,6,0,L|318:224,1,34
234,251,63692,6,0,B|212:135|212:135|246:46,1,170
319,78,63923,1,0,0:0:0:0:
361,81,64000,6,0,B|491:88|491:88|445:52,1,170
266,16,64307,2,0,B|204:12|204:12|160:34|160:34|66:30,1,170
24,85,64538,1,0,0:0:0:0:
5,117,64615,6,0,L|16:237,1,85
86,326,64769,1,0,0:0:0:0:
104,298,64846,1,0,0:0:0:0:
129,280,64923,2,0,P|196:292|232:344,1,85
323,363,65076,2,0,P|387:351|419:317,1,85
400,241,65230,6,0,L|406:271,1,25.4999992218018
400,241,65384,6,0,L|392:205,1,34
400,241,65538,2,0,L|392:205,1,34
400,241,65692,6,0,L|403:260,1,17
400,241,65846,2,0,L|403:260,1,17
400,241,66000,6,0,L|406:271,1,25.4999992218018
400,241,66153,2,0,L|406:271,1,25.4999992218018
400,241,66307,6,0,L|392:205,1,34
400,241,66461,6,0,B|421:122|421:122|362:33,1,170
235,264,66769,2,0,L|347:254,1,85
506,130,66923,2,0,L|394:120,1,85
287,162,67076,5,0,0:0:0:0:
317,178,67153,2,0,L|199:173,1,85
36,176,67307,1,0,0:0:0:0:
8,199,67384,2,0,P|-3:249|18:299,1,85
68,384,67538,2,0,P|116:368|149:325,1,85
199,240,67692,6,0,L|168:237,1,25.4999992218018
199,240,67846,6,0,L|232:243,1,34
199,240,68000,6,0,L|232:243,1,34
199,240,68153,2,0,L|180:238,1,17
199,240,68307,2,0,L|180:238,1,17
199,240,68461,6,0,L|170:237,1,25.4999992218018
199,240,68615,2,0,L|174:238,1,25.4999992218018
199,240,68769,6,0,L|232:243,1,34
199,240,68923,6,0,P|134:299|53:265,1,170
225,161,69153,1,0,0:0:0:0:
212,139,69230,2,0,P|218:85|237:54,1,85
315,253,69384,2,0,P|333:290|335:333,1,85
225,161,69538,6,0,L|344:167,1,85
449,218,69692,1,0,0:0:0:0:
429,227,69769,1,0,0:0:0:0:
411,237,69846,2,0,L|530:231,1,85
512,28,70000,2,0,P|451:34|400:78,1,85
309,184,70153,6,0,L|305:210,1,25.4999992218018
309,184,70307,6,0,L|315:141,1,34
309,184,70461,2,0,L|315:141,1,34
309,184,70615,6,0,L|306:203,1,17
309,184,70769,2,0,L|306:203,1,17
309,184,70923,6,0,L|305:210,1,25.4999992218018
309,184,71076,2,0,L|305:210,1,25.4999992218018
309,184,71230,6,0,L|315:141,1,34
309,184,71384,6,0,B|199:168|199:168|135:188,1,170
57,220,71615,1,0,0:0:0:0:
28,241,71692,2,0,L|37:126,1,85
108,378,71846,1,0,0:0:0:0:
143,370,71923,1,0,0:0:0:0:
184,384,72000,6,0,L|175:269,1,85
360,257,72153,2,0,B|373:298|373:298|348:367,1,85
329,149,72307,2,0,B|395:141|395:141|434:147|434:147|525:133,1,170
422,63,72615,6,0,B|368:-13|239:33|254:140|254:140|242:146|242:146|254:140|254:140|242:146|242:146|254:140|254:140|242:146|242:146|254:140|254:140|242:146|242:146|254:140|254:140|242:146|242:146|254:140|254:140|242:146|242:146|254:140|254:140|242:146|242:146|254:140|254:140|242:146|242:146|215:196|112:200|65:136|84:62|84:62|74:57|74:57|84:62|84:62|74:57|74:57|84:62|84:62|74:57|74:57|84:62|84:62|74:57|74:57|84:62|84:62|74:57|74:57|84:62|84:62|74:57|74:57|84:62|84:62|74:57|74:57|80:121|43:157|15:172|15:172|24:178|24:178|15:172|15:172|24:178|24:178|15:172|15:172|24:178|24:178|15:172|15:172|24:178|24:178|15:172|15:172|24:178|24:178|15:172|15:172|24:178|24:178|15:172|15:172|24:178|24:178|36:237|16:287|16:287|15:291|15:291|16:287|16:287|15:291|15:291|15:294|15:294|15:291|15:291|15:294|15:294|15:291|15:291|15:294|15:294|14:298|14:298|15:294|15:294|14:298|14:298|15:294|15:294|14:298|14:298|15:294|15:294|14:298|14:298|14:302|14:302|14:298|14:298|14:302|14:302|14:298|14:298|14:302|14:302|14:298|14:298|14:302|14:302|14:298|14:298|14:302|14:302|14:298|14:298|14:302|14:302|13:307|13:307|14:302|14:302|13:307|13:307|14:302|14:302|13:307|13:307|14:302|14:302|13:307|13:307|14:302|14:302|13:307|13:307|14:302|14:302|13:307|13:307|14:302|14:302|13:307|13:307|14:302|14:302|13:307|13:307|12:311|12:311|13:307|13:307|12:311|12:311|13:307|13:307|12:311|12:311|13:307|13:307|12:311|12:311|13:307|13:307|12:311|12:311|13:307|13:307|12:311|12:311|13:307|13:307|12:311|12:311|13:307|13:307|12:311|12:311|13:307|13:307|12:311|12:311|13:307|13:307|12:311|12:311|13:307|13:307|12:311|12:311|12:314|12:314|12:311|12:311|12:314|12:314|12:311|12:311|12:314|12:314|12:311|12:311|12:314|12:314|12:311|12:311|12:314|12:314|12:311|12:311|12:314|12:314|12:311|12:311|12:314|12:314|12:311|12:311|12:314|12:314|12:311|12:311|12:314|12:314|12:311|12:311|12:314|12:314|12:311|12:311|12:314|12:314|12:311|12:311|12:314|12:314|12:311|12:311|12:314|12:314|12:311|12:311|12:314|12:314|11:317|11:317|12:314|12:314|11:317|11:317|12:314|12:314|11:317|11:317|12:314|12:314|11:317|11:317|12:314|12:314|11:317|11:317|12:314|12:314|11:317|11:317|12:314|12:314|11:317|11:317|12:314|12:314|11:317|11:317|12:314|12:314|11:317|11:317|12:314|12:314|11:317|11:317|12:314|12:314|11:317|11:317|12:314|12:314|11:317|11:317|12:314|12:314|11:317|11:317|12:314|12:314|11:317|11:317|12:314|12:314|11:317|11:317|12:314|12:314|11:317|11:317|12:314|12:314|11:317|11:317|12:314|12:314|11:317|11:317|12:314|12:314|11:317|11:317|12:314|12:314|11:317|11:317|12:314|12:314|11:317|11:317|12:314|12:314|11:317|11:317|12:314|12:314|11:317|11:317|12:314|12:314|11:317|11:317|12:314|12:314|11:317|11:317|12:314|12:314|11:317|11:317|12:314|12:314|11:317|11:317|12:314|12:314|11:317|11:317|12:314|12:314|11:317|11:317|12:314|12:314|11:317|11:317|12:314|12:314|11:317|11:317|12:314|12:314|11:317|11:317|12:314|12:314|11:317|11:317|12:314|12:314|11:317|12:314|12:314,1,1785.00006809235
287,268,73846,6,0,B|151:285|151:285|171:259,1,170
499,150,74153,2,0,B|363:133|363:133|383:158,1,170
292,66,74461,2,0,L|274:204,1,85
374,244,74615,2,0,L|384:159,1,85
317,344,74769,2,0,B|401:359|401:359|479:288,1,170
206,354,75076,6,0,B|156:349|156:349|101:361|101:361|19:352,1,170
141,73,75384,2,0,B|161:193|161:193|126:256,1,170
224,33,75692,2,0,B|308:21|308:21|247:131,1,170
16,148,76000,2,0,B|-36:81|-36:81|89:79,1,170
220,271,76307,6,0,B|188:349|188:349|123:241,1,170
346,144,76615,2,0,B|471:129|471:129|553:160,1,170
230,181,76923,2,0,L|237:11,1,170
435,215,77230,2,0,L|443:392,1,170
260,255,77538,6,0,B|160:265|160:265|122:289|122:289|117:290|117:290|122:289|122:289|117:290|117:290|122:289|122:289|117:290|117:290|122:289|122:289|117:290|117:290|122:289|122:289|117:290|117:290|122:289|122:289|117:290|117:290|122:289|122:289|117:290|117:290|122:289|122:289|117:290|117:290|122:289|122:289|117:290|117:290|122:289|122:289|117:290|117:290|122:289|122:289|117:290|117:290|122:289|122:289|117:290|117:290|122:289|122:289|117:290|117:290|122:289|122:289|117:290|117:290|122:289|122:289|117:290|117:290|23:299,1,382.500014591218
53,197,78153,6,0,B|132:257|132:257|152:297|152:297|156:300|156:300|152:297|152:297|156:300|156:300|152:297|152:297|156:300|156:300|152:297|152:297|156:300|156:300|152:297|152:297|156:300|156:300|152:297|152:297|156:300|156:300|152:297|152:297|156:300|156:300|152:297|152:297|156:300|156:300|152:297|152:297|156:300|156:300|152:297|152:297|156:300|156:300|152:297|152:297|156:300|156:300|152:297|152:297|156:300|156:300|152:297|152:297|156:300|156:300|152:297|152:297|156:300|156:300|152:297|152:297|156:300|156:300|232:357,1,382.500014591218,0|0,0:0|0:0,2:0:0:0:
216,245,78615,2,0,L|199:142,1,85
285,52,78769,6,0,B|310:89|310:89|291:242,1,170
217,22,79076,2,0,L|430:30,1,170
506,163,79384,2,0,L|399:171,1,85
294,213,79538,2,0,L|187:221,1,85
464,258,79692,2,0,B|547:275|547:275|486:381,1,170
317,291,80000,6,0,L|343:79,1,170
229,333,80307,2,0,B|299:379|299:379|423:355,1,170
126,338,80615,2,0,B|-4:328|-4:328|40:385,1,170
59,218,80923,2,0,B|101:222|101:222|105:180|105:180|63:175|63:175|59:218,1,170
216,300,81230,6,0,B|222:239|222:239|240:210|240:210|228:178|228:178|235:117,1,191.250007295609
243,31,81538,2,0,B|235:116,1,85
216,300,81692,2,0,B|207:384,1,85
222,250,82000,6,0,B|231:166,1,85
216,300,82154,2,0,B|207:384,1,85
244,31,82307,2,0,B|235:115,1,85
216,300,82615,6,0,B|207:384,1,85
244,31,82769,2,0,B|235:115,1,85
222,249,82923,2,0,B|231:165,1,85
235,115,83230,6,0,B|244:31,1,85
222,250,83384,2,0,B|231:166,1,85
207,384,83538,2,0,B|216:300,1,85
340,237,83692,6,0,P|365:220|409:227,1,68
343,353,84000,2,0,P|315:339|299:298,1,68
442,293,84307,2,0,P|444:323|416:357,1,68
340,237,84615,2,0,L|346:163,1,68
203,194,84923,6,0,B|229:170|261:179|261:179|267:180|267:180|261:179|261:179|267:180|267:180|261:179|261:179|267:180|267:180|261:179|261:179|267:180|267:180|261:179|261:179|267:180|267:180|261:179|261:179|267:180|267:180|261:179|261:179|267:180|267:180|261:179|261:179|267:180|267:180|261:179|261:179|267:180|267:180|261:179|261:179|267:180|267:180|261:179|261:179|267:180|267:180|261:179|261:179|267:180|267:180|261:179|261:179|267:180|267:180|261:179|261:179|267:180|267:180|261:179|261:179|267:180|267:180|261:179|261:179|267:180|267:180|261:179|261:179|267:180|267:180|261:179|261:179|267:180|267:180|261:179|261:179|267:180|267:180|261:179|261:179|267:180|267:180|261:179|261:179|267:180|267:180|274:217|255:239|255:239|250:243|250:243|255:239|255:239|250:243|250:243|255:239|255:239|250:243|250:243|255:239|255:239|250:243|250:243|255:239|255:239|250:243|250:243|255:239|255:239|250:243|250:243|255:239|255:239|250:243|250:243|255:239|255:239|250:243|250:243|255:239|255:239|250:243|250:243|255:239|255:239|250:243|250:243|255:239|255:239|250:243|250:243|255:239|255:239|250:243|250:243|255:239|255:239|250:243|250:243|255:239|255:239|250:243|250:243|255:239|255:239|250:243|250:243|255:239|255:239|250:243|250:243|255:239|255:239|250:243|250:243|255:239|255:239|250:243|250:243|255:239|255:239|250:243|250:243|255:239|255:239|250:243|250:243|255:239|255:239|250:243|250:243|210:235|201:207|201:207|200:201|200:201|201:207|201:207|200:201|200:201|201:207|201:207|200:201|200:201|201:207|201:207|200:201|200:201|201:207|201:207|200:201|200:201|201:207|201:207|200:201|200:201|201:207|201:207|200:201|200:201|201:207|201:207|200:201|200:201|201:207|201:207|200:201|200:201|201:207|201:207|200:201|200:201|201:207|201:207|200:201|200:201|201:207|201:207|200:201|200:201|201:207|201:207|200:201|200:201|201:207|201:207|200:201|200:201|201:207|201:207|200:201|200:201|201:207|201:207|200:201|200:201|201:207|201:207|200:201|200:201|201:207|201:207|200:201|200:201|201:207|201:207|200:201|200:201|201:207|201:207|200:201|200:201|201:207|201:207|200:201|200:201,1,892.500034046174
175,292,85538,2,0,B|149:268|117:277|117:277|111:278|111:278|117:277|117:277|111:278|111:278|117:277|117:277|111:278|111:278|117:277|117:277|111:278|111:278|117:277|117:277|111:278|111:278|117:277|117:277|111:278|111:278|117:277|117:277|111:278|111:278|117:277|117:277|111:278|111:278|117:277|117:277|111:278|111:278|117:277|117:277|111:278|111:278|117:277|117:277|111:278|111:278|117:277|117:277|111:278|111:278|117:277|117:277|111:278|111:278|117:277|117:277|111:278|111:278|117:277|117:277|111:278|111:278|117:277|117:277|111:278|111:278|117:277|117:277|111:278|111:278|117:277|117:277|111:278|111:278|117:277|117:277|111:278|111:278|117:277|117:277|111:278|111:278|117:277|117:277|111:278|111:278|104:315|123:337|123:337|128:341|128:341|123:337|123:337|128:341|128:341|123:337|123:337|128:341|128:341|123:337|123:337|128:341|128:341|123:337|123:337|128:341|128:341|123:337|123:337|128:341|128:341|123:337|123:337|128:341|128:341|123:337|123:337|128:341|128:341|123:337|123:337|128:341|128:341|123:337|123:337|128:341|128:341|123:337|123:337|128:341|128:341|123:337|123:337|128:341|128:341|123:337|123:337|128:341|128:341|123:337|123:337|128:341|128:341|123:337|123:337|128:341|128:341|123:337|123:337|128:341|128:341|123:337|123:337|128:341|128:341|123:337|123:337|128:341|128:341|123:337|123:337|128:341|128:341|123:337|123:337|128:341|128:341|123:337|123:337|128:341|128:341|168:333|177:305|177:305|178:299|178:299|177:305|177:305|178:299|178:299|177:305|177:305|178:299|178:299|177:305|177:305|178:299|178:299|177:305|177:305|178:299|178:299|177:305|177:305|178:299|178:299|177:305|177:305|178:299|178:299|177:305|177:305|178:299|178:299|177:305|177:305|178:299|178:299|177:305|177:305|178:299|178:299|177:305|177:305|178:299|178:299|177:305|177:305|178:299|178:299|177:305|177:305|178:299|178:299|177:305|177:305|178:299|178:299|177:305|177:305|178:299|178:299|177:305|177:305|178:299|178:299|177:305|177:305|178:299|178:299|177:305|177:305|178:299|178:299|177:305|177:305|178:299|178:299|177:305|177:305|178:299|178:299|177:305|177:305|178:299|178:299,1,892.500034046174
242,246,86153,6,0,P|259:271|252:315,1,68
126,249,86461,2,0,P|140:221|181:205,1,68
186,348,86769,2,0,P|156:350|122:322,1,68
242,246,87076,2,0,L|316:252,1,68
285,109,87384,6,0,B|309:135|300:167|300:167|299:173|299:173|300:167|300:167|299:173|299:173|300:167|300:167|299:173|299:173|300:167|300:167|299:173|299:173|300:167|300:167|299:173|299:173|300:167|300:167|299:173|299:173|300:167|300:167|299:173|299:173|300:167|300:167|299:173|299:173|300:167|300:167|299:173|299:173|300:167|300:167|299:173|299:173|300:167|300:167|299:173|299:173|300:167|300:167|299:173|299:173|300:167|300:167|299:173|299:173|300:167|300:167|299:173|299:173|300:167|300:167|299:173|299:173|300:167|300:167|299:173|299:173|300:167|300:167|299:173|299:173|300:167|300:167|299:173|299:173|300:167|300:167|299:173|299:173|300:167|300:167|299:173|299:173|300:167|300:167|299:173|299:173|262:180|240:161|240:161|236:156|236:156|240:161|240:161|236:156|236:156|240:161|240:161|236:156|236:156|240:161|240:161|236:156|236:156|240:161|240:161|236:156|236:156|240:161|240:161|236:156|236:156|240:161|240:161|236:156|236:156|240:161|240:161|236:156|236:156|240:161|240:161|236:156|236:156|240:161|240:161|236:156|236:156|240:161|240:161|236:156|236:156|240:161|240:161|236:156|236:156|240:161|240:161|236:156|236:156|240:161|240:161|236:156|236:156|240:161|240:161|236:156|236:156|240:161|240:161|236:156|236:156|240:161|240:161|236:156|236:156|240:161|240:161|236:156|236:156|240:161|240:161|236:156|236:156|240:161|240:161|236:156|236:156|240:161|240:161|236:156|236:156|244:116|272:107|272:107|278:106|278:106|272:107|272:107|278:106|278:106|272:107|272:107|278:106|278:106|272:107|272:107|278:106|278:106|272:107|272:107|278:106|278:106|272:107|272:107|278:106|278:106|272:107|272:107|278:106|278:106|272:107|272:107|278:106|278:106|272:107|272:107|278:106|278:106|272:107|272:107|278:106|278:106|272:107|272:107|278:106|278:106|272:107|272:107|278:106|278:106|272:107|272:107|278:106|278:106|272:107|272:107|278:106|278:106|272:107|272:107|278:106|278:106|272:107|272:107|278:106|278:106|272:107|272:107|278:106|278:106|272:107|272:107|278:106|278:106|272:107|272:107|278:106|278:106|272:107|272:107|278:106|278:106|272:107|272:107|278:106|278:106,1,892.500034046174
187,81,87999,2,0,B|211:55|202:23|202:23|201:17|201:17|202:23|202:23|201:17|201:17|202:23|202:23|201:17|201:17|202:23|202:23|201:17|201:17|202:23|202:23|201:17|201:17|202:23|202:23|201:17|201:17|202:23|202:23|201:17|201:17|202:23|202:23|201:17|201:17|202:23|202:23|201:17|201:17|202:23|202:23|201:17|201:17|202:23|202:23|201:17|201:17|202:23|202:23|201:17|201:17|202:23|202:23|201:17|201:17|202:23|202:23|201:17|201:17|202:23|202:23|201:17|201:17|202:23|202:23|201:17|201:17|202:23|202:23|201:17|201:17|202:23|202:23|201:17|201:17|202:23|202:23|201:17|201:17|202:23|202:23|201:17|201:17|202:23|202:23|201:17|201:17|164:10|142:29|142:29|138:34|138:34|142:29|142:29|138:34|138:34|142:29|142:29|138:34|138:34|142:29|142:29|138:34|138:34|142:29|142:29|138:34|138:34|142:29|142:29|138:34|138:34|142:29|142:29|138:34|138:34|142:29|142:29|138:34|138:34|142:29|142:29|138:34|138:34|142:29|142:29|138:34|138:34|142:29|142:29|138:34|138:34|142:29|142:29|138:34|138:34|142:29|142:29|138:34|138:34|142:29|142:29|138:34|138:34|142:29|142:29|138:34|138:34|142:29|142:29|138:34|138:34|142:29|142:29|138:34|138:34|142:29|142:29|138:34|138:34|142:29|142:29|138:34|138:34|142:29|142:29|138:34|138:34|142:29|142:29|138:34|138:34|146:74|174:83|174:83|180:84|180:84|174:83|174:83|180:84|180:84|174:83|174:83|180:84|180:84|174:83|174:83|180:84|180:84|174:83|174:83|180:84|180:84|174:83|174:83|180:84|180:84|174:83|174:83|180:84|180:84|174:83|174:83|180:84|180:84|174:83|174:83|180:84|180:84|174:83|174:83|180:84|180:84|174:83|174:83|180:84|180:84|174:83|174:83|180:84|180:84|174:83|174:83|180:84|180:84|174:83|174:83|180:84|180:84|174:83|174:83|180:84|180:84|174:83|174:83|180:84|180:84|174:83|174:83|180:84|180:84|174:83|174:83|180:84|180:84|174:83|174:83|180:84|180:84|174:83|174:83|180:84|180:84|174:83|174:83|180:84|180:84,1,892.500034046174
233,148,88615,6,0,P|208:165|164:158,1,68
230,32,88923,2,0,P|258:46|274:87,1,68
131,92,89230,2,0,P|129:62|157:28,1,68
233,148,89538,2,0,L|227:222,1,68
370,191,89846,6,0,B|344:215|312:206|312:206|306:205|306:205|312:206|312:206|306:205|306:205|312:206|312:206|306:205|306:205|312:206|312:206|306:205|306:205|312:206|312:206|306:205|306:205|312:206|312:206|306:205|306:205|312:206|312:206|306:205|306:205|312:206|312:206|306:205|306:205|312:206|312:206|306:205|306:205|312:206|312:206|306:205|306:205|312:206|312:206|306:205|306:205|312:206|312:206|306:205|306:205|312:206|312:206|306:205|306:205|312:206|312:206|306:205|306:205|312:206|312:206|306:205|306:205|312:206|312:206|306:205|306:205|312:206|312:206|306:205|306:205|312:206|312:206|306:205|306:205|312:206|312:206|306:205|306:205|312:206|312:206|306:205|306:205|312:206|312:206|306:205|306:205|299:168|318:146|318:146|323:142|323:142|318:146|318:146|323:142|323:142|318:146|318:146|323:142|323:142|318:146|318:146|323:142|323:142|318:146|318:146|323:142|323:142|318:146|318:146|323:142|323:142|318:146|318:146|323:142|323:142|318:146|318:146|323:142|323:142|318:146|318:146|323:142|323:142|318:146|318:146|323:142|323:142|318:146|318:146|323:142|323:142|318:146|318:146|323:142|323:142|318:146|318:146|323:142|323:142|318:146|318:146|323:142|323:142|318:146|318:146|323:142|323:142|318:146|318:146|323:142|323:142|318:146|318:146|323:142|323:142|318:146|318:146|323:142|323:142|318:146|318:146|323:142|323:142|318:146|318:146|323:142|323:142|318:146|318:146|323:142|323:142|363:150|372:178|372:178|373:184|373:184|372:178|372:178|373:184|373:184|372:178|372:178|373:184|373:184|372:178|372:178|373:184|373:184|372:178|372:178|373:184|373:184|372:178|372:178|373:184|373:184|372:178|372:178|373:184|373:184|372:178|372:178|373:184|373:184|372:178|372:178|373:184|373:184|372:178|372:178|373:184|373:184|372:178|372:178|373:184|373:184|372:178|372:178|373:184|373:184|372:178|372:178|373:184|373:184|372:178|372:178|373:184|373:184|372:178|372:178|373:184|373:184|372:178|372:178|373:184|373:184|372:178|372:178|373:184|373:184|372:178|372:178|373:184|373:184|372:178|372:178|373:184|373:184|372:178|372:178|373:184|373:184|372:178|372:178|373:184|373:184,1,892.500034046174
398,93,90461,2,0,B|424:117|456:108|456:108|462:107|462:107|456:108|456:108|462:107|462:107|456:108|456:108|462:107|462:107|456:108|456:108|462:107|462:107|456:108|456:108|462:107|462:107|456:108|456:108|462:107|462:107|456:108|456:108|462:107|462:107|456:108|456:108|462:107|462:107|456:108|456:108|462:107|462:107|456:108|456:108|462:107|462:107|456:108|456:108|462:107|462:107|456:108|456:108|462:107|462:107|456:108|456:108|462:107|462:107|456:108|456:108|462:107|462:107|456:108|456:108|462:107|462:107|456:108|456:108|462:107|462:107|456:108|456:108|462:107|462:107|456:108|456:108|462:107|462:107|456:108|456:108|462:107|462:107|456:108|456:108|462:107|462:107|456:108|456:108|462:107|462:107|469:70|450:48|450:48|445:44|445:44|450:48|450:48|445:44|445:44|450:48|450:48|445:44|445:44|450:48|450:48|445:44|445:44|450:48|450:48|445:44|445:44|450:48|450:48|445:44|445:44|450:48|450:48|445:44|445:44|450:48|450:48|445:44|445:44|450:48|450:48|445:44|445:44|450:48|450:48|445:44|445:44|450:48|450:48|445:44|445:44|450:48|450:48|445:44|445:44|450:48|450:48|445:44|445:44|450:48|450:48|445:44|445:44|450:48|450:48|445:44|445:44|450:48|450:48|445:44|445:44|450:48|450:48|445:44|445:44|450:48|450:48|445:44|445:44|450:48|450:48|445:44|445:44|450:48|450:48|445:44|445:44|450:48|450:48|445:44|445:44|405:52|396:80|396:80|395:86|395:86|396:80|396:80|395:86|395:86|396:80|396:80|395:86|395:86|396:80|396:80|395:86|395:86|396:80|396:80|395:86|395:86|396:80|396:80|395:86|395:86|396:80|396:80|395:86|395:86|396:80|396:80|395:86|395:86|396:80|396:80|395:86|395:86|396:80|396:80|395:86|395:86|396:80|396:80|395:86|395:86|396:80|396:80|395:86|395:86|396:80|396:80|395:86|395:86|396:80|396:80|395:86|395:86|396:80|396:80|395:86|395:86|396:80|396:80|395:86|395:86|396:80|396:80|395:86|395:86|396:80|396:80|395:86|395:86|396:80|396:80|395:86|395:86|396:80|396:80|395:86|395:86|396:80|396:80|395:86|395:86,1,892.500034046174
331,139,91076,6,0,P|314:114|321:70,1,68
447,136,91384,2,0,P|433:164|392:180,1,68
387,37,91692,2,0,P|417:35|451:63,1,68
331,139,91999,2,0,L|257:133,1,68
210,212,92307,6,0,L|253:208,1,34
256,192,92461,12,0,93384,0:0:0:0:
340,162,93538,6,0,B|440:137|440:137|393:236,1,203.999993774414
60,255,93846,2,0,B|138:261|138:261|181:282|181:282|301:292,1,203.999993774414
227,0,94153,2,0,B|213:62|213:62|232:236,1,203.999993774414
144,351,94461,2,0,B|25:358|25:358|59:329|59:329|181:338,1,203.999993774414
355,290,94769,6,0,B|513:303|513:303|433:338,1,203.999993774414
210,382,95076,2,0,B|224:320|224:320|205:146,1,203.999993774414
393,10,95384,6,0,P|415:42|376:122,1,101.999996887207
301,190,95538,2,0,P|265:204|194:150,1,101.999996887207
495,69,95692,2,0,P|496:107|419:153,1,101.999996887207
319,169,95846,2,0,P|280:161|251:77,1,101.999996887207
439,261,96000,6,0,B|461:332|461:332|403:381|403:381|431:300,1,203.999993774414
318,93,96307,2,0,B|309:41|309:41|359:33|359:33|367:83|367:83|318:93,1,203.999993774414
512,242,96615,2,0,L|241:224,1,203.999993774414
26,304,96923,2,0,B|64:301|64:301|108:317|108:317|126:339|126:339|179:353|179:353|228:332,1,203.999993774414
277,172,97230,6,0,B|243:149|191:166|191:166|231:181|255:237,1,136
277,250,97461,1,0,0:0:0:0:
277,250,97538,6,0,B|229:287|229:369|229:369|270:318|359:310,1,187.000005706787
352,275,97769,1,0,0:0:0:0:
352,275,97846,6,0,B|377:342|470:373|470:373|428:308|451:203,1,237.999992736817
398,211,98076,1,0,0:0:0:0:
398,211,98153,6,0,B|487:206|558:109|558:109|466:134|351:66,1,289.000005512238
352,147,98384,1,0,0:0:0:0:
352,147,98461,6,0,B|374:54|374:54|340:-8|340:-8|346:73,1,203.999993774414
217,191,98769,2,0,B|262:241|262:241|283:176|283:176|217:191,1,203.999993774414
30,274,99076,2,0,B|186:281|186:281|227:318,1,203.999993774414
497,236,99384,2,0,B|476:137|476:137|364:248,1,203.999993774414
289,384,99692,6,0,B|301:297|301:297|291:257|291:257|306:131,1,203.999993774414
402,14,100000,2,0,B|484:27|484:27|458:52|458:52|363:73,1,203.999993774414
182,199,100307,2,0,B|32:223|32:223|105:157,1,203.999993774414
286,88,100615,2,0,L|528:103,1,203.999993774414
292,384,100923,6,0,B|274:339|274:339|297:169,1,203.999993774414
445,295,101230,2,0,B|477:285|477:285|502:309|502:309|494:342|494:342|461:351|461:351|436:327|436:327|448:280,1,203.999993774414
355,127,101538,2,0,B|326:28|326:28|251:97,1,203.999993774414
29,322,101846,2,0,L|304:314,1,203.999993774414
475,221,102153,6,0,P|497:190|437:219,1,203.999993774414
446,231,103384,6,0,B|398:257|398:257|191:236,1,203.999993774414
21,71,103692,2,0,B|186:50|186:50|131:108,1,203.999993774414
125,367,104000,2,0,B|93:271|93:271|156:158,1,203.999993774414
311,31,104307,2,0,B|367:68|367:68|305:98|305:98|311:31,1,203.999993774414
430,108,104615,6,0,B|444:116|444:116|294:189|294:189|297:164,1,203.999993774414
430,108,104923,2,0,B|444:116|444:116|294:189|294:189|297:164,1,203.999993774414
430,108,105230,2,0,B|444:116|444:116|294:189|294:189|297:164,1,203.999993774414
296,168,105538,6,0,B|294:189|294:189|444:116|444:116|430:108,1,203.999993774414
170,188,105846,6,0,B|184:340|184:340|156:390,1,203.999993774414
19,109,106153,2,0,B|94:101|94:101|142:109|142:109|262:95,1,203.999993774414
447,19,106461,2,0,B|319:-10|319:-10|344:68,1,203.999993774414
403,284,106769,2,0,B|356:307|356:307|333:262|333:262|378:239|378:239|403:284,1,203.999993774414,0|0,0:0|0:0,1:0:0:0:
205,288,107076,6,0,B|122:232|122:232|222:207,1,204
247,196,107384,6,0,B|108:229|108:229|223:307,1,280.500008560181
239,325,107692,6,0,B|93:226|93:226|270:183,1,356.999989105225
293,172,108000,6,0,B|78:224|78:224|209:310,1,289.000005512238
389,202,108307,6,0,B|398:122|398:122|383:76|383:76|391:-19,1,203.999993774414
335,270,108615,2,0,B|386:285|386:285|430:273|430:273|483:268|483:268|462:298|462:298|421:281,1,203.999993774414
29,156,108923,2,0,B|0:129|0:129|197:152,1,203.999993774414
218,289,109230,2,0,B|257:298|257:298|260:339|260:339|222:354|222:354|196:323|196:323|218:289,1,203.999993774414
328,132,109538,6,0,B|350:167|350:167|336:201|336:201|349:365,1,203.999993774414
328,132,109846,2,0,B|350:167|350:167|336:201|336:201|349:365,1,203.999993774414
328,132,110153,2,0,B|350:167|350:167|336:201|336:201|349:365,1,203.999993774414
345,326,110461,6,0,B|336:201|336:201|350:167|350:167|328:132,1,203.999993774414
418,288,110769,6,0,B|519:277|519:277|447:392,1,203.999993774414
420,135,111076,2,0,B|397:59|397:59|443:12|443:12|431:104,1,203.999993774414
101,49,111384,2,0,B|177:45|177:45|230:58|230:58|357:49,1,203.999993774414
182,265,111692,2,0,B|121:347|121:347|-50:319,1,203.999993774414
165,138,112000,6,0,L|219:143,1,51
337,69,112615,6,0,P|366:91|344:131,1,76.4999976654053
356,124,112846,2,0,P|319:130|304:87,1,76.4999976654053
302,99,113076,2,0,P|320:71|342:69,1,50.9999984436036
336,68,113230,6,0,P|411:133|335:333,1,255.000009727478
103,175,113461,1,0,0:0:0:0:
81,197,113538,2,0,P|99:98|310:64,1,255.000009727478
290,346,113769,1,0,0:0:0:0:
320,354,113846,2,0,P|225:386|90:220,1,255.000009727478
362,116,114076,1,0,0:0:0:0:
358,85,114153,2,0,P|421:163|312:346,1,255.000009727478
110,150,114384,1,0,0:0:0:0:
85,168,114461,6,0,P|120:75|334:78,1,255.000009727478
265,351,114692,1,0,0:0:0:0:
293,364,114769,2,0,P|194:380|90:193,1,255.000009727478
376,138,115000,1,0,0:0:0:0:
377,107,115077,2,0,P|426:194|286:356,1,255.000009727478
122,128,115308,1,0,0:0:0:0:
94,141,115385,2,0,P|145:55|355:95,1,255.000009727478
239,352,115616,1,0,0:0:0:0:
265,370,115693,6,0,P|165:369|94:166,1,255.000009727478
385,162,115923,1,0,0:0:0:0:
393,131,116000,2,0,P|425:225|260:361,1,255.000009727478
137,107,116231,1,0,0:0:0:0:
107,115,116308,2,0,P|173:40|373:116,1,255.000009727478
214,349,116539,1,0,0:0:0:0:
236,371,116616,2,0,P|138:352|103:141,1,255.000009727478
391,187,116846,1,0,0:0:0:0:
403,158,116923,6,0,P|419:256|232:361,1,255.000009727478
193,294,118153,6,0,L|488:308,1,255.000009727478
490,191,118384,1,0,0:0:0:0:
512,203,118461,2,0,L|217:217,1,255.000009727478
159,106,118692,1,0,0:0:0:0:
137,118,118769,2,0,L|432:132,1,255.000009727478
434,15,119000,1,0,0:0:0:0:
456,27,119077,2,0,L|161:41,1,255.000009727478
52,118,119307,1,0,0:0:0:0:
22,106,119384,6,0,L|44:378,1,255.000009727478
171,51,119615,1,0,0:0:0:0:
201,39,119692,2,0,L|179:311,1,255.000009727478
348,138,119923,1,0,0:0:0:0:
318,126,120000,2,0,L|340:398,1,255.000009727478
467,71,120231,1,0,0:0:0:0:
497,59,120308,2,0,L|475:331,1,255.000009727478
310,340,120538,1,0,0:0:0:0:
332,352,120615,6,0,L|37:366,1,255.000009727478
35,249,120846,1,0,0:0:0:0:
13,261,120923,2,0,L|308:275,1,255.000009727478
366,164,121154,1,0,0:0:0:0:
388,176,121231,2,0,L|93:190,1,255.000009727478
91,73,121462,1,0,0:0:0:0:
69,85,121539,2,0,L|364:99,1,255.000009727478
459,107,121769,1,0,0:0:0:0:
476,122,121846,6,0,P|493:60|482:31,1,85
475,121,122000,2,0,P|469:80|487:41,1,85
476,122,122153,2,0,L|389:132,1,85
305,148,122307,2,0,L|392:158,1,85
423,164,122461,2,0,P|373:181|349:226,1,85
314,279,122615,2,0,P|353:313|404:312,1,85
468,315,122769,2,0,P|478:263|451:219,1,85
399,292,122923,2,0,L|404:377,1,85
403,376,123076,6,0,L|391:173,1,203.999993774414
163,345,123384,2,0,L|175:141,1,203.999993774414
168,44,123615,1,0,0:0:0:0:
136,47,123692,2,0,P|190:7|250:0,1,101.999996887207
373,54,123846,2,0,P|441:77|506:27,1,101.999996887207
271,66,124000,2,0,P|289:222|344:309,1,203.999993774414
512,321,124307,6,0,P|415:304|347:375,1,203.999993774414
474,185,124615,2,0,P|505:89|380:2,1,203.999993774414
376,94,124846,1,0,0:0:0:0:
357,120,124923,2,0,P|269:137|207:79,1,101.999996887207
116,28,125076,2,0,P|176:39|214:85,1,101.999996887207
72,276,125230,2,0,L|48:66,1,203.999993774414
63,369,125538,6,0,P|218:357|341:362,1,203.999993774414
372,192,125846,2,0,P|305:122|196:180,1,203.999993774414
454,332,126076,1,0,0:0:0:0:
479,346,126153,2,0,P|457:286|467:208,1,101.999996887207
427,108,126307,2,0,P|393:145|373:192,1,101.999996887207
485,0,126461,2,0,P|368:32|236:1,1,203.999993774414
30,110,126769,6,0,B|95:137|146:104|151:108|146:104|146:104|151:108|151:108|146:104|146:104|151:108|151:108|146:104|146:104|151:108|151:108|146:104|146:104|151:108|151:108|146:104|146:104|151:108|151:108|146:104|146:104|151:108|151:108|146:104|146:104|151:108|151:108|146:104|146:104|151:108|151:108|146:104|146:104|151:108|151:108|146:104|146:104|151:108|151:108|179:161|135:225|138:230|135:225|135:225|138:230|138:230|135:225|135:225|138:230|138:230|135:225|135:225|138:230|138:230|135:225|135:225|138:230|138:230|135:225|135:225|138:230|138:230|135:225|135:225|138:230|138:230|135:225|135:225|138:230|138:230|135:225|135:225|138:230|138:230|135:225|135:225|138:230|138:230|170:182|213:157|231:155|231:155|237:155|237:155|231:155|231:155|237:155|237:155|231:155|231:155|237:155|237:155|231:155|231:155|237:155|237:155|231:155|231:155|237:155|237:155|231:155|231:155|237:155|237:155|231:155|231:155|237:155|237:155|231:155|231:155|237:155|237:155|231:155|231:155|237:155|237:155|231:155|231:155|237:155|237:155|231:155|231:155|237:155|237:155|292:175|349:149|349:149|356:145|356:145|349:149|349:149|356:145|356:145|349:149|349:149|356:145|356:145|349:149|349:149|356:145|356:145|349:149|349:149|356:145|356:145|349:149|349:149|356:145|356:145|349:149|349:149|356:145|356:145|349:149|349:149|356:145|356:145|349:149|349:149|356:145|356:145|349:149|349:149|356:145|356:145|344:216|281:232|274:233|281:232|281:232|274:233|274:233|281:232|281:232|274:233|274:233|281:232|281:232|274:233|274:233|281:232|281:232|274:233|274:233|281:232|281:232|274:233|274:233|281:232|281:232|274:233|274:233|281:232|281:232|274:233|274:233|281:232|281:232|274:233|274:233|281:232|281:232|274:233|274:233|281:232|281:232|274:233|274:233|317:278|291:348|291:348|295:352|295:352|291:348|291:348|295:352|295:352|291:348|291:348|295:352|295:352|291:348|291:348|295:352|295:352|291:348|291:348|295:352|295:352|291:348|291:348|295:352|295:352|291:348|291:348|295:352|295:352|291:348|291:348|295:352|295:352|291:348|291:348|295:352|295:352|291:348|291:348|295:352|295:352|291:348|291:348|295:352|295:352|357:311|351:246|352:252|351:246|351:246|352:252|352:252|351:246|351:246|352:252|352:252|351:246|351:246|352:252|352:252|351:246|351:246|352:252|352:252|351:246|351:246|352:252|352:252|351:246|351:246|352:252|352:252|351:246|351:246|352:252|352:252|351:246|351:246|352:252|352:252|351:246|351:246|352:252|352:252|351:246|351:246|352:252|352:252|351:246|351:246|402:295|473:287|500:252|537:198|512:112|421:107,1,2040.00007781983
454,114,128000,6,0,P|476:163|493:385,1,203.999993774414
363,15,128307,2,0,P|352:66|235:256,1,203.999993774414
163,163,128538,1,0,0:0:0:0:
176,144,128615,2,0,P|86:146|40:171,1,101.999996887207
152,275,128769,2,0,P|93:343|81:394,1,101.999996887207
270,308,128923,2,0,P|363:374|464:269,1,203.999993774414
512,63,129230,6,0,B|402:46|414:100|273:62,1,203.999993774414
46,123,129538,2,0,B|7:156|9:242|56:265|56:265|40:229|51:197,1,203.999993774414
59,44,129769,1,0,0:0:0:0:
26,30,129846,2,0,P|83:11|166:34,1,101.999996887207
188,121,130000,2,0,P|230:163|247:247,1,101.999996887207
180,306,130153,2,0,P|141:353|0:311,1,203.999993774414
306,319,130461,6,0,B|354:319|398:361|398:361|413:300|477:259,1,203.999993774414
246,201,130769,2,0,P|168:229|-13:205,1,203.999993774414
154,138,131000,1,0,0:0:0:0:
126,110,131076,2,0,P|209:118|271:142,1,101.999996887207
364,303,131230,2,0,P|344:221|347:155,1,101.999996887207
465,6,131384,2,0,P|503:98|424:180,1,203.999993774414
269,271,131692,6,0,B|285:240|282:187|261:154|261:154|257:151|257:151|261:154|261:154|257:151|257:151|261:154|261:154|257:151|257:151|261:154|261:154|257:151|257:151|261:154|261:154|257:151|257:151|261:154|261:154|257:151|257:151|261:154|261:154|257:151|257:151|261:154|261:154|257:151|257:151|261:154|261:154|257:151|257:151|261:154|261:154|257:151|257:151|261:154|261:154|257:151|257:151|304:211|357:217|357:217|363:218|363:218|357:217|357:217|363:218|363:218|357:217|357:217|363:218|363:218|357:217|357:217|363:218|363:218|357:217|357:217|363:218|363:218|357:217|357:217|363:218|363:218|357:217|357:217|363:218|363:218|357:217|357:217|363:218|363:218|357:217|357:217|363:218|363:218|357:217|357:217|363:218|363:218|357:217|357:217|363:218|363:218|401:279|375:334|375:334|371:338|371:338|375:334|375:334|371:338|371:338|375:334|375:334|371:338|371:338|375:334|375:334|371:338|371:338|375:334|375:334|371:338|371:338|375:334|375:334|371:338|371:338|375:334|375:334|371:338|371:338|375:334|375:334|371:338|371:338|375:334|375:334|371:338|371:338|375:334|375:334|371:338|371:338|375:334|375:334|371:338|371:338|298:331|256:367|256:367|251:370|251:370|256:367|256:367|251:370|251:370|256:367|256:367|251:370|251:370|256:367|256:367|251:370|251:370|256:367|256:367|251:370|251:370|256:367|256:367|251:370|251:370|256:367|256:367|251:370|251:370|256:367|256:367|251:370|251:370|256:367|256:367|251:370|251:370|256:367|256:367|251:370|251:370|256:367|256:367|251:370|251:370|193:325|200:266|200:266|198:260|200:266|200:266|198:260|200:266|200:266|198:260|200:266|200:266|198:260|200:266|200:266|198:260|200:266|200:266|198:260|200:266|200:266|198:260|200:266|200:266|198:260|200:266|200:266|198:260|200:266|200:266|198:260|200:266|200:266|198:260|198:260|117:240|77:304|77:304|75:310|75:310|77:304|77:304|75:310|75:310|77:304|77:304|75:310|75:310|77:304|77:304|75:310|75:310|77:304|77:304|75:310|75:310|77:304|77:304|75:310|75:310|77:304|77:304|75:310|75:310|77:304|77:304|75:310|75:310|77:304|77:304|75:310|75:310|77:304|77:304|75:310|75:310|77:304|77:304|75:310|75:310|77:304|77:304|75:310|75:310|77:304|77:304|75:310|75:310|77:304|77:304|75:310|75:310|77:304|77:304|75:310|75:310|77:304|77:304|75:310|75:310|77:304|77:304|75:310|75:310|77:304|77:304|75:310|75:310|77:304|77:304|75:310|75:310|77:304|77:304|75:310|75:310|77:304|77:304|75:310|75:310|77:304|77:304|75:310|75:310|77:304|77:304|75:310|75:310|77:304|77:304|75:310|75:310|77:304|77:304|75:310|75:310|77:304|77:304|75:310|75:310|77:304|77:304|75:310|75:310|77:304|77:304|75:310|75:310|77:304|77:304|75:310|75:310|77:304|77:304|75:310|75:310|77:304|77:304|75:310|75:310|77:304|77:304|75:310|75:310|77:304|77:304|75:310|75:310|77:304|77:304|75:310|75:310|77:304|77:304|75:310|75:310|77:304|77:304|75:310|75:310|77:304|77:304|75:310|75:310|77:304|77:304|75:310|75:310|77:304|77:304|75:310|75:310|77:304|77:304|75:310|75:310|77:304|77:304|75:310|75:310|77:304|77:304|75:310|75:310|77:304|77:304|75:310|75:310|77:304|77:304|75:310|75:310|77:304|77:304|75:310|75:310|77:304|77:304|75:310|75:310|77:304|77:304|75:310|75:310|77:304|77:304|75:310|75:310|77:304|77:304|75:310|75:310|77:304|77:304|75:310|75:310|77:304|77:304|75:310|75:310|77:304|77:304|75:310|75:310|77:304|77:304|75:310|75:310|77:304|77:304|75:310|75:310|77:304|77:304|75:310|75:310|77:304|77:304|75:310|75:310|77:304|77:304|75:310|75:310|77:304|77:304|75:310|75:310|77:304|77:304|75:310|75:310|77:304|77:304|75:310|75:310|77:304|77:304|75:310|75:310,1,2040.00007781983
76,304,132923,6,0,P|92:203|91:101,1,203.999993774414
314,108,133230,2,0,P|431:136|482:13,1,203.999993774414
261,41,133461,1,0,0:0:0:0:
243,22,133538,2,0,P|216:81|246:167,1,101.999996887207
137,256,133692,2,0,P|169:328|155:393,1,101.999996887207
312,245,133846,2,0,B|423:214|410:296|549:246,1,203.999993774414
155,12,134153,6,0,P|187:133|208:245,1,203.999993774414
353,38,134461,2,0,P|459:19|512:129,1,203.999993774414
371,110,134692,1,0,0:0:0:0:
384,135,134769,2,0,P|301:111|265:58,1,101.999996887207
203,211,134923,2,0,P|132:216|94:273,1,101.999996887207
269,384,135076,2,0,P|284:261|264:128,1,203.999993774414
27,342,135384,6,0,B|101:354|176:330|176:330|124:352|104:398,1,203.999993774414
468,237,135692,2,0,P|472:333|347:351,1,203.999993774414
288,290,135923,1,0,0:0:0:0:
267,312,136000,2,0,P|230:261|228:196,1,101.999996887207
380,103,136153,2,0,P|408:61|410:10,1,101.999996887207
231,135,136307,2,0,P|413:152|492:167,1,203.999993774414
116,239,136615,6,0,B|66:289|76:348|76:348|70:351|70:351|76:348|76:348|70:351|70:351|76:348|76:348|70:351|70:351|76:348|76:348|70:351|70:351|76:348|76:348|70:351|70:351|76:348|76:348|70:351|70:351|76:348|76:348|70:351|70:351|76:348|76:348|70:351|70:351|76:348|76:348|70:351|70:351|76:348|76:348|70:351|70:351|76:348|76:348|70:351|70:351|47:294|-14:278|-14:278|-21:278|-21:278|-14:278|-14:278|-21:278|-21:278|-14:278|-14:278|-21:278|-21:278|-14:278|-14:278|-21:278|-21:278|-14:278|-14:278|-21:278|-21:278|-14:278|-14:278|-21:278|-21:278|-14:278|-14:278|-21:278|-21:278|-14:278|-14:278|-21:278|-21:278|-14:278|-14:278|-21:278|-21:278|-14:278|-14:278|-21:278|-21:278|-14:278|-14:278|-21:278|-21:278|-14:217|49:184|49:184|49:178|49:178|49:184|49:184|49:178|49:178|49:184|49:184|49:178|49:178|49:184|49:184|49:178|49:178|49:184|49:184|49:178|49:178|49:184|49:184|49:178|49:178|49:184|49:184|49:178|49:178|49:184|49:184|49:178|49:178|49:184|49:184|49:178|49:178|49:184|49:184|49:178|49:178|49:184|49:184|49:178|49:178|-23:165|-47:112|-47:112|-49:106|-49:106|-47:112|-47:112|-49:106|-49:106|-47:112|-47:112|-49:106|-49:106|-47:112|-47:112|-49:106|-49:106|-47:112|-47:112|-49:106|-49:106|-47:112|-47:112|-49:106|-49:106|-47:112|-47:112|-49:106|-49:106|-47:112|-47:112|-49:106|-49:106|-47:112|-47:112|-49:106|-49:106|-47:112|-47:112|-49:106|-49:106|-47:112|-47:112|-49:106|-49:106|19:75|75:110|75:110|78:104|78:104|75:110|75:110|78:104|78:104|75:110|75:110|78:104|78:104|75:110|75:110|78:104|78:104|75:110|75:110|78:104|78:104|75:110|75:110|78:104|78:104|75:110|75:110|78:104|78:104|75:110|75:110|78:104|78:104|75:110|75:110|78:104|78:104|75:110|75:110|78:104|78:104|75:110|75:110|78:104|78:104|139:116|178:60|178:60|174:65|174:65|178:60|178:60|174:65|174:65|178:60|178:60|174:65|174:65|178:60|178:60|174:65|174:65|178:60|178:60|174:65|174:65|178:60|178:60|174:65|174:65|178:60|178:60|174:65|174:65|178:60|178:60|174:65|174:65|178:60|178:60|174:65|174:65|178:60|178:60|174:65|174:65|178:60|178:60|174:65|174:65|139:114|166:181|166:181|171:183|171:183|166:181|166:181|171:183|171:183|166:181|166:181|171:183|171:183|166:181|166:181|171:183|171:183|166:181|166:181|171:183|171:183|166:181|166:181|171:183|171:183|166:181|166:181|171:183|171:183|166:181|166:181|171:183|171:183|166:181|166:181|171:183|171:183|166:181|166:181|171:183|171:183|166:181|166:181|171:183|171:183|195:222|277:244|355:165|320:77|235:44,1,2040.00007781983
282,74,137846,6,0,B|331:67|377:101|377:101|402:46|470:18,1,203.999993774414
348,230,138153,2,0,P|309:314|411:383,1,203.999993774414
449,300,138384,1,0,0:0:0:0:
481,315,138461,2,0,P|465:241|468:175,1,101.999996887207
414,53,138615,2,0,P|481:24|527:39,1,101.999996887207
343,146,138769,2,0,B|252:125|244:190|134:148,1,203.999993774414
33,364,139076,6,0,P|144:378|194:255,1,203.999993774414
56,56,139384,6,0,P|92:188|98:324,1,203.999993774414
173,21,139692,6,0,P|158:132|131:215,1,170
296,25,140000,6,0,P|242:99|189:144,1,136
358,99,140307,6,0,B|362:63|383:39|455:40|458:92|462:139|410:167|359:146|358:99|358:99|362:63|383:39|455:40|458:92|462:139|410:167|359:146|358:99|358:99|362:63|383:39|455:40|458:92|462:139|410:167|359:146|358:99|358:99|362:63|383:39|455:40|458:92|462:139|410:167|359:146|358:99,1,1020.00003890991
348,100,141538,6,0,B|389:100|389:100|394:100|394:100|389:100|389:100|394:100|394:100|398:100|398:100|394:100|394:100|398:100|398:100|394:100|394:100|398:100|398:100|403:100|403:100|398:100|398:100|403:100|403:100|398:100|398:100|403:100|403:100|398:100|398:100|403:100|403:100|407:100|407:100|403:100|403:100|407:100|407:100|403:100|403:100|407:100|407:100|403:100|403:100|407:100|407:100|403:100|403:100|407:100|407:100|403:100|403:100|407:100|407:100|411:100|411:100|407:100|407:100|411:100|411:100|407:100|407:100|411:100|411:100|407:100|407:100|411:100|411:100|407:100|407:100|411:100|411:100|407:100|407:100|411:100|411:100|407:100|407:100|411:100|411:100|407:100|407:100|411:100|411:100|415:100|415:100|411:100|411:100|415:100|415:100|411:100|411:100|415:100|415:100|411:100|411:100|415:100|415:100|411:100|411:100|415:100|415:100|411:100|411:100|415:100|415:100|411:100|411:100|415:100|415:100|411:100|411:100|415:100|415:100|411:100|411:100|415:100|415:100|411:100|411:100|415:100|415:100|419:100|419:100|415:100|415:100|419:100|419:100|415:100|415:100|419:100|419:100|415:100|415:100|419:100|419:100|415:100|415:100|419:100|419:100|415:100|415:100|419:100|419:100|415:100|415:100|419:100|419:100|415:100|415:100|419:100|419:100|415:100|415:100|419:100|419:100|415:100|415:100|419:100|419:100|415:100|415:100|419:100|419:100|415:100|415:100|419:100|419:100|415:100|415:100|419:100|419:100|424:100|424:100|419:100|419:100|424:100|424:100|419:100|419:100|424:100|424:100|419:100|419:100|424:100|424:100|419:100|419:100|424:100|424:100|419:100|419:100|424:100|424:100|419:100|419:100|424:100|424:100|419:100|419:100|424:100|424:100|419:100|419:100|424:100|424:100|419:100|419:100|424:100|424:100|419:100|419:100|424:100|424:100|419:100|419:100|424:100|424:100|419:100|419:100|424:100|424:100|419:100|419:100|424:100|424:100|419:100|419:100|424:100|424:100|419:100|419:100|424:100|424:100|419:100|419:100|424:100|424:100|428:100|428:100|424:100|424:100|428:100|428:100|424:100|424:100|428:100|428:100|424:100|424:100|428:100|428:100|424:100|424:100|428:100|428:100|424:100|424:100|428:100|428:100|424:100|424:100|428:100|428:100|424:100|424:100|428:100|428:100|424:100|424:100|428:100|428:100|424:100|424:100|428:100|428:100|424:100|424:100|428:100|428:100|424:100|424:100|428:100|428:100|424:100|424:100|428:100|428:100|424:100|424:100|428:100|428:100|424:100|424:100|428:100|428:100|424:100|424:100|428:100|428:100|424:100|424:100|428:100|428:100|424:100|424:100|428:100|428:100|424:100|424:100|428:100|428:100|432:100|432:100|428:100|428:100|432:100|432:100|428:100|428:100|432:100|432:100|428:100|428:100|432:100|432:100|428:100|428:100|432:100|432:100|428:100|428:100|432:100|432:100|428:100|428:100|432:100|432:100|428:100|428:100|432:100|432:100|428:100|428:100|432:100|432:100|428:100|428:100|432:100|432:100|428:100|428:100|432:100|432:100|428:100|428:100|432:100|432:100|428:100|428:100|432:100|432:100|428:100|428:100|432:100|432:100|428:100|428:100|432:100|432:100|428:100|428:100|432:100|432:100|428:100|428:100|432:100|432:100|428:100|428:100|432:100|432:100|428:100|428:100|432:100|432:100|428:100|428:100|432:100|432:100|428:100|428:100|432:100|432:100|428:100|428:100|432:100|432:100|428:100|428:100|432:100|432:100|436:100|436:100|432:100|432:100|436:100|436:100|432:100|432:100|436:100|436:100|432:100|432:100|436:100|436:100|432:100|432:100|436:100|436:100|432:100|432:100|436:100|436:100|432:100|432:100|436:100|436:100|432:100|432:100|436:100|436:100|432:100|432:100|436:100|436:100|432:100|432:100|436:100|436:100|432:100|432:100|436:100|436:100|432:100|432:100|436:100|436:100|432:100|432:100|436:100|436:100|432:100|432:100|436:100|436:100|432:100|432:100|436:100|436:100|432:100|432:100|436:100|436:100|432:100|432:100|436:100|436:100|432:100|432:100|436:100|436:100|432:100|432:100|436:100|436:100|432:100|432:100|436:100|436:100|432:100|432:100|436:100|436:100|432:100|432:100|436:100|436:100|432:100|432:100|436:100|436:100|432:100|432:100|436:100|436:100|432:100|432:100|436:100|436:100|432:100|432:100|436:100|436:100|432:100|432:100|436:100|436:100|440:100|440:100|445:100|436:100|440:100|440:100|445:100|436:100|440:100|440:100|445:100|436:100|440:100|440:100|445:100|436:100|440:100|440:100|445:100|436:100|440:100|440:100|445:100|436:100|440:100|440:100|445:100|436:100|440:100|440:100|445:100|436:100|440:100|440:100|445:100|436:100|440:100|440:100|445:100|436:100|440:100|440:100|445:100|436:100|440:100|440:100|445:100|436:100|440:100|440:100|445:100|436:100|440:100|440:100|445:100|436:100|440:100|440:100|445:100|436:100|440:100|440:100|445:100|436:100|440:100|440:100|445:100|436:100|440:100|440:100|445:100|436:100|440:100|440:100|445:100|436:100|440:100|440:100|445:100|436:100|440:100|440:100|445:100|436:100|440:100|440:100|445:100|436:100|440:100|440:100|445:100|436:100|440:100|440:100|445:100|436:100|440:100|440:100|445:100|436:100|440:100|440:100|445:100|436:100|440:100|440:100|445:100|436:100|440:100|440:100|445:100|436:100|440:100|440:100|445:100|436:100|440:100|440:100|445:100|436:100|440:100|440:100|445:100|445:100|440:100|440:100|445:100|445:100|440:100|440:100|445:100|445:100|440:100|440:100|445:100|445:100|440:100|440:100|445:100|445:100|440:100|440:100|445:100|445:100|440:100|440:100|445:100|445:100|440:100|440:100|445:100|445:100|440:100|440:100|445:100|445:100|440:100|440:100|445:100|445:100|440:100|440:100|445:100|445:100|440:100|440:100|445:100|445:100|440:100|440:100|445:100|445:100|440:100|440:100|445:100|445:100|440:100|440:100|445:100|445:100|440:100|440:100|445:100|445:100|440:100|440:100|445:100|445:100|440:100|440:100|445:100|445:100|440:100|440:100|445:100|445:100|440:100|440:100|445:100|445:100|440:100|440:100|445:100|445:100|440:100|440:100|445:100|445:100|440:100|440:100|445:100|445:100|440:100|440:100|445:100|445:100|440:100|440:100|445:100|445:100|440:100|440:100|445:100|445:100|440:100|440:100|445:100|445:100|440:100|440:100|445:100|445:100|440:100|440:100|445:100|445:100|440:100|440:100|445:100|445:100|440:100|440:100|445:100|445:100|440:100|440:100|445:100|445:100|440:100|440:100|445:100|445:100|440:100|440:100|445:100|445:100|440:100|440:100|445:100|445:100|440:100|440:100|445:100|445:100|450:100|450:100|445:100|445:100|450:100|450:100|445:100|445:100|450:100|450:100|445:100|445:100|450:100|450:100|445:100|445:100|450:100|450:100|445:100|445:100|450:100|450:100|445:100|445:100|450:100|450:100|445:100|445:100|450:100|450:100|445:100|445:100|450:100|450:100|445:100|445:100|450:100|450:100|445:100|445:100|450:100|450:100|445:100|445:100|450:100|450:100|445:100|445:100|450:100|450:100|445:100|445:100|450:100|450:100|445:100|445:100|450:100|450:100|445:100|445:100|450:100|450:100|445:100|445:100|450:100|450:100|445:100|445:100|450:100|450:100|445:100|445:100|450:100|450:100|445:100|445:100|450:100|450:100|445:100|445:100|450:100|450:100|445:100|445:100|450:100|450:100|445:100|445:100|450:100|450:100|445:100|445:100|450:100|450:100|445:100|445:100|450:100|450:100|445:100|445:100|450:100|450:100|445:100|445:100|450:100|450:100|445:100|445:100|450:100|450:100|445:100|445:100|450:100|450:100|445:100|445:100|450:100|450:100|445:100|445:100|450:100|450:100|445:100|445:100|450:100|450:100|445:100|445:100|450:100|450:100|445:100|445:100|450:100|450:100|445:100|445:100|450:100|450:100|445:100|445:100|450:100|450:100|445:100|445:100|450:100|450:100|445:100|445:100|450:100|450:100|445:100|445:100|450:100|450:100|445:100|445:100|450:100|450:100|445:100|445:100|450:100|450:100|454:100|454:100|450:100|450:100|454:100|454:100|450:100|450:100|454:100|454:100|450:100|450:100|454:100|454:100|450:100|450:100|454:100|454:100|450:100|450:100|454:100|454:100|450:100|450:100|454:100|454:100|450:100|450:100|454:100|454:100|450:100|450:100|454:100|454:100|450:100|450:100|454:100|454:100|450:100|450:100|454:100|454:100|450:100|450:100|454:100|454:100|450:100|450:100|454:100|454:100|450:100|450:100|454:100|454:100|450:100|450:100|454:100|454:100|450:100|450:100|454:100|454:100|450:100|450:100|454:100|454:100|450:100|450:100|454:100|454:100|450:100|450:100|454:100|454:100|450:100|450:100|454:100|454:100|450:100|450:100|454:100|454:100|450:100|450:100|454:100|454:100|450:100|450:100|454:100|454:100|450:100|450:100|454:100|454:100|450:100|450:100|454:100|454:100|450:100|450:100|454:100|454:100|450:100|450:100|454:100|454:100|450:100|450:100|454:100|454:100|450:100|450:100|454:100|454:100|450:100|450:100|454:100|454:100|450:100|450:100|454:100|454:100|450:100|450:100|454:100|454:100|450:100|450:100|454:100|454:100|450:100|450:100|454:100|454:100|450:100|450:100|454:100|454:100|450:100|450:100|454:100|454:100|450:100|450:100|454:100|454:100|450:100|450:100|454:100|454:100|450:100|450:100|454:100|454:100|450:100|450:100|454:100|454:100|450:100|450:100|454:100|454:100|450:100|450:100|454:100|454:100|450:100|450:100|454:100|454:100|450:100|450:100|454:100|454:100|450:100|450:100|454:100|454:100|450:100|450:100|454:100|454:100|458:100|458:100|454:100|454:100|458:100|458:100|454:100|454:100|458:100|458:100|454:100|454:100|458:100|458:100|454:100|454:100|458:100|458:100|454:100|454:100|458:100|458:100|454:100|454:100|458:100|458:100|454:100|454:100|458:100|458:100|454:100|454:100|458:100|458:100|454:100|454:100|458:100|458:100|454:100|454:100|458:100|458:100|454:100|454:100|458:100|458:100|454:100|454:100|458:100|458:100|454:100|454:100|458:100|458:100|454:100|454:100|458:100|458:100|454:100|454:100|458:100|458:100|454:100|454:100|458:100|458:100|454:100|454:100|458:100|458:100|454:100|454:100|458:100|458:100|454:100|454:100|458:100|458:100|454:100|454:100|458:100|458:100|454:100|454:100|458:100|458:100|454:100|454:100|458:100|458:100|454:100|454:100|458:100|458:100|454:100|454:100|458:100|458:100|454:100|454:100|458:100|458:100|454:100|454:100|458:100|458:100|454:100|454:100|458:100|458:100|454:100|454:100|458:100|458:100|454:100|454:100|458:100|458:100|454:100|454:100|458:100|458:100|454:100|454:100|458:100|458:100|454:100|454:100|458:100|458:100|454:100|454:100|458:100|458:100|454:100|454:100|458:100|458:100|454:100|454:100|458:100|458:100|454:100|454:100|458:100|458:100|454:100|454:100|458:100|458:100|454:100|454:100|458:100|458:100|454:100|454:100|458:100|458:100|454:100|454:100|458:100|458:100|454:100|454:100|458:100|458:100|454:100|454:100|458:100|458:100|454:100|454:100|458:100|458:100|454:100|454:100|458:100|458:100|454:100|454:100|458:100|458:100|454:100|454:100|458:100|458:100|454:100|454:100|458:100|458:100|454:100|454:100|458:100|458:100|454:100|454:100|458:100|458:100|454:100|454:100|458:100|458:100|454:100|454:100|458:100|458:100,1,2720
471,116,142769,6,0,B|459:160|492:193|492:193|459:160|414:172|414:172|459:160|471:116,1,255
471,116,143000,6,0,B|460:155|490:185|490:185|460:155|419:166|419:166|460:155|471:116,1,229.499992996216
471,116,143230,6,0,B|461:151|488:177|488:177|461:151|425:160|425:160|461:151|471:116,1,204
471,116,143461,6,0,B|462:146|486:170|486:170|462:146|431:155|431:155|462:146|471:116,1,178.499994552612
471,116,143692,6,0,B|463:142|483:162|483:162|463:142|436:149|436:149|463:142|471:116,1,152.999995330811
471,116,143923,6,0,B|465:137|481:154|481:154|465:137|442:143|442:143|465:137|471:116,1,127.5
470,116,144153,6,0,B|465:133|479:147|479:147|465:133|447:138|447:138|465:133|470:116,1,102
470,115,144384,6,0,B|466:128|476:138|476:138|466:128|452:131|452:131|466:128|470:115,1,76.4999976654053
470,115,144615,6,0,B|467:123|474:130|474:130|467:123|458:126|458:126|467:123|470:115,1,51
470,114,144846,6,0,B|468:118|472:121|472:121|468:118|464:119|464:119|468:118|470:114,1,25.5
359,109,146461,2,0,L|286:107,1,68
190,88,147692,6,0,P|164:177|147:86,1,255
190,88,147923,6,0,P|166:168|152:86,1,229.499992996216
190,88,148153,6,0,P|169:159|156:86,1,204
190,88,148384,6,0,P|171:151|160:87,1,178.499994552612
190,88,148615,6,0,P|174:142|165:87,1,152.999995330811
190,88,148846,6,0,P|177:133|169:87,1,127.5
190,88,149076,6,0,P|180:124|173:87,1,102
190,88,149538,6,0,P|183:112|179:88,1,68
206,217,151384,2,0,L|203:286,2,68
185,192,152615,6,0,B|257:207|298:152|298:152|257:207|185:192,1,255
185,192,152846,6,0,B|249:171|256:109|256:109|249:171|185:192,1,229.499992996216
186,192,153076,6,0,B|225:148|203:98|203:98|225:148|186:192,1,204
185,192,153307,6,0,B|196:141|157:112|157:112|196:141|185:192,1,178.499994552612
186,191,153538,6,0,B|172:148|131:144|131:144|172:148|186:191,1,152.999995330811
185,190,153769,6,0,B|157:165|125:178|125:178|157:165|185:190,1,127.5
184,190,154000,6,0,B|156:183|140:205|140:205|156:183|184:190,1,102
184,190,154461,6,0,B|166:196|164:214|164:214|166:196|184:190,1,68
262,289,156461,2,0,L|258:236,1,51
344,172,157230,2,0,L|341:205,1,34
341,205,157538,6,0,B|368:184|396:164|444:172|464:200|456:247|429:268|381:260|361:232|341:205,1,255
342,204,157769,6,0,B|323:178|305:153|262:146|237:165|230:208|248:233|291:240|316:222|342:204,1,229.499992996216
341,205,158000,6,0,B|368:202|395:199|426:223|429:251|404:281|377:284|346:259|343:232|341:205,1,204
342,204,158230,6,0,B|339:180|337:156|310:135|286:138|265:164|267:188|294:209|318:207|342:204,1,178.499994552612
341,204,158461,6,0,B|360:212|379:220|389:248|381:267|353:278|334:269|324:242|332:223|341:204,1,152.999995330811
342,204,158691,6,0,B|350:185|358:167|347:139|329:131|301:141|293:160|304:187|322:196|341:204,1,152.999995330811
341,204,158923,6,0,B|349:215|357:226|354:245|342:253|323:250|315:239|318:220|329:212|341:204,1,102
341,205,159384,6,0,B|348:199|355:194|357:181|352:174|339:172|332:177|330:190|335:197|340:205,1,68
341,204,160000,6,0,B|341:213|342:222|334:232|325:233|315:225|314:215|322:205|331:204|341:204,1,68
342,204,160307,6,0,B|364:201|387:199|407:173|405:150|379:130|356:132|336:158|338:181|341:204,1,170
341,203,160615,6,0,B|343:229|346:257|322:287|295:290|264:266|261:238|286:207|314:204|340:202,1,203.999993774414
342,204,160769,6,0,B|370:216|399:229|442:213|455:183|439:141|409:128|367:144|353:174|340:203,1,237.999992736817
340,202,161076,6,0,B|325:236|310:269|261:288|228:273|209:224|224:191|272:172|306:187|338:201,1,272
342,204,161307,6,0,B|365:236|390:270|448:279|481:254|491:196|466:162|408:153|374:178|341:202,1,306.000013583097
341,201,162461,6,0,B|387:196,1,34
512,26,162769,6,0,P|436:88|355:39,1,170
273,56,163000,1,0,0:0:0:0:
289,31,163076,2,0,P|298:89|285:150,1,85
158,11,163230,1,0,0:0:0:0:
253,194,163384,2,0,L|264:386,1,170
150,313,163615,1,0,0:0:0:0:
134,337,163692,6,0,P|112:272|120:237,1,85
178,175,163846,1,0,0:0:0:0:
381,54,164000,2,0,L|370:246,1,170
284,272,164230,1,0,0:0:0:0:
293,242,164307,2,0,P|329:221|371:223,1,85
328,384,164461,1,0,0:0:0:0:
301,204,164615,2,0,P|406:202|456:292,1,170
426,326,164846,1,0,0:0:0:0:
409,357,164923,5,0,0:0:0:0:
213,284,165076,1,0,0:0:0:0:
80,373,165230,2,0,B|89:255|89:255|66:190,1,170
15,130,165461,1,0,0:0:0:0:
43,131,165537,1,0,0:0:0:0:
71,133,165614,1,0,0:0:0:0:
99,134,165691,1,0,0:0:0:0:
336,83,165846,2,0,P|275:24|191:54,1,170
281,149,166076,1,0,0:0:0:0:
300,170,166153,6,0,P|308:222|291:279,1,85
147,272,166307,1,0,0:0:0:0:
389,204,166461,2,0,B|405:241|405:241|396:373,1,170
301,342,166692,1,0,0:0:0:0:
272,341,166768,1,0,0:0:0:0:
244,340,166846,2,0,L|134:356,1,85
76,174,167076,2,0,P|169:152|214:263,1,170
94,283,167307,1,0,0:0:0:0:
68,295,167384,6,0,L|73:250,1,34
174,50,167692,6,0,B|301:62|301:62|376:38,1,170
428,22,167923,1,0,0:0:0:0:
452,47,168000,2,0,P|466:83|460:147,2,85
366,203,168307,2,0,P|443:255|524:234,1,170
429,289,168538,1,0,0:0:0:0:
408,321,168615,6,0,P|369:359|319:367,1,85
282,159,168769,1,0,0:0:0:0:
245,327,168923,2,0,B|194:323|194:323|135:338|135:338|46:330,1,170
52,343,169153,1,0,0:0:0:0:
26,352,169230,2,0,L|34:261,1,85
209,240,169384,1,0,0:0:0:0:
38,152,169538,2,0,B|19:28|19:28|120:89,1,170
124,159,169769,1,0,0:0:0:0:
117,185,169846,5,0,0:0:0:0:
259,75,170000,1,0,0:0:0:0:
265,296,170153,2,0,P|183:316|129:232,1,170
39,296,170384,1,0,0:0:0:0:
52,275,170461,2,0,P|69:330|59:383,1,85
4,192,170615,1,0,0:0:0:0:
202,157,170769,2,0,B|285:137|295:188|377:163,1,170
423,93,171000,1,0,0:0:0:0:
394,90,171076,5,0,0:0:0:0:
366,88,171153,1,0,0:0:0:0:
338,86,171230,1,0,0:0:0:0:
486,166,171384,2,0,B|512:45|512:45|490:-11,1,170
382,3,171615,1,0,0:0:0:0:
356,14,171692,6,0,L|311:10,1,34
178,73,172000,6,0,L|234:68,1,50.9999984436036
255,77,172230,1,0,0:0:0:0:
281,87,172307,6,0,L|326:83,1,34
22,195,172615,6,0,P|95:218|165:124,1,170
107,68,172846,1,0,0:0:0:0:
81,52,172923,2,0,P|71:101|88:149,1,85
155,242,173076,1,0,0:0:0:0:
238,15,173230,2,0,L|233:225,1,170
218,281,173461,1,0,0:0:0:0:
196,304,173538,6,0,P|273:320|304:345,1,85
120,365,173692,1,0,0:0:0:0:
346,290,173846,2,0,B|398:291|424:326|424:326|477:335|526:300,1,170
482,209,174076,1,0,0:0:0:0:
450,194,174153,2,0,P|396:199|365:217,2,85
303,366,174461,2,0,L|288:156,1,170
366,103,174692,1,0,0:0:0:0:
360,135,174769,5,0,0:0:0:0:
203,245,174923,1,0,0:0:0:0:
109,70,175076,2,0,B|161:48|161:48|335:70,1,170
184,132,175307,1,0,0:0:0:0:
194,158,175384,2,0,P|134:160|96:125,1,85
6,42,175538,1,0,0:0:0:0:
43,211,175692,2,0,B|70:292|70:292|24:395,1,170
154,344,175923,1,0,0:0:0:0:
192,333,176000,6,0,L|292:339,2,85
476,348,176307,2,0,P|383:355|339:275,1,170
444,208,176538,1,0,0:0:0:0:
470,186,176615,2,0,P|484:241|471:320,1,85
292,231,176769,1,0,0:0:0:0:
406,14,176923,2,0,B|397:61|362:83|362:83|392:117|378:171,1,170
242,162,177153,1,0,0:0:0:0:
222,182,177230,6,0,L|225:137,1,34
164,282,177538,6,0,P|78:273|29:353,1,170
148,375,177769,1,0,0:0:0:0:
186,364,177846,2,0,P|230:334|248:280,2,85
373,307,178153,2,0,B|506:300|506:300|451:352,1,170
324,365,178384,1,0,0:0:0:0:
325,336,178460,5,0,0:0:0:0:
327,308,178538,2,0,L|334:185,1,85
396,0,178769,2,0,B|419:43|419:43|402:204,1,170
325,115,179000,1,0,0:0:0:0:
306,92,179076,2,0,P|368:75|435:78,1,85
490,143,179230,1,0,0:0:0:0:
256,168,179384,2,0,P|176:186|114:108,1,170
186,33,179615,1,0,0:0:0:0:
205,44,179692,6,0,L|242:37,1,34
256,168,180000,6,0,B|249:235|249:235|232:263|232:263|219:376,1,170
316,362,180230,1,0,0:0:0:0:
347,373,180307,2,0,P|345:313|316:256,1,85
176,207,180461,1,0,0:0:0:0:
345,143,180615,2,0,B|465:129|465:129|550:155,1,170
481,224,180846,1,0,0:0:0:0:
452,221,180922,5,0,0:0:0:0:
424,218,180999,1,0,0:0:0:0:
396,215,181076,1,0,0:0:0:0:
263,49,181230,2,0,P|203:106|108:75,1,170
24,114,181461,1,0,0:0:0:0:
40,88,181538,2,0,P|68:166|56:232,2,85
175,231,181846,2,0,B|187:269|187:269|174:362|174:362|212:330,1,170
264,303,182076,1,0,0:0:0:0:
411,313,182153,6,0,B|472:319|472:319|475:319|475:319|472:319|472:319|475:319|475:319|472:319|472:319|475:319|475:319|472:319|472:319|475:319|475:319|472:319|472:319|475:319|475:319|472:319|472:319|475:319|475:319|472:319|472:319|475:319|475:319|472:319|472:319|475:319|475:319|472:319|472:319|475:319|475:319|472:319|472:319|475:319|475:319|472:319|472:319|475:319|475:319|472:319|472:319|475:319|475:319|472:319|472:319|475:319|475:319|472:319|472:319|475:319|475:319|472:319|472:319|475:319|475:319|472:319|472:319|475:319|475:319|472:319|472:319|475:319|475:319|472:319|472:319|475:319|475:319|472:319|472:319|475:319|475:319|472:319|472:319|475:319|475:319|472:319|472:319|475:319|475:319|472:319|472:319|475:319|475:319|472:319|472:319|475:319|475:319|472:319|472:319|475:319|475:319|472:319|472:319|475:319|475:319|472:319|472:319|475:319|475:319|472:319|472:319|475:319|475:319|472:319|472:319|475:319|475:319|472:319|472:319|475:319|475:319|472:319|472:319|475:319|475:319|472:319|472:319|475:319|475:319|472:319|472:319|475:319|475:319|472:319|472:319|475:319|475:319|472:319|472:319|475:319|475:319|472:319|472:319|475:319|475:319|472:319|472:319|475:319|475:319|472:319|472:319|475:319|475:319|472:319|472:319|475:319|475:319|472:319|472:319|475:319|475:319|472:319|472:319|475:319|475:319|472:319|472:319|475:319|475:319|472:319|472:319|475:319|475:319|472:319|472:319|475:319|475:319|472:319|472:319|475:319|475:319|472:319|472:319|475:319|475:319|472:319|472:319|475:319|475:319|472:319|472:319|475:319|475:319|472:319|472:319|475:319|475:319|472:319|472:319|475:319|475:319|472:319|472:319|475:319|475:319|472:319|472:319|475:319|475:319|472:319|472:319|475:319|475:319|472:319|472:319|475:319|475:319|472:319|472:319|475:319|475:319|472:319|472:319|475:319|475:319|472:319|472:319|475:319|475:319|472:319|472:319|475:319|475:319|472:319|472:319|475:319|475:319|472:319|472:319|475:319|475:319|472:319|472:319|475:319|475:319|472:319|472:319|475:319|475:319|472:319|472:319|475:319|475:319|472:319|472:319|475:319|475:319|472:319|472:319|475:319|475:319|472:319|472:319|475:319|475:319|472:319|472:319|475:319|475:319|472:319|472:319|475:319|475:319|472:319|472:319|475:319|475:319|472:319|472:319|475:319|475:319|472:319|472:319|475:319|475:319|472:319|472:319|475:319|475:319|472:319|472:319|475:319|475:319|472:319|472:319|475:319|475:319|472:319|472:319|475:319|475:319|472:319|472:319|475:319|475:319|472:319|472:319|475:319|475:319|472:319|472:319|475:319|475:319|472:319|472:319|475:319|475:319|472:319|472:319|475:319|475:319|472:319|472:319|475:319|475:319|472:319|472:319|475:319|475:319|472:319|472:319|475:319|475:319|472:319|472:319|475:319|475:319|472:319|472:319|475:319|475:319|472:319|472:319|475:319|475:319|472:319|472:319|475:319|475:319|472:319|472:319|475:319|475:319|472:319|472:319|475:319|475:319|472:319|472:319|475:319|475:319|472:319|472:319|475:319|475:319|472:319|472:319|475:319|475:319|472:319|472:319|475:319|475:319|472:319|472:319|475:319|475:319|472:319|472:319|475:319|475:319|472:319|472:319|475:319|475:319|472:319|472:319|475:319|475:319|472:319|472:319|475:319|475:319|472:319|472:319|475:319|475:319|472:319|472:319|475:319|475:319|472:319|472:319|475:319|475:319|472:319|472:319|475:319|475:319|472:319|472:319|475:319|475:319|472:319|472:319|475:319|475:319|472:319|472:319|475:319|475:319|472:319|472:319|475:319|475:319|472:319|472:319|475:319|475:319|472:319|472:319|475:319|475:319|472:319|472:319|475:319|475:319|472:319|472:319|475:319|475:319|472:319|472:319|475:319|475:319|472:319|472:319|475:319|475:319|472:319|472:319|475:319|475:319|472:319|472:319|475:319|475:319|472:319|472:319|475:319|475:319|472:319|472:319|475:319|475:319|472:319|472:319|475:319|475:319|472:319|472:319|475:319|475:319|472:319|472:319|475:319|475:319|472:319|472:319|475:319|475:319,1,680
503,228,182923,5,0,0:0:0:0:
492,228,182999,1,0,0:0:0:0:
481,229,183076,1,0,0:0:0:0:
471,230,183153,1,0,0:0:0:0:
460,231,183230,2,0,L|470:140,1,85
448,13,183538,5,0,0:0:0:0:
435,11,183614,1,0,0:0:0:0:
422,10,183691,1,0,0:0:0:0:
409,9,183768,1,0,0:0:0:0:
397,8,183846,2,0,P|394:63|407:114,1,101.999996887207
436,296,184153,5,0,0:0:0:0:
421,297,184229,1,0,0:0:0:0:
406,298,184306,1,0,0:0:0:0:
391,299,184383,1,0,0:0:0:0:
376,300,184461,2,0,P|360:237|390:161,1,118.999996368408
373,14,184769,5,0,0:0:0:0:
356,12,184845,1,0,0:0:0:0:
339,11,184922,1,0,0:0:0:0:
322,9,184999,1,0,0:0:0:0:
305,8,185076,2,0,P|282:83|319:146,1,136
334,359,185384,5,0,0:0:0:0:
314,360,185460,1,0,0:0:0:0:
295,362,185537,1,0,0:0:0:0:
276,363,185614,1,0,0:0:0:0:
257,365,185692,2,0,P|206:292|273:206,1,152.999995330811
275,9,186000,5,0,0:0:0:0:
253,7,186076,1,0,0:0:0:0:
232,5,186153,1,0,0:0:0:0:
211,3,186230,1,0,0:0:0:0:
190,2,186307,2,0,P|130:97|209:189,1,170
205,375,186615,5,0,0:0:0:0:
181,376,186691,1,0,0:0:0:0:
158,378,186768,1,0,0:0:0:0:
135,380,186845,1,0,0:0:0:0:
111,382,186923,2,0,P|36:290|130:194,1,187.000005706787
125,12,187230,5,0,0:0:0:0:
99,9,187306,1,0,0:0:0:0:
74,7,187383,1,0,0:0:0:0:
48,5,187460,1,0,0:0:0:0:
23,3,187538,2,0,P|-52:80|44:218,1,203.999993774414
216,212,187846,5,0,0:0:0:0:
291,216,187922,1,0,0:0:0:0:
365,222,187999,1,0,0:0:0:0:
438,229,188076,1,0,0:0:0:0:
512,235,188153,1,0,0:0:0:0:
238,281,188423,6,0,P|258:177|279:281,1,297.5
287,298,188961,6,0,P|332:239|254:157,1,201.875
259,156,189326,6,0,P|213:173|315:277,1,286.875
334,301,189846,6,0,P|194:313|228:129,1,382.5
225,129,190538,6,0,P|286:129|363:232,1,191.25
362,223,190884,6,0,P|344:289|235:333,1,191.25
209,331,191230,6,0,B|211:331|211:331|212:332|212:332|211:331|211:331|212:332|212:332|211:331|211:331|212:332|212:332|211:331|211:331|212:332|212:332|211:331|211:331|212:332|212:332|211:331|211:331|212:332|212:332|211:331|211:331|212:332|212:332|211:331|211:331|212:332|212:332|211:331|211:331|212:332|212:332|211:331|211:331|212:332|212:332|211:331|211:331|212:332|212:332|211:331|211:331|212:332|212:332|211:331|211:331|212:332|212:332|211:331|211:331|212:332|212:332|211:331|211:331|212:332|212:332|211:331|211:331|212:332|212:332|211:331|211:331|212:332|212:332|211:331|211:331|212:332|212:332|211:331|211:331|212:332|212:332|211:331|211:331|212:332|212:332|211:331|211:331|212:332|212:332|211:331|211:331|212:332|212:332|211:331|211:331|212:332|212:332|211:331|211:331|212:332|212:332|211:331|211:331|212:332|212:332|211:331|211:331|212:332|212:332|211:331|211:331|212:332|212:332|211:331|211:331|212:332|212:332|211:331|211:331|212:332|212:332|211:331|211:331|212:332|212:332|211:331|211:331|212:332|212:332|211:331|211:331|212:332|212:332|211:331|211:331|212:332|212:332|211:331|211:331|212:332|212:332|211:331|211:331|212:332|212:332|211:331|211:331|212:332|212:332|211:331|211:331|212:332|212:332|215:334|215:334|217:335|217:335|215:334|215:334|217:335|217:335|215:334|215:334|217:335|217:335|215:334|215:334|217:335|217:335|215:334|215:334|217:335|217:335|215:334|215:334|217:335|217:335|215:334|215:334|217:335|217:335|215:334|215:334|217:335|217:335|215:334|215:334|217:335|217:335|215:334|215:334|217:335|217:335|215:334|215:334|217:335|217:335|215:334|215:334|217:335|217:335|215:334|215:334|217:335|217:335|215:334|215:334|217:335|217:335|215:334|215:334|217:335|217:335|215:334|215:334|217:335|217:335|215:334|215:334|217:335|217:335|215:334|215:334|217:335|217:335|215:334|215:334|217:335|217:335|215:334|215:334|217:335|217:335|215:334|215:334|217:335|217:335|215:334|215:334|217:335|217:335|215:334|215:334|217:335|217:335|215:334|215:334|217:335|217:335|215:334|215:334|217:335|217:335|215:334|215:334|217:335|217:335|215:334|215:334|217:335|217:335|215:334|215:334|217:335|217:335|215:334|215:334|217:335|217:335|215:334|215:334|217:335|217:335|215:334|215:334|217:335|217:335|215:334|215:334|217:335|217:335|215:334|215:334|217:335|217:335|215:334|215:334|217:335|217:335|215:334|215:334|217:335|217:335|215:334|215:334|220:336|220:336|223:337|223:337|220:336|220:336|223:337|223:337|220:336|220:336|223:337|223:337|220:336|220:336|223:337|223:337|220:336|220:336|223:337|223:337|220:336|220:336|225:339|225:339|226:338|226:338|225:339|225:339|226:338|226:338|225:339|225:339|226:338|226:338|225:339|225:339|226:338|226:338|225:339|225:339|226:338|226:338|225:339|225:339|226:338|226:338|225:339|225:339|226:338|226:338|225:339|225:339|226:338|226:338|225:339|225:339|226:338|226:338|225:339|225:339|226:338|226:338|225:339|225:339|226:338|226:338|225:339|225:339|226:338|226:338|225:339|225:339|226:338|226:338|225:339|225:339|229:339|229:339|231:340|231:340|229:339|229:339|231:340|231:340|229:339|229:339|231:340|231:340|229:339|229:339|233:341|233:341|236:341|236:341|233:341|233:341|236:341|236:341|233:341|233:341|238:342|238:342|241:343|241:343|238:342|238:342|241:343|241:343|238:342|238:342|241:343|241:343|238:342|238:342|241:343|241:343|238:342|238:342|244:342|244:342|246:343|246:343|244:342|244:342|246:343|246:343|244:342|244:342|246:343|246:343|244:342|244:342|246:343|246:343|244:342|244:342|248:344|248:344|251:343|248:344|248:344|251:343|251:343|248:344|248:344|252:344|252:344|257:344|257:344|252:344|252:344|257:344|257:344|252:344|252:344|259:344|259:344|264:344|264:344|259:344|259:344|268:345|268:345|270:343|270:343|268:345|268:345|270:343|270:343|268:345|268:345|274:343|274:343|277:343|277:343|274:343|274:343|277:343|277:343|274:343|274:343|281:342|281:342|283:342|283:342|281:342|281:342|283:342|283:342|281:342|281:342|286:340|286:340|288:340|288:340|286:340|286:340|288:340|288:340|286:340|286:340|292:340|292:340|294:339|294:339|292:340|292:340|294:339|294:339|292:340|292:340|298:338|298:338|300:336|300:336|298:338|298:338|298:338|300:336|300:336|298:338|298:338|303:336|303:336|305:335|305:335|303:336|303:336|308:333|308:333|312:332|312:332|308:333|308:333|314:330|314:330|318:329|318:329|314:330|314:330|320:327|320:327|323:324|323:324|320:327|320:327|327:321|327:321|331:318|331:318|327:321|327:321|336:313|340:309|340:309|349:298|349:298|345:303|345:303|345:304|355:293|365:270|365:270|383:216|379:139|306:70|212:85|160:104|96:189|118:288|172:318|229:340,1,1275.00004863739
237,353,192000,6,0,L|141:340,1,63.7500024318696
5,312,192153,2,0,L|101:299,1,63.7500024318696
183,201,192307,1,0,0:0:0:0:
192,231,192383,1,0,0:0:0:0:
193,263,192460,1,0,0:0:0:0:
106,165,192615,6,0,L|111:242,1,63.7500024318696
192,32,192769,2,0,L|187:109,1,63.7500024318696
45,105,192923,1,0,0:0:0:0:
71,87,192999,1,0,0:0:0:0:
102,80,193076,1,0,0:0:0:0:
278,153,193230,6,0,P|319:164|369:152,1,63.7500024318696
474,56,193384,2,0,P|442:55|412:65,1,63.7500024318696
451,196,193538,2,0,L|458:114,1,63.7500024318696
383,238,193692,1,0,0:0:0:0:
396,260,193769,1,0,0:0:0:0:
380,299,193846,6,0,L|385:402,1,63.7500024318696
284,230,194000,2,0,L|279:333,1,63.7500024318696
169,301,194153,1,0,0:0:0:0:
170,332,194229,1,0,0:0:0:0:
172,364,194307,2,0,L|91:359,1,63.7500024318696
1,244,194461,6,0,P|51:253|93:247,1,63.7500024318696
176,181,194615,2,0,P|203:138|214:97,1,63.7500024318696
122,46,194769,1,0,0:0:0:0:
123,77,194845,1,0,0:0:0:0:
124,109,194922,1,0,0:0:0:0:
288,162,195076,6,0,P|349:168|375:180,1,63.7500024318696
468,239,195230,2,0,L|481:166,1,63.7500024318696
436,93,195384,1,0,0:0:0:0:
430,61,195460,1,0,0:0:0:0:
433,30,195537,1,0,0:0:0:0:
376,246,195692,6,0,P|396:319|346:382,1,127.500004863739
302,337,195923,1,0,0:0:0:0:
279,357,196000,2,0,P|232:344|187:348,1,63.7500024318696
156,280,196153,2,0,P|109:293|64:289,1,63.7500024318696
17,364,196307,6,0,L|0:215,1,127.500004863739
55,170,196538,1,0,0:0:0:0:
74,188,196615,2,0,L|81:123,1,63.7500024318696
7,43,196769,2,0,P|61:18|85:21,1,63.7500024318696
158,74,196923,5,0,0:0:0:0:
187,85,196999,1,0,0:0:0:0:
219,83,197076,1,0,0:0:0:0:
247,69,197153,1,0,0:0:0:0:
279,36,197230,2,0,P|290:79|280:120,1,63.7500024318696
183,161,197384,2,0,P|172:204|182:245,1,63.7500024318696
265,341,197538,5,0,0:0:0:0:
264,309,197614,1,0,0:0:0:0:
263,277,197691,1,0,0:0:0:0:
262,245,197768,1,0,0:0:0:0:
261,207,197846,2,0,L|370:215,1,63.7500024318696
174,222,198000,2,0,L|110:226,1,63.7500024318696
181,370,198153,6,0,P|193:313|188:285,1,63.7500024318696
22,233,198307,2,0,L|36:343,1,63.7500024318696
75,160,198461,1,0,0:0:0:0:
79,128,198537,1,0,0:0:0:0:
83,96,198614,1,0,0:0:0:0:
209,31,198769,6,0,P|227:81|221:130,1,63.7500024318696
304,161,198923,2,0,P|304:101|381:75,1,127.500004863739
381,148,199153,1,0,0:0:0:0:
402,163,199230,2,0,L|509:176,1,63.7500024318696
347,234,199384,5,0,0:0:0:0:
317,245,199460,1,0,0:0:0:0:
285,244,199537,1,0,0:0:0:0:
257,230,199614,1,0,0:0:0:0:
234,205,199692,2,0,P|191:196|149:202,1,63.7500024318696
210,369,199846,2,0,L|203:288,1,63.7500024318696
71,235,200000,5,0,0:0:0:0:
69,266,200076,1,0,0:0:0:0:
67,298,200153,1,0,0:0:0:0:
65,330,200230,1,0,0:0:0:0:
62,365,200307,2,0,L|-12:352,1,63.7500024318696
141,316,200461,2,0,L|215:303,1,63.7500024318696
164,150,200615,6,0,P|154:207|160:247,1,63.7500024318696
304,322,200769,2,0,P|282:271|252:246,1,63.7500024318696
236,103,200923,2,0,L|243:204,1,63.7500024318696
199,368,201076,2,0,L|203:304,1,63.7500024318696
316,194,201230,5,0,0:0:0:0:
347,197,201306,1,0,0:0:0:0:
379,200,201383,1,0,0:0:0:0:
469,147,201538,2,0,P|477:105|467:62,2,63.7500024318696
345,9,201846,6,0,P|359:52|351:93,1,63.7500024318696
241,155,202000,2,0,P|201:176|159:175,1,63.7500024318696
209,39,202153,1,0,0:0:0:0:
240,41,202229,1,0,0:0:0:0:
272,43,202306,1,0,0:0:0:0:
128,120,202461,6,0,L|44:128,1,63.7500024318696
204,249,202615,2,0,L|288:257,1,63.7500024318696
117,262,202769,1,0,0:0:0:0:
125,292,202845,1,0,0:0:0:0:
124,324,202922,1,0,0:0:0:0:
16,369,203076,6,0,L|23:269,1,63.7500024318696
68,189,203230,2,0,L|61:89,1,63.7500024318696
9,212,203384,2,0,P|52:191|84:189,1,63.7500024318696
243,299,203538,2,0,P|214:258|175:240,1,63.7500024318696
198,367,203692,6,0,P|272:374|322:285,1,127.500004863739
438,253,204000,1,0,0:0:0:0:
406,251,204076,1,0,0:0:0:0:
374,249,204153,1,0,0:0:0:0:
342,248,204230,1,0,0:0:0:0:
310,246,204307,6,0,P|291:198|292:158,1,63.7500024318696
404,70,204461,2,0,L|393:174,1,63.7500024318696
239,125,204615,1,0,0:0:0:0:
267,111,204691,1,0,0:0:0:0:
299,108,204768,1,0,0:0:0:0:
155,155,204923,6,0,L|72:149,1,63.7500024318696
195,297,205076,2,0,P|208:229|196:186,1,63.7500024318696
110,320,205230,1,0,0:0:0:0:
111,351,205306,1,0,0:0:0:0:
113,383,205383,1,0,0:0:0:0:
319,358,205538,6,0,P|339:293|303:231,1,127.500004863739
399,215,205846,2,0,L|478:222,2,63.7500024318696
303,340,206153,2,0,P|323:275|287:213,1,127.500004863739
383,197,206461,2,0,L|462:204,2,63.7500024318696
223,205,206769,6,0,L|63:217,1,127.500004863739
14,181,207000,1,0,0:0:0:0:
30,162,207076,2,0,P|43:101|26:64,1,63.7500024318696
140,35,207230,2,0,P|149:65|146:96,1,63.7500024318696
262,108,207384,6,0,P|314:153|381:130,1,127.500004863739
419,71,207615,1,0,0:0:0:0:
403,69,207691,1,0,0:0:0:0:
387,68,207768,1,0,0:0:0:0:
371,67,207845,1,0,0:0:0:0:
502,141,208000,6,0,P|482:217|484:290,1,127.500004863739
423,334,208230,1,0,0:0:0:0:
447,358,208307,2,0,P|391:350|355:348,1,63.7500024318696
285,298,208461,2,0,P|219:310|192:321,1,63.7500024318696
108,362,208615,2,0,P|43:368|2:304,1,127.500004863739
58,251,208846,1,0,0:0:0:0:
85,232,208923,2,0,P|75:297|78:332,2,63.7500024318696
218,217,209230,6,0,L|223:109,1,101.999996887207
292,203,209461,1,0,0:0:0:0:
291,223,209538,6,0,L|296:115,1,85
365,209,209769,1,0,0:0:0:0:
364,229,209846,6,0,L|367:160,1,68
438,215,210076,1,0,0:0:0:0:
437,235,210153,6,0,L|439:181,1,50.9999984436036
511,221,210384,1,0,0:0:0:0:
510,241,210461,6,0,L|511:216,14,17
512,344,211692,6,0,B|332:368|332:368|272:331|272:331|57:326,1,382.500014591218
70,362,212000,6,0,P|64:303|68:261,1,55.2499974708558
155,240,212153,1,0,0:0:0:0:
176,218,212230,2,0,P|184:180|187:153,2,55.2499974708558
64,198,212461,1,0,0:0:0:0:
137,92,212615,2,0,P|206:78|223:76,2,55.2499974708558
265,151,212846,2,0,P|311:160|343:158,1,55.2499974708558
307,10,213000,2,0,P|289:71|285:102,1,55.2499974708558
390,279,213230,6,0,P|377:210|367:188,2,55.2499974708558
473,112,213461,2,0,P|460:204|460:237,1,110.499994941712
473,257,213692,2,0,P|491:321|465:373,1,110.499994941712
439,366,213923,2,0,P|404:361|367:361,2,55.2499974708558
250,335,214230,1,0,0:0:0:0:
226,316,214307,6,0,P|147:334|97:353,1,110.499994941712
83,359,214538,2,0,P|87:284|19:234,1,165.749992412568
6,265,214846,2,0,P|18:310|19:338,2,55.2499974708558
101,185,215076,2,0,P|105:143|94:63,1,110.499994941712
71,45,215307,2,0,L|209:52,1,110.499994941712
221,55,215538,5,0,0:0:0:0:
375,82,215692,2,0,P|412:44|423:21,1,55.2499974708558
316,211,215923,2,0,P|340:287|336:346,1,110.499994941712
331,356,216153,2,0,P|406:322|484:309,1,110.499994941712
470,316,216384,1,0,0:0:0:0:
451,284,216460,1,0,0:0:0:0:
436,250,216537,1,0,0:0:0:0:
427,214,216615,2,0,P|433:173|441:144,2,55.2499974708558
331,113,216923,6,0,P|322:60|311:35,1,55.2499974708558
484,7,217076,2,0,P|475:62|419:86,1,110.499994941712
405,56,217307,1,0,0:0:0:0:
393,22,217384,1,0,0:0:0:0:
220,72,217538,1,0,0:0:0:0:
183,58,217615,2,0,P|148:49|120:47,1,55.2499974708558
193,153,217769,2,0,P|204:215|169:275,1,110.499994941712
155,235,218000,6,0,P|99:264|31:249,1,110.499994941712
28,236,218230,1,0,0:0:0:0:
179,337,218384,2,0,P|243:348|298:383,1,110.499994941712
295,337,218615,2,0,P|326:282|314:230,1,110.499994941712
284,208,218846,1,0,0:0:0:0:
421,238,219000,2,0,P|431:159|418:89,1,110.499994941712
405,97,219230,5,0,0:0:0:0:
509,182,219384,2,0,P|501:241|487:276,1,55.2499974708558
405,317,219538,1,0,0:0:0:0:
424,346,219615,2,0,P|350:331|291:329,1,110.499994941712
282,350,219846,2,0,P|219:375|162:340,1,110.499994941712
159,336,220076,1,0,0:0:0:0:
124,337,220153,2,0,P|128:263|118:190,1,110.499994941712
226,300,220461,5,0,0:0:0:0:
31,371,220615,2,0,P|14:301|16:230,1,110.499994941712
26,227,220846,1,0,0:0:0:0:
8,186,220923,2,0,P|75:170|102:114,1,110.499994941712
175,89,221230,1,0,0:0:0:0:
202,91,221306,1,0,0:0:0:0:
229,95,221383,1,0,0:0:0:0:
256,370,221538,6,0,P|434:192|256:13,1,561.000005350113
256,13,221846,2,0,P|77:191|256:370,1,561.000005350113
256,370,222153,2,0,P|434:192|256:13,1,561.000005350113
256,13,222461,2,0,P|77:191|256:370,1,561.000005350113
256,370,222769,6,0,B|189:325|189:236|256:192|256:192|322:147|322:58|256:13,1,425
257,14,223076,2,0,B|322:58|322:147|256:192|256:192|189:236|189:325|256:370,1,425
306,281,223384,1,0,0:0:0:0:
206,103,223692,1,0,0:0:0:0:
123,384,224000,6,0,P|76:378|133:372,1,170
389,384,224307,2,0,P|436:378|379:372,1,170
25,275,224615,2,0,P|-22:269|35:263,1,170
487,275,224922,2,0,P|534:269|477:263,1,170
29,131,225230,6,0,P|-18:125|39:119,1,170
483,131,225537,2,0,P|530:125|473:119,1,170
160,40,225846,2,0,P|113:34|170:28,1,170
352,40,226153,2,0,P|399:34|342:28,1,170
254,9,226461,6,0,B|240:10|230:18|224:32|224:50|233:62|246:69|256:71|256:71|256:78|256:78|215:78|215:78|215:78|197:84|181:107|181:118|181:118|181:208|181:208|181:229|207:229|207:208|207:208|207:128|207:128|207:128|207:128|215:128|215:128|215:368|215:368|218:375|228:384|241:382|247:377|252:368|252:368|252:230|252:230|254:230|256:242|256:230|256:230|256:368|256:368|261:377|267:382|280:384|289:375|293:368|293:368|293:128|293:128|301:128|301:128|318:121|335:99|335:87|335:87|335:-2|335:-2|335:-20|309:-20|309:-2|309:-2|309:78|309:78|293:78|293:78|252:78|252:78|252:71|252:71|262:69|275:62|284:50|284:32|278:18|268:10|254:9,1,1700
254,9,226614,6,0,B|240:10|230:18|224:32|224:50|233:62|246:69|256:71|256:71|256:78|256:78|215:78|215:78|196:81|176:100|173:110|173:110|159:201|159:201|156:218|179:223|184:204|184:204|197:125|197:125|207:128|207:128|215:128|215:128|215:368|215:368|218:375|228:384|241:382|247:377|252:368|252:368|252:230|252:230|254:230|256:242|256:230|256:230|256:368|256:368|261:377|267:382|280:384|289:375|293:368|293:368|293:128|293:128|301:128|301:128|318:124|338:103|342:94|342:94|355:4|355:4|359:-12|335:-17|330:0|330:0|317:80|317:80|293:78|293:78|252:78|252:78|252:71|252:71|262:69|275:62|284:50|284:32|278:18|268:10|254:9,1,1718.90792819614
254,9,226768,6,0,B|240:10|230:18|224:32|224:50|233:62|246:69|256:71|256:71|256:78|256:78|215:78|215:78|196:76|173:93|168:103|168:103|138:188|138:188|131:207|156:215|162:198|162:198|190:121|190:121|207:128|207:128|215:128|215:128|215:367|215:367|218:374|228:384|241:381|247:377|252:367|252:367|252:230|252:230|254:230|256:242|256:230|256:230|256:367|256:367|261:377|267:381|280:384|289:374|293:367|293:367|293:128|293:128|301:128|301:128|318:128|342:112|346:100|346:100|376:16|376:16|382:-1|359:-9|352:7|352:7|326:83|326:83|293:78|293:78|252:78|252:78|252:71|252:71|262:69|275:62|284:50|284:32|278:18|268:10|254:9,1,1738.02221956588
254,9,226922,6,0,B|240:10|230:18|224:32|224:50|233:62|246:69|256:71|256:71|256:78|256:78|215:78|215:78|196:73|169:86|165:96|165:96|120:173|120:173|110:192|132:204|142:186|142:186|182:117|182:117|207:128|207:128|215:128|215:128|215:368|215:368|218:375|228:384|241:382|247:377|252:368|252:368|252:230|252:230|254:230|256:242|256:230|256:230|256:368|256:368|261:377|267:382|280:384|289:375|293:368|293:368|293:128|293:128|301:128|301:128|318:131|345:118|349:109|349:109|395:31|395:31|404:13|382:0|372:18|372:18|332:87|332:87|293:78|293:78|252:78|252:78|252:71|252:71|262:69|275:62|284:50|284:32|278:18|268:10|254:9,1,1757.35309920219
254,9,227076,6,0,B|240:10|230:18|224:32|224:50|233:62|246:69|256:71|256:71|256:78|256:78|215:78|215:78|197:69|169:78|162:86|162:86|104:155|104:155|92:170|111:188|125:171|125:171|176:110|176:110|207:128|207:128|215:128|215:128|215:368|215:368|218:375|228:384|241:382|247:377|252:368|252:368|252:230|252:230|254:230|256:242|256:230|256:230|256:368|256:368|261:377|267:382|280:384|289:375|293:368|293:368|293:128|293:128|301:128|301:128|317:134|345:127|352:118|352:118|411:49|411:49|422:34|403:16|389:32|389:32|338:94|338:94|293:78|293:78|252:78|252:78|252:71|252:71|262:69|275:62|284:50|284:32|278:18|268:10|254:9,1,1769.74131949426
254,9,227230,6,0,B|240:9|230:17|224:32|224:50|233:62|246:69|255:71|255:71|255:78|255:78|215:78|215:78|200:65|171:62|161:68|161:68|83:114|83:114|64:125|77:147|96:137|96:137|165:96|165:96|207:129|207:129|215:129|215:129|215:371|215:371|218:378|228:387|241:385|247:380|252:371|252:371|252:231|252:231|254:231|255:243|255:231|255:231|255:371|255:371|261:380|267:385|280:387|289:378|293:371|293:371|293:129|293:129|301:129|301:129|314:140|344:144|353:137|353:137|433:91|433:91|450:81|437:59|418:68|418:68|349:110|349:110|293:78|293:78|252:78|252:78|252:71|252:71|262:69|275:62|284:50|284:32|278:17|268:9|254:9,1,1822.22498454372
254,9,227384,6,0,B|240:10|230:18|224:32|224:50|233:62|246:69|256:71|256:71|256:78|256:78|215:78|215:78|202:63|175:56|165:59|165:59|79:90|79:90|61:97|70:121|89:115|89:115|165:86|165:86|207:128|207:128|215:128|215:128|215:368|215:368|218:375|228:384|241:382|247:377|252:368|252:368|252:230|252:230|254:230|256:242|256:230|256:230|256:368|256:368|261:377|267:382|280:384|289:375|293:368|293:368|293:128|293:128|301:128|301:128|312:141|339:149|349:146|349:146|435:115|435:115|453:107|445:83|425:90|425:90|349:118|349:118|293:78|293:78|252:78|252:78|252:71|252:71|262:69|275:62|284:50|284:32|278:18|268:10|254:9,1,1822.22498454372
254,9,227537,6,0,B|240:10|230:18|224:32|224:50|233:62|246:68|256:71|256:71|256:78|256:78|215:78|215:78|209:60|185:44|174:44|174:44|85:44|85:44|64:44|64:68|85:68|85:68|164:68|164:68|207:128|207:128|215:128|215:128|215:367|215:367|217:374|228:384|241:381|247:377|252:367|252:367|252:230|252:230|254:230|256:242|256:230|256:230|256:367|256:367|261:377|267:381|280:384|289:374|293:367|293:367|293:128|293:128|301:128|301:128|308:145|329:161|342:161|342:161|431:161|431:161|450:161|450:136|431:136|431:136|351:136|351:136|293:78|293:78|252:78|252:78|252:71|252:71|262:68|275:62|284:50|284:32|278:18|268:10|254:9,1,1842.49244818382
254,9,227691,6,0,B|240:10|230:18|224:32|224:50|233:62|246:69|256:71|256:71|256:78|256:78|215:78|215:78|210:59|191:39|181:35|181:35|91:22|91:22|73:18|68:42|88:47|88:47|166:60|166:60|207:128|207:128|215:128|215:128|215:368|215:368|218:375|228:384|241:382|247:377|252:368|252:368|252:230|252:230|254:230|256:242|256:230|256:230|256:368|256:368|261:377|267:382|280:384|289:375|293:368|293:368|293:128|293:128|301:128|301:128|304:146|323:165|333:168|333:168|423:183|423:183|441:186|447:162|426:158|426:158|348:144|348:144|293:78|293:78|252:78|252:78|252:71|252:71|262:69|275:62|284:50|284:32|278:18|268:10|254:9,1,1848.34497782136
254,9,227845,6,0,B|240:10|230:18|224:32|224:50|233:62|246:69|256:71|256:71|256:78|256:78|215:78|215:78|215:59|199:35|188:31|188:31|104:0|104:0|85:-5|76:18|94:25|94:25|169:52|169:52|207:128|207:128|215:128|215:128|215:368|215:368|218:375|228:384|241:382|247:377|252:368|252:368|252:230|252:230|254:230|256:242|256:230|256:230|256:368|256:368|261:377|267:382|280:384|289:375|293:368|293:368|293:128|293:128|301:128|301:128|299:146|315:168|327:173|327:173|411:204|411:204|431:211|438:186|420:180|420:180|345:152|345:152|318:113|293:78|293:78|252:78|252:78|252:71|252:71|262:69|275:62|284:50|284:32|278:18|268:10|254:9,1,1861.37472888572
254,9,227999,6,0,B|240:10|230:18|224:32|224:50|233:62|246:69|256:71|256:71|256:78|256:78|215:78|215:78|218:59|206:32|196:28|196:28|119:-16|119:-16|100:-25|88:-4|105:5|105:5|175:46|175:46|207:128|207:128|215:128|215:128|215:368|215:368|218:375|228:384|241:382|247:377|252:368|252:368|252:230|252:230|254:230|256:242|256:230|256:230|256:368|256:368|261:377|267:382|280:384|289:375|293:368|293:368|293:128|293:128|301:128|301:128|296:146|309:171|318:177|318:177|397:222|397:222|414:232|426:208|409:199|409:199|339:159|339:159|293:78|293:78|252:78|252:78|252:71|252:71|262:69|275:62|284:50|284:32|278:18|268:10|254:9,1,1861.37472888572
254,9,228153,6,0,B|240:10|230:18|224:32|224:50|233:62|246:69|256:71|256:71|256:78|256:78|215:78|215:78|222:60|213:32|206:25|206:25|135:-32|135:-32|122:-43|104:-23|120:-11|120:-11|181:39|181:39|207:128|207:128|215:128|215:128|215:368|215:368|218:375|228:384|241:382|247:377|252:368|252:368|252:230|252:230|254:230|256:242|256:230|256:230|256:368|256:368|261:377|267:382|280:384|289:375|293:368|293:368|293:128|293:128|301:128|301:128|293:144|301:171|309:180|309:180|379:238|379:238|392:249|411:230|395:217|395:217|333:165|333:165|293:78|293:78|252:78|252:78|252:71|252:71|262:69|275:62|284:50|284:32|278:18|268:10|254:9,1,1866.9756474452
254,9,228307,6,0,B|240:10|230:18|224:32|224:50|233:62|246:69|256:71|256:71|256:78|256:78|215:78|215:78|224:60|222:32|215:25|215:25|157:-43|157:-43|144:-57|125:-41|135:-27|135:-27|188:34|188:34|207:128|207:128|215:128|215:128|215:368|215:368|218:375|228:384|241:382|247:377|252:368|252:368|252:230|252:230|254:230|256:242|256:230|256:230|256:368|256:368|261:377|267:382|280:384|289:375|293:368|293:368|293:128|293:128|299:128|299:128|292:144|293:171|299:180|299:180|357:249|357:249|370:264|389:248|379:233|379:233|327:170|327:170|293:78|293:78|252:78|252:78|252:71|252:71|262:69|275:62|284:50|284:32|278:18|268:10|254:9,1,1878.22795880199
254,9,228461,6,0,B|240:10|230:18|224:32|224:50|233:62|246:69|256:71|256:71|256:78|256:78|215:78|215:78|227:63|230:34|224:25|224:25|178:-51|178:-51|168:-68|145:-56|156:-38|156:-38|196:29|196:29|207:128|207:128|215:128|215:128|215:368|215:368|218:375|228:384|241:382|247:377|252:368|252:368|252:230|252:230|254:230|256:242|256:230|256:230|256:368|256:368|261:377|267:382|280:384|289:375|293:368|293:368|293:128|293:128|301:128|301:128|287:141|284:170|292:180|292:180|336:257|336:257|346:275|369:263|359:245|359:245|318:175|318:175|293:78|293:78|252:78|252:78|252:71|252:71|262:69|275:62|284:50|284:32|278:18|268:10|254:9,1,1878.22795880199
254,9,228614,6,0,B|240:10|230:18|224:32|224:50|233:62|246:69|256:71|256:71|256:78|256:78|215:78|215:78|228:65|236:38|233:28|233:28|202:-56|202:-56|194:-72|169:-65|176:-46|176:-46|206:28|206:28|207:128|207:128|215:128|215:128|215:368|215:368|218:375|228:384|241:382|247:377|252:368|252:368|252:230|252:230|254:230|256:242|256:230|256:230|256:368|256:368|261:377|267:382|280:384|289:375|293:368|293:368|293:128|293:128|301:128|301:128|286:139|278:167|281:177|281:177|312:263|312:263|320:280|345:272|338:252|338:252|309:177|309:177|293:78|293:78|252:78|252:78|252:71|252:71|262:69|275:62|284:50|284:32|278:18|268:10|254:9,1,1890.35916182707
254,9,228768,6,0,B|240:10|230:18|224:32|224:50|233:62|246:69|256:71|256:71|256:78|256:78|215:78|215:78|231:68|243:42|241:31|241:31|225:-56|225:-56|222:-74|196:-69|199:-51|199:-51|213:26|213:26|207:128|207:128|215:128|215:128|215:368|215:368|218:375|228:384|241:382|247:377|252:368|252:368|252:230|252:230|254:230|256:242|256:230|256:230|256:368|256:368|261:377|267:382|280:384|289:375|293:368|293:368|293:128|293:128|301:128|301:128|283:136|271:162|274:173|274:173|289:263|289:263|293:282|318:276|315:257|315:257|301:178|301:178|293:78|293:78|252:78|252:78|252:71|252:71|262:69|275:62|284:50|284:32|278:18|268:10|254:9,1,1882.83090827741
254,9,228922,6,0,B|240:10|230:18|224:32|224:50|233:62|246:69|256:71|256:71|256:78|256:78|215:78|215:78|231:71|249:49|247:38|247:38|247:-53|247:-53|249:-71|222:-71|224:-51|224:-51|224:28|224:28|207:128|207:128|215:128|215:128|215:368|215:368|218:375|228:384|241:382|247:377|252:368|252:368|252:230|252:230|254:230|256:242|256:230|256:230|256:368|256:368|261:377|267:382|280:384|289:375|293:368|293:368|293:128|293:128|301:128|301:128|283:133|267:155|267:167|267:167|265:259|265:259|265:276|292:276|293:257|293:257|293:177|293:177|293:78|293:78|252:78|252:78|252:71|252:71|262:69|275:62|284:50|284:32|278:18|268:10|254:9,1,1882.83090827741
254,9,229076,6,0,B|240:10|230:18|224:32|224:50|233:62|246:69|256:71|256:71|256:78|256:78|215:78|215:78|233:73|252:53|256:44|256:44|270:-44|270:-44|274:-62|249:-66|244:-48|244:-48|231:29|231:29|207:128|207:128|215:128|215:128|215:368|215:368|218:375|228:384|241:382|247:377|252:368|252:368|252:230|252:230|254:230|256:242|256:230|256:230|256:368|256:368|261:377|267:382|280:384|289:375|293:368|293:368|293:128|293:128|301:128|301:128|281:131|262:151|259:161|259:161|244:251|244:251|241:269|265:273|270:254|270:254|283:175|283:175|293:78|293:78|252:78|252:78|252:71|252:71|262:69|275:62|284:50|284:32|278:18|268:10|254:9,1,1882.83090827741
254,9,229229,6,0,B|240:10|230:18|224:32|224:50|233:62|246:69|256:71|256:71|256:78|256:78|215:78|215:78|233:78|256:62|261:50|261:50|292:-32|292:-32|298:-51|274:-59|267:-41|267:-41|240:32|240:32|207:128|207:128|215:128|215:128|215:368|215:368|218:375|228:384|241:382|247:377|252:368|252:368|252:230|252:230|254:230|256:242|256:230|256:230|256:368|256:368|261:377|267:382|280:384|289:375|293:368|293:368|293:128|293:128|301:128|301:128|281:127|259:143|254:154|254:154|224:238|224:238|216:257|241:266|247:248|247:248|275:171|275:171|293:78|293:78|252:78|252:78|252:71|252:71|262:69|275:62|284:50|284:32|278:18|268:10|254:9,1,1882.83090827741
254,9,229384,6,0,B|240:10|230:18|224:32|224:50|233:62|246:69|256:71|256:71|256:78|256:78|215:78|215:78|233:81|259:68|264:59|264:59|309:-17|309:-17|318:-35|296:-48|286:-31|286:-31|246:38|246:38|207:128|207:128|215:128|215:128|215:368|215:368|218:375|228:384|241:382|247:377|252:368|252:368|252:230|252:230|254:230|256:242|256:230|256:230|256:368|256:368|261:377|267:382|280:384|289:375|293:368|293:368|293:128|293:128|301:128|301:128|281:124|256:136|250:146|250:146|206:223|206:223|196:241|218:254|228:236|228:236|268:167|268:167|293:78|293:78|252:78|252:78|252:71|252:71|262:69|275:62|284:50|284:32|278:18|268:10|254:9,1,1877.1992399708
254,9,229537,6,0,B|240:10|230:18|224:32|224:50|233:62|246:69|256:71|256:71|256:78|256:78|215:78|215:78|231:84|259:76|267:68|267:68|326:-1|326:-1|336:-14|317:-32|304:-16|304:-16|252:44|252:44|207:128|207:128|215:128|215:128|215:368|215:368|218:375|228:384|241:382|247:377|252:368|252:368|252:230|252:230|254:230|256:242|256:230|256:230|256:368|256:368|261:377|267:382|280:384|289:375|293:368|293:368|293:128|293:128|301:128|301:128|283:120|256:128|247:136|247:136|190:205|190:205|178:220|197:238|210:222|210:222|262:161|262:161|293:78|293:78|252:78|252:78|252:71|252:71|262:69|275:62|284:50|284:32|278:18|268:10|254:9,1,1869.72051621083
254,9,229691,6,0,B|240:10|230:18|224:32|224:50|233:62|246:69|256:71|256:71|256:78|256:78|215:78|215:78|231:86|259:84|267:78|267:78|336:19|336:19|351:7|335:-11|320:-1|320:-1|258:50|258:50|207:128|207:128|215:128|215:128|215:368|215:368|218:375|228:384|241:382|247:377|252:368|252:368|252:230|252:230|254:230|256:242|256:230|256:230|256:368|256:368|261:377|267:382|280:384|289:375|293:368|293:368|293:128|293:128|301:128|301:128|283:118|256:120|247:127|247:127|178:185|178:185|163:198|179:217|194:205|194:205|258:154|258:154|293:78|293:78|252:78|252:78|252:71|252:71|262:69|275:62|284:50|284:32|278:18|268:10|254:9,1,1864.12477922998
254,9,229845,6,0,B|240:10|230:18|224:32|224:50|233:62|246:69|256:71|256:71|256:78|256:78|215:78|215:78|228:90|258:93|267:86|267:86|345:41|345:41|363:31|349:9|332:18|332:18|262:59|262:59|207:128|207:128|215:128|215:128|215:368|215:368|218:375|228:384|241:382|247:377|252:368|252:368|252:230|252:230|254:230|256:242|256:230|256:230|256:368|256:368|261:377|267:382|280:384|289:375|293:368|293:368|293:128|293:128|301:128|301:128|286:115|258:112|247:118|247:118|169:164|169:164|152:173|165:196|182:186|182:186|252:146|252:146|293:78|293:78|252:78|252:78|252:71|252:71|262:69|275:62|284:50|284:32|278:18|268:10|254:9,1,1856.69918861944
254,9,229999,6,0,B|240:10|230:18|224:32|224:50|233:62|246:69|256:71|256:71|256:78|256:78|215:78|215:78|224:94|249:105|261:103|261:103|349:87|349:87|369:84|364:59|345:62|345:62|265:76|265:76|207:128|207:128|215:128|215:128|215:368|215:368|218:375|228:384|241:382|247:377|252:368|252:368|252:230|252:230|254:230|256:242|256:230|256:230|256:368|256:368|261:377|267:382|280:384|289:375|293:368|293:368|293:128|293:128|301:128|301:128|292:110|265:99|254:100|254:100|165:117|165:117|145:120|150:146|169:143|169:143|249:128|249:128|293:78|293:78|252:78|252:78|252:71|252:71|262:69|275:62|284:50|284:32|278:18|268:10|254:9,1,1836.4997509374
431,40,230153,6,0,B|411:46|399:67|402:83|402:83|396:58|410:48|410:48|391:52|370:58|370:58|260:70|260:70|246:76|252:92|269:89|269:89|354:89|354:89|345:199|345:199|310:353|310:353|305:368|317:384|336:373|336:373|389:237|389:237|407:241|414:256|414:256|449:363|449:363|456:378|483:373|483:350|483:350|455:243|455:243|418:186|418:186|425:127|425:127|440:127|440:127|455:130|455:130|466:136|482:117|471:105|471:105|370:81|370:81|357:80|352:98|371:105|371:105|455:130|455:130|466:136|482:118|470:105|470:105|432:97|432:97|451:91|446:68|446:68|455:67|452:77|451:87|438:94|438:94|450:85|450:85|456:54|445:42|434:40,1,1767.99991906739
421,19,232614,6,0,P|396:61|462:23,1,203.999993774414
421,19,232844,1,0,0:0:0:0:
387,17,232920,1,0,0:0:0:0:
353,15,232997,1,0,0:0:0:0:
319,13,233074,1,0,0:0:0:0:
229,49,233229,2,0,B|87:40|87:40|7:63,1,203.999993774414
87,40,233460,1,0,0:0:0:0:
127,42,233537,2,0,L|229:49,2,101.999996887207
178,279,233844,6,0,P|85:303|17:202,1,203.999993774414
168,198,234075,1,0,0:0:0:0:
194,168,234152,2,0,P|189:263|73:299,1,203.999993774414
367,225,234460,2,0,B|518:196|518:196|440:296,1,203.999993774414
254,215,234690,1,0,0:0:0:0:
284,219,234767,2,0,L|537:240,1,203.999993774414
251,327,235075,6,0,B|194:338|159:297|159:297|128:343|72:338,1,203.999993774414
29,264,235306,1,0,0:0:0:0:
0,277,235383,2,0,P|24:319|70:338,2,101.999996887207
158,97,235690,2,0,B|175:142|175:142|157:322,1,203.999993774414
165,240,235921,1,0,0:0:0:0:
169,195,235998,2,0,B|175:141|175:141|158:97,2,101.999996887207
208,33,236306,6,0,B|278:99|278:99|438:67,1,203.999993774414
453,35,236537,1,0,0:0:0:0:
483,58,236614,2,0,L|358:82,1,101.999996887207
278,99,236767,1,0,0:0:0:0:
375,324,236921,2,0,P|333:223|447:165,1,203.999993774414
459,253,237152,1,0,0:0:0:0:
423,251,237229,2,0,B|328:245|328:245|332:198|366:172|390:163,1,203.999993774414
379,248,237460,1,0,0:0:0:0:
329,245,237537,6,0,B|240:215|222:293|110:253,1,203.999993774414
176,183,237767,1,0,0:0:0:0:
221,255,237844,2,0,B|173:273|129:259|129:259|98:283|86:333|126:375,1,203.999993774414
130,259,238152,2,0,P|112:354|206:377,1,203.999993774414
276,371,238383,1,0,0:0:0:0:
290,347,238460,2,0,P|240:355|196:382,2,101.999996887207
506,257,238767,6,0,B|426:253|426:253|388:264|388:264|262:254,1,203.999993774414
193,230,238998,1,0,0:0:0:0:
226,230,239075,2,0,B|274:234|274:234|304:257|304:257|388:264|388:264|426:253|426:253|506:257,1,203.999993774414
401,54,239383,2,0,P|381:106|390:179,1,101.999996887207
483,160,239537,2,0,L|338:148,1,101.999996887207
281,144,239690,2,0,B|382:153|382:153|372:99|401:54,1,203.999993774414
36,104,239998,6,0,B|200:125|200:125|176:112|167:89,1,203.999993774414
91,111,240229,1,0,0:0:0:0:
131,116,240306,2,0,B|200:125|200:125|165:155|152:209|173:249,1,203.999993774414
314,27,240614,2,0,B|264:62|266:143|309:171|309:171|303:144|325:106,1,203.999993774414
404,61,240844,1,0,0:0:0:0:
434,46,240921,2,0,P|366:11|281:123,1,203.999993774414
400,137,241152,1,0,0:0:0:0:
415,167,241229,6,0,P|450:99|434:46,1,101.999996887207
447,76,241537,2,0,P|449:108|435:145,2,50.9999984436036
415,167,241844,6,0,P|450:99|434:46,1,101.999996887207
414,167,242152,2,0,P|444:126|447:76,1,101.999996887207
414,167,242460,6,0,B|447:142|454:105|447:77|447:77|515:97|518:186,1,203.999993774414
447,76,242690,1,0,0:0:0:0:
413,72,242766,1,0,0:0:0:0:
379,69,242843,1,0,0:0:0:0:
345,66,242920,1,0,0:0:0:0:
99,227,243075,2,0,B|228:219|228:219|268:248|326:219,1,203.999993774414
241,87,243306,1,0,0:0:0:0:
209,104,243383,2,0,B|183:140|187:190|223:219|223:219|102:227,1,203.999993774414
20,230,243690,6,0,L|223:220,1,203.999993774414
147,226,243921,1,0,0:0:0:0:
112,239,243998,2,0,B|262:258|262:258|223:220,1,203.999993774414
20,230,244229,1,0,0:0:0:0:
65,235,244306,2,0,B|133:243|133:243|171:284|168:338|126:388,1,203.999993774414
47,360,244537,1,0,0:0:0:0:
38,320,244614,2,0,B|20:230|20:230|132:242,1,203.999993774414
392,270,244921,6,0,B|504:282|504:282|486:192,1,203.999993774414
327,226,245152,1,0,0:0:0:0:
301,259,245229,2,0,L|504:282,1,203.999993774414
301,259,245537,2,0,B|254:275|234:321|244:360|244:360|340:346,1,203.999993774414
401,296,245767,1,0,0:0:0:0:
376,272,245844,2,0,P|280:269|243:358,1,203.999993774414
376,272,246152,6,0,B|406:217|382:167|382:167|359:115|390:57,1,203.999993774414
381,30,246383,1,0,0:0:0:0:
380,75,246460,2,0,B|401:116|375:166|375:166|348:215|376:272,1,203.999993774414
380,75,246767,2,0,L|372:341,1,203.999993774414
378,143,246998,1,0,0:0:0:0:
377,181,247075,2,0,L|368:446,1,203.999993774414
279,337,247306,1,0,0:0:0:0:
301,318,247383,6,0,L|140:307,1,152.999995330811
119,285,247690,2,0,L|323:299,1,203.999993774414
176,263,247998,6,0,L|45:254,3,101.999996887207
301,318,248614,6,0,L|140:307,1,152.999995330811
119,285,248921,2,0,L|323:299,1,203.999993774414
176,263,249229,6,0,L|45:254,3,101.999996887207
301,318,249844,5,0,0:0:0:0:
148,307,249998,1,0,0:0:0:0:
323,299,250152,2,0,L|119:285,1,203.999993774414
176,263,250460,6,0,L|45:254,3,101.999996887207
301,318,251075,6,0,L|140:307,1,152.999995330811
119,285,251383,2,0,L|323:299,1,203.999993774414
176,263,251690,6,0,L|45:254,1,101.999996887207
135,261,251921,1,0,0:0:0:0:
176,263,251998,2,0,L|45:254,1,101.999996887207
340,274,252306,6,0,B|175:263|175:263|242:299,1,203.999993774414
336,353,252537,1,0,0:0:0:0:
365,372,252614,2,0,L|340:274,1,101.999996887207
316,162,252767,1,0,0:0:0:0:
474,34,252921,2,0,P|487:131|374:184,1,203.999993774414
344,182,253152,1,0,0:0:0:0:
316,162,253229,2,0,P|389:169|421:210,1,101.999996887207
425,313,253383,1,0,0:0:0:0:
245,204,253537,6,0,B|176:198|176:198|129:208|129:208|-4:197,1,203.999993774414
131,137,253767,1,0,0:0:0:0:
173,128,253844,2,0,B|224:117|224:117|196:194|196:194|127:208,1,203.999993774414
139,65,254152,2,0,B|301:28|301:28|394:82,1,203.999993774414
419,104,254383,1,0,0:0:0:0:
388,82,254460,2,0,B|302:28|302:28|262:148,1,203.999993774414
359,322,254767,6,0,P|410:234|334:146,1,203.999993774414
261,300,254999,1,0,0:0:0:0:
294,298,255075,1,0,0:0:0:0:
327,305,255152,1,0,0:0:0:0:
358,321,255229,1,0,0:0:0:0:
203,361,255383,2,0,L|-70:378,1,203.999993774414
113,332,255614,1,0,0:0:0:0:
88,290,255690,2,0,B|123:251|186:268|186:268|168:319|209:369,1,203.999993774414
175,160,255998,6,0,P|67:182|26:85,1,203.999993774414
159,68,256229,1,0,0:0:0:0:
160,41,256306,2,0,P|182:149|85:190,1,203.999993774414
68,57,256537,1,0,0:0:0:0:
41,56,256614,2,0,P|149:34|190:131,1,203.999993774414
57,148,256844,1,0,0:0:0:0:
56,175,256921,2,0,P|34:67|131:26,1,203.999993774414
148,159,257152,1,0,0:0:0:0:
175,160,257229,6,0,P|67:182|33:152,2,101.999996887207
273,82,257537,2,0,B|394:62|373:128|494:88,1,203.999993774414
426,21,257767,1,0,0:0:0:0:
372,88,257844,2,0,B|373:124|393:159|426:175|426:175|428:147|442:115|474:94,1,203.999993774414
512,174,258075,1,0,0:0:0:0:
509,208,258152,2,0,B|449:204|449:204|420:191|420:191|391:199|391:199|271:192,1,203.999993774414
163,276,258460,6,0,B|267:269|267:269|235:321|267:383,1,203.999993774414
340,324,258690,1,0,0:0:0:0:
363,300,258767,2,0,B|327:266|266:269|266:269|237:323|265:378,1,203.999993774414
7,228,259075,2,0,L|130:221,1,101.999996887207
200,196,259229,2,0,P|120:209|93:259,1,101.999996887207
7,228,259383,2,0,B|108:222|108:222|127:195|162:180|200:196,1,203.999993774414
130,22,259690,6,0,B|185:16|220:50|220:50|259:-3|329:15,1,203.999993774414
219,127,259921,1,0,0:0:0:0:
252,142,259998,2,0,B|264:88|224:45|224:45|261:3|312:12,1,203.999993774414
358,126,260229,1,0,0:0:0:0:
374,89,260306,2,0,P|316:14|226:45,1,203.999993774414
252,142,260537,1,0,0:0:0:0:
224,162,260614,2,0,B|305:151|305:151|344:162|344:162|380:132|373:78,1,203.999993774414
462,349,260921,6,0,P|434:243|327:271,1,203.999993774414
360,321,261152,1,0,0:0:0:0:
394,310,261229,2,0,B|434:309|462:350|462:350|483:311|470:282|460:254|427:240,1,203.999993774414
234,348,261537,2,0,B|164:343|164:343|105:372|105:372|-17:332,1,203.999993774414
135,281,261767,1,0,0:0:0:0:
180,275,261844,2,0,B|166:342|166:342|106:372|106:372|40:350,1,203.999993774414
135,174,262152,6,0,P|204:146|293:258,1,203.999993774414
276,141,262383,1,0,0:0:0:0:
312,120,262460,2,0,B|271:168|294:224|294:224|345:248|344:331,1,203.999993774414
265,361,262690,1,0,0:0:0:0:
285,333,262767,2,0,B|312:282|294:224|294:224|340:250|342:305,1,203.999993774414
265,361,262998,1,0,0:0:0:0:
285,333,263075,2,0,P|301:277|273:188,1,101.999996887207
241,150,263229,2,0,P|276:187|296:234,1,101.999996887207
212,312,263383,6,0,P|230:266|105:238,1,203.999993774414
79,321,263614,1,0,0:0:0:0:
109,318,263690,2,0,B|212:313|212:313|240:284|237:236|200:208,1,203.999993774414
212,313,263921,1,0,0:0:0:0:
243,313,263998,2,0,B|346:318|346:318|366:342|403:353|447:338,1,203.999993774414
345,319,264229,1,0,0:0:0:0:
379,340,264306,2,0,P|438:341|500:277,1,101.999996887207
498,225,264460,2,0,P|498:275|473:319,1,101.999996887207
363,241,264614,6,0,B|369:139|369:139|364:121|364:121|372:100|372:100|378:39,1,203.999993774414
365,122,264844,1,0,0:0:0:0:
403,122,264921,2,0,P|460:67|387:-46,1,203.999993774414
365,122,265152,1,0,0:0:0:0:
403,122,265229,2,0,B|436:112|453:87|461:63|461:63|513:117|481:183,1,203.999993774414
365,122,265460,1,0,0:0:0:0:
324,120,265537,2,0,L|141:115,1,101.999996887207
120,114,265690,2,0,L|221:116,1,101.999996887207
343,194,265844,6,0,B|199:190|199:190|144:212,1,203.999993774414
171,313,266075,1,0,0:0:0:0:
206,321,266152,2,0,B|229:301|240:232|199:190|199:190|143:212,1,203.999993774414
391,366,266460,2,0,P|331:372|409:313,1,203.999993774414
379,318,266690,1,0,0:0:0:0:
352,326,266767,2,0,P|320:308|358:273,2,101.999996887207
217,153,267075,6,0,L|461:165,1,203.999993774414
510,201,267305,1,0,0:0:0:0:
473,213,267382,2,0,B|420:225|420:225|360:160|360:160|469:166,1,203.999993774414
500,26,267690,2,0,B|421:22|421:22|384:30|384:30|272:22,1,203.999993774414
213,42,267921,1,0,0:0:0:0:
195,16,267998,2,0,L|353:27,2,101.999996887207
40,153,268306,5,0,0:0:0:0:
31,174,268382,1,0,0:0:0:0:
27,197,268459,1,0,0:0:0:0:
29,220,268536,1,0,0:0:0:0:
36,243,268614,2,0,P|27:197|233:177,1,280.500008560181
285,189,268921,5,0,0:0:0:0:
304,187,268997,1,0,0:0:0:0:
323,186,269074,1,0,0:0:0:0:
342,185,269151,1,0,0:0:0:0:
361,184,269229,2,0,L|108:200,1,229.499992996216
110,311,269537,5,0,0:0:0:0:
106,325,269613,1,0,0:0:0:0:
105,340,269690,1,0,0:0:0:0:
105,355,269767,1,0,0:0:0:0:
107,369,269844,2,0,B|83:290|167:296|123:168,1,178.499994552612
36,196,270152,5,0,0:0:0:0:
36,185,270229,1,0,0:0:0:0:
38,174,270306,1,0,0:0:0:0:
40,164,270383,1,0,0:0:0:0:
44,154,270460,2,0,P|35:211|57:269,1,85
222,123,270767,6,0,L|126:118,1,85
242,111,270921,2,0,L|338:106,1,85
268,16,271075,2,0,P|254:55|257:98,1,85
433,95,271229,2,0,P|405:62|367:43,1,85
282,197,271383,2,0,P|323:189|359:166,1,85
456,82,271537,2,0,L|448:195,1,85
390,255,271690,2,0,P|410:299|349:265,1,170
236,201,271998,6,0,P|260:69|274:201,1,382.500014591218
124,176,272306,2,0,P|121:115|152:48,1,127.500004863739
365,54,272460,2,0,P|390:112|388:176,1,127.500004863739
255,0,272614,5,0,0:0:0:0:
53,89,272767,1,0,0:0:0:0:
160,250,272921,1,0,0:0:0:0:
131,272,272998,2,0,P|183:333|273:302,1,170
290,246,273229,5,0,0:0:0:0:
474,365,273383,2,0,L|359:355,1,85
357,132,273537,2,0,B|379:173|379:173|362:205|362:205|370:223|370:223|366:238|366:238|357:361,1,170
305,376,273767,1,0,0:0:0:0:
278,357,273844,6,0,P|261:305|273:259,1,85
388,215,273998,1,0,0:0:0:0:
189,261,274152,2,0,B|52:269|52:269|104:241,1,170
255,208,274383,1,0,0:0:0:0:
236,201,274460,6,0,P|260:69|274:201,1,382.500014591218
129,131,274767,2,0,L|300:139,1,127.500004863739
383,131,274921,2,0,L|212:139,1,127.500004863739
146,59,275075,6,0,P|255:3|365:59,1,255.000009727478
382,248,275383,1,0,0:0:0:0:
402,220,275460,2,0,B|417:356|417:356|362:314,1,170
253,237,275690,6,0,B|197:231|197:231|143:245|143:245|39:232,1,170
198,331,275998,2,0,P|232:337|196:321,1,85
134,284,276152,2,0,P|122:323|134:375,1,85
308,358,276306,5,0,0:0:0:0:
315,316,276382,1,0,0:0:0:0:
303,276,276459,1,0,0:0:0:0:
209,88,276614,2,0,P|266:70|319:158,1,170
255,208,276844,1,0,0:0:0:0:
236,201,276921,6,0,P|260:69|274:201,1,382.500014591218
154,141,277229,2,0,P|137:62|177:14,1,127.500004863739
352,26,277383,2,0,P|378:82|358:141,1,127.500004863739
232,282,277537,6,0,L|420:293,1,170
157,344,277844,2,0,P|109:353|74:378,2,85
192,358,278075,1,0,0:0:0:0:
236,363,278152,6,0,P|295:336|266:210,1,170
138,257,278460,2,0,B|161:168|99:186|135:73,1,170
216,61,278690,1,0,0:0:0:0:
237,31,278767,2,0,P|279:38|313:83,2,85
58,116,279075,1,0,0:0:0:0:
138,257,279229,2,0,P|163:295|170:357,1,85
236,201,279383,6,0,P|260:69|274:201,1,382.500014591218
256,339,279690,2,0,L|256:208,1,127.500004863739
256,137,279844,2,0,L|256:6,1,127.500004863739
397,138,279998,5,0,0:0:0:0:
364,306,280152,1,0,0:0:0:0:
395,317,280229,1,0,0:0:0:0:
428,314,280306,2,0,P|469:296|493:243,2,85
219,307,280614,6,0,L|107:300,1,85
33,296,280767,2,0,B|7:344|7:344|79:285,1,85
219,307,280921,2,0,L|107:300,1,85
33,296,281075,2,0,B|15:244|15:244|77:313,1,85
168,228,281229,5,0,0:0:0:0:
185,189,281305,1,0,0:0:0:0:
184,147,281382,1,0,0:0:0:0:
77,67,281537,2,0,B|92:204|92:204|100:172|122:159,1,170
256,211,281767,1,0,0:0:0:0:
276,200,281844,6,0,P|253:68|236:201,1,382.500014591218
336,28,282152,2,0,L|209:32,1,127.500004863739
136,211,282306,2,0,P|114:137|133:62,1,127.500004863739
206,308,282460,5,0,0:0:0:0:
3,242,282614,1,0,0:0:0:0:
244,381,282767,1,0,0:0:0:0:
274,352,282843,1,0,0:0:0:0:
286,312,282920,1,0,0:0:0:0:
277,271,282997,1,0,0:0:0:0:
249,240,283075,6,0,P|208:229|146:251,1,85
358,235,283229,2,0,P|396:224|355:232,1,85
275,14,283383,2,0,B|284:72|284:72|296:91|296:91|291:111|291:111|305:209,1,170
387,100,283614,1,0,0:0:0:0:
366,116,283690,6,0,B|374:75|374:75|338:23,1,85
219,107,283844,2,0,L|111:127,1,85
0,170,283998,2,0,B|60:178|60:178|99:198|99:198|175:191,1,170
254,217,284229,1,0,0:0:0:0:
276,200,284306,6,0,P|253:68|236:201,1,382.500014591218
384,197,284614,2,0,B|404:137|404:137|374:51,1,127.500004863739
247,9,284767,2,0,L|257:179,1,127.500004863739
372,215,284921,6,0,P|431:203|504:222,1,85
423,358,285075,1,0,0:0:0:0:
324,343,285229,1,0,0:0:0:0:
336,302,285305,1,0,0:0:0:0:
365,271,285382,1,0,0:0:0:0:
404,255,285459,1,0,0:0:0:0:
446,257,285537,6,0,L|422:372,1,85
269,263,285690,2,0,P|251:240|289:256,1,85
188,304,285844,2,0,P|166:237|192:172,1,85
352,165,285998,2,0,P|374:232|348:297,1,85
168,145,286152,5,0,0:0:0:0:
210,146,286228,1,0,0:0:0:0:
252,147,286305,1,0,0:0:0:0:
0,220,286460,2,0,B|129:214|129:214|190:229,1,170
256,210,286690,1,0,0:0:0:0:
276,200,286767,6,0,P|253:68|236:201,1,382.500014591218
411,83,287075,2,0,P|342:38|255:103,1,127.500004863739
198,99,287229,2,0,P|129:144|42:79,1,127.500004863739
255,136,287383,6,0,B|300:146|339:114|339:114|364:171|462:170,1,170
142,234,287690,1,0,0:0:0:0:
184,234,287766,1,0,0:0:0:0:
221,214,287844,2,0,P|278:238|305:286,1,85
209,368,287998,5,0,0:0:0:0:
366,234,288152,2,0,P|375:289|349:337,1,85
331,162,288306,2,0,B|371:155|371:155|385:162|385:162|415:158|415:158|434:167|434:167|466:174|466:174|516:139,1,170
455,99,288537,1,0,0:0:0:0:
423,86,288614,2,0,L|431:-32,2,85
254,136,288921,1,0,0:0:0:0:
317,56,289075,2,0,P|348:114|343:183,1,85
276,200,289229,6,0,P|253:68|236:201,1,382.500014591218
287,327,289537,2,0,L|273:168,1,127.500004863739
254,136,289690,2,0,L|240:-23,1,127.500004863739
124,198,289844,5,0,0:0:0:0:
350,235,289998,2,0,P|385:179|390:122,1,85
326,64,290152,1,0,0:0:0:0:
366,75,290228,1,0,0:0:0:0:
407,66,290305,1,0,0:0:0:0:
439,39,290382,1,0,0:0:0:0:
455,0,290460,6,0,P|494:65|497:126,1,85
490,206,290614,2,0,B|481:236|466:249|466:249|468:234|460:200,1,85
495,73,290767,2,0,P|456:137|403:168,1,85
321,205,290921,2,0,B|290:211|271:203|271:203|285:198|312:175,1,85
449,143,291075,6,0,P|374:153|317:132,2,85
407,66,291383,1,0,0:0:0:0:
206,15,291537,2,0,P|195:69|221:130,1,85
236,183,291690,6,0,P|258:316|278:183,1,382.500014591218
236,183,291998,2,0,L|108:187,1,127.500004863739
405,179,292152,2,0,L|277:183,1,127.500004863739
322,105,292306,6,0,B|389:103|389:103|432:81|432:81|519:74,1,170
271,0,292614,1,0,0:0:0:0:
238,26,292690,1,0,0:0:0:0:
222,65,292767,1,0,0:0:0:0:
229,107,292844,1,0,0:0:0:0:
255,139,292921,6,0,P|279:182|275:255,1,85
154,216,293075,2,0,P|192:208|164:235,1,85
51,268,293229,2,0,L|231:278,1,170
328,311,293460,1,0,0:0:0:0:
351,333,293537,6,0,P|371:280|357:206,2,85
512,130,293844,2,0,B|472:158|472:158|336:143,1,170
259,167,294075,1,0,0:0:0:0:
236,183,294152,6,0,P|258:316|278:183,1,382.500014591218
106,180,294460,2,0,P|123:250|95:356,1,127.500004863739
399,301,294614,2,0,P|393:237|410:176,1,127.500004863739
501,244,294767,5,0,0:0:0:0:
385,105,294921,2,0,P|435:107|481:152,1,85
291,87,295075,1,0,0:0:0:0:
257,72,295152,2,0,L|125:85,2,85
366,31,295383,6,0,P|378:4|347:19,1,85
327,162,295537,2,0,P|345:225|337:275,1,85
162,211,295690,2,0,L|290:217,1,85
319,326,295844,2,0,P|304:366|302:327,1,85
400,296,295998,5,0,0:0:0:0:
411,336,296074,1,0,0:0:0:0:
408,378,296151,1,0,0:0:0:0:
459,218,296306,1,0,0:0:0:0:
350,213,296460,2,0,L|361:129,1,85
236,183,296614,6,0,P|258:316|278:183,1,382.500014591218
133,191,296921,2,0,P|120:251|158:343,1,127.500004863739
264,376,297075,2,0,L|257:228,1,127.500004863739
183,126,297229,6,0,B|172:-2|172:-2|239:88,1,170
68,105,297537,2,0,P|113:66|181:63,1,85
275,108,297690,2,0,P|330:129|365:188,1,85
176,204,297844,5,0,0:0:0:0:
134,357,297998,2,0,L|124:244,1,85
183,126,298152,2,0,P|251:180|180:283,1,170
127,273,298383,1,0,0:0:0:0:
93,265,298460,2,0,P|17:290|-17:317,2,85
229,348,298767,1,0,0:0:0:0:
347,292,298921,2,0,P|358:253|340:187,1,85
236,183,299075,6,0,P|258:316|278:183,1,382.500014591218
185,119,299383,2,0,P|155:181|195:257,1,127.500004863739
302,104,299537,2,0,L|103:95,1,127.500004863739
21,183,299690,5,0,0:0:0:0:
92,37,299844,2,0,P|96:73|92:128,1,85
84,243,299998,1,0,0:0:0:0:
100,282,300074,1,0,0:0:0:0:
133,308,300151,1,0,0:0:0:0:
174,316,300228,1,0,0:0:0:0:
214,303,300306,6,0,P|263:297|332:312,1,85
407,279,300460,2,0,P|449:277|404:298,1,85
326,375,300614,2,0,P|331:278|298:157,1,170
256,129,300844,1,0,0:0:0:0:
243,108,300921,6,0,P|295:110|351:146,1,85
417,202,301075,2,0,B|436:176|436:160|436:160|423:169|392:178,1,85
236,183,301229,2,0,B|102:175|102:175|168:216,1,170
256,178,301460,1,0,0:0:0:0:
278,183,301537,6,0,P|258:316|236:183,1,382.500014591218
402,265,301844,2,0,P|366:343|277:393,1,127.500004863739
99,291,301998,2,0,P|156:283|251:333,1,127.500004863739
91,379,302152,5,0,0:0:0:0:
258,248,302306,1,0,0:0:0:0:
54,216,302460,2,0,P|32:169|45:108,1,85
180,26,302614,2,0,P|142:44|117:78,1,85
128,268,302767,5,0,0:0:0:0:
201,131,302921,2,0,P|218:116|188:123,1,85
267,189,303075,2,0,P|300:107|240:27,1,170
324,89,303306,1,0,0:0:0:0:
362,78,303383,6,0,P|407:74|464:100,1,85
485,181,303537,2,0,P|479:240|450:288,1,85
305,296,303690,2,0,P|244:315|193:227,1,170
254,173,303921,1,0,0:0:0:0:
278,183,303998,6,0,P|258:316|236:183,1,382.500014591218
397,194,304306,2,0,L|388:372,1,127.500004863739
124,321,304460,2,0,L|118:194,1,127.500004863739
257,247,304614,5,0,0:0:0:0:
337,46,304767,2,0,P|347:105|327:162,1,85
168,46,304921,1,0,0:0:0:0:
210,46,304997,1,0,0:0:0:0:
252,46,305074,1,0,0:0:0:0:
295,46,305151,1,0,0:0:0:0:
337,46,305229,6,0,L|440:47,1,85
253,127,305383,2,0,B|225:132|207:141|207:141|216:121|237:112,1,85
337,46,305537,2,0,L|440:47,1,85
253,127,305691,2,0,B|225:132|207:141|207:141|216:121|237:112,1,85
379,120,305844,5,0,0:0:0:0:
394,159,305920,1,0,0:0:0:0:
391,201,305997,1,0,0:0:0:0:
197,378,306152,2,0,B|172:246|172:246|190:195,1,170
255,174,306383,1,0,0:0:0:0:
278,183,306460,6,0,P|258:316|236:183,1,382.500014591218
369,273,306767,2,0,P|308:283|257:247,1,127.500004863739
144,273,306921,2,0,P|206:283|257:247,1,127.500004863739
258,96,307075,6,0,B|307:95|342:122|342:122|369:81|450:74,1,170
164,33,307383,1,0,0:0:0:0:
131,16,307460,2,0,P|150:82|157:205,1,170
7,187,307690,6,0,P|55:158|97:153,1,85
214,236,307844,2,0,P|217:275|178:263,1,85
88,239,307998,2,0,P|106:301|104:357,1,85
0,384,308152,2,0,P|-3:345|36:357,1,85
174,362,308306,1,0,0:0:0:0:
216,360,308382,5,0,0:0:0:0:
257,370,308459,1,0,0:0:0:0:
482,303,308614,2,0,B|350:317|350:317|283:287,1,170
255,172,308844,1,0,0:0:0:0:
278,183,308921,6,0,P|258:316|236:183,1,382.500014591218
351,91,309229,2,0,P|370:158|314:228,1,127.500004863739
169,207,309383,2,0,P|144:150|164:91,1,127.500004863739
303,22,309537,5,0,0:0:0:0:
70,83,309690,1,0,0:0:0:0:
255,172,309844,1,0,0:0:0:0:
297,172,309920,1,0,0:0:0:0:
339,173,309997,1,0,0:0:0:0:
382,174,310074,1,0,0:0:0:0:
424,175,310152,6,0,L|521:177,1,85
351,275,310306,2,0,B|322:279|299:268|299:268|320:260|337:243,1,85
473,245,310460,2,0,P|485:302|463:363,1,85
391,384,310614,2,0,P|314:355|297:308,1,85
232,268,310767,5,0,0:0:0:0:
189,266,310843,1,0,0:0:0:0:
148,275,310921,2,0,P|106:291|64:324,1,85
206,358,311075,1,0,0:0:0:0:
143,190,311229,6,0,P|128:132|135:85,1,85
259,44,311383,5,0,0:0:0:0:
256,192,311383,12,0,321229,0:0:0:0:
