osu file format v14

[General]
AudioFilename: audio.mp3
AudioLeadIn: 0
PreviewTime: -1
Countdown: 1
SampleSet: None
StackLeniency: 0.7
Mode: 0
LetterboxInBreaks: 0
WidescreenStoryboard: 1

[Editor]
DistanceSpacing: 1.7
BeatDivisor: 4
GridSize: 16
TimelineZoom: 1

[Metadata]
Title:The Solace of Oblivion
TitleUnicode:The Solace of Oblivion
Artist:Helblinde
ArtistUnicode:Helblinde
Creator:CanDyFloS
Version:soulace
Source:
Tags:
BeatmapID:1591938
BeatmapSetID:756534

[Difficulty]
HPDrainRate:5
CircleSize:5
OverallDifficulty:10
ApproachRate:10
SliderMultiplier:3.59999990463257
SliderTickRate:4

[Events]
//Background and Video events
//Break Periods
//Storyboard Layer 0 (Background)
//Storyboard Layer 1 (Fail)
//Storyboard Layer 2 (Pass)
//Storyboard Layer 3 (Foreground)
//Storyboard Sound Samples

[TimingPoints]
9251.10928460957,194.805194805195,4,2,0,100,1,0

[HitObjects]
99,304,338,6,0,L|207:166,1,89.9999976158143
190,336,582,2,0,L|306:332,1,89.9999976158143
224,208,926,5,0,0:0:0:0:
192,112,1117,1,0,0:0:0:0:
176,112,1556,1,0,0:0:0:0:
176,112,1751,1,0,0:0:0:0:
176,112,1897,1,0,0:0:0:0:
272,128,2432,1,0,0:0:0:0:
272,144,2627,1,0,0:0:0:0:
96,192,2919,1,0,0:0:0:0:
160,64,3260,1,0,0:0:0:0:
224,144,3601,1,0,0:0:0:0:
192,224,3893,1,0,0:0:0:0:
160,192,4234,1,0,0:0:0:0:
112,160,4478,1,0,0:0:0:0:
128,128,4770,1,0,0:0:0:0:
239,78,5111,1,0,0:0:0:0:
192,128,5257,1,0,0:0:0:0:
239,78,5452,1,0,0:0:0:0:
239,78,5695,1,0,0:0:0:0:
239,78,5890,1,0,0:0:0:0:
128,224,6036,1,0,0:0:0:0:
224,192,6377,1,0,0:0:0:0:
112,176,6669,1,0,0:0:0:0:
208,160,6913,1,0,0:0:0:0:
208,192,7108,1,0,0:0:0:0:
246,79,7400,1,0,0:0:0:0:
144,176,7595,1,0,0:0:0:0:
144,144,7790,1,0,0:0:0:0:
144,112,7936,1,0,0:0:0:0:
160,96,8082,1,0,0:0:0:0:
176,96,8277,1,0,0:0:0:0:
246,79,8520,1,0,0:0:0:0:
128,160,8617,1,0,0:0:0:0:
94,191,8958,1,0,0:0:0:0:
246,79,9056,1,0,0:0:0:0:
144,176,9397,1,0,0:0:0:0:
138,183,9494,1,0,0:0:0:0:
224,144,9835,1,0,0:0:0:0:
138,183,9932,1,0,0:0:0:0:
224,144,10079,1,0,0:0:0:0:
224,144,10322,1,0,0:0:0:0:
224,144,10517,1,0,0:0:0:0:
246,79,10760,1,0,0:0:0:0:
246,79,11053,1,0,0:0:0:0:
246,79,11247,1,0,0:0:0:0:
176,80,11345,1,0,0:0:0:0:
336,48,11588,1,0,0:0:0:0:
240,128,11832,1,0,0:0:0:0:
128,96,12075,1,0,0:0:0:0:
128,32,12221,1,0,0:0:0:0:
256,80,12465,1,0,0:0:0:0:
246,79,12660,1,0,0:0:0:0:
246,79,12855,1,0,0:0:0:0:
246,79,13049,1,0,0:0:0:0:
246,79,13293,1,0,0:0:0:0:
246,79,13439,1,0,0:0:0:0:
292,71,13634,1,0,0:0:0:0:
376,130,13829,1,0,0:0:0:0:
224,48,13877,1,0,0:0:0:0:
224,48,13975,1,0,0:0:0:0:
224,64,14072,1,0,0:0:0:0:
240,64,14169,1,0,0:0:0:0:
177,125,14267,1,0,0:0:0:0:
368,163,14559,1,0,0:0:0:0:
48,193,14754,1,0,0:0:0:0:
95,86,14949,1,0,0:0:0:0:
233,163,15143,1,0,0:0:0:0:
155,234,15338,1,0,0:0:0:0:
157,177,15582,1,0,0:0:0:0:
192,192,15923,1,0,0:0:0:0:
177,125,16117,1,0,0:0:0:0:
157,177,16361,1,0,0:0:0:0:
176,95,16605,1,0,0:0:0:0:
195,129,16751,1,0,0:0:0:0:
208,144,16994,1,0,0:0:0:0:
208,256,17238,1,0,0:0:0:0:
32,128,17432,1,0,0:0:0:0:
177,125,17627,1,0,0:0:0:0:
193,136,17919,1,0,0:0:0:0:
196,132,18066,1,0,0:0:0:0:
262,99,18212,1,0,0:0:0:0:
386,161,18455,1,0,0:0:0:0:
355,188,18553,1,0,0:0:0:0:
305,205,18650,1,0,0:0:0:0:
260,206,18699,1,0,0:0:0:0:
239,203,18796,1,0,0:0:0:0:
222,199,18845,1,0,0:0:0:0:
196,178,18942,1,0,0:0:0:0:
183,138,19040,1,0,0:0:0:0:
183,138,19137,1,0,0:0:0:0:
177,126,19332,1,0,0:0:0:0:
178,153,19770,1,0,0:0:0:0:
240,144,19819,1,0,0:0:0:0:
177,126,20208,1,0,0:0:0:0:
160,112,20355,1,0,0:0:0:0:
177,126,20793,1,0,0:0:0:0:
177,126,20842,1,0,0:0:0:0:
320,128,20988,1,0,0:0:0:0:
177,126,21669,1,0,0:0:0:0:
177,126,21962,1,0,0:0:0:0:
177,126,22643,1,0,0:0:0:0:
177,126,23325,1,0,0:0:0:0:
304,304,23617,1,0,0:0:0:0:
144,16,23958,1,0,0:0:0:0:
208,320,24299,1,0,0:0:0:0:
384,80,24592,1,0,0:0:0:0:
200,133,24640,1,0,0:0:0:0:
200,133,25225,1,0,0:0:0:0:
200,133,25614,1,0,0:0:0:0:
192,32,25858,1,0,0:0:0:0:
200,133,26247,1,0,0:0:0:0:
224,288,26491,1,0,0:0:0:0:
200,133,26978,1,0,0:0:0:0:
336,80,27027,1,0,0:0:0:0:
208,288,27319,1,0,0:0:0:0:
199,138,27562,1,0,0:0:0:0:
160,80,27660,1,0,0:0:0:0:
272,208,27952,1,0,0:0:0:0:
199,138,28147,1,0,0:0:0:0:
256,80,28244,1,0,0:0:0:0:
199,138,28829,1,0,0:0:0:0:
199,138,29121,1,0,0:0:0:0:
199,138,29316,1,0,0:0:0:0:
222,165,29559,1,0,0:0:0:0:
199,138,29949,1,0,0:0:0:0:
222,165,30241,1,0,0:0:0:0:
199,138,30533,1,0,0:0:0:0:
224,192,30582,1,0,0:0:0:0:
240,192,30679,1,0,0:0:0:0:
240,192,30728,1,0,0:0:0:0:
240,192,30874,1,0,0:0:0:0:
240,192,30971,1,0,0:0:0:0:
219,165,31410,1,0,0:0:0:0:
287,123,31653,1,0,0:0:0:0:
384,160,31702,1,0,0:0:0:0:
384,160,31799,1,0,0:0:0:0:
368,160,31897,1,0,0:0:0:0:
192,160,32238,1,0,0:0:0:0:
219,165,32481,1,0,0:0:0:0:
416,144,32871,1,0,0:0:0:0:
219,165,33163,1,0,0:0:0:0:
224,160,33455,1,0,0:0:0:0:
256,128,33699,1,0,0:0:0:0:
368,128,33845,1,0,0:0:0:0:
288,208,34137,1,0,0:0:0:0:
256,96,34380,1,0,0:0:0:0:
288,192,34673,1,0,0:0:0:0:
256,144,34916,1,0,0:0:0:0:
272,96,35160,1,0,0:0:0:0:
256,192,35403,1,0,0:0:0:0:
240,128,35695,1,0,0:0:0:0:
256,160,35890,1,0,0:0:0:0:
256,144,36085,1,0,0:0:0:0:
256,144,36280,1,0,0:0:0:0:
143,181,36621,1,0,0:0:0:0:
143,181,36962,1,0,0:0:0:0:
143,181,37205,1,0,0:0:0:0:
299,252,37351,1,0,0:0:0:0:
324,69,37643,1,0,0:0:0:0:
234,176,37887,1,0,0:0:0:0:
175,141,38130,1,0,0:0:0:0:
236,97,38325,1,0,0:0:0:0:
303,193,38520,1,0,0:0:0:0:
166,204,38764,1,0,0:0:0:0:
143,181,38958,1,0,0:0:0:0:
329,123,39202,1,0,0:0:0:0:
292,245,39445,1,0,0:0:0:0:
98,178,39786,1,0,0:0:0:0:
194,116,40030,1,0,0:0:0:0:
114,190,40322,1,0,0:0:0:0:
180,123,40614,1,0,0:0:0:0:
294,172,40906,1,0,0:0:0:0:
194,212,41247,1,0,0:0:0:0:
301,169,41491,1,0,0:0:0:0:
197,195,41734,1,0,0:0:0:0:
285,138,41880,1,0,0:0:0:0:
224,28,42221,1,0,0:0:0:0:
247,195,42514,1,0,0:0:0:0:
148,88,42903,1,0,0:0:0:0:
103,194,43049,1,0,0:0:0:0:
135,132,43342,1,0,0:0:0:0:
198,197,43634,1,0,0:0:0:0:
175,128,43780,1,0,0:0:0:0:
180,255,44072,1,0,0:0:0:0:
125,129,44364,1,0,0:0:0:0:
193,257,44705,1,0,0:0:0:0:
154,116,44997,1,0,0:0:0:0:
231,252,45290,1,0,0:0:0:0:
268,106,45582,1,0,0:0:0:0:
306,263,45825,1,0,0:0:0:0:
336,107,46117,1,0,0:0:0:0:
361,277,46410,1,0,0:0:0:0:
400,122,46751,1,0,0:0:0:0:
228,213,47043,1,0,0:0:0:0:
448,206,47384,1,0,0:0:0:0:
206,184,47676,1,0,0:0:0:0:
277,53,47968,1,0,0:0:0:0:
294,239,48163,1,0,0:0:0:0:
204,158,48406,1,0,0:0:0:0:
389,178,48601,1,0,0:0:0:0:
201,99,48942,1,0,0:0:0:0:
144,198,49040,1,0,0:0:0:0:
169,114,49234,1,0,0:0:0:0:
220,208,49478,1,0,0:0:0:0:
138,220,49770,1,0,0:0:0:0:
212,135,50014,1,0,0:0:0:0:
136,142,50062,1,0,0:0:0:0:
299,269,50257,1,0,0:0:0:0:
201,99,50403,1,0,0:0:0:0:
146,172,50501,1,0,0:0:0:0:
280,108,50793,1,0,0:0:0:0:
369,241,51085,1,0,0:0:0:0:
258,300,51280,1,0,0:0:0:0:
173,130,51572,1,0,0:0:0:0:
289,144,51864,1,0,0:0:0:0:
268,278,52108,1,0,0:0:0:0:
242,125,52400,1,0,0:0:0:0:
265,271,52643,1,0,0:0:0:0:
262,206,52887,1,0,0:0:0:0:
323,191,53228,1,0,0:0:0:0:
272,254,53471,1,0,0:0:0:0:
243,159,53764,1,0,0:0:0:0:
151,146,53812,1,0,0:0:0:0:
373,193,54056,1,0,0:0:0:0:
161,123,54299,1,0,0:0:0:0:
169,265,54689,1,0,0:0:0:0:
161,123,54786,1,0,0:0:0:0:
349,129,55322,1,0,0:0:0:0:
161,123,55468,1,0,0:0:0:0:
344,130,55955,1,0,0:0:0:0:
161,123,56101,1,0,0:0:0:0:
344,130,56540,1,0,0:0:0:0:
161,123,56637,1,0,0:0:0:0:
269,146,56978,1,0,0:0:0:0:
161,123,57027,1,0,0:0:0:0:
228,207,57270,1,0,0:0:0:0:
161,123,57367,1,0,0:0:0:0:
225,195,57416,1,0,0:0:0:0:
220,183,57562,1,0,0:0:0:0:
222,183,57660,1,0,0:0:0:0:
231,155,57855,1,0,0:0:0:0:
243,151,57903,1,0,0:0:0:0:
244,150,57952,1,0,0:0:0:0:
339,131,58049,1,0,0:0:0:0:
246,140,58147,1,0,0:0:0:0:
339,131,58195,1,0,0:0:0:0:
244,124,58293,1,0,0:0:0:0:
241,111,58342,1,0,0:0:0:0:
241,111,58488,1,0,0:0:0:0:
241,111,58585,1,0,0:0:0:0:
241,111,58682,1,0,0:0:0:0:
225,117,58877,1,0,0:0:0:0:
194,137,58975,1,0,0:0:0:0:
339,131,59072,1,0,0:0:0:0:
185,112,59121,1,0,0:0:0:0:
225,63,59218,1,0,0:0:0:0:
339,131,59267,1,0,0:0:0:0:
248,57,59364,1,0,0:0:0:0:
290,75,59510,1,0,0:0:0:0:
303,138,59705,1,0,0:0:0:0:
221,234,59754,1,0,0:0:0:0:
339,131,59851,1,0,0:0:0:0:
322,306,59997,1,0,0:0:0:0:
362,224,60095,1,0,0:0:0:0:
361,176,60143,1,0,0:0:0:0:
258,119,60290,1,0,0:0:0:0:
165,146,60387,1,0,0:0:0:0:
240,26,60582,1,0,0:0:0:0:
317,50,60679,1,0,0:0:0:0:
338,100,60777,1,0,0:0:0:0:
213,163,60923,1,0,0:0:0:0:
127,170,61117,1,0,0:0:0:0:
130,214,61410,1,0,0:0:0:0:
127,118,61605,1,0,0:0:0:0:
203,152,61751,1,0,0:0:0:0:
167,250,61897,1,0,0:0:0:0:
71,126,62140,1,0,0:0:0:0:
239,80,62286,1,0,0:0:0:0:
280,142,62335,1,0,0:0:0:0:
451,158,62384,1,0,0:0:0:0:
314,214,62432,1,0,0:0:0:0:
161,228,62530,1,0,0:0:0:0:
178,250,62627,1,0,0:0:0:0:
230,162,62773,1,0,0:0:0:0:
224,146,62871,1,0,0:0:0:0:
205,158,63017,1,0,0:0:0:0:
126,174,63163,1,0,0:0:0:0:
158,166,63212,1,0,0:0:0:0:
148,158,63309,1,0,0:0:0:0:
149,156,63406,1,0,0:0:0:0:
174,144,63504,1,0,0:0:0:0:
403,349,63747,1,0,0:0:0:0:
222,184,63893,1,0,0:0:0:0:
222,184,63991,1,0,0:0:0:0:
195,167,64186,1,0,0:0:0:0:
172,171,64234,1,0,0:0:0:0:
32,184,64332,1,0,0:0:0:0:
41,176,64478,1,0,0:0:0:0:
230,179,64624,1,0,0:0:0:0:
231,179,64673,1,0,0:0:0:0:
233,185,64770,1,0,0:0:0:0:
245,237,64916,1,0,0:0:0:0:
135,71,65111,1,0,0:0:0:0:
278,99,65257,1,0,0:0:0:0:
215,189,65452,1,0,0:0:0:0:
171,41,65647,1,0,0:0:0:0:
143,129,65842,1,0,0:0:0:0:
199,83,65939,1,0,0:0:0:0:
213,68,66036,1,0,0:0:0:0:
150,121,66280,1,0,0:0:0:0:
162,153,66426,1,0,0:0:0:0:
199,83,66475,1,0,0:0:0:0:
205,156,66572,1,0,0:0:0:0:
210,157,66669,1,0,0:0:0:0:
213,155,66864,1,0,0:0:0:0:
213,155,67010,1,0,0:0:0:0:
213,155,67059,1,0,0:0:0:0:
213,155,67108,1,0,0:0:0:0:
227,146,67205,1,0,0:0:0:0:
234,143,67254,1,0,0:0:0:0:
353,118,67351,1,0,0:0:0:0:
362,117,67497,1,0,0:0:0:0:
362,117,67595,1,0,0:0:0:0:
350,129,67692,1,0,0:0:0:0:
247,173,67790,1,0,0:0:0:0:
191,174,67838,1,0,0:0:0:0:
191,174,67936,1,0,0:0:0:0:
191,174,68082,1,0,0:0:0:0:
253,92,68228,1,0,0:0:0:0:
262,96,68374,1,0,0:0:0:0:
340,118,68423,1,0,0:0:0:0:
304,144,68617,1,0,0:0:0:0:
277,201,68764,1,0,0:0:0:0:
160,69,68958,1,0,0:0:0:0:
243,91,69153,1,0,0:0:0:0:
209,213,69348,1,0,0:0:0:0:
199,80,69543,1,0,0:0:0:0:
189,197,69738,1,0,0:0:0:0:
219,26,69932,1,0,0:0:0:0:
228,55,70030,1,0,0:0:0:0:
254,77,70176,1,0,0:0:0:0:
284,73,70322,1,0,0:0:0:0:
294,81,70419,1,0,0:0:0:0:
297,86,70468,1,0,0:0:0:0:
327,103,70614,1,0,0:0:0:0:
336,109,70663,1,0,0:0:0:0:
336,109,70712,1,0,0:0:0:0:
336,118,70809,1,0,0:0:0:0:
319,142,70955,1,0,0:0:0:0:
311,146,71053,1,0,0:0:0:0:
286,157,71199,1,0,0:0:0:0:
271,164,71296,1,0,0:0:0:0:
259,169,71442,1,0,0:0:0:0:
252,159,71540,1,0,0:0:0:0:
220,149,71686,1,0,0:0:0:0:
171,42,71880,1,0,0:0:0:0:
216,161,72075,1,0,0:0:0:0:
216,16,72221,1,0,0:0:0:0:
256,159,72416,1,0,0:0:0:0:
154,221,72611,1,0,0:0:0:0:
189,95,72806,1,0,0:0:0:0:
251,181,72952,1,0,0:0:0:0:
319,243,73147,1,0,0:0:0:0:
310,228,73293,1,0,0:0:0:0:
251,211,73390,1,0,0:0:0:0:
251,211,73488,1,0,0:0:0:0:
246,195,73634,1,0,0:0:0:0:
240,176,73731,1,0,0:0:0:0:
232,175,73829,1,0,0:0:0:0:
232,170,73877,1,0,0:0:0:0:
232,157,73975,1,0,0:0:0:0:
213,126,74267,1,0,0:0:0:0:
299,122,74559,1,0,0:0:0:0:
158,180,74851,1,0,0:0:0:0:
255,111,75192,1,0,0:0:0:0:
260,174,75533,1,0,0:0:0:0:
139,146,75874,1,0,0:0:0:0:
288,97,76215,1,0,0:0:0:0:
307,119,76605,1,0,0:0:0:0:
307,119,76751,1,0,0:0:0:0:
253,163,76945,1,0,0:0:0:0:
206,227,77238,1,0,0:0:0:0:
138,78,77432,1,0,0:0:0:0:
139,203,77676,1,0,0:0:0:0:
216,77,77871,1,0,0:0:0:0:
249,212,78017,1,0,0:0:0:0:
121,210,78163,1,0,0:0:0:0:
127,155,78358,1,0,0:0:0:0:
128,110,78455,1,0,0:0:0:0:
192,115,78601,1,0,0:0:0:0:
194,130,78796,1,0,0:0:0:0:
205,142,78845,1,0,0:0:0:0:
214,147,78942,1,0,0:0:0:0:
216,148,79137,1,0,0:0:0:0:
216,148,79234,1,0,0:0:0:0:
244,136,79527,1,0,0:0:0:0:
342,130,79721,1,0,0:0:0:0:
325,133,79916,1,0,0:0:0:0:
156,129,80111,1,0,0:0:0:0:
164,130,80257,1,0,0:0:0:0:
331,132,80403,1,0,0:0:0:0:
312,132,80549,1,0,0:0:0:0:
115,128,80744,1,0,0:0:0:0:
125,126,80890,1,0,0:0:0:0:
331,132,81085,1,0,0:0:0:0:
120,132,81377,1,0,0:0:0:0:
128,129,81523,1,0,0:0:0:0:
157,122,81718,1,0,0:0:0:0:
325,129,82059,1,0,0:0:0:0:
314,133,82205,1,0,0:0:0:0:
302,131,82449,1,0,0:0:0:0:
167,206,82984,1,0,0:0:0:0:
212,206,83179,1,0,0:0:0:0:
299,162,83374,1,0,0:0:0:0:
16,149,83423,1,0,0:0:0:0:
316,158,83569,1,0,0:0:0:0:
316,158,83715,1,0,0:0:0:0:
162,153,83958,1,0,0:0:0:0:
159,143,84105,1,0,0:0:0:0:
163,120,84202,1,0,0:0:0:0:
188,106,84348,1,0,0:0:0:0:
222,85,84494,1,0,0:0:0:0:
264,84,84640,1,0,0:0:0:0:
271,109,84738,1,0,0:0:0:0:
248,118,84884,1,0,0:0:0:0:
236,104,85127,1,0,0:0:0:0:
240,235,85322,1,0,0:0:0:0:
160,243,85517,1,0,0:0:0:0:
312,180,85760,1,0,0:0:0:0:
236,104,85955,1,0,0:0:0:0:
131,229,86004,1,0,0:0:0:0:
265,113,86296,1,0,0:0:0:0:
226,78,86442,1,0,0:0:0:0:
213,53,86540,1,0,0:0:0:0:
203,42,86686,1,0,0:0:0:0:
225,38,86783,1,0,0:0:0:0:
257,34,86880,1,0,0:0:0:0:
293,45,86929,1,0,0:0:0:0:
338,58,87027,1,0,0:0:0:0:
343,77,87075,1,0,0:0:0:0:
342,89,87173,1,0,0:0:0:0:
312,128,87270,1,0,0:0:0:0:
275,157,87416,1,0,0:0:0:0:
257,171,87465,1,0,0:0:0:0:
246,183,87514,1,0,0:0:0:0:
120,205,87855,1,0,0:0:0:0:
220,223,87952,1,0,0:0:0:0:
129,170,88439,1,0,0:0:0:0:
121,296,88585,1,0,0:0:0:0:
62,161,88731,1,0,0:0:0:0:
199,199,88877,1,0,0:0:0:0:
78,164,89121,1,0,0:0:0:0:
224,194,89316,1,0,0:0:0:0:
128,222,89462,1,0,0:0:0:0:
176,126,89656,1,0,0:0:0:0:
182,75,89851,1,0,0:0:0:0:
188,68,89949,1,0,0:0:0:0:
217,46,90095,1,0,0:0:0:0:
241,52,90143,1,0,0:0:0:0:
291,78,90290,1,0,0:0:0:0:
291,96,90338,1,0,0:0:0:0:
229,218,90582,1,0,0:0:0:0:
282,177,90825,1,0,0:0:0:0:
274,216,91020,1,0,0:0:0:0:
263,209,91215,1,0,0:0:0:0:
223,151,91410,1,0,0:0:0:0:
218,119,91556,1,0,0:0:0:0:
234,85,91751,1,0,0:0:0:0:
264,60,91848,1,0,0:0:0:0:
303,54,91897,1,0,0:0:0:0:
313,58,91994,1,0,0:0:0:0:
320,64,92092,1,0,0:0:0:0:
304,86,92238,1,0,0:0:0:0:
267,114,92432,1,0,0:0:0:0:
243,137,92530,1,0,0:0:0:0:
240,146,92627,1,0,0:0:0:0:
244,168,92822,1,0,0:0:0:0:
249,174,92919,1,0,0:0:0:0:
314,203,92968,1,0,0:0:0:0:
323,161,93066,1,0,0:0:0:0:
337,163,93163,1,0,0:0:0:0:
314,203,93455,1,0,0:0:0:0:
197,195,93504,1,0,0:0:0:0:
212,192,93650,1,0,0:0:0:0:
294,174,93747,1,0,0:0:0:0:
16,150,93796,1,0,0:0:0:0:
235,139,93893,1,0,0:0:0:0:
259,136,94040,1,0,0:0:0:0:
235,139,94234,1,0,0:0:0:0:
218,143,94332,1,0,0:0:0:0:
214,143,94429,1,0,0:0:0:0:
214,143,94575,1,0,0:0:0:0:
229,132,94624,1,0,0:0:0:0:
325,115,94916,1,0,0:0:0:0:
207,136,95062,1,0,0:0:0:0:
322,192,95208,1,0,0:0:0:0:
365,266,95452,1,0,0:0:0:0:
310,119,95598,1,0,0:0:0:0:
365,266,95647,1,0,0:0:0:0:
382,270,95793,1,0,0:0:0:0:
376,271,95939,1,0,0:0:0:0:
137,136,96182,1,0,0:0:0:0:
376,271,96231,1,0,0:0:0:0:
234,118,96329,1,0,0:0:0:0:
240,118,96377,1,0,0:0:0:0:
252,118,96426,1,0,0:0:0:0:
252,118,96523,1,0,0:0:0:0:
252,118,96621,1,0,0:0:0:0:
260,119,96718,1,0,0:0:0:0:
309,117,96864,1,0,0:0:0:0:
309,117,97010,1,0,0:0:0:0:
315,116,97108,1,0,0:0:0:0:
315,116,97205,1,0,0:0:0:0:
309,117,97254,1,0,0:0:0:0:
206,121,97449,1,0,0:0:0:0:
206,121,97595,1,0,0:0:0:0:
206,121,97643,1,0,0:0:0:0:
230,123,97741,1,0,0:0:0:0:
256,119,97790,1,0,0:0:0:0:
290,121,97887,1,0,0:0:0:0:
346,126,98033,1,0,0:0:0:0:
334,127,98228,1,0,0:0:0:0:
268,132,98325,1,0,0:0:0:0:
227,138,98423,1,0,0:0:0:0:
223,139,98569,1,0,0:0:0:0:
321,134,98764,1,0,0:0:0:0:
279,136,98958,1,0,0:0:0:0:
208,151,99056,1,0,0:0:0:0:
187,156,99153,1,0,0:0:0:0:
314,156,99348,1,0,0:0:0:0:
369,155,99445,1,0,0:0:0:0:
356,158,99543,1,0,0:0:0:0:
265,169,99689,1,0,0:0:0:0:
239,172,99884,1,0,0:0:0:0:
165,103,100127,1,0,0:0:0:0:
203,186,100225,1,0,0:0:0:0:
179,161,100322,1,0,0:0:0:0:
189,186,100419,1,0,0:0:0:0:
179,161,100517,1,0,0:0:0:0:
165,103,100809,1,0,0:0:0:0:
331,155,100955,1,0,0:0:0:0:
165,103,101004,1,0,0:0:0:0:
138,152,101247,1,0,0:0:0:0:
144,157,101393,1,0,0:0:0:0:
328,145,101686,1,0,0:0:0:0:
326,146,101880,1,0,0:0:0:0:
212,161,102124,1,0,0:0:0:0:
165,103,102221,1,0,0:0:0:0:
173,157,102367,1,0,0:0:0:0:
299,158,102611,1,0,0:0:0:0:
299,158,102757,1,0,0:0:0:0:
165,108,102806,1,0,0:0:0:0:
207,167,103001,1,0,0:0:0:0:
169,167,103147,1,0,0:0:0:0:
165,122,103439,1,0,0:0:0:0:
301,165,103488,1,0,0:0:0:0:
300,165,103634,1,0,0:0:0:0:
299,165,103682,1,0,0:0:0:0:
169,185,103780,1,0,0:0:0:0:
301,165,103829,1,0,0:0:0:0:
301,165,104023,1,0,0:0:0:0:
220,214,104072,1,0,0:0:0:0:
301,165,104169,1,0,0:0:0:0:
301,165,104218,1,0,0:0:0:0:
299,165,104267,1,0,0:0:0:0:
324,178,104364,1,0,0:0:0:0:
301,165,104413,1,0,0:0:0:0:
301,165,104559,1,0,0:0:0:0:
286,243,104705,1,0,0:0:0:0:
301,165,104803,1,0,0:0:0:0:
301,165,104949,1,0,0:0:0:0:
184,211,104997,1,0,0:0:0:0:
301,165,105095,1,0,0:0:0:0:
301,165,105241,1,0,0:0:0:0:
172,98,105290,1,0,0:0:0:0:
301,165,105338,1,0,0:0:0:0:
301,165,105387,1,0,0:0:0:0:
257,167,105582,1,0,0:0:0:0:
446,177,105630,1,0,0:0:0:0:
302,148,105728,1,0,0:0:0:0:
446,177,105777,1,0,0:0:0:0:
446,177,105923,1,0,0:0:0:0:
446,177,106020,1,0,0:0:0:0:
497,164,106069,1,0,0:0:0:0:
497,164,106215,1,0,0:0:0:0:
487,166,106361,1,0,0:0:0:0:
486,167,106507,1,0,0:0:0:0:
486,167,106653,1,0,0:0:0:0:
316,171,106751,1,0,0:0:0:0:
486,167,106848,1,0,0:0:0:0:
306,178,106897,1,0,0:0:0:0:
304,178,106994,1,0,0:0:0:0:
485,161,107043,1,0,0:0:0:0:
485,161,107092,1,0,0:0:0:0:
248,172,107140,1,0,0:0:0:0:
485,161,107189,1,0,0:0:0:0:
248,172,107286,1,0,0:0:0:0:
248,172,107335,1,0,0:0:0:0:
248,172,107432,1,0,0:0:0:0:
248,172,107481,1,0,0:0:0:0:
299,171,107579,1,0,0:0:0:0:
248,172,107676,1,0,0:0:0:0:
293,154,107822,1,0,0:0:0:0:
253,166,108017,1,0,0:0:0:0:
241,186,108212,1,0,0:0:0:0:
155,197,108358,1,0,0:0:0:0:
359,176,108455,1,0,0:0:0:0:
144,163,108553,1,0,0:0:0:0:
359,176,108601,1,0,0:0:0:0:
357,174,108699,1,0,0:0:0:0:
212,75,108845,1,0,0:0:0:0:
234,163,108991,1,0,0:0:0:0:
277,92,109040,1,0,0:0:0:0:
249,166,109137,1,0,0:0:0:0:
262,134,109234,1,0,0:0:0:0:
416,200,109283,1,0,0:0:0:0:
409,200,109429,1,0,0:0:0:0:
232,218,109527,1,0,0:0:0:0:
227,205,109624,1,0,0:0:0:0:
227,205,109721,1,0,0:0:0:0:
297,100,109916,1,0,0:0:0:0:
488,238,110160,1,0,0:0:0:0:
483,245,110208,1,0,0:0:0:0:
323,250,110355,1,0,0:0:0:0:
302,251,110549,1,0,0:0:0:0:
216,174,110695,1,0,0:0:0:0:
215,151,110842,1,0,0:0:0:0:
307,231,110939,1,0,0:0:0:0:
373,87,111134,1,0,0:0:0:0:
306,229,111377,1,0,0:0:0:0:
357,226,111475,1,0,0:0:0:0:
156,125,111767,1,0,0:0:0:0:
269,22,112010,1,0,0:0:0:0:
277,28,112205,1,0,0:0:0:0:
282,41,112303,1,0,0:0:0:0:
286,54,112351,1,0,0:0:0:0:
289,50,112449,1,0,0:0:0:0:
289,50,112546,1,0,0:0:0:0:
289,50,112595,1,0,0:0:0:0:
304,221,112741,1,0,0:0:0:0:
289,50,112790,1,0,0:0:0:0:
289,50,112887,1,0,0:0:0:0:
304,221,112984,1,0,0:0:0:0:
289,50,113082,1,0,0:0:0:0:
304,221,113228,1,0,0:0:0:0:
289,50,113277,1,0,0:0:0:0:
289,50,113374,1,0,0:0:0:0:
304,221,113423,1,0,0:0:0:0:
304,221,113569,1,0,0:0:0:0:
291,66,113617,1,0,0:0:0:0:
304,221,113666,1,0,0:0:0:0:
286,112,113764,1,0,0:0:0:0:
304,221,113861,1,0,0:0:0:0:
286,126,113910,1,0,0:0:0:0:
304,221,114056,1,0,0:0:0:0:
277,148,114153,1,0,0:0:0:0:
352,221,114202,1,0,0:0:0:0:
352,221,114251,1,0,0:0:0:0:
245,177,114348,1,0,0:0:0:0:
241,182,114397,1,0,0:0:0:0:
242,227,114494,1,0,0:0:0:0:
242,227,114640,1,0,0:0:0:0:
264,233,114786,1,0,0:0:0:0:
217,222,114835,1,0,0:0:0:0:
292,225,114884,1,0,0:0:0:0:
169,211,114981,1,0,0:0:0:0:
314,201,115079,1,0,0:0:0:0:
295,213,115176,1,0,0:0:0:0:
304,189,115225,1,0,0:0:0:0:
298,186,115273,1,0,0:0:0:0:
277,182,115419,1,0,0:0:0:0:
242,227,115468,1,0,0:0:0:0:
254,183,115517,1,0,0:0:0:0:
116,220,115712,1,0,0:0:0:0:
224,146,115809,1,0,0:0:0:0:
224,146,115906,1,0,0:0:0:0:
231,138,116004,1,0,0:0:0:0:
256,128,116296,1,0,0:0:0:0:
266,119,116393,1,0,0:0:0:0:
268,118,116588,1,0,0:0:0:0:
256,128,116686,1,0,0:0:0:0:
137,83,116929,1,0,0:0:0:0:
298,96,117075,1,0,0:0:0:0:
235,233,117270,1,0,0:0:0:0:
214,147,117416,1,0,0:0:0:0:
143,35,117514,1,0,0:0:0:0:
238,226,117611,1,0,0:0:0:0:
242,167,117708,1,0,0:0:0:0:
177,153,117903,1,0,0:0:0:0:
336,141,118098,1,0,0:0:0:0:
354,176,118244,1,0,0:0:0:0:
269,163,118390,1,0,0:0:0:0:
239,156,118488,1,0,0:0:0:0:
209,134,118731,1,0,0:0:0:0:
209,134,118829,1,0,0:0:0:0:
210,95,118975,1,0,0:0:0:0:
210,95,119023,1,0,0:0:0:0:
210,95,119121,1,0,0:0:0:0:
210,95,119218,1,0,0:0:0:0:
212,88,119267,1,0,0:0:0:0:
214,83,119364,1,0,0:0:0:0:
214,83,119413,1,0,0:0:0:0:
212,83,119510,1,0,0:0:0:0:
194,90,119705,1,0,0:0:0:0:
194,90,119754,1,0,0:0:0:0:
194,90,120046,1,0,0:0:0:0:
194,90,120290,1,0,0:0:0:0:
194,90,120338,1,0,0:0:0:0:
194,90,120533,1,0,0:0:0:0:
194,90,120728,1,0,0:0:0:0:
194,90,120825,1,0,0:0:0:0:
125,157,121117,1,0,0:0:0:0:
125,157,121264,1,0,0:0:0:0:
125,157,121410,1,0,0:0:0:0:
125,157,121507,1,0,0:0:0:0:
125,157,121653,1,0,0:0:0:0:
440,96,121799,1,0,0:0:0:0:
440,96,121848,1,0,0:0:0:0:
434,96,121945,1,0,0:0:0:0:
377,94,122043,1,0,0:0:0:0:
318,66,122092,1,0,0:0:0:0:
182,1,122238,1,0,0:0:0:0:
182,1,122286,1,0,0:0:0:0:
201,3,122384,1,0,0:0:0:0:
203,7,122579,1,0,0:0:0:0:
203,9,122627,1,0,0:0:0:0:
199,41,122725,1,0,0:0:0:0:
193,52,122871,1,0,0:0:0:0:
252,69,122919,1,0,0:0:0:0:
374,304,123163,1,0,0:0:0:0:
255,176,123212,1,0,0:0:0:0:
231,160,123358,1,0,0:0:0:0:
228,153,123504,1,0,0:0:0:0:
223,148,123650,1,0,0:0:0:0:
223,148,123747,1,0,0:0:0:0:
223,148,123942,1,0,0:0:0:0:
223,148,124040,1,0,0:0:0:0:
345,110,124234,1,0,0:0:0:0:
350,108,124380,1,0,0:0:0:0:
351,108,124429,1,0,0:0:0:0:
268,133,124478,1,0,0:0:0:0:
268,133,124624,1,0,0:0:0:0:
275,137,124673,1,0,0:0:0:0:
268,133,124770,1,0,0:0:0:0:
269,140,124819,1,0,0:0:0:0:
300,130,125014,1,0,0:0:0:0:
180,152,125160,1,0,0:0:0:0:
180,152,125257,1,0,0:0:0:0:
303,118,125355,1,0,0:0:0:0:
180,152,125403,1,0,0:0:0:0:
271,113,125452,1,0,0:0:0:0:
244,107,125549,1,0,0:0:0:0:
190,105,125647,1,0,0:0:0:0:
169,116,125744,1,0,0:0:0:0:
150,127,125793,1,0,0:0:0:0:
149,137,125890,1,0,0:0:0:0:
157,156,126036,1,0,0:0:0:0:
237,209,126134,1,0,0:0:0:0:
253,216,126231,1,0,0:0:0:0:
310,200,126377,1,0,0:0:0:0:
337,186,126523,1,0,0:0:0:0:
346,187,126572,1,0,0:0:0:0:
346,186,126718,1,0,0:0:0:0:
346,186,126767,1,0,0:0:0:0:
346,186,126864,1,0,0:0:0:0:
182,107,127010,1,0,0:0:0:0:
283,146,127156,1,0,0:0:0:0:
269,152,127254,1,0,0:0:0:0:
186,266,127497,1,0,0:0:0:0:
397,220,127546,1,0,0:0:0:0:
71,99,127741,1,0,0:0:0:0:
232,81,127887,1,0,0:0:0:0:
222,254,128082,1,0,0:0:0:0:
71,74,128228,1,0,0:0:0:0:
192,57,128374,1,0,0:0:0:0:
139,168,128569,1,0,0:0:0:0:
119,56,128715,1,0,0:0:0:0:
138,132,128910,1,0,0:0:0:0:
315,227,128958,1,0,0:0:0:0:
169,55,129105,1,0,0:0:0:0:
315,227,129153,1,0,0:0:0:0:
112,239,129299,1,0,0:0:0:0:
164,100,129494,1,0,0:0:0:0:
297,171,129689,1,0,0:0:0:0:
117,243,129884,1,0,0:0:0:0:
188,92,130079,1,0,0:0:0:0:
258,249,130225,1,0,0:0:0:0:
112,198,130419,1,0,0:0:0:0:
234,142,130614,1,0,0:0:0:0:
152,249,130809,1,0,0:0:0:0:
226,156,131004,1,0,0:0:0:0:
258,299,131199,1,0,0:0:0:0:
224,212,131393,1,0,0:0:0:0:
279,217,131686,1,0,0:0:0:0:
337,256,131832,1,0,0:0:0:0:
287,265,132027,1,0,0:0:0:0:
138,159,132367,1,0,0:0:0:0:
317,199,132562,1,0,0:0:0:0:
201,181,132708,1,0,0:0:0:0:
367,117,132903,1,0,0:0:0:0:
168,249,133049,1,0,0:0:0:0:
192,168,133195,1,0,0:0:0:0:
271,206,133342,1,0,0:0:0:0:
229,281,133536,1,0,0:0:0:0:
196,257,133731,1,0,0:0:0:0:
156,205,133877,1,0,0:0:0:0:
332,267,134072,1,0,0:0:0:0:
219,166,134169,1,0,0:0:0:0:
174,127,134267,1,0,0:0:0:0:
348,109,134462,1,0,0:0:0:0:
280,211,134656,1,0,0:0:0:0:
116,140,134851,1,0,0:0:0:0:
244,81,134997,1,0,0:0:0:0:
290,187,135143,1,0,0:0:0:0:
213,187,135290,1,0,0:0:0:0:
175,155,135387,1,0,0:0:0:0:
216,128,135533,1,0,0:0:0:0:
257,120,135630,1,0,0:0:0:0:
282,135,135777,1,0,0:0:0:0:
282,135,135874,1,0,0:0:0:0:
282,143,136020,1,0,0:0:0:0:
282,142,136117,1,0,0:0:0:0:
282,143,136215,1,0,0:0:0:0:
282,143,136312,1,0,0:0:0:0:
283,140,136410,1,0,0:0:0:0:
289,132,136556,1,0,0:0:0:0:
289,132,136702,1,0,0:0:0:0:
289,132,136799,1,0,0:0:0:0:
289,132,136897,1,0,0:0:0:0:
289,132,137043,1,0,0:0:0:0:
289,132,137092,1,0,0:0:0:0:
289,132,137238,1,0,0:0:0:0:
289,132,137286,1,0,0:0:0:0:
289,132,137384,1,0,0:0:0:0:
289,132,137432,1,0,0:0:0:0:
289,132,137579,1,0,0:0:0:0:
177,174,137773,1,0,0:0:0:0:
107,229,138017,1,0,0:0:0:0:
201,35,138260,1,0,0:0:0:0:
367,185,138504,1,0,0:0:0:0:
246,331,138845,1,0,0:0:0:0:
74,147,139088,1,0,0:0:0:0:
256,60,139332,1,0,0:0:0:0:
337,271,139624,1,0,0:0:0:0:
171,298,139916,1,0,0:0:0:0:
90,111,140160,1,0,0:0:0:0:
276,110,140452,1,0,0:0:0:0:
287,268,140793,1,0,0:0:0:0:
174,275,141036,1,0,0:0:0:0:
213,77,141280,1,0,0:0:0:0:
340,182,141523,1,0,0:0:0:0:
259,256,141816,1,0,0:0:0:0:
192,165,142546,1,0,0:0:0:0:
192,165,142692,1,0,0:0:0:0:
192,165,142838,1,0,0:0:0:0:
192,165,142936,1,0,0:0:0:0:
364,138,143179,1,0,0:0:0:0:
194,213,143423,1,0,0:0:0:0:
329,138,143617,1,0,0:0:0:0:
330,218,143910,1,0,0:0:0:0:
188,165,144202,1,0,0:0:0:0:
188,165,144299,1,0,0:0:0:0:
188,165,144445,1,0,0:0:0:0:
188,165,144543,1,0,0:0:0:0:
188,165,144592,1,0,0:0:0:0:
188,165,144738,1,0,0:0:0:0:
188,165,145176,1,0,0:0:0:0:
290,151,145809,1,0,0:0:0:0:
143,176,146393,1,0,0:0:0:0:
285,169,146637,1,0,0:0:0:0:
145,233,146929,1,0,0:0:0:0:
152,127,147124,1,0,0:0:0:0:
278,155,147367,1,0,0:0:0:0:
105,254,147903,1,0,0:0:0:0:
185,64,148098,1,0,0:0:0:0:
350,171,148342,1,0,0:0:0:0:
229,290,148536,1,0,0:0:0:0:
75,169,148780,1,0,0:0:0:0:
202,135,148975,1,0,0:0:0:0:
225,144,149169,1,0,0:0:0:0:
190,260,150533,2,0,L|259:172,1,89.9999976158143
308,245,151653,1,0,0:0:0:0:
328,166,151848,1,0,0:0:0:0:
236,257,152286,1,0,0:0:0:0:
160,155,152725,1,0,0:0:0:0:
361,144,152919,1,0,0:0:0:0:
296,278,153212,1,0,0:0:0:0:
120,191,153406,1,0,0:0:0:0:
214,109,153601,1,0,0:0:0:0:
369,195,153845,1,0,0:0:0:0:
327,251,154040,1,0,0:0:0:0:
209,194,154478,1,0,0:0:0:0:
169,165,154624,1,0,0:0:0:0:
293,111,155160,1,0,0:0:0:0:
299,124,155306,1,0,0:0:0:0:
261,149,155403,1,0,0:0:0:0:
174,188,155501,1,0,0:0:0:0:
273,286,155890,1,0,0:0:0:0:
326,238,156036,1,0,0:0:0:0:
201,158,157010,1,0,0:0:0:0:
294,175,157156,1,0,0:0:0:0:
294,175,157254,1,0,0:0:0:0:
294,175,157303,1,0,0:0:0:0:
172,189,157643,1,0,0:0:0:0:
172,189,157790,1,0,0:0:0:0:
172,189,157887,1,0,0:0:0:0:
282,192,158130,1,0,0:0:0:0:
281,192,158325,1,0,0:0:0:0:
155,199,158374,1,0,0:0:0:0:
129,199,158471,1,0,0:0:0:0:
148,200,158617,1,0,0:0:0:0:
299,210,158666,1,0,0:0:0:0:
297,211,158764,1,0,0:0:0:0:
176,215,159007,1,0,0:0:0:0:
302,204,159105,1,0,0:0:0:0:
102,200,159251,1,0,0:0:0:0:
389,191,159445,1,0,0:0:0:0:
214,262,159543,1,0,0:0:0:0:
221,174,159738,1,0,0:0:0:0:
363,176,159932,1,0,0:0:0:0:
297,305,160176,1,0,0:0:0:0:
155,242,160371,1,0,0:0:0:0:
271,85,160566,1,0,0:0:0:0:
317,218,160858,1,0,0:0:0:0:
236,297,161053,1,0,0:0:0:0:
169,151,161296,1,0,0:0:0:0:
297,95,161491,1,0,0:0:0:0:
222,253,161734,1,0,0:0:0:0:
186,257,161929,1,0,0:0:0:0:
149,129,162124,1,0,0:0:0:0:
222,253,162367,1,0,0:0:0:0:
247,91,162562,1,0,0:0:0:0:
274,240,162806,1,0,0:0:0:0:
199,214,163001,1,0,0:0:0:0:
168,207,163098,1,0,0:0:0:0:
187,147,163244,1,0,0:0:0:0:
208,126,163342,1,0,0:0:0:0:
225,107,163439,1,0,0:0:0:0:
246,102,163585,1,0,0:0:0:0:
289,129,163731,1,0,0:0:0:0:
257,149,163877,1,0,0:0:0:0:
209,174,164121,1,0,0:0:0:0:
196,192,164267,1,0,0:0:0:0:
199,203,164364,1,0,0:0:0:0:
228,220,164559,1,0,0:0:0:0:
247,207,164705,1,0,0:0:0:0:
249,203,164754,1,0,0:0:0:0:
251,197,164851,1,0,0:0:0:0:
257,176,164997,1,0,0:0:0:0:
260,166,165095,1,0,0:0:0:0:
263,159,165192,1,0,0:0:0:0:
269,150,165436,1,0,0:0:0:0:
271,148,165582,1,0,0:0:0:0:
271,148,165630,1,0,0:0:0:0:
273,146,165728,1,0,0:0:0:0:
273,146,165777,1,0,0:0:0:0:
274,145,165825,1,0,0:0:0:0:
274,145,165971,1,0,0:0:0:0:
274,145,166117,1,0,0:0:0:0:
274,145,166215,1,0,0:0:0:0:
273,146,166312,1,0,0:0:0:0:
273,146,166361,1,0,0:0:0:0:
274,145,166458,1,0,0:0:0:0:
274,145,166653,1,0,0:0:0:0:
335,234,166848,1,0,0:0:0:0:
335,234,166945,1,0,0:0:0:0:
335,234,167043,1,0,0:0:0:0:
335,234,167092,1,0,0:0:0:0:
220,178,167286,1,0,0:0:0:0:
220,178,167432,1,0,0:0:0:0:
240,186,167530,1,0,0:0:0:0:
350,226,167725,1,0,0:0:0:0:
173,157,168066,1,0,0:0:0:0:
173,157,168212,1,0,0:0:0:0:
309,218,168406,1,0,0:0:0:0:
309,218,168553,1,0,0:0:0:0:
205,167,168747,1,0,0:0:0:0:
173,157,168893,1,0,0:0:0:0:
206,175,168991,1,0,0:0:0:0:
297,213,169186,1,0,0:0:0:0:
297,213,169332,1,0,0:0:0:0:
275,208,169380,1,0,0:0:0:0:
235,190,169478,1,0,0:0:0:0:
219,181,169527,1,0,0:0:0:0:
211,175,169624,1,0,0:0:0:0:
199,151,169770,1,0,0:0:0:0:
205,128,169916,1,0,0:0:0:0:
218,98,170062,1,0,0:0:0:0:
245,90,170208,1,0,0:0:0:0:
263,101,170257,1,0,0:0:0:0:
256,188,170452,1,0,0:0:0:0:
201,238,170647,1,0,0:0:0:0:
202,254,170695,1,0,0:0:0:0:
218,274,170793,1,0,0:0:0:0:
260,276,170842,1,0,0:0:0:0:
283,261,171036,1,0,0:0:0:0:
300,205,171182,1,0,0:0:0:0:
283,197,171231,1,0,0:0:0:0:
272,193,171329,1,0,0:0:0:0:
250,181,171377,1,0,0:0:0:0:
243,177,171523,1,0,0:0:0:0:
243,177,171572,1,0,0:0:0:0:
243,176,171621,1,0,0:0:0:0:
242,170,171669,1,0,0:0:0:0:
242,170,171767,1,0,0:0:0:0:
242,163,171913,1,0,0:0:0:0:
242,163,171962,1,0,0:0:0:0:
242,163,172010,1,0,0:0:0:0:
242,163,172108,1,0,0:0:0:0:
242,163,172156,1,0,0:0:0:0:
242,163,172400,1,0,0:0:0:0:
297,191,172595,1,0,0:0:0:0:
297,191,172692,1,0,0:0:0:0:
297,191,172790,1,0,0:0:0:0:
202,177,172984,1,0,0:0:0:0:
202,177,173179,1,0,0:0:0:0:
314,191,173325,1,0,0:0:0:0:
293,194,173471,1,0,0:0:0:0:
150,180,173617,1,0,0:0:0:0:
328,183,173958,1,0,0:0:0:0:
180,191,174251,1,0,0:0:0:0:
342,203,174592,1,0,0:0:0:0:
77,220,174884,1,0,0:0:0:0:
240,160,175127,1,0,0:0:0:0:
218,252,175322,1,0,0:0:0:0:
175,152,175517,1,0,0:0:0:0:
263,174,175712,1,0,0:0:0:0:
154,168,175955,1,0,0:0:0:0:
249,198,176150,1,0,0:0:0:0:
143,189,176345,1,0,0:0:0:0:
234,134,176637,1,0,0:0:0:0:
226,214,176832,1,0,0:0:0:0:
131,130,177075,1,0,0:0:0:0:
264,112,177221,1,0,0:0:0:0:
239,230,177416,1,0,0:0:0:0:
138,166,177562,1,0,0:0:0:0:
146,141,177708,1,0,0:0:0:0:
168,103,177855,1,0,0:0:0:0:
185,85,178001,1,0,0:0:0:0:
193,82,178098,1,0,0:0:0:0:
201,80,178195,1,0,0:0:0:0:
213,86,178293,1,0,0:0:0:0:
220,93,178342,1,0,0:0:0:0:
226,99,178390,1,0,0:0:0:0:
228,105,178488,1,0,0:0:0:0:
229,116,178536,1,0,0:0:0:0:
228,123,178731,1,0,0:0:0:0:
228,126,178829,1,0,0:0:0:0:
226,131,178926,1,0,0:0:0:0:
226,131,179072,1,0,0:0:0:0:
226,132,179169,1,0,0:0:0:0:
226,132,179364,1,0,0:0:0:0:
284,138,179608,1,0,0:0:0:0:
334,128,179754,1,0,0:0:0:0:
334,128,179900,1,0,0:0:0:0:
196,147,180046,1,0,0:0:0:0:
196,147,180241,1,0,0:0:0:0:
222,136,180387,1,0,0:0:0:0:
316,140,180533,1,0,0:0:0:0:
212,142,180728,1,0,0:0:0:0:
260,148,180971,1,0,0:0:0:0:
278,177,181166,1,0,0:0:0:0:
234,77,181361,1,0,0:0:0:0:
316,172,181556,1,0,0:0:0:0:
185,176,181751,1,0,0:0:0:0:
346,91,181897,1,0,0:0:0:0:
258,135,182092,1,0,0:0:0:0:
281,38,182238,1,0,0:0:0:0:
242,146,183455,1,0,0:0:0:0:
302,120,184332,1,0,0:0:0:0:
292,126,186036,1,0,0:0:0:0:
292,126,186816,1,0,0:0:0:0:
297,111,187400,1,0,0:0:0:0:
297,111,187887,1,0,0:0:0:0:
297,111,188277,1,0,0:0:0:0:
298,103,188471,1,0,0:0:0:0:
299,103,188617,1,0,0:0:0:0:
299,97,188812,5,0,0:0:0:0:
287,101,189007,5,0,0:0:0:0:
285,115,189202,5,0,0:0:0:0:
303,135,189445,1,0,0:0:0:0:
303,135,189640,5,0,0:0:0:0:
303,135,189884,5,0,0:0:0:0:
304,142,190273,5,0,0:0:0:0:
276,144,190517,5,0,0:0:0:0:
228,175,190760,5,0,0:0:0:0:
211,169,191004,5,0,0:0:0:0:
197,180,191247,5,0,0:0:0:0:
203,191,191491,5,0,0:0:0:0:
208,183,191734,5,0,0:0:0:0:
212,183,191929,5,0,0:0:0:0:
291,58,192027,1,0,0:0:0:0:
410,332,192319,1,0,0:0:0:0:
124,135,192660,1,0,0:0:0:0:
183,148,192806,1,0,0:0:0:0:
196,152,192903,1,0,0:0:0:0:
197,152,192952,1,0,0:0:0:0:
214,149,193098,1,0,0:0:0:0:
207,160,193244,1,0,0:0:0:0:
209,159,193342,1,0,0:0:0:0:
213,154,193439,1,0,0:0:0:0:
217,149,193488,1,0,0:0:0:0:
217,149,193536,1,0,0:0:0:0:
217,149,193634,1,0,0:0:0:0:
236,146,193731,1,0,0:0:0:0:
280,137,193780,1,0,0:0:0:0:
314,127,193877,1,0,0:0:0:0:
119,112,195192,1,0,0:0:0:0:
184,73,195290,1,0,0:0:0:0:
195,63,195387,1,0,0:0:0:0:
224,54,195533,1,0,0:0:0:0:
240,61,195582,1,0,0:0:0:0:
250,72,195679,1,0,0:0:0:0:
255,73,195728,1,0,0:0:0:0:
258,85,195825,1,0,0:0:0:0:
214,129,195923,1,0,0:0:0:0:
186,151,196020,1,0,0:0:0:0:
174,170,196166,1,0,0:0:0:0:
180,198,196215,1,0,0:0:0:0:
193,218,196312,1,0,0:0:0:0:
209,228,196361,1,0,0:0:0:0:
237,225,196507,1,0,0:0:0:0:
283,201,196605,1,0,0:0:0:0:
283,188,196653,1,0,0:0:0:0:
276,164,196751,1,0,0:0:0:0:
260,151,196848,1,0,0:0:0:0:
235,142,196897,1,0,0:0:0:0:
202,119,197043,1,0,0:0:0:0:
211,91,197189,1,0,0:0:0:0:
281,89,197335,1,0,0:0:0:0:
331,106,197481,1,0,0:0:0:0:
319,141,197579,1,0,0:0:0:0:
298,149,197676,1,0,0:0:0:0:
256,158,197725,1,0,0:0:0:0:
235,163,197822,1,0,0:0:0:0:
219,172,197919,1,0,0:0:0:0:
210,184,198017,1,0,0:0:0:0:
208,204,198066,1,0,0:0:0:0:
226,222,198163,1,0,0:0:0:0:
269,197,198309,1,0,0:0:0:0:
266,186,198406,1,0,0:0:0:0:
251,172,198455,1,0,0:0:0:0:
223,153,198553,1,0,0:0:0:0:
221,149,198650,1,0,0:0:0:0:
217,138,198747,1,0,0:0:0:0:
230,118,198845,1,0,0:0:0:0:
265,113,198991,1,0,0:0:0:0:
273,113,199137,1,0,0:0:0:0:
277,123,199186,1,0,0:0:0:0:
277,135,199283,1,0,0:0:0:0:
253,153,199380,1,0,0:0:0:0:
229,161,199429,1,0,0:0:0:0:
220,164,199478,1,0,0:0:0:0:
200,170,199575,1,0,0:0:0:0:
189,174,199624,1,0,0:0:0:0:
161,183,199721,1,0,0:0:0:0:
172,186,199867,1,0,0:0:0:0:
319,97,200355,1,0,0:0:0:0:
200,191,200647,1,0,0:0:0:0:
142,164,201621,1,0,0:0:0:0:
182,97,201767,1,0,0:0:0:0:
210,81,201864,1,0,0:0:0:0:
220,78,201913,1,0,0:0:0:0:
231,77,202010,1,0,0:0:0:0:
243,78,202059,1,0,0:0:0:0:
253,102,202156,1,0,0:0:0:0:
255,112,202303,1,0,0:0:0:0:
247,125,202400,1,0,0:0:0:0:
238,138,202449,1,0,0:0:0:0:
236,142,202497,1,0,0:0:0:0:
228,159,202741,1,0,0:0:0:0:
228,160,202838,1,0,0:0:0:0:
226,164,202887,1,0,0:0:0:0:
225,170,203033,1,0,0:0:0:0:
225,170,203179,1,0,0:0:0:0:
230,173,203277,1,0,0:0:0:0:
245,182,203325,1,0,0:0:0:0:
273,190,203423,1,0,0:0:0:0:
303,177,203569,1,0,0:0:0:0:
291,151,203715,1,0,0:0:0:0:
258,136,203812,1,0,0:0:0:0:
228,128,203861,1,0,0:0:0:0:
196,115,203958,1,0,0:0:0:0:
188,98,204105,1,0,0:0:0:0:
214,62,204202,1,0,0:0:0:0:
249,55,204348,1,0,0:0:0:0:
210,113,204592,1,0,0:0:0:0:
188,136,204738,1,0,0:0:0:0:
179,161,204786,1,0,0:0:0:0:
196,184,204884,1,0,0:0:0:0:
267,171,205030,1,0,0:0:0:0:
268,127,205127,1,0,0:0:0:0:
163,98,205322,1,0,0:0:0:0:
121,54,205468,1,0,0:0:0:0:
224,63,205614,1,0,0:0:0:0:
274,133,205809,1,0,0:0:0:0:
296,113,205955,1,0,0:0:0:0:
207,108,206150,1,0,0:0:0:0:
112,112,206345,1,0,0:0:0:0:
239,86,206540,1,0,0:0:0:0:
236,117,206880,1,0,0:0:0:0:
96,47,207465,1,0,0:0:0:0:
231,116,208098,1,0,0:0:0:0:
110,57,208634,1,0,0:0:0:0:
243,133,209121,1,0,0:0:0:0:
105,72,209413,1,0,0:0:0:0:
304,163,209705,1,0,0:0:0:0:
385,68,209997,1,0,0:0:0:0:
268,178,210241,1,0,0:0:0:0:
67,60,210533,1,0,0:0:0:0:
333,206,210777,1,0,0:0:0:0:
434,96,211020,1,0,0:0:0:0:
251,255,211264,1,0,0:0:0:0:
150,126,211507,1,0,0:0:0:0:
156,111,211653,1,0,0:0:0:0:
200,88,211799,1,0,0:0:0:0:
288,64,211897,1,0,0:0:0:0:
306,94,212043,1,0,0:0:0:0:
308,98,212092,1,0,0:0:0:0:
306,103,212189,1,0,0:0:0:0:
262,140,212335,1,0,0:0:0:0:
208,184,212627,1,0,0:0:0:0:
235,189,212725,1,0,0:0:0:0:
247,177,212822,1,0,0:0:0:0:
246,165,212919,1,0,0:0:0:0:
231,153,213066,1,0,0:0:0:0:
217,150,213212,1,0,0:0:0:0:
213,156,213504,1,0,0:0:0:0:
225,147,213650,1,0,0:0:0:0:
223,145,213747,1,0,0:0:0:0:
219,144,213845,1,0,0:0:0:0:
219,144,213991,1,0,0:0:0:0:
219,144,214137,1,0,0:0:0:0:
225,144,214429,1,0,0:0:0:0:
278,153,214527,1,0,0:0:0:0:
303,157,214721,1,0,0:0:0:0:
249,157,214867,1,0,0:0:0:0:
212,151,214965,1,0,0:0:0:0:
202,149,215062,1,0,0:0:0:0:
199,148,215208,1,0,0:0:0:0:
161,130,215306,1,0,0:0:0:0:
150,115,215501,1,0,0:0:0:0:
178,90,215647,1,0,0:0:0:0:
197,75,215744,1,0,0:0:0:0:
228,52,215793,1,0,0:0:0:0:
287,31,215890,1,0,0:0:0:0:
308,41,216036,1,0,0:0:0:0:
283,71,216182,1,0,0:0:0:0:
258,82,216231,1,0,0:0:0:0:
237,88,216377,1,0,0:0:0:0:
231,94,216475,1,0,0:0:0:0:
220,109,216523,1,0,0:0:0:0:
216,118,216572,1,0,0:0:0:0:
208,143,216669,1,0,0:0:0:0:
210,158,216767,1,0,0:0:0:0:
213,165,216816,1,0,0:0:0:0:
226,175,216962,1,0,0:0:0:0:
125,169,217205,1,0,0:0:0:0:
125,169,217303,1,0,0:0:0:0:
125,169,217400,1,0,0:0:0:0:
123,163,217497,1,0,0:0:0:0:
143,140,217643,1,0,0:0:0:0:
155,129,217692,1,0,0:0:0:0:
168,117,217790,1,0,0:0:0:0:
177,108,217838,1,0,0:0:0:0:
188,96,217936,1,0,0:0:0:0:
207,80,218033,1,0,0:0:0:0:
221,68,218130,1,0,0:0:0:0:
266,37,218277,1,0,0:0:0:0:
266,37,218423,1,0,0:0:0:0:
243,63,218520,1,0,0:0:0:0:
226,88,218666,1,0,0:0:0:0:
209,115,218812,1,0,0:0:0:0:
179,161,219007,1,0,0:0:0:0:
160,178,219153,1,0,0:0:0:0:
133,200,219348,1,0,0:0:0:0:
123,205,219445,1,0,0:0:0:0:
129,191,219640,1,0,0:0:0:0:
158,142,219786,1,0,0:0:0:0:
195,95,219932,1,0,0:0:0:0:
246,52,220079,1,0,0:0:0:0:
258,41,220176,1,0,0:0:0:0:
258,41,220273,1,0,0:0:0:0:
270,79,220371,1,0,0:0:0:0:
280,119,220419,1,0,0:0:0:0:
285,171,220614,1,0,0:0:0:0:
285,200,220663,1,0,0:0:0:0:
270,209,220906,1,0,0:0:0:0:
207,182,221053,1,0,0:0:0:0:
140,162,221247,1,0,0:0:0:0:
143,154,221442,1,0,0:0:0:0:
241,56,221637,1,0,0:0:0:0:
252,63,221832,1,0,0:0:0:0:
244,167,221929,1,0,0:0:0:0:
197,167,222173,1,0,0:0:0:0:
171,159,222270,1,0,0:0:0:0:
222,38,222514,1,0,0:0:0:0:
254,129,222806,1,0,0:0:0:0:
234,179,223147,1,0,0:0:0:0:
137,159,223731,1,0,0:0:0:0:
137,159,224023,1,0,0:0:0:0:
254,117,224267,1,0,0:0:0:0:
137,159,224705,1,0,0:0:0:0:
137,159,224900,1,0,0:0:0:0:
137,159,224997,1,0,0:0:0:0:
137,159,225046,1,0,0:0:0:0:
137,159,225095,1,0,0:0:0:0:
137,159,225192,1,0,0:0:0:0:
137,159,225241,1,0,0:0:0:0:
245,233,225679,1,0,0:0:0:0:
277,115,226020,1,0,0:0:0:0:
341,215,226312,1,0,0:0:0:0:
140,254,226605,1,0,0:0:0:0:
202,103,226897,1,0,0:0:0:0:
327,148,227140,1,0,0:0:0:0:
249,277,227432,1,0,0:0:0:0:
151,149,227725,1,0,0:0:0:0:
151,149,227968,1,0,0:0:0:0:
173,125,228066,1,0,0:0:0:0:
188,108,228163,1,0,0:0:0:0:
196,102,228212,1,0,0:0:0:0:
218,107,228358,1,0,0:0:0:0:
216,114,228650,1,0,0:0:0:0:
304,141,228699,1,0,0:0:0:0:
216,114,228796,1,0,0:0:0:0:
251,289,228942,1,0,0:0:0:0:
126,234,229234,1,0,0:0:0:0:
226,103,229527,1,0,0:0:0:0:
301,160,229819,1,0,0:0:0:0:
220,262,230111,1,0,0:0:0:0:
116,147,230403,1,0,0:0:0:0:
216,84,230695,1,0,0:0:0:0:
232,150,230988,1,0,0:0:0:0:
161,138,231280,1,0,0:0:0:0:
148,121,231426,1,0,0:0:0:0:
150,112,231475,1,0,0:0:0:0:
168,88,231621,1,0,0:0:0:0:
178,79,231669,1,0,0:0:0:0:
188,77,231767,1,0,0:0:0:0:
194,76,231816,1,0,0:0:0:0:
199,76,231913,1,0,0:0:0:0:
199,77,232059,1,0,0:0:0:0:
193,84,232156,1,0,0:0:0:0:
174,91,232303,1,0,0:0:0:0:
169,98,232449,1,0,0:0:0:0:
169,98,232595,1,0,0:0:0:0:
169,98,232692,1,0,0:0:0:0:
179,98,232790,1,0,0:0:0:0:
179,98,232887,1,0,0:0:0:0:
180,99,232936,1,0,0:0:0:0:
180,99,233033,1,0,0:0:0:0:
180,99,233228,1,0,0:0:0:0:
180,99,233325,1,0,0:0:0:0:
193,102,233471,1,0,0:0:0:0:
193,102,233617,1,0,0:0:0:0:
231,183,233812,1,0,0:0:0:0:
231,183,233958,1,0,0:0:0:0:
159,134,234105,1,0,0:0:0:0:
160,124,234251,1,0,0:0:0:0:
294,148,234445,1,0,0:0:0:0:
294,148,234592,1,0,0:0:0:0:
240,167,234738,1,0,0:0:0:0:
214,169,234932,1,0,0:0:0:0:
272,102,235079,1,0,0:0:0:0:
272,102,235225,1,0,0:0:0:0:
270,162,235419,1,0,0:0:0:0:
193,165,235712,1,0,0:0:0:0:
206,120,236053,1,0,0:0:0:0:
230,91,236296,1,0,0:0:0:0:
251,74,236442,1,0,0:0:0:0:
251,74,236491,1,0,0:0:0:0:
251,74,236588,1,0,0:0:0:0:
256,73,236637,1,0,0:0:0:0:
256,73,236734,1,0,0:0:0:0:
256,73,236832,1,0,0:0:0:0:
256,73,236978,1,0,0:0:0:0:
256,73,237124,1,0,0:0:0:0:
364,113,237367,1,0,0:0:0:0:
316,152,237611,1,0,0:0:0:0:
294,163,237660,1,0,0:0:0:0:
249,165,237806,1,0,0:0:0:0:
180,164,237952,1,0,0:0:0:0:
145,188,238098,1,0,0:0:0:0:
188,230,238244,1,0,0:0:0:0:
250,216,238390,1,0,0:0:0:0:
224,182,238536,1,0,0:0:0:0:
182,157,238731,1,0,0:0:0:0:
177,125,238829,1,0,0:0:0:0:
212,84,238926,1,0,0:0:0:0:
230,65,239023,1,0,0:0:0:0:
248,60,239169,1,0,0:0:0:0:
177,111,239316,1,0,0:0:0:0:
131,149,239364,1,0,0:0:0:0:
185,66,239510,1,0,0:0:0:0:
185,66,239656,1,0,0:0:0:0:
185,66,239705,1,0,0:0:0:0:
185,66,239754,1,0,0:0:0:0:
185,66,239803,1,0,0:0:0:0:
185,66,239851,1,0,0:0:0:0:
105,203,239997,1,0,0:0:0:0:
165,142,240143,1,0,0:0:0:0:
219,79,240241,1,0,0:0:0:0:
228,69,240290,1,0,0:0:0:0:
231,78,240387,1,0,0:0:0:0:
263,165,240484,1,0,0:0:0:0:
268,209,240582,1,0,0:0:0:0:
105,128,240777,1,0,0:0:0:0:
114,122,240923,1,0,0:0:0:0:
294,118,241020,1,0,0:0:0:0:
231,156,241264,1,0,0:0:0:0:
125,217,241312,1,0,0:0:0:0:
116,222,241507,1,0,0:0:0:0:
290,85,241799,1,0,0:0:0:0:
281,85,241897,1,0,0:0:0:0:
266,85,241994,1,0,0:0:0:0:
266,85,242043,1,0,0:0:0:0:
256,83,242189,1,0,0:0:0:0:
220,77,242238,1,0,0:0:0:0:
115,227,242286,1,0,0:0:0:0:
245,45,242579,1,0,0:0:0:0:
229,235,242871,1,0,0:0:0:0:
127,169,243114,1,0,0:0:0:0:
231,74,243406,1,0,0:0:0:0:
223,175,243650,1,0,0:0:0:0:
189,172,243796,1,0,0:0:0:0:
166,151,243893,1,0,0:0:0:0:
167,136,243942,1,0,0:0:0:0:
174,123,244040,1,0,0:0:0:0:
194,102,244088,1,0,0:0:0:0:
206,97,244137,1,0,0:0:0:0:
218,93,244234,1,0,0:0:0:0:
220,94,244332,1,0,0:0:0:0:
216,107,244429,1,0,0:0:0:0:
208,117,244575,1,0,0:0:0:0:
201,121,244624,1,0,0:0:0:0:
166,151,244721,1,0,0:0:0:0:
162,158,244819,1,0,0:0:0:0:
160,162,244867,1,0,0:0:0:0:
159,167,245014,1,0,0:0:0:0:
159,176,245160,1,0,0:0:0:0:
160,177,245257,1,0,0:0:0:0:
206,177,245403,1,0,0:0:0:0:
224,176,245452,1,0,0:0:0:0:
235,180,245549,1,0,0:0:0:0:
235,180,245647,1,0,0:0:0:0:
235,180,245744,1,0,0:0:0:0:
235,180,245842,1,0,0:0:0:0:
238,178,245988,1,0,0:0:0:0:
238,178,246036,1,0,0:0:0:0:
238,178,246134,1,0,0:0:0:0:
240,174,246280,1,0,0:0:0:0:
240,174,246329,1,0,0:0:0:0:
240,174,246426,1,0,0:0:0:0:
240,174,246523,1,0,0:0:0:0:
258,163,246621,1,0,0:0:0:0:
287,151,246767,1,0,0:0:0:0:
287,151,246913,1,0,0:0:0:0:
276,163,247059,1,0,0:0:0:0:
195,200,247254,1,0,0:0:0:0:
126,159,247351,1,0,0:0:0:0:
131,152,247449,1,0,0:0:0:0:
160,101,247595,1,0,0:0:0:0:
160,101,247643,1,0,0:0:0:0:
401,163,247984,1,0,0:0:0:0:
340,159,248130,1,0,0:0:0:0:
81,136,248520,1,0,0:0:0:0:
46,152,248715,1,0,0:0:0:0:
81,136,249153,1,0,0:0:0:0:
81,136,249299,1,0,0:0:0:0:
162,271,249348,1,0,0:0:0:0:
81,136,249786,1,0,0:0:0:0:
354,61,249884,1,0,0:0:0:0:
211,278,250225,1,0,0:0:0:0:
81,136,250419,1,0,0:0:0:0:
384,192,250517,1,0,0:0:0:0:
135,149,250809,1,0,0:0:0:0:
361,80,251053,1,0,0:0:0:0:
81,136,251150,1,0,0:0:0:0:
81,136,251345,1,0,0:0:0:0:
123,224,251686,1,0,0:0:0:0:
380,61,251929,1,0,0:0:0:0:
138,238,252221,1,0,0:0:0:0:
360,71,252367,1,0,0:0:0:0:
308,121,252562,1,0,0:0:0:0:
218,214,252708,1,0,0:0:0:0:
82,136,252806,1,0,0:0:0:0:
82,136,252903,1,0,0:0:0:0:
82,136,253147,1,0,0:0:0:0:
82,136,253293,1,0,0:0:0:0:
82,136,253342,1,0,0:0:0:0:
82,136,253439,1,0,0:0:0:0:
82,136,253585,1,0,0:0:0:0:
101,129,253780,1,0,0:0:0:0:
293,217,253926,1,0,0:0:0:0:
490,104,254072,1,0,0:0:0:0:
283,212,254218,1,0,0:0:0:0:
151,256,254413,1,0,0:0:0:0:
0,181,254559,1,0,0:0:0:0:
268,229,254608,1,0,0:0:0:0:
365,210,254705,1,0,0:0:0:0:
342,197,254900,1,0,0:0:0:0:
82,135,255046,1,0,0:0:0:0:
82,135,255143,1,0,0:0:0:0:
82,135,255290,1,0,0:0:0:0:
82,135,255436,1,0,0:0:0:0:
82,135,255533,1,0,0:0:0:0:
82,135,255630,1,0,0:0:0:0:
82,135,255679,1,0,0:0:0:0:
82,135,255777,1,0,0:0:0:0:
48,185,256020,1,0,0:0:0:0:
336,198,256166,1,0,0:0:0:0:
306,148,256361,1,0,0:0:0:0:
326,240,256507,1,0,0:0:0:0:
239,178,256702,1,0,0:0:0:0:
82,135,256848,1,0,0:0:0:0:
82,135,256994,1,0,0:0:0:0:
82,135,257189,1,0,0:0:0:0:
82,135,257286,1,0,0:0:0:0:
82,135,257335,1,0,0:0:0:0:
82,135,257384,1,0,0:0:0:0:
82,135,257481,1,0,0:0:0:0:
82,135,257579,1,0,0:0:0:0:
355,129,257725,1,0,0:0:0:0:
327,282,257919,1,0,0:0:0:0:
366,111,258066,1,0,0:0:0:0:
316,176,258212,1,0,0:0:0:0:
237,183,258358,1,0,0:0:0:0:
311,137,258553,1,0,0:0:0:0:
289,169,258699,1,0,0:0:0:0:
281,175,258796,1,0,0:0:0:0:
281,177,258942,1,0,0:0:0:0:
265,190,259088,1,0,0:0:0:0:
266,191,259186,1,0,0:0:0:0:
266,191,259283,1,0,0:0:0:0:
268,194,259380,1,0,0:0:0:0:
268,193,259527,1,0,0:0:0:0:
10,115,259721,1,0,0:0:0:0:
177,124,259770,1,0,0:0:0:0:
177,124,259867,1,0,0:0:0:0:
177,124,259965,1,0,0:0:0:0:
177,124,260014,1,0,0:0:0:0:
177,124,260111,1,0,0:0:0:0:
177,124,260160,1,0,0:0:0:0:
177,124,260257,1,0,0:0:0:0:
177,124,260355,1,0,0:0:0:0:
177,124,260452,1,0,0:0:0:0:
177,124,260501,1,0,0:0:0:0:
177,124,260647,1,0,0:0:0:0:
177,124,260744,1,0,0:0:0:0:
177,124,260842,1,0,0:0:0:0:
208,117,260939,1,0,0:0:0:0:
242,110,260988,1,0,0:0:0:0:
242,110,261036,1,0,0:0:0:0:
242,110,261134,1,0,0:0:0:0:
266,103,261231,1,0,0:0:0:0:
321,107,261329,1,0,0:0:0:0:
336,124,261426,1,0,0:0:0:0:
345,136,261475,1,0,0:0:0:0:
339,148,261572,1,0,0:0:0:0:
271,177,261718,1,0,0:0:0:0:
239,186,261864,1,0,0:0:0:0:
240,199,261962,1,0,0:0:0:0:
247,203,262010,1,0,0:0:0:0:
262,204,262059,1,0,0:0:0:0:
295,177,262156,1,0,0:0:0:0:
297,151,262254,1,0,0:0:0:0:
283,143,262351,1,0,0:0:0:0:
227,127,262449,1,0,0:0:0:0:
227,127,262595,1,0,0:0:0:0:
217,107,262643,1,0,0:0:0:0:
230,81,262741,1,0,0:0:0:0:
268,72,262838,1,0,0:0:0:0:
297,80,262887,1,0,0:0:0:0:
299,94,262936,1,0,0:0:0:0:
277,138,263033,1,0,0:0:0:0:
270,142,263082,1,0,0:0:0:0:
210,166,263179,1,0,0:0:0:0:
196,176,263228,1,0,0:0:0:0:
186,194,263277,1,0,0:0:0:0:
215,248,263374,1,0,0:0:0:0:
247,237,263423,1,0,0:0:0:0:
285,124,263666,1,0,0:0:0:0:
217,107,263715,1,0,0:0:0:0:
85,104,263812,1,0,0:0:0:0:
80,68,263958,1,0,0:0:0:0:
124,41,264007,1,0,0:0:0:0:
313,165,264251,1,0,0:0:0:0:
98,154,264543,1,0,0:0:0:0:
98,154,264640,1,0,0:0:0:0:
98,154,264738,1,0,0:0:0:0:
111,151,264786,1,0,0:0:0:0:
137,149,264884,1,0,0:0:0:0:
165,146,264932,1,0,0:0:0:0:
179,143,265030,1,0,0:0:0:0:
179,143,265079,1,0,0:0:0:0:
183,143,265176,1,0,0:0:0:0:
183,143,265225,1,0,0:0:0:0:
146,143,265322,1,0,0:0:0:0:
274,168,265517,1,0,0:0:0:0:
339,212,265858,5,0,0:0:0:0:
302,257,266101,5,0,0:0:0:0:
249,260,266345,5,0,0:0:0:0:
208,198,266588,5,0,0:0:0:0:
211,142,266832,5,0,0:0:0:0:
232,114,267027,1,0,0:0:0:0:
240,108,267124,1,0,0:0:0:0:
242,107,267173,1,0,0:0:0:0:
248,106,267221,1,0,0:0:0:0:
233,170,267367,1,0,0:0:0:0:
246,141,267757,1,0,0:0:0:0:
246,141,268098,1,0,0:0:0:0:
235,128,268488,1,0,0:0:0:0:
233,170,268731,1,0,0:0:0:0:
236,137,269023,1,0,0:0:0:0:
233,170,269316,1,0,0:0:0:0:
200,141,269559,1,0,0:0:0:0:
243,69,269851,1,0,0:0:0:0:
310,201,270192,1,0,0:0:0:0:
154,227,270484,1,0,0:0:0:0:
194,67,270777,1,0,0:0:0:0:
240,201,271020,1,0,0:0:0:0:
119,220,271264,1,0,0:0:0:0:
162,90,271410,1,0,0:0:0:0:
163,193,271605,1,0,0:0:0:0:
178,70,271799,1,0,0:0:0:0:
140,180,271994,1,0,0:0:0:0:
88,52,272140,1,0,0:0:0:0:
168,129,272335,1,0,0:0:0:0:
148,88,272530,1,0,0:0:0:0:
215,158,272773,1,0,0:0:0:0:
93,159,272968,1,0,0:0:0:0:
199,107,273163,1,0,0:0:0:0:
172,163,273358,1,0,0:0:0:0:
134,68,273553,1,0,0:0:0:0:
168,190,273747,1,0,0:0:0:0:
106,114,273942,1,0,0:0:0:0:
269,125,274137,1,0,0:0:0:0:
162,195,274380,1,0,0:0:0:0:
179,81,274527,1,0,0:0:0:0:
189,189,274770,1,0,0:0:0:0:
245,46,274965,1,0,0:0:0:0:
277,206,275160,1,0,0:0:0:0:
162,152,275355,1,0,0:0:0:0:
248,69,275549,1,0,0:0:0:0:
257,195,275744,1,0,0:0:0:0:
146,154,276036,1,0,0:0:0:0:
146,154,276182,1,0,0:0:0:0:
146,154,276231,1,0,0:0:0:0:
146,154,276329,1,0,0:0:0:0:
369,132,276426,1,0,0:0:0:0:
323,162,276475,1,0,0:0:0:0:
293,216,276669,1,0,0:0:0:0:
247,115,276864,1,0,0:0:0:0:
248,238,277059,1,0,0:0:0:0:
164,163,277254,1,0,0:0:0:0:
222,182,277449,1,0,0:0:0:0:
143,206,277643,1,0,0:0:0:0:
241,144,277838,1,0,0:0:0:0:
133,213,278082,1,0,0:0:0:0:
175,127,278277,1,0,0:0:0:0:
229,157,278325,1,0,0:0:0:0:
167,272,278520,1,0,0:0:0:0:
200,146,278666,1,0,0:0:0:0:
217,165,278812,1,0,0:0:0:0:
226,149,278910,1,0,0:0:0:0:
263,108,279056,1,0,0:0:0:0:
263,108,279153,1,0,0:0:0:0:
266,103,279251,1,0,0:0:0:0:
282,98,279494,1,0,0:0:0:0:
195,235,279689,1,0,0:0:0:0:
226,103,279884,1,0,0:0:0:0:
288,144,280079,1,0,0:0:0:0:
220,137,280273,1,0,0:0:0:0:
268,153,280468,1,0,0:0:0:0:
67,212,280663,1,0,0:0:0:0:
226,147,280906,1,0,0:0:0:0:
124,181,281101,1,0,0:0:0:0:
342,96,281296,1,0,0:0:0:0:
98,159,281540,1,0,0:0:0:0:
147,141,281832,1,0,0:0:0:0:
147,141,281978,1,0,0:0:0:0:
147,141,282075,1,0,0:0:0:0:
147,141,282173,1,0,0:0:0:0:
153,111,282270,1,0,0:0:0:0:
119,230,282465,1,0,0:0:0:0:
67,137,282611,1,0,0:0:0:0:
177,142,282806,1,0,0:0:0:0:
127,184,283001,1,0,0:0:0:0:
131,171,283195,1,0,0:0:0:0:
59,195,283390,1,0,0:0:0:0:
115,129,283536,1,0,0:0:0:0:
129,136,283780,1,0,0:0:0:0:
130,135,283829,1,0,0:0:0:0:
149,125,283926,1,0,0:0:0:0:
154,120,284023,1,0,0:0:0:0:
147,141,284267,1,0,0:0:0:0:
120,191,284364,1,0,0:0:0:0:
281,127,284705,1,0,0:0:0:0:
184,138,284803,1,0,0:0:0:0:
144,212,284997,1,0,0:0:0:0:
184,138,285290,1,0,0:0:0:0:
184,138,285484,1,0,0:0:0:0:
184,138,285582,1,0,0:0:0:0:
184,138,285728,1,0,0:0:0:0:
184,138,285777,1,0,0:0:0:0:
184,138,285825,1,0,0:0:0:0:
184,138,285923,1,0,0:0:0:0:
69,132,286020,1,0,0:0:0:0:
82,197,286166,1,0,0:0:0:0:
83,162,286361,1,0,0:0:0:0:
153,170,286507,1,0,0:0:0:0:
102,187,286702,1,0,0:0:0:0:
156,137,286897,1,0,0:0:0:0:
172,131,287043,1,0,0:0:0:0:
234,132,287238,1,0,0:0:0:0:
234,132,287286,1,0,0:0:0:0:
243,140,287384,1,0,0:0:0:0:
243,140,287432,1,0,0:0:0:0:
242,148,287481,1,0,0:0:0:0:
223,156,287579,1,0,0:0:0:0:
198,210,287773,1,0,0:0:0:0:
218,100,287968,1,0,0:0:0:0:
208,168,288163,1,0,0:0:0:0:
376,170,288358,5,0,0:0:0:0:
203,195,288553,1,0,0:0:0:0:
242,164,288699,1,0,0:0:0:0:
130,113,288991,1,0,0:0:0:0:
130,113,289088,1,0,0:0:0:0:
213,228,289332,1,0,0:0:0:0:
197,204,289478,1,0,0:0:0:0:
228,160,289624,1,0,0:0:0:0:
188,175,289819,1,0,0:0:0:0:
188,175,289965,1,0,0:0:0:0:
189,170,290111,1,0,0:0:0:0:
191,161,290208,1,0,0:0:0:0:
193,152,290355,1,0,0:0:0:0:
130,106,290452,1,0,0:0:0:0:
130,106,290598,1,0,0:0:0:0:
130,106,290744,1,0,0:0:0:0:
130,106,290890,1,0,0:0:0:0:
130,106,291036,1,0,0:0:0:0:
230,79,291182,1,0,0:0:0:0:
268,78,291329,1,0,0:0:0:0:
293,102,291475,1,0,0:0:0:0:
264,131,291621,1,0,0:0:0:0:
197,149,291816,1,0,0:0:0:0:
174,224,291962,1,0,0:0:0:0:
254,219,292108,1,0,0:0:0:0:
269,155,292303,1,0,0:0:0:0:
214,58,292497,1,0,0:0:0:0:
214,58,292790,1,0,0:0:0:0:
214,58,292838,1,0,0:0:0:0:
263,197,292887,1,0,0:0:0:0:
107,215,293082,1,0,0:0:0:0:
173,78,293277,1,0,0:0:0:0:
201,192,293423,1,0,0:0:0:0:
65,190,293617,1,0,0:0:0:0:
185,150,293812,1,0,0:0:0:0:
185,188,294007,1,0,0:0:0:0:
221,77,294202,1,0,0:0:0:0:
221,77,294348,1,0,0:0:0:0:
265,187,294494,1,0,0:0:0:0:
237,243,294640,1,0,0:0:0:0:
221,77,294738,1,0,0:0:0:0:
74,140,294835,1,0,0:0:0:0:
221,77,294932,1,0,0:0:0:0:
221,77,295030,1,0,0:0:0:0:
221,77,295176,1,0,0:0:0:0:
221,77,295322,1,0,0:0:0:0:
221,77,295468,1,0,0:0:0:0:
145,90,295614,1,0,0:0:0:0:
222,108,295760,1,0,0:0:0:0:
267,175,295955,1,0,0:0:0:0:
182,212,296101,1,0,0:0:0:0:
136,88,296296,1,0,0:0:0:0:
232,114,296491,1,0,0:0:0:0:
239,195,296686,1,0,0:0:0:0:
63,199,296832,1,0,0:0:0:0:
237,67,297075,1,0,0:0:0:0:
213,164,297221,1,0,0:0:0:0:
115,108,297416,1,0,0:0:0:0:
215,73,297562,1,0,0:0:0:0:
233,158,297757,1,0,0:0:0:0:
190,108,297952,1,0,0:0:0:0:
312,95,298147,1,0,0:0:0:0:
217,155,298342,1,0,0:0:0:0:
150,61,298488,1,0,0:0:0:0:
275,79,298682,1,0,0:0:0:0:
194,126,298877,1,0,0:0:0:0:
223,97,299023,1,0,0:0:0:0:
137,142,299218,1,0,0:0:0:0:
286,67,299413,1,0,0:0:0:0:
285,159,299559,1,0,0:0:0:0:
192,94,299754,1,0,0:0:0:0:
154,92,299900,1,0,0:0:0:0:
154,92,300046,1,0,0:0:0:0:
154,92,300192,1,0,0:0:0:0:
154,92,300290,1,0,0:0:0:0:
154,92,300338,1,0,0:0:0:0:
154,92,300484,1,0,0:0:0:0:
154,92,300533,1,0,0:0:0:0:
158,86,300630,1,0,0:0:0:0:
168,79,300679,1,0,0:0:0:0:
168,79,300777,1,0,0:0:0:0:
168,79,300825,1,0,0:0:0:0:
201,74,300971,1,0,0:0:0:0:
269,79,301117,1,0,0:0:0:0:
276,80,301264,1,0,0:0:0:0:
282,82,301361,1,0,0:0:0:0:
282,82,301458,1,0,0:0:0:0:
276,92,301605,1,0,0:0:0:0:
204,128,301751,1,0,0:0:0:0:
178,149,301897,1,0,0:0:0:0:
171,171,302043,1,0,0:0:0:0:
239,181,302189,1,0,0:0:0:0:
264,126,302384,1,0,0:0:0:0:
138,89,302676,1,0,0:0:0:0:
187,51,302822,1,0,0:0:0:0:
100,100,303163,1,0,0:0:0:0:
204,97,303455,1,0,0:0:0:0:
241,210,303699,1,0,0:0:0:0:
88,149,303991,1,0,0:0:0:0:
192,62,304332,1,0,0:0:0:0:
212,192,304478,1,0,0:0:0:0:
82,132,304624,1,0,0:0:0:0:
169,94,304819,1,0,0:0:0:0:
190,204,305062,1,0,0:0:0:0:
69,103,305208,1,0,0:0:0:0:
171,61,305403,1,0,0:0:0:0:
7,97,305744,1,0,0:0:0:0:
182,102,305890,1,0,0:0:0:0:
170,189,306085,1,0,0:0:0:0:
37,78,306523,1,0,0:0:0:0:
169,63,306864,1,0,0:0:0:0:
126,251,307010,1,0,0:0:0:0:
102,78,307254,1,0,0:0:0:0:
77,136,307449,1,0,0:0:0:0:
65,109,307643,1,0,0:0:0:0:
83,158,307838,1,0,0:0:0:0:
108,98,307984,1,0,0:0:0:0:
119,116,308130,1,0,0:0:0:0:
140,84,308277,1,0,0:0:0:0:
173,64,308423,1,0,0:0:0:0:
220,38,308569,1,0,0:0:0:0:
229,41,308666,1,0,0:0:0:0:
235,71,308715,1,0,0:0:0:0:
229,91,308812,1,0,0:0:0:0:
103,149,309007,1,0,0:0:0:0:
243,106,309153,1,0,0:0:0:0:
266,98,309299,1,0,0:0:0:0:
159,184,309543,1,0,0:0:0:0:
206,158,309738,1,0,0:0:0:0:
277,128,309884,1,0,0:0:0:0:
184,211,310030,1,0,0:0:0:0:
178,217,310127,1,0,0:0:0:0:
283,159,310322,1,0,0:0:0:0:
210,219,310517,1,0,0:0:0:0:
326,169,310712,1,0,0:0:0:0:
221,214,310906,1,0,0:0:0:0:
254,189,311101,1,0,0:0:0:0:
223,149,311296,1,0,0:0:0:0:
77,141,311491,1,0,0:0:0:0:
177,86,311637,1,0,0:0:0:0:
196,96,311832,1,0,0:0:0:0:
113,136,312027,1,0,0:0:0:0:
203,160,312221,1,0,0:0:0:0:
218,91,312416,1,0,0:0:0:0:
218,91,312562,1,0,0:0:0:0:
221,86,312660,1,0,0:0:0:0:
221,86,312806,1,0,0:0:0:0:
221,86,312903,1,0,0:0:0:0:
221,86,313049,1,0,0:0:0:0:
221,86,313147,1,0,0:0:0:0:
159,146,313293,1,0,0:0:0:0:
188,125,313488,1,0,0:0:0:0:
194,120,313536,1,0,0:0:0:0:
211,112,313634,1,0,0:0:0:0:
214,109,313682,1,0,0:0:0:0:
228,103,313731,1,0,0:0:0:0:
233,101,313780,1,0,0:0:0:0:
244,99,313877,1,0,0:0:0:0:
246,99,313926,1,0,0:0:0:0:
257,107,314072,1,0,0:0:0:0:
260,111,314169,1,0,0:0:0:0:
252,128,314316,1,0,0:0:0:0:
251,130,314413,1,0,0:0:0:0:
245,139,314559,1,0,0:0:0:0:
235,152,314705,1,0,0:0:0:0:
253,193,314949,1,0,0:0:0:0:
265,187,315095,1,0,0:0:0:0:
270,172,315241,1,0,0:0:0:0:
266,163,315338,1,0,0:0:0:0:
260,141,315484,1,0,0:0:0:0:
253,126,315533,1,0,0:0:0:0:
246,118,315582,1,0,0:0:0:0:
291,92,315777,1,0,0:0:0:0:
277,89,316020,1,0,0:0:0:0:
279,96,316117,1,0,0:0:0:0:
257,119,316264,1,0,0:0:0:0:
257,119,316312,1,0,0:0:0:0:
251,129,316361,1,0,0:0:0:0:
236,146,316458,1,0,0:0:0:0:
211,179,316702,1,0,0:0:0:0:
204,191,316799,1,0,0:0:0:0:
204,193,316897,1,0,0:0:0:0:
203,201,317043,1,0,0:0:0:0:
218,207,317189,1,0,0:0:0:0:
228,203,317238,1,0,0:0:0:0:
231,201,317335,1,0,0:0:0:0:
251,180,317432,1,0,0:0:0:0:
152,136,317627,1,0,0:0:0:0:
148,126,317773,1,0,0:0:0:0:
152,94,317919,1,0,0:0:0:0:
186,68,318114,1,0,0:0:0:0:
242,76,318260,1,0,0:0:0:0:
245,91,318406,1,0,0:0:0:0:
224,112,318504,1,0,0:0:0:0:
418,126,318553,1,0,0:0:0:0:
418,126,318845,1,0,0:0:0:0:
162,189,318942,1,0,0:0:0:0:
182,198,318991,1,0,0:0:0:0:
216,181,319137,1,0,0:0:0:0:
205,166,319186,1,0,0:0:0:0:
204,164,319380,1,0,0:0:0:0:
252,132,319527,1,0,0:0:0:0:
196,74,319770,1,0,0:0:0:0:
187,70,319819,1,0,0:0:0:0:
185,66,319965,1,0,0:0:0:0:
238,45,320111,1,0,0:0:0:0:
418,126,320355,1,0,0:0:0:0:
418,126,320501,1,0,0:0:0:0:
418,126,320598,1,0,0:0:0:0:
292,137,320647,1,0,0:0:0:0:
418,126,320988,1,0,0:0:0:0:
418,126,321134,1,0,0:0:0:0:
130,170,321231,1,0,0:0:0:0:
418,126,321280,1,0,0:0:0:0:
126,91,321475,1,0,0:0:0:0:
130,79,321572,1,0,0:0:0:0:
157,56,321816,1,0,0:0:0:0:
157,56,321864,1,0,0:0:0:0:
162,56,321913,1,0,0:0:0:0:
164,56,321962,1,0,0:0:0:0:
171,56,322059,1,0,0:0:0:0:
176,59,322108,1,0,0:0:0:0:
178,60,322205,1,0,0:0:0:0:
177,68,322303,1,0,0:0:0:0:
169,83,322400,1,0,0:0:0:0:
155,99,322546,1,0,0:0:0:0:
151,107,322692,1,0,0:0:0:0:
151,107,322790,1,0,0:0:0:0:
150,109,322887,1,0,0:0:0:0:
149,116,322984,1,0,0:0:0:0:
148,121,323130,1,0,0:0:0:0:
148,121,323179,1,0,0:0:0:0:
148,121,323228,1,0,0:0:0:0:
149,123,323325,1,0,0:0:0:0:
152,124,323374,1,0,0:0:0:0:
167,124,323520,1,0,0:0:0:0:
187,112,323666,1,0,0:0:0:0:
195,98,323861,1,0,0:0:0:0:
204,88,324007,1,0,0:0:0:0:
224,74,324105,1,0,0:0:0:0:
252,74,324251,1,0,0:0:0:0:
252,84,324397,1,0,0:0:0:0:
243,94,324592,1,0,0:0:0:0:
237,96,324640,1,0,0:0:0:0:
229,98,324738,1,0,0:0:0:0:
162,149,324932,1,0,0:0:0:0:
260,148,325614,1,0,0:0:0:0:
139,153,326199,1,0,0:0:0:0:
254,148,327173,1,0,0:0:0:0:
139,143,328390,1,0,0:0:0:0:
419,123,329072,1,0,0:0:0:0:
419,123,329169,1,0,0:0:0:0:
228,157,329608,1,0,0:0:0:0:
419,123,329851,1,0,0:0:0:0:
419,123,329997,1,0,0:0:0:0:
419,123,330143,1,0,0:0:0:0:
142,148,330484,1,0,0:0:0:0:
143,133,330630,1,0,0:0:0:0:
155,97,330728,1,0,0:0:0:0:
159,91,330777,1,0,0:0:0:0:
178,69,330923,1,0,0:0:0:0:
192,60,330971,1,0,0:0:0:0:
201,56,331020,1,0,0:0:0:0:
207,59,331166,1,0,0:0:0:0:
212,66,331264,1,0,0:0:0:0:
206,79,331312,1,0,0:0:0:0:
189,98,331458,1,0,0:0:0:0:
182,104,331507,1,0,0:0:0:0:
172,114,331605,1,0,0:0:0:0:
168,134,331653,1,0,0:0:0:0:
419,123,331751,1,0,0:0:0:0:
419,123,331848,1,0,0:0:0:0:
419,123,331994,1,0,0:0:0:0:
419,123,332140,1,0,0:0:0:0:
419,123,332286,1,0,0:0:0:0:
419,123,332432,1,0,0:0:0:0:
419,123,332579,1,0,0:0:0:0:
351,113,332725,1,0,0:0:0:0:
275,108,332919,1,0,0:0:0:0:
275,108,333066,1,0,0:0:0:0:
142,78,333212,1,0,0:0:0:0:
155,72,333358,1,0,0:0:0:0:
250,80,333504,1,0,0:0:0:0:
