osu file format v14

[General]
AudioFilename: audio.mp3
AudioLeadIn: 0
PreviewTime: -1
Countdown: 1
SampleSet: None
StackLeniency: 0.7
Mode: 0
LetterboxInBreaks: 0
WidescreenStoryboard: 0

[Editor]
DistanceSpacing: 1.7
BeatDivisor: 4
GridSize: 16
TimelineZoom: 1

[Metadata]
Title:The Solace of Oblivion
TitleUnicode:The Solace of Oblivion
Artist:Helblinde
ArtistUnicode:Helblinde
Creator:CanDyFloS
Version:Soulace of oblivion
Source:
Tags:
BeatmapID:1591937
BeatmapSetID:756534

[Difficulty]
HPDrainRate:5
CircleSize:5
OverallDifficulty:10
ApproachRate:10
SliderMultiplier:3.59999990463257
SliderTickRate:4

[Events]
//Background and Video events
//Break Periods
//Storyboard Layer 0 (Background)
//Storyboard Layer 1 (Fail)
//Storyboard Layer 2 (Pass)
//Storyboard Layer 3 (Foreground)
//Storyboard Sound Samples

[TimingPoints]
-73.3321333075177,189.334174818555,4,2,0,100,1,0

[HitObjects]
144,256,21,6,0,P|192:64|400:336,1,719.999980926514
143,240,826,1,0,0:0:0:0:
65,155,1062,1,0,0:0:0:0:
105,124,1252,1,0,0:0:0:0:
128,125,1394,1,0,0:0:0:0:
384,192,1488,2,0,B|176:224|176:224|160:48|160:48|400:16|400:16|400:208|400:208|192:352,1,989.999973773957
112,224,2151,2,0,L|192:144,65,89.9999976158143
123,72,5654,1,0,0:0:0:0:
164,34,5890,1,0,0:0:0:0:
176,37,6080,1,0,0:0:0:0:
181,51,6316,1,0,0:0:0:0:
185,77,6458,1,0,0:0:0:0:
166,110,6695,1,0,0:0:0:0:
230,118,6932,1,0,0:0:0:0:
249,113,7168,1,0,0:0:0:0:
250,113,7358,1,0,0:0:0:0:
178,109,7547,1,0,0:0:0:0:
232,63,7831,1,0,0:0:0:0:
224,160,8162,1,0,0:0:0:0:
224,160,8352,1,0,0:0:0:0:
224,112,8494,1,0,0:0:0:0:
224,96,8636,1,0,0:0:0:0:
192,112,8778,1,0,0:0:0:0:
192,144,8920,1,0,0:0:0:0:
208,160,9062,1,0,0:0:0:0:
208,144,9346,1,0,0:0:0:0:
208,144,9488,1,0,0:0:0:0:
208,144,9535,1,0,0:0:0:0:
208,144,9630,1,0,0:0:0:0:
208,128,9724,1,0,0:0:0:0:
208,144,9914,1,0,0:0:0:0:
208,144,10008,1,0,0:0:0:0:
208,144,10056,1,0,0:0:0:0:
208,144,10150,1,0,0:0:0:0:
208,144,10340,1,0,0:0:0:0:
208,144,10482,1,0,0:0:0:0:
208,144,10813,5,0,0:0:0:0:
240,128,11050,5,0,0:0:0:0:
288,176,11192,1,0,0:0:0:0:
176,160,11381,1,0,0:0:0:0:
224,80,11570,1,0,0:0:0:0:
256,160,11760,1,0,0:0:0:0:
144,192,11996,1,0,0:0:0:0:
224,48,12186,1,0,0:0:0:0:
272,208,12375,1,0,0:0:0:0:
16,208,12659,1,0,0:0:0:0:
208,112,12848,1,0,0:0:0:0:
240,112,13038,1,0,0:0:0:0:
272,144,13180,5,0,0:0:0:0:
272,160,13369,1,0,0:0:0:0:
240,208,13558,5,0,0:0:0:0:
208,176,13795,5,0,0:0:0:0:
208,128,14032,5,0,0:0:0:0:
176,128,14221,5,0,0:0:0:0:
176,144,14410,5,0,0:0:0:0:
160,192,14600,5,0,0:0:0:0:
224,208,14836,5,0,0:0:0:0:
208,160,15073,5,0,0:0:0:0:
144,224,15404,1,0,0:0:0:0:
208,112,15641,1,0,0:0:0:0:
304,224,15878,1,0,0:0:0:0:
144,224,16114,1,0,0:0:0:0:
192,112,16351,1,0,0:0:0:0:
272,176,16540,1,0,0:0:0:0:
160,224,16777,1,0,0:0:0:0:
192,128,17014,1,0,0:0:0:0:
256,192,17392,1,0,0:0:0:0:
208,224,17629,1,0,0:0:0:0:
208,208,17866,1,0,0:0:0:0:
192,176,18102,1,0,0:0:0:0:
192,144,18339,1,0,0:0:0:0:
208,128,18481,1,0,0:0:0:0:
224,112,18718,1,0,0:0:0:0:
256,128,18907,1,0,0:0:0:0:
272,144,19096,1,0,0:0:0:0:
256,160,19286,1,0,0:0:0:0:
192,144,19712,1,0,0:0:0:0:
176,176,20280,1,0,0:0:0:0:
224,208,20848,1,0,0:0:0:0:
372,234,21936,1,0,0:0:0:0:
207,160,22552,1,0,0:0:0:0:
391,217,23214,1,0,0:0:0:0:
131,121,23498,1,0,0:0:0:0:
362,197,23782,1,0,0:0:0:0:
129,149,24066,1,0,0:0:0:0:
351,189,24398,1,0,0:0:0:0:
166,154,24966,1,0,0:0:0:0:
366,217,25676,1,0,0:0:0:0:
181,157,26291,1,0,0:0:0:0:
364,235,26859,1,0,0:0:0:0:
364,235,26906,1,0,0:0:0:0:
145,156,27190,1,0,0:0:0:0:
315,250,27522,1,0,0:0:0:0:
114,174,27758,1,0,0:0:0:0:
293,263,28090,1,0,0:0:0:0:
157,175,28942,1,0,0:0:0:0:
138,236,29036,2,0,L|234:123,24,89.9999976158143
323,183,29226,1,0,0:0:0:0:
189,258,29888,1,0,0:0:0:0:
368,166,30504,1,0,0:0:0:0:
189,231,31498,1,0,0:0:0:0:
115,153,31782,1,0,0:0:0:0:
264,249,32539,1,0,0:0:0:0:
144,163,33154,1,0,0:0:0:0:
279,250,33912,1,0,0:0:0:0:
156,169,34196,1,0,0:0:0:0:
279,250,34574,1,0,0:0:0:0:
128,167,34811,1,0,0:0:0:0:
238,232,35048,1,0,0:0:0:0:
202,193,35284,1,0,0:0:0:0:
182,177,35521,1,0,0:0:0:0:
238,232,35710,1,0,0:0:0:0:
151,165,35947,1,0,0:0:0:0:
280,250,36278,1,0,0:0:0:0:
157,168,36515,1,0,0:0:0:0:
257,232,36894,1,0,0:0:0:0:
133,173,37225,1,0,0:0:0:0:
303,286,37509,1,0,0:0:0:0:
142,175,37746,1,0,0:0:0:0:
282,272,37982,1,0,0:0:0:0:
142,166,38266,1,0,0:0:0:0:
311,286,38550,1,0,0:0:0:0:
157,181,38787,1,0,0:0:0:0:
248,213,39024,1,0,0:0:0:0:
245,197,39166,1,0,0:0:0:0:
251,178,39355,1,0,0:0:0:0:
256,158,39497,1,0,0:0:0:0:
266,163,39828,1,0,0:0:0:0:
209,175,39876,1,0,0:0:0:0:
199,204,40018,1,0,0:0:0:0:
226,224,40160,1,0,0:0:0:0:
239,207,40302,1,0,0:0:0:0:
217,147,40491,1,0,0:0:0:0:
217,147,40586,1,0,0:0:0:0:
242,119,40870,1,0,0:0:0:0:
287,165,41106,1,0,0:0:0:0:
256,173,41248,1,0,0:0:0:0:
221,197,41438,1,0,0:0:0:0:
250,235,41580,1,0,0:0:0:0:
215,185,41769,1,0,0:0:0:0:
246,138,42053,5,0,0:0:0:0:
271,147,42195,1,0,0:0:0:0:
269,120,42621,1,0,0:0:0:0:
320,171,42810,1,0,0:0:0:0:
252,202,43047,1,0,0:0:0:0:
209,124,43284,1,0,0:0:0:0:
296,153,43520,1,0,0:0:0:0:
246,225,43662,1,0,0:0:0:0:
208,171,43899,1,0,0:0:0:0:
233,143,44136,1,0,0:0:0:0:
272,158,44278,1,0,0:0:0:0:
206,277,44609,2,0,B|211:58|212:62|212:62|429:56|429:62|429:57|428:57|427:278|384:281|297:283|253:268|208:258|206:258,1,719.999980926514
171,143,45461,1,0,0:0:0:0:
230,152,45650,1,0,0:0:0:0:
279,197,45840,1,0,0:0:0:0:
212,228,46029,1,0,0:0:0:0:
251,254,46266,1,0,0:0:0:0:
190,175,46502,1,0,0:0:0:0:
222,124,46786,1,0,0:0:0:0:
288,214,47118,1,0,0:0:0:0:
308,116,47449,1,0,0:0:0:0:
331,189,47733,1,0,0:0:0:0:
221,177,47970,1,0,0:0:0:0:
217,152,48206,1,0,0:0:0:0:
220,124,48443,1,0,0:0:0:0:
220,124,48632,1,0,0:0:0:0:
225,123,48822,1,0,0:0:0:0:
217,152,49011,1,0,0:0:0:0:
227,191,49295,1,0,0:0:0:0:
243,117,49626,1,0,0:0:0:0:
293,194,49910,1,0,0:0:0:0:
274,131,50242,1,0,0:0:0:0:
213,183,50526,1,0,0:0:0:0:
202,139,50857,1,0,0:0:0:0:
249,137,51094,1,0,0:0:0:0:
275,137,51283,1,0,0:0:0:0:
289,174,51472,1,0,0:0:0:0:
265,193,51662,1,0,0:0:0:0:
223,228,51898,1,0,0:0:0:0:
242,181,52324,1,0,0:0:0:0:
235,143,52656,1,0,0:0:0:0:
280,144,52940,1,0,0:0:0:0:
257,212,53176,1,0,0:0:0:0:
139,191,53460,1,0,0:0:0:0:
226,106,53744,1,0,0:0:0:0:
289,155,54028,1,0,0:0:0:0:
228,201,54360,1,0,0:0:0:0:
211,174,54502,1,0,0:0:0:0:
208,147,54738,1,0,0:0:0:0:
217,128,54880,1,0,0:0:0:0:
293,132,55259,1,0,0:0:0:0:
297,158,55448,1,0,0:0:0:0:
282,193,55638,1,0,0:0:0:0:
213,216,55969,1,0,0:0:0:0:
177,167,56206,1,0,0:0:0:0:
185,131,56395,1,0,0:0:0:0:
260,105,56726,1,0,0:0:0:0:
252,143,56916,1,0,0:0:0:0:
215,189,57152,1,0,0:0:0:0:
149,129,57484,1,0,0:0:0:0:
217,90,57768,1,0,0:0:0:0:
223,179,58004,1,0,0:0:0:0:
197,175,58194,1,0,0:0:0:0:
197,175,58383,1,0,0:0:0:0:
168,130,58572,1,0,0:0:0:0:
178,118,58904,1,0,0:0:0:0:
200,89,59046,1,0,0:0:0:0:
231,160,59235,1,0,0:0:0:0:
151,157,59424,1,0,0:0:0:0:
146,135,59614,1,0,0:0:0:0:
225,130,59756,1,0,0:0:0:0:
199,207,59945,1,0,0:0:0:0:
134,136,60182,1,0,0:0:0:0:
213,159,60324,1,0,0:0:0:0:
169,218,60513,1,0,0:0:0:0:
231,325,60750,2,0,B|178:55|189:46|329:83|439:86|439:86|447:318|350:317|352:317|49:285|49:285|62:47|62:47|309:24|309:24|477:258,1,1709.99995470047
149,153,65341,1,0,0:0:0:0:
239,162,65530,1,0,0:0:0:0:
148,86,65767,1,0,0:0:0:0:
257,111,65956,1,0,0:0:0:0:
234,197,66098,1,0,0:0:0:0:
122,115,66288,1,0,0:0:0:0:
