osu file format v14

[General]
AudioFilename: audio.mp3
AudioLeadIn: 0
PreviewTime: 110100
Countdown: 0
SampleSet: Soft
StackLeniency: 0.7
Mode: 0
LetterboxInBreaks: 0
WidescreenStoryboard: 0

[Editor]
Bookmarks: 9600,28800,43200,52800,73200,84000,99600,111600,135600,164400,188400,214800,217500,236400,246000,270000,289200
DistanceSpacing: 1
BeatDivisor: 4
GridSize: 32
TimelineZoom: 1.7

[Metadata]
Title:Summer Triangle
TitleUnicode:Summer Triangle
Artist:Helblinde
ArtistUnicode:Helblinde
Creator:Kantzm8
Version:Summer
Source:
Tags:Kimi no Shiranai Monogatari remix DnB
BeatmapID:1129492
BeatmapSetID:533132

[Difficulty]
HPDrainRate:6
CircleSize:4
OverallDifficulty:9.3
ApproachRate:9.5
SliderMultiplier:1.1
SliderTickRate:1

[Events]
//Background and Video events
0,0,"wallhaven-214156.jpg",0,0
//Break Periods
2,185300,187275
2,207800,209475
//Storyboard Layer 0 (Background)
//Storyboard Layer 1 (Fail)
//Storyboard Layer 2 (Pass)
//Storyboard Layer 3 (Foreground)
//Storyboard Sound Samples

[TimingPoints]
0,300,4,2,1,20,1,0
4425,-100,4,2,1,5,0,0
4840,300,4,2,1,20,1,0
4840,-100,4,2,1,20,0,0
7165,-100,4,2,1,5,0,0
7240,-100,4,2,1,20,0,0
7765,-100,4,2,1,5,0,0
7840,-100,4,2,1,20,0,0
9600,300,4,2,1,20,1,0
9600,-58.8235294117647,4,2,1,40,0,0
28800,-54.054054054054,4,2,1,60,0,0
32625,-54.054054054054,4,2,1,5,0,0
32700,-54.054054054054,4,2,1,60,0,0
32925,-54.054054054054,4,2,1,5,0,0
33000,-54.054054054054,4,2,1,60,0,0
33225,-54.054054054054,4,2,1,5,0,0
33300,-54.054054054054,4,2,1,60,0,0
33525,-54.054054054054,4,2,1,5,0,0
33600,-54.054054054054,4,2,1,60,0,0
38400,-66.6666666666667,4,2,1,70,0,0
39450,-66.6666666666667,4,2,1,5,0,0
39600,-66.6666666666667,4,2,1,70,0,0
39900,-66.6666666666667,4,2,1,5,0,0
40050,-66.6666666666667,4,2,1,70,0,0
40350,-66.6666666666667,4,2,1,5,0,0
40500,-66.6666666666667,4,2,1,70,0,0
40650,-66.6666666666667,4,2,1,5,0,0
40800,-66.6666666666667,4,2,1,70,0,0
41550,-66.6666666666667,4,2,1,5,0,0
41700,-66.6666666666667,4,2,1,70,0,0
43200,-62.5,4,2,1,40,0,0
50400,-66.6666666666667,4,2,1,40,0,0
52800,-58.8235294117647,4,2,1,50,0,0
62400,-58.8235294117647,4,2,1,10,0,0
62550,-58.8235294117647,4,2,1,20,0,0
62700,-58.8235294117647,4,2,1,30,0,0
62850,-58.8235294117647,4,2,1,40,0,0
63000,-58.8235294117647,4,2,1,50,0,0
63150,-58.8235294117647,4,2,1,60,0,0
63300,-58.8235294117647,4,2,1,70,0,0
63450,-58.8235294117647,4,2,1,80,0,0
63600,-58.8235294117647,4,2,1,40,0,0
64800,-71.4285714285714,4,2,1,30,0,0
72900,-100,4,2,1,30,0,0
73200,-133.333333333333,4,2,1,30,0,0
74400,-133.333333333333,4,2,1,15,0,0
77700,-133.333333333333,4,2,1,5,0,0
78000,-133.333333333333,4,2,1,15,0,0
80400,-133.333333333333,4,2,1,5,0,0
81000,-133.333333333333,4,2,1,20,0,0
84000,-58.8235294117647,4,2,1,30,0,0
85200,-58.8235294117647,4,2,1,40,0,0
86400,-58.8235294117647,4,2,1,55,0,0
87600,-58.8235294117647,4,2,1,70,0,0
93600,-100,4,2,1,70,0,0
93750,-100,4,2,1,60,0,0
93900,-100,4,2,1,50,0,0
94050,-100,4,2,1,40,0,0
94200,-100,4,2,1,30,0,0
94350,-100,4,2,1,20,0,0
94500,-100,4,2,1,10,0,0
94650,-100,4,2,1,5,0,0
99600,-58.8235294117647,4,2,1,50,0,0
106800,-58.8235294117647,4,2,1,60,0,0
110100,-83.3333333333333,4,2,1,20,0,0
111600,-52.6315789473684,4,2,1,100,0,1
111750,-52.6315789473684,4,2,1,80,0,1
112800,-52.6315789473684,4,2,1,100,0,1
112950,-52.6315789473684,4,2,1,80,0,1
114000,-52.6315789473684,4,2,1,100,0,1
114150,-52.6315789473684,4,2,1,80,0,1
115200,-52.6315789473684,4,2,1,100,0,1
115350,-52.6315789473684,4,2,1,80,0,1
116400,-52.6315789473684,4,2,1,100,0,1
116550,-52.6315789473684,4,2,1,80,0,1
117600,-52.6315789473684,4,2,1,90,0,1
117750,-52.6315789473684,4,2,1,80,0,1
118800,-52.6315789473684,4,2,1,100,0,1
118950,-52.6315789473684,4,2,1,80,0,1
120000,-52.6315789473684,4,2,1,100,0,1
120150,-52.6315789473684,4,2,1,80,0,1
121200,-52.6315789473684,4,2,1,100,0,1
121350,-52.6315789473684,4,2,1,80,0,1
122400,-52.6315789473684,4,2,1,100,0,1
122550,-52.6315789473684,4,2,1,80,0,1
123600,-52.6315789473684,4,2,1,100,0,1
123750,-52.6315789473684,4,2,1,80,0,1
124800,-52.6315789473684,4,2,1,100,0,1
124950,-52.6315789473684,4,2,1,80,0,1
126000,-52.6315789473684,4,2,1,100,0,1
126150,-52.6315789473684,4,2,1,80,0,1
127200,-52.6315789473684,4,2,1,100,0,1
127350,-52.6315789473684,4,2,1,80,0,1
128400,-52.6315789473684,4,2,1,100,0,1
128550,-52.6315789473684,4,2,1,80,0,1
129600,-52.6315789473684,4,2,1,100,0,1
129750,-52.6315789473684,4,2,1,80,0,1
130800,-52.6315789473684,4,2,1,100,0,1
130950,-52.6315789473684,4,2,1,85,0,1
132000,-52.6315789473684,4,2,1,90,0,1
133200,-52.6315789473684,4,2,1,95,0,1
133500,-52.6315789473684,4,2,1,97,0,1
133800,-52.6315789473684,4,2,1,99,0,1
134400,-52.6315789473684,4,2,1,100,0,1
135600,-58.8235294117647,4,2,1,40,0,0
147600,-50,4,2,2,60,0,0
150000,-58.8235294117647,4,2,1,40,0,0
152400,-50,4,2,2,60,0,0
154800,-58.8235294117647,4,2,1,40,0,0
156000,-58.8235294117647,4,2,1,50,0,0
158400,-58.8235294117647,4,2,1,60,0,0
159600,-58.8235294117647,4,2,1,65,0,0
160800,-58.8235294117647,4,2,1,70,0,0
162000,-58.8235294117647,4,2,1,75,0,0
163200,-58.8235294117647,4,2,1,50,0,0
163350,-58.8235294117647,4,2,1,40,0,0
163500,-58.8235294117647,4,2,1,30,0,0
164400,-55.5555555555556,4,2,1,50,0,0
174000,-55.5555555555556,4,2,1,60,0,0
185100,-55.5555555555556,4,2,1,5,0,0
187800,-50,4,2,2,50,0,0
188400,-76.9230769230769,4,2,1,20,0,0
196800,-76.9230769230769,4,2,1,40,0,0
198000,-66.6666666666667,4,2,1,50,0,0
207600,-66.6666666666667,4,2,1,70,0,0
213300,-66.6666666666667,4,2,1,5,0,0
213600,-58.8235294117647,4,2,1,70,0,0
217500,-58.8235294117647,4,2,1,50,0,0
226800,-58.8235294117647,4,2,1,80,0,0
227100,-58.8235294117647,4,2,1,65,0,0
244800,-58.8235294117647,4,2,1,80,0,0
245700,-58.8235294117647,4,2,1,100,0,0
246000,-52.6315789473684,4,2,1,100,0,1
246150,-52.6315789473684,4,2,1,80,0,1
247200,-52.6315789473684,4,2,1,100,0,1
247350,-52.6315789473684,4,2,1,80,0,1
248400,-52.6315789473684,4,2,1,100,0,1
248550,-52.6315789473684,4,2,1,80,0,1
249600,-52.6315789473684,4,2,1,100,0,1
249750,-52.6315789473684,4,2,1,80,0,1
250800,-52.6315789473684,4,2,1,100,0,1
250950,-52.6315789473684,4,2,1,80,0,1
252000,-52.6315789473684,4,2,1,100,0,1
252150,-52.6315789473684,4,2,1,80,0,1
253200,-52.6315789473684,4,2,1,100,0,1
253347,-52.6315789473684,4,2,1,80,0,1
254400,-52.6315789473684,4,2,1,100,0,1
254550,-52.6315789473684,4,2,1,80,0,1
255600,-52.6315789473684,4,2,1,100,0,1
255750,-52.6315789473684,4,2,1,80,0,1
256800,-52.6315789473684,4,2,1,90,0,1
257400,-52.6315789473684,4,2,1,100,0,1
258000,-52.6315789473684,4,2,1,90,0,1
259200,-58.8235294117647,4,2,1,70,0,0
260400,-58.8235294117647,4,2,1,50,0,0
289200,-58.8235294117647,4,2,1,40,0,0
302700,-58.8235294117647,4,2,1,45,0,0
303300,-58.8235294117647,4,2,1,50,0,0
303900,-58.8235294117647,4,2,1,55,0,0
304500,-58.8235294117647,4,2,1,60,0,0
305100,-58.8235294117647,4,2,1,65,0,0
305700,-58.8235294117647,4,2,1,70,0,0
306300,-58.8235294117647,4,2,1,75,0,0

[HitObjects]
256,192,0,12,0,4425,0:0:0:0:
160,116,4840,6,0,B|216:88|272:156|388:116,2,220
160,116,6640,2,0,P|160:220|176:312,1,192.5
196,328,7240,2,0,P|300:328|392:312,1,192.5
400,288,7840,2,0,P|400:184|384:92,1,192.5
372,72,8440,6,0,P|340:68|308:72,1,55
152,108,8740,2,0,P|148:140|152:172,1,55
288,284,9040,2,0,P|320:288|352:284,1,55
372,72,9340,2,0,P|340:68|308:72,1,55
150,162,9600,6,0,P|210:170|270:154,1,93.500001783371,8|0,0:0|0:0,0:0:0:0:
372,72,9900,1,2,0:0:0:0:
440,164,10050,1,2,0:0:0:0:
458,206,10125,1,0,0:0:0:0:
453,252,10200,1,8,0:0:0:0:
426,289,10275,1,0,0:0:0:0:
383,307,10350,1,2,0:0:0:0:
204,292,10500,1,2,0:0:0:0:
340,208,10650,1,0,0:0:0:0:
340,208,10725,1,0,0:0:0:0:
340,208,10800,5,8,0:0:0:0:
156,228,10950,1,0,0:0:0:0:
383,307,11100,1,2,0:0:0:0:
244,216,11250,1,2,0:0:0:0:
224,176,11325,1,0,0:0:0:0:
236,132,11400,1,8,0:0:0:0:
272,100,11475,1,0,0:0:0:0:
320,104,11550,1,2,0:0:0:0:
244,216,11700,1,2,0:0:0:0:
264,256,11775,1,0,0:0:0:0:
252,300,11850,1,2,0:0:0:0:
216,332,11925,1,0,0:0:0:0:
168,328,12000,6,0,L|64:318,1,93.500001783371,8|0,0:0|0:0,0:0:0:0:
264,256,12300,2,0,L|368:266,1,93.500001783371,2|0,0:0|0:0,0:0:0:0:
236,132,12600,2,0,L|246:28,1,93.500001783371,8|0,0:0|0:0,0:0:0:0:
264,256,12900,2,0,L|254:360,1,93.500001783371,2|0,0:0|0:0,0:0:0:0:
148,136,13200,6,0,P|96:152|148:184,1,140.250002675057,8|0,0:0|0:0,0:0:0:0:
216,184,13500,1,2,0:0:0:0:
168,328,13650,2,0,L|64:318,1,93.500001783371,0|8,0:0|0:0,0:0:0:0:
357,264,13950,1,0,0:0:0:0:
148,136,14100,1,8,0:0:0:0:
148,136,14400,5,8,0:0:0:0:
296,84,14550,1,0,0:0:0:0:
92,240,14700,1,2,0:0:0:0:
220,324,14850,1,2,0:0:0:0:
264,340,14925,1,0,0:0:0:0:
312,344,15000,1,8,0:0:0:0:
360,336,15075,1,0,0:0:0:0:
404,320,15150,1,2,0:0:0:0:
296,84,15300,1,2,0:0:0:0:
148,136,15450,1,0,0:0:0:0:
151,139,15525,1,0,0:0:0:0:
154,142,15600,5,8,0:0:0:0:
276,300,15750,1,0,0:0:0:0:
296,84,15900,1,2,0:0:0:0:
368,204,16050,1,2,0:0:0:0:
388,248,16125,1,0,0:0:0:0:
368,292,16200,1,8,0:0:0:0:
324,308,16275,1,0,0:0:0:0:
276,300,16350,1,2,0:0:0:0:
204,180,16500,1,2,0:0:0:0:
184,136,16575,1,0,0:0:0:0:
204,92,16650,1,2,0:0:0:0:
248,76,16725,1,0,0:0:0:0:
296,84,16800,5,8,0:0:0:0:
436,140,16950,1,0,0:0:0:0:
184,136,17100,1,2,0:0:0:0:
276,300,17250,1,2,0:0:0:0:
324,308,17325,1,0,0:0:0:0:
368,292,17400,1,8,0:0:0:0:
388,248,17475,1,0,0:0:0:0:
368,204,17550,1,2,0:0:0:0:
204,92,17700,1,2,0:0:0:0:
112,208,17850,1,0,0:0:0:0:
112,208,17925,1,0,0:0:0:0:
112,208,18000,5,8,0:0:0:0:
180,348,18150,1,0,0:0:0:0:
368,204,18300,1,2,0:0:0:0:
240,120,18450,1,2,0:0:0:0:
204,92,18525,1,0,0:0:0:0:
160,104,18600,1,8,0:0:0:0:
120,80,18675,1,0,0:0:0:0:
112,36,18750,1,2,0:0:0:0:
240,120,18900,1,2,0:0:0:0:
276,148,18975,1,0,0:0:0:0:
320,136,19050,1,2,0:0:0:0:
360,160,19125,1,0,0:0:0:0:
368,204,19200,6,0,P|376:252|368:312,1,93.500001783371,8|0,0:0|0:0,0:0:0:0:
240,120,19500,2,0,P|232:72|240:12,1,93.500001783371,2|0,0:0|0:0,0:0:0:0:
360,160,19800,2,0,P|408:152|468:160,1,93.500001783371,8|0,0:0|0:0,0:0:0:0:
316,344,20100,2,0,P|268:352|208:344,1,93.500001783371,2|0,0:0|0:0,0:0:0:0:
132,192,20400,6,0,P|104:239|164:227,1,140.250002675057,8|0,0:0|0:0,0:0:0:0:
214,180,20700,1,2,0:0:0:0:
376,284,20850,2,0,P|424:292|484:284,1,93.500001783371,2|8,0:0|0:0,0:0:0:0:
372,112,21150,1,0,0:0:0:0:
223,348,21300,1,8,0:0:0:0:
223,348,21600,5,8,0:0:0:0:
272,128,21750,1,0,0:0:0:0:
376,284,21900,1,2,0:0:0:0:
208,244,22050,1,2,0:0:0:0:
164,228,22125,1,0,0:0:0:0:
132,192,22200,1,8,0:0:0:0:
128,144,22275,1,0,0:0:0:0:
148,100,22350,1,2,0:0:0:0:
300,260,22500,1,2,0:0:0:0:
488,148,22650,1,0,0:0:0:0:
488,148,22725,1,0,0:0:0:0:
488,148,22800,5,8,0:0:0:0:
376,284,22950,1,0,0:0:0:0:
308,60,23100,1,2,0:0:0:0:
208,244,23250,1,2,0:0:0:0:
252,264,23325,1,0,0:0:0:0:
300,260,23400,1,8,0:0:0:0:
324,220,23475,1,0,0:0:0:0:
368,204,23550,1,2,0:0:0:0:
308,60,23700,1,2,0:0:0:0:
264,40,23775,1,0,0:0:0:0:
216,44,23850,1,2,0:0:0:0:
192,84,23925,1,0,0:0:0:0:
148,100,24000,5,8,0:0:0:0:
104,240,24150,1,0,0:0:0:0:
368,204,24300,1,2,0:0:0:0:
260,280,24450,1,2,0:0:0:0:
220,288,24525,1,0,0:0:0:0:
180,280,24600,1,8,0:0:0:0:
140,268,24675,1,0,0:0:0:0:
104,240,24750,1,2,0:0:0:0:
264,40,24900,1,2,0:0:0:0:
400,132,25050,1,0,0:0:0:0:
400,132,25125,1,0,0:0:0:0:
400,132,25200,5,8,0:0:0:0:
260,280,25350,1,0,0:0:0:0:
264,40,25500,1,2,0:0:0:0:
216,196,25650,1,2,0:0:0:0:
232,240,25725,1,0,0:0:0:0:
260,280,25800,1,8,0:0:0:0:
292,312,25875,1,0,0:0:0:0:
328,340,25950,1,2,0:0:0:0:
260,180,26100,1,2,0:0:0:0:
216,196,26175,1,0,0:0:0:0:
176,224,26250,1,2,0:0:0:0:
144,256,26325,1,0,0:0:0:0:
116,292,26400,6,0,P|72:304|12:301,1,93.500001783371,8|0,0:0|0:0,0:0:0:0:
52,160,26700,2,0,P|96:148|156:151,1,93.500001783371,2|0,0:0|0:0,0:0:0:0:
328,128,27000,2,0,P|340:172|337:232,1,93.500001783371,8|0,0:0|0:0,0:0:0:0:
196,332,27300,2,0,P|184:288|187:228,1,93.500001783371,2|0,0:0|0:0,0:0:0:0:
342,292,27600,6,0,P|370:339|310:327,1,140.250002675057,8|0,0:0|0:0,0:0:0:0:
260,280,27900,1,2,0:0:0:0:
207,102,28050,2,0,P|151:94|99:106,1,93.500001783371,0|8,0:0|0:0,0:0:0:0:
60,200,28350,1,0,0:0:0:0:
260,280,28500,1,8,0:0:0:0:
260,280,28800,6,0,L|400:280,1,101.749999611855,8|0,0:0|0:0,0:0:0:0:
161,200,29100,2,0,L|21:200,1,101.749999611855,8|0,0:0|0:0,0:0:0:0:
361,280,29400,2,0,L|501:280,1,101.749999611855,8|0,0:0|0:0,0:0:0:0:
262,200,29700,2,0,L|122:200,1,101.749999611855,8|0,0:0|0:0,0:0:0:0:
356,180,30000,6,0,P|368:232|356:292,1,101.749999611855,8|0,0:0|0:0,0:0:0:0:
160,200,30300,2,0,P|148:148|160:88,1,101.749999611855,8|0,0:0|0:0,0:0:0:0:
360,279,30600,2,0,P|308:291|248:279,1,101.749999611855,8|0,0:0|0:0,0:0:0:0:
155,100,30900,2,0,P|207:88|267:100,1,101.749999611855,8|0,0:0|0:0,0:0:0:0:
260,283,31200,6,0,B|208:291|208:291|132:279,1,101.749999611855,8|0,0:0|0:0,0:0:0:0:
254,95,31500,2,0,B|306:87|306:87|382:99,1,101.749999611855,8|0,0:0|0:0,0:0:0:0:
155,200,31800,2,0,B|147:148|147:148|159:72,1,101.749999611855,8|0,0:0|0:0,0:0:0:0:
354,94,32100,2,0,B|362:146|362:146|350:222,1,101.749999611855,8|0,0:0|0:0,0:0:0:0:
294,364,32400,6,0,P|215:365|138:350,1,152.624999417782,8|0,0:0|0:0,0:0:0:0:
142,351,32700,2,0,P|140:272|155:195,1,152.624999417782,8|0,0:0|0:0,0:0:0:0:
154,199,33000,2,0,P|232:197|309:212,1,152.624999417782,8|0,0:0|0:0,0:0:0:0:
305,211,33300,2,0,P|306:289|291:366,1,152.624999417782,8|0,0:0|0:0,0:0:0:0:
292,362,33600,6,0,L|412:362,1,101.749999611855,8|0,0:0|0:0,0:0:0:0:
305,211,33900,2,0,L|185:211,1,101.749999611855,8|0,0:0|0:0,0:0:0:0:
393,362,34200,2,0,L|513:362,1,101.749999611855,8|0,0:0|0:0,0:0:0:0:
324,288,34500,2,0,L|204:288,1,101.749999611855,8|0,0:0|0:0,0:0:0:0:
208,111,34800,6,0,P|196:163|208:223,1,101.749999611855,8|0,0:0|0:0,0:0:0:0:
293,351,35100,2,0,P|345:363|405:351,1,101.749999611855,8|0,0:0|0:0,0:0:0:0:
307,115,35400,2,0,P|255:103|195:115,1,101.749999611855,8|0,0:0|0:0,0:0:0:0:
324,288,35700,2,0,P|336:236|324:176,1,101.749999611855,8|0,0:0|0:0,0:0:0:0:
124,128,36000,5,8,0:0:0:0:
224,244,36150,1,2,0:0:0:0:
84,328,36300,1,8,0:0:0:0:
324,288,36450,2,0,P|376:300|436:288,1,101.749999611855,8|0,0:0|0:0,0:0:0:0:
388,140,36750,1,2,0:0:0:0:
224,244,36900,1,8,0:0:0:0:
176,68,37050,6,0,P|124:52|68:72,1,101.749999611855,8|0,0:0|0:0,0:0:0:0:
81,204,37350,1,0,0:0:0:0:
286,313,37500,1,8,0:0:0:0:
177,169,37650,2,0,L|175:55,1,101.749999611855,8|0,0:0|0:0,0:0:0:0:
388,140,37950,2,0,L|500:140,1,101.749999611855,8|2,0:0|0:0,0:0:0:0:
84,56,38400,6,0,B|84:164|84:164|180:108|264:192|389:139|389:139|356:228|392:296|392:296,1,577.500022029878,8|0,0:0|0:0,0:0:0:0:
284,328,39600,6,0,B|240:296|192:348|104:328,1,165.000006294251,8|0,0:0|0:0,0:0:0:0:
196,224,40050,2,0,B|240:192|288:244|376:224,1,165.000006294251,8|0,0:0|0:0,0:0:0:0:
228,296,40500,2,0,P|180:300|144:284,1,82.5000031471254,8|0,0:0|0:0,0:0:0:0:
56,160,40800,6,0,B|56:96|56:96|124:40|206:100|296:156|416:84,1,412.500015735627,8|0,0:0|0:0,0:0:0:0:
468,204,41700,1,0,0:0:0:0:
468,204,42000,6,0,L|416:204,1,41.2500015735627,2|0,0:0|0:0,0:0:0:0:
426,204,42300,2,0,L|374:204,1,41.2500015735627,2|0,0:0|0:0,0:0:0:0:
304,208,42600,6,0,L|252:208,1,41.2500015735627,2|0,0:0|0:0,0:0:0:0:
262,208,42750,2,0,L|210:208,1,41.2500015735627,2|0,0:0|0:0,0:0:0:0:
220,208,42900,2,0,L|168:208,1,41.2500015735627,2|0,0:0|0:0,0:0:0:0:
178,208,43050,2,0,L|126:208,1,41.2500015735627,2|0,0:0|0:0,0:0:0:0:
136,208,43200,6,0,L|20:208,1,88,10|0,0:0|0:0,0:0:0:0:
132,128,43500,1,2,0:0:0:0:
176,284,43650,1,0,0:0:0:0:
208,100,43800,2,0,P|176:64|132:48,1,88,8|0,0:0|0:0,0:0:0:0:
136,208,44100,1,2,0:0:0:0:
268,272,44250,1,0,0:0:0:0:
132,128,44400,6,0,P|84:120|32:132,1,88,8|0,0:0|0:0,0:0:0:0:
136,312,44700,1,2,0:0:0:0:
240,132,44850,1,0,0:0:0:0:
76,260,45000,2,0,P|60:324|88:372,1,88,8|0,0:0|0:0,0:0:0:0:
232,352,45300,1,2,0:0:0:0:
136,208,45450,1,0,0:0:0:0:
360,244,45600,6,0,P|412:252|472:232,1,88,8|0,0:0|0:0,0:0:0:0:
323,141,45900,2,0,P|259:125|211:153,1,88,2|0,0:0|0:0,0:0:0:0:
136,208,46200,1,8,0:0:0:0:
232,352,46350,1,0,0:0:0:0:
276,200,46500,1,2,0:0:0:0:
104,300,46650,1,0,0:0:0:0:
190,110,46800,6,0,L|199:10,1,88,8|0,0:0|0:0,0:0:0:0:
60,152,47100,1,2,0:0:0:0:
292,200,47250,1,8,0:0:0:0:
292,200,47550,1,8,0:0:0:0:
111,212,47700,2,0,L|102:312,1,88,2|0,0:0|0:0,0:0:0:0:
60,152,48000,6,0,P|124:136|172:164,1,88,8|0,0:0|0:0,0:0:0:0:
292,200,48300,1,2,0:0:0:0:
112,212,48450,1,0,0:0:0:0:
352,148,48600,2,0,P|368:212|340:260,1,88,8|0,0:0|0:0,0:0:0:0:
232,360,48900,1,2,0:0:0:0:
292,200,49050,1,0,0:0:0:0:
52,261,49200,6,0,P|36:197|64:149,1,88,8|0,0:0|0:0,0:0:0:0:
176,80,49500,1,2,0:0:0:0:
112,212,49650,1,0,0:0:0:0:
244,260,49800,2,0,P|308:276|356:248,1,88,8|0,0:0|0:0,0:0:0:0:
456,172,50100,1,2,0:0:0:0:
292,200,50250,1,0,0:0:0:0:
112,212,50400,6,0,P|39:172|103:142,2,165.000006294251,8|2|8,0:0|0:0|0:0,0:0:0:0:
292,200,51150,1,0,0:0:0:0:
387,37,51300,1,0,0:0:0:0:
375,203,51450,1,0,0:0:0:0:
160,143,51600,6,0,L|44:132,1,82.5000031471254,8|0,0:0|0:0,0:0:0:0:
208,280,51900,2,0,L|323:290,1,82.5000031471254,2|0,0:0|0:0,0:0:0:0:
160,143,52200,2,0,L|169:35,1,82.5000031471254,8|0,0:0|0:0,0:0:0:0:
208,280,52500,2,0,L|198:387,1,82.5000031471254,2|0,0:0|0:0,0:0:0:0:
268,224,52800,5,8,0:0:0:0:
128,324,52950,1,0,0:0:0:0:
160,143,53100,1,2,0:0:0:0:
302,96,53250,1,2,0:0:0:0:
346,108,53325,1,0,0:0:0:0:
378,140,53400,1,8,0:0:0:0:
398,180,53475,1,0,0:0:0:0:
398,228,53550,1,2,0:0:0:0:
128,324,53700,1,2,0:0:0:0:
292,348,53850,1,0,0:0:0:0:
160,143,54000,5,8,0:0:0:0:
216,260,54150,1,0,0:0:0:0:
160,56,54300,1,2,0:0:0:0:
340,84,54450,1,2,0:0:0:0:
368,120,54525,1,0,0:0:0:0:
392,160,54600,1,8,0:0:0:0:
364,196,54675,1,0,0:0:0:0:
380,240,54750,1,2,0:0:0:0:
200,212,54900,1,2,0:0:0:0:
172,176,54975,1,0,0:0:0:0:
148,136,55050,1,2,0:0:0:0:
176,100,55125,1,0,0:0:0:0:
160,56,55200,5,8,0:0:0:0:
36,156,55350,1,0,0:0:0:0:
200,212,55500,2,0,P|256:220|316:208,1,93.500001783371,2|0,0:0|0:0,0:0:0:0:
444,100,55800,1,8,0:0:0:0:
444,100,55875,1,0,0:0:0:0:
444,100,55950,1,0,0:0:0:0:
360,296,56100,1,2,0:0:0:0:
456,224,56250,1,0,0:0:0:0:
200,212,56400,5,8,0:0:0:0:
340,136,56550,1,0,0:0:0:0:
252,272,56700,2,0,P|188:288|136:256,1,93.500001783371,2|0,0:0|0:0,0:0:0:0:
28,144,57000,1,8,0:0:0:0:
200,212,57150,1,0,0:0:0:0:
32,56,57300,1,2,0:0:0:0:
88,288,57450,1,0,0:0:0:0:
88,288,57525,1,0,0:0:0:0:
88,288,57600,5,8,0:0:0:0:
252,272,57750,1,0,0:0:0:0:
28,144,57900,1,2,0:0:0:0:
192,104,58050,1,0,0:0:0:0:
276,232,58200,1,8,0:0:0:0:
252,272,58275,1,0,0:0:0:0:
220,308,58350,1,2,0:0:0:0:
184,336,58425,1,0,0:0:0:0:
140,352,58500,1,2,0:0:0:0:
96,204,58650,1,0,0:0:0:0:
352,284,58800,5,8,0:0:0:0:
192,104,58950,1,0,0:0:0:0:
220,308,59100,1,2,0:0:0:0:
80,248,59250,1,2,0:0:0:0:
96,204,59325,1,0,0:0:0:0:
116,160,59400,1,8,0:0:0:0:
152,128,59475,1,0,0:0:0:0:
192,104,59550,1,2,0:0:0:0:
292,188,59700,1,2,0:0:0:0:
276,232,59775,1,0,0:0:0:0:
256,276,59850,1,2,0:0:0:0:
220,308,59925,1,0,0:0:0:0:
180,332,60000,5,8,0:0:0:0:
32,232,60150,1,0,0:0:0:0:
236,120,60300,1,2,0:0:0:0:
180,332,60450,1,0,0:0:0:0:
124,168,60600,1,8,0:0:0:0:
124,168,60675,1,0,0:0:0:0:
124,168,60750,1,0,0:0:0:0:
272,276,60900,1,2,0:0:0:0:
124,168,61050,1,0,0:0:0:0:
124,168,61125,1,0,0:0:0:0:
124,168,61200,6,0,L|4:168,1,93.500001783371,8|0,0:0|0:0,0:0:0:0:
272,276,61500,1,2,0:0:0:0:
236,120,61650,1,0,0:0:0:0:
172,312,61800,1,8,0:0:0:0:
44,240,61950,1,0,0:0:0:0:
224,208,62100,1,2,0:0:0:0:
268,196,62175,1,0,0:0:0:0:
316,196,62250,1,2,0:0:0:0:
360,212,62325,1,0,0:0:0:0:
400,232,62400,5,2,0:0:0:0:
340,304,62550,1,2,0:0:0:0:
340,304,62700,1,0,0:0:0:0:
268,196,62850,1,2,0:0:0:0:
164,324,63000,1,2,0:0:0:0:
104,152,63150,1,2,0:0:0:0:
73,349,63300,1,2,0:0:0:0:
360,212,63450,1,2,0:0:0:0:
208,104,63600,5,8,0:0:0:0:
208,104,63675,1,0,0:0:0:0:
208,104,63750,1,2,0:0:0:0:
208,104,63825,1,0,0:0:0:0:
208,104,63900,1,8,0:0:0:0:
208,104,63975,1,0,0:0:0:0:
208,104,64050,1,2,0:0:0:0:
208,104,64125,1,0,0:0:0:0:
208,104,64200,1,8,0:0:0:0:
208,104,64275,1,0,0:0:0:0:
208,104,64350,1,2,0:0:0:0:
208,104,64425,1,0,0:0:0:0:
208,104,64500,1,8,0:0:0:0:
208,104,64575,1,0,0:0:0:0:
208,104,64650,1,2,0:0:0:0:
208,104,64725,1,0,0:0:0:0:
208,104,64800,6,0,L|280:180,1,76.9999976501466,8|0,0:0|0:0,0:0:0:0:
160,208,65100,2,0,L|88:284,1,76.9999976501466,2|0,0:0|0:0,0:0:0:0:
260,159,65400,2,0,L|372:159,1,76.9999976501466,8|0,0:0|0:0,0:0:0:0:
160,208,65700,2,0,L|48:208,1,76.9999976501466,2|0,0:0|0:0,0:0:0:0:
40,108,66000,1,8,0:0:0:0:
40,108,66300,6,0,P|84:104|140:112,1,76.9999976501466,2|0,0:0|0:0,0:0:0:0:
160,208,66600,2,0,P|164:252|156:308,1,76.9999976501466,8|0,0:0|0:0,0:0:0:0:
40,268,66900,2,0,P|36:224|44:168,1,76.9999976501466,2|0,0:0|0:0,0:0:0:0:
88,52,67200,6,0,P|152:52|180:44,1,76.9999976501466,8|0,0:0|0:0,0:0:0:0:
288,36,67500,2,0,P|288:100|280:128,1,76.9999976501466,2|0,0:0|0:0,0:0:0:0:
252,228,67800,2,0,P|316:228|344:220,1,76.9999976501466,8|0,0:0|0:0,0:0:0:0:
460,167,68100,2,0,P|400:79|268:35,1,230.99999295044,2|8,0:0|0:0,0:0:0:0:
176,32,68700,6,0,L|176:120,1,76.9999976501466,2|0,0:0|0:0,0:0:0:0:
240,204,69000,2,0,L|240:292,1,76.9999976501466,8|0,0:0|0:0,0:0:0:0:
140,348,69300,1,2,0:0:0:0:
140,348,69600,2,0,B|88:328|44:348|44:348|129:274|129:274|116:224|136:164|136:164|44:104|44:104|100:120|168:84,1,538.999983551026,8|0,0:0|0:0,0:0:0:0:
232,184,70800,6,0,B|288:132|320:216|464:168,1,230.99999295044,8|0,0:0|0:0,0:0:0:0:
424,80,71400,2,0,B|368:28|336:112|192:64,1,230.99999295044,8|0,0:0|0:0,0:0:0:0:
104,32,72000,2,0,B|116:96|80:144|80:144|120:196|104:268,1,230.99999295044,8|0,0:0|0:0,0:0:0:0:
56,352,72600,1,8,0:0:0:0:
56,352,72900,6,0,L|132:352,1,55,2|0,0:0|0:0,0:0:0:0:
168,288,73200,2,0,L|268:288,1,82.5000031471254,2|0,0:0|0:0,0:0:0:0:
312,228,73650,2,0,L|400:228,1,82.5000031471254
396,144,74100,2,0,L|340:144,1,41.2500015735627,2|0,0:0|0:0,0:0:0:0:
160,128,74400,6,0,P|112:148|208:208,1,247.500009441376
304,140,75600,2,0,P|348:132|400:144,1,82.5000031471254
464,172,76050,2,0,P|472:216|460:268,1,82.5000031471254
292,336,76650,6,0,P|190:338|280:255,1,288.750011014939
392,128,78000,2,0,P|348:120|296:132,1,82.5000031471254
244,172,78450,2,0,P|200:180|148:168,1,82.5000031471254
163,174,79050,6,0,P|168:48|242:173,1,371.250014162064
88,228,81000,6,0,L|144:228,1,41.2500015735627
155,259,81300,2,0,L|211:259,1,41.2500015735627
226,230,81600,2,0,L|320:230,1,82.5000031471254
331,264,82050,2,0,L|387:264,1,41.2500015735627
332,112,82650,5,0,0:0:0:0:
272,56,82800,2,0,P|216:44|144:60,1,123.750004720688
64,92,83400,2,0,P|52:148|68:220,1,123.750004720688
256,312,84000,5,2,0:0:0:0:
256,312,84300,1,2,0:0:0:0:
256,312,84600,1,2,0:0:0:0:
256,312,84900,1,2,0:0:0:0:
320,92,85200,5,2,0:0:0:0:
320,92,85500,1,2,0:0:0:0:
320,92,85800,1,2,0:0:0:0:
320,92,86100,1,2,0:0:0:0:
112,192,86400,5,2,0:0:0:0:
112,192,86700,1,2,0:0:0:0:
112,192,87000,1,2,0:0:0:0:
112,192,87300,1,2,0:0:0:0:
376,256,87600,5,2,0:0:0:0:
376,256,87900,1,2,0:0:0:0:
376,256,88200,1,2,0:0:0:0:
376,256,88500,1,2,0:0:0:0:
156,136,88800,5,2,0:0:0:0:
156,136,89100,1,8,0:0:0:0:
328,76,89250,1,2,0:0:0:0:
200,252,89400,1,8,0:0:0:0:
124,48,89550,1,2,0:0:0:0:
276,208,89700,1,8,0:0:0:0:
68,144,89850,1,2,0:0:0:0:
420,96,90000,5,8,0:0:0:0:
420,96,90300,1,8,0:0:0:0:
276,208,90450,1,2,0:0:0:0:
340,40,90600,1,8,0:0:0:0:
416,256,90750,1,2,0:0:0:0:
236,56,90900,1,8,0:0:0:0:
480,188,91050,1,2,0:0:0:0:
152,264,91200,5,8,0:0:0:0:
108,284,91275,1,0,0:0:0:0:
64,268,91350,1,2,0:0:0:0:
48,224,91425,1,0,0:0:0:0:
64,180,91500,1,8,0:0:0:0:
100,148,91575,1,0,0:0:0:0:
144,164,91650,1,2,0:0:0:0:
188,176,91725,1,0,0:0:0:0:
232,164,91800,5,8,0:0:0:0:
268,136,91875,1,0,0:0:0:0:
296,96,91950,1,2,0:0:0:0:
340,76,92025,1,0,0:0:0:0:
388,80,92100,1,8,0:0:0:0:
424,112,92175,1,0,0:0:0:0:
424,160,92250,1,2,0:0:0:0:
396,196,92325,1,0,0:0:0:0:
352,216,92400,5,12,0:0:0:0:
352,216,92700,1,8,0:0:0:0:
308,232,92775,1,0,0:0:0:0:
276,264,92850,1,2,0:0:0:0:
256,308,92925,1,0,0:0:0:0:
224,340,93000,1,8,0:0:0:0:
176,336,93075,1,0,0:0:0:0:
144,304,93150,1,2,0:0:0:0:
156,260,93225,1,0,0:0:0:0:
192,228,93300,5,8,0:0:0:0:
196,180,93375,1,0,0:0:0:0:
176,136,93450,1,2,0:0:0:0:
140,104,93525,1,0,0:0:0:0:
100,76,93600,6,0,L|32:40,12,55,8|0|0|0|0|0|0|0|0|0|0|0|0,0:0|0:0|0:0|0:0|0:0|0:0|0:0|0:0|0:0|0:0|0:0|0:0|0:0,0:0:0:0:
256,192,96900,12,0,99300,0:0:0:0:
124,192,99600,6,0,P|176:196|228:188,1,93.500001783371,8|0,0:0|0:0,0:0:0:0:
356,128,99900,1,2,0:0:0:0:
176,32,100050,1,0,0:0:0:0:
124,192,100200,2,0,P|120:244|128:296,1,93.500001783371,8|0,0:0|0:0,0:0:0:0:
272,308,100500,1,2,0:0:0:0:
356,128,100650,1,0,0:0:0:0:
176,32,100800,6,0,P|180:84|172:136,1,93.500001783371,8|0,0:0|0:0,0:0:0:0:
136,296,101100,1,2,0:0:0:0:
256,156,101250,1,0,0:0:0:0:
76,200,101400,1,8,0:0:0:0:
76,200,101700,1,8,0:0:0:0:
76,200,102000,6,0,L|195:210,1,93.500001783371,8|0,0:0|0:0,0:0:0:0:
304,168,102300,1,2,0:0:0:0:
332,296,102450,1,0,0:0:0:0:
220,140,102600,1,8,0:0:0:0:
188,280,102750,1,0,0:0:0:0:
387,207,102900,1,2,0:0:0:0:
220,140,103050,1,0,0:0:0:0:
332,296,103200,6,0,L|451:306,1,93.500001783371,8|0,0:0|0:0,0:0:0:0:
387,207,103500,1,2,0:0:0:0:
220,140,103650,2,0,L|108:130,1,93.500001783371,0|8,0:0|0:0,0:0:0:0:
62,47,103950,1,8,0:0:0:0:
62,47,104250,1,8,0:0:0:0:
126,131,104400,6,8,L|220:140,1,93.500001783371,0|0,0:0|0:0,0:0:0:0:
344,56,104700,1,2,0:0:0:0:
296,272,104850,1,0,0:0:0:0:
135,224,105000,2,0,L|125:112,1,93.500001783371,8|0,0:0|0:0,0:0:0:0:
240,44,105300,1,2,0:0:0:0:
296,272,105450,1,0,0:0:0:0:
126,130,105600,6,0,L|32:121,1,93.500001783371,8|0,0:0|0:0,0:0:0:0:
208,264,105900,1,2,0:0:0:0:
264,68,106050,1,0,0:0:0:0:
296,272,106200,2,0,L|304:367,1,93.500001783371,8|0,0:0|0:0,0:0:0:0:
208,264,106500,2,0,L|199:168,1,93.500001783371,2|0,0:0|0:0,0:0:0:0:
264,68,106800,5,8,0:0:0:0:
316,48,106875,1,0,0:0:0:0:
372,48,106950,1,2,0:0:0:0:
424,72,107025,1,0,0:0:0:0:
440,124,107100,1,8,0:0:0:0:
420,176,107175,1,0,0:0:0:0:
389,223,107250,1,2,0:0:0:0:
399,278,107325,1,0,0:0:0:0:
428,325,107400,5,8,0:0:0:0:
376,348,107475,1,0,0:0:0:0:
320,356,107550,1,2,0:0:0:0:
264,344,107625,1,0,0:0:0:0:
212,324,107700,1,8,0:0:0:0:
156,324,107775,1,0,0:0:0:0:
100,332,107850,1,2,0:0:0:0:
56,300,107925,1,0,0:0:0:0:
41,245,108000,5,8,0:0:0:0:
93,224,108075,1,0,0:0:0:0:
148,218,108150,1,2,0:0:0:0:
200,238,108225,1,0,0:0:0:0:
252,258,108300,1,8,0:0:0:0:
308,250,108375,1,0,0:0:0:0:
324,198,108450,1,2,0:0:0:0:
312,142,108525,1,0,0:0:0:0:
276,102,108600,5,8,0:0:0:0:
220,94,108675,1,0,0:0:0:0:
168,114,108750,1,2,0:0:0:0:
140,162,108825,1,0,0:0:0:0:
148,218,108900,1,8,0:0:0:0:
140,274,108975,1,0,0:0:0:0:
100,310,109050,1,2,0:0:0:0:
48,290,109125,1,0,0:0:0:0:
56,234,109200,5,4,0:0:0:0:
272,144,110100,6,0,P|236:140|188:148,1,65.9999979858399
116,168,110400,2,0,P|104:232|120:304,1,131.99999597168
200,340,110850,2,0,P|264:352|336:336,1,131.99999597168
420,184,111300,1,8,0:0:0:0:
420,184,111600,6,0,L|288:184,1,104.499997209549,8|0,0:0|0:0,0:0:0:0:
112,108,111900,1,2,0:0:0:0:
208,260,112050,1,0,0:0:0:0:
204,52,112200,1,8,0:0:0:0:
88,192,112350,1,0,0:0:0:0:
300,44,112500,1,8,0:0:0:0:
112,108,112650,1,2,0:0:0:0:
284,236,112800,6,0,P|344:244|400:232,1,104.499997209549,8|0,0:0|0:0,0:0:0:0:
476,112,113100,1,2,0:0:0:0:
300,44,113250,1,0,0:0:0:0:
448,192,113400,1,8,0:0:0:0:
284,236,113550,1,0,0:0:0:0:
400,48,113700,1,8,0:0:0:0:
364,232,113850,1,2,0:0:0:0:
224,100,114000,6,0,P|164:92|108:104,1,104.499997209549,8|0,0:0|0:0,0:0:0:0:
88,288,114300,1,2,0:0:0:0:
200,184,114450,1,0,0:0:0:0:
248,348,114600,1,8,0:0:0:0:
104,192,114750,1,0,0:0:0:0:
336,140,114900,1,8,0:0:0:0:
216,260,115050,1,2,0:0:0:0:
412,200,115200,6,0,P|420:140|408:84,1,104.499997209549,8|0,0:0|0:0,0:0:0:0:
220,80,115500,1,2,0:0:0:0:
216,260,115650,1,0,0:0:0:0:
412,97,115800,1,8,0:0:0:0:
176,152,115950,1,0,0:0:0:0:
412,200,116100,1,8,0:0:0:0:
312,64,116250,1,2,0:0:0:0:
216,260,116400,6,0,P|208:320|220:376,1,104.499997209549,8|0,0:0|0:0,0:0:0:0:
416,348,116700,1,2,0:0:0:0:
220,264,116850,1,0,0:0:0:0:
412,200,117000,1,8,0:0:0:0:
316,348,117150,1,0,0:0:0:0:
240,144,117300,1,8,0:0:0:0:
180,356,117450,1,2,0:0:0:0:
412,200,117600,5,8,0:0:0:0:
220,264,117750,1,0,0:0:0:0:
424,304,117900,1,2,0:0:0:0:
180,356,118050,1,0,0:0:0:0:
240,144,118200,1,8,0:0:0:0:
316,348,118350,1,2,0:0:0:0:
332,140,118500,1,8,0:0:0:0:
424,304,118650,1,2,0:0:0:0:
212,64,118800,6,0,P|152:56|96:68,1,104.499997209549,8|0,0:0|0:0,0:0:0:0:
168,225,119100,1,2,0:0:0:0:
332,140,119250,1,0,0:0:0:0:
120,156,119400,1,8,0:0:0:0:
312,224,119550,1,0,0:0:0:0:
212,64,119700,1,8,0:0:0:0:
168,225,119850,1,2,0:0:0:0:
424,152,120000,6,0,P|432:92|420:36,1,104.499997209549,8|0,0:0|0:0,0:0:0:0:
212,64,120300,1,2,0:0:0:0:
312,224,120450,1,0,0:0:0:0:
308,48,120600,1,8,0:0:0:0:
168,225,120750,1,0,0:0:0:0:
344,136,120900,1,8,0:0:0:0:
108,160,121050,1,2,0:0:0:0:
300,320,121200,6,0,P|360:328|416:316,1,104.499997209549,8|0,0:0|0:0,0:0:0:0:
344,136,121500,1,2,0:0:0:0:
168,225,121650,1,0,0:0:0:0:
272,76,121800,1,8,0:0:0:0:
396,228,121950,1,0,0:0:0:0:
188,136,122100,1,8,0:0:0:0:
368,48,122250,1,2,0:0:0:0:
252,304,122400,6,0,P|192:312|136:300,1,104.499997209549,8|0,0:0|0:0,0:0:0:0:
188,136,122700,1,2,0:0:0:0:
396,228,122850,1,0,0:0:0:0:
252,304,123000,1,8,0:0:0:0:
288,144,123150,1,0,0:0:0:0:
388,348,123300,1,8,0:0:0:0:
160,296,123450,1,2,0:0:0:0:
380,140,123600,6,0,P|388:80|376:24,1,104.499997209549,8|0,0:0|0:0,0:0:0:0:
240,176,123900,1,2,0:0:0:0:
420,256,124050,1,0,0:0:0:0:
280,76,124200,1,8,0:0:0:0:
220,264,124350,1,0,0:0:0:0:
380,140,124500,1,8,0:0:0:0:
272,336,124650,1,2,0:0:0:0:
132,140,124800,6,0,P|124:80|136:24,1,104.499997209549,8|0,0:0|0:0,0:0:0:0:
272,172,125100,1,2,0:0:0:0:
184,328,125250,1,0,0:0:0:0:
132,140,125400,1,8,0:0:0:0:
252,256,125550,1,0,0:0:0:0:
36,184,125700,1,8,0:0:0:0:
216,96,125850,1,2,0:0:0:0:
400,248,126000,6,0,P|408:308|396:364,1,104.499997209549,8|0,0:0|0:0,0:0:0:0:
176,308,126300,1,2,0:0:0:0:
284,172,126450,1,0,0:0:0:0:
92,332,126600,1,8,0:0:0:0:
172,152,126750,1,0,0:0:0:0:
280,352,126900,1,8,0:0:0:0:
84,248,127050,1,2,0:0:0:0:
408,184,127200,6,0,P|416:124|404:68,1,104.499997209549,8|0,0:0|0:0,0:0:0:0:
172,152,127500,1,2,0:0:0:0:
356,268,127650,1,0,0:0:0:0:
244,84,127800,1,8,0:0:0:0:
196,260,127950,1,0,0:0:0:0:
408,184,128100,1,8,0:0:0:0:
172,152,128250,1,2,0:0:0:0:
316,344,128400,6,0,P|376:352|432:340,1,104.499997209549,8|0,0:0|0:0,0:0:0:0:
320,188,128700,1,2,0:0:0:0:
196,260,128850,1,0,0:0:0:0:
300,96,129000,1,8,0:0:0:0:
404,264,129150,1,0,0:0:0:0:
172,152,129300,1,8,0:0:0:0:
416,120,129450,1,2,0:0:0:0:
100,212,129600,6,0,P|92:272|104:328,1,104.499997209549,8|0,0:0|0:0,0:0:0:0:
308,232,129900,1,2,0:0:0:0:
172,152,130050,1,0,0:0:0:0:
344,52,130200,1,8,0:0:0:0:
228,240,130350,1,0,0:0:0:0:
416,120,130500,1,8,0:0:0:0:
376,292,130650,1,2,0:0:0:0:
92,172,130800,6,0,P|84:112|96:56,1,104.499997209549,8|2,0:0|0:0,0:0:0:0:
272,56,131100,1,8,0:0:0:0:
228,240,131250,1,2,0:0:0:0:
416,120,131400,1,8,0:0:0:0:
376,292,131550,1,2,0:0:0:0:
216,124,131700,1,8,0:0:0:0:
416,200,131850,1,2,0:0:0:0:
128,192,132000,5,8,0:0:0:0:
272,56,132150,1,2,0:0:0:0:
316,236,132300,1,8,0:0:0:0:
216,124,132450,1,2,0:0:0:0:
164,336,132600,1,8,0:0:0:0:
128,112,132750,1,2,0:0:0:0:
276,320,132900,1,8,0:0:0:0:
56,200,133050,1,2,0:0:0:0:
368,112,133200,5,8,0:0:0:0:
200,268,133350,1,2,0:0:0:0:
296,44,133500,1,8,0:0:0:0:
368,272,133650,1,2,0:0:0:0:
128,112,133800,1,8,0:0:0:0:
420,192,133950,1,2,0:0:0:0:
200,40,134100,1,8,0:0:0:0:
200,268,134250,1,2,0:0:0:0:
448,44,134400,5,8,0:0:0:0:
152,104,135600,6,0,P|208:96|264:108,1,93.500001783371,8|0,0:0|0:0,0:0:0:0:
376,144,135900,2,0,P|384:200|372:256,1,93.500001783371,2|0,0:0|0:0,0:0:0:0:
276,328,136200,2,0,P|220:336|164:324,1,93.500001783371,8|0,0:0|0:0,0:0:0:0:
72,204,136500,2,0,P|64:148|76:92,1,93.500001783371,2|0,0:0|0:0,0:0:0:0:
282,144,136800,6,0,L|390:144,1,93.500001783371,8|0,0:0|0:0,0:0:0:0:
165,204,137100,2,0,L|61:204,1,93.500001783371,2|0,0:0|0:0,0:0:0:0:
282,144,137400,2,0,L|282:28,1,93.500001783371,8|0,0:0|0:0,0:0:0:0:
165,204,137700,2,0,L|165:320,1,93.500001783371,2|0,0:0|0:0,0:0:0:0:
328,260,138000,6,0,B|384:268|384:268|440:256,1,93.500001783371,8|0,0:0|0:0,0:0:0:0:
282,144,138300,2,0,B|290:88|290:88|278:32,1,93.500001783371,2|0,0:0|0:0,0:0:0:0:
165,204,138600,2,0,B|109:196|109:196|53:208,1,93.500001783371,8|0,0:0|0:0,0:0:0:0:
328,260,138900,2,0,B|320:316|320:316|332:372,1,93.500001783371,2|0,0:0|0:0,0:0:0:0:
436,132,139200,5,8,0:0:0:0:
436,132,139500,2,0,L|320:132,1,93.500001783371,8|0,0:0|0:0,0:0:0:0:
208,168,139950,1,0,0:0:0:0:
208,168,140025,1,0,0:0:0:0:
208,168,140100,2,0,B|207:166|136:166,1,46.7500008916855,8|0,0:0|0:0,0:0:0:0:
134,150,140250,2,0,L|73:152,1,46.7500008916855,2|0,0:0|0:0,0:0:0:0:
208,168,140400,6,0,P|216:228|204:280,1,93.500001783371,8|0,0:0|0:0,0:0:0:0:
88,152,140700,2,0,P|80:92|92:40,1,93.500001783371,2|0,0:0|0:0,0:0:0:0:
232,88,141000,2,0,P|292:80|344:92,1,93.500001783371,8|0,0:0|0:0,0:0:0:0:
302,257,141300,2,0,P|242:265|190:253,1,93.500001783371,2|0,0:0|0:0,0:0:0:0:
251,176,141600,6,0,B|251:120|251:120|218:64,1,93.500001783371,8|0,0:0|0:0,0:0:0:0:
88,152,141900,2,0,B|88:208|88:208|121:264,1,93.500001783371,2|0,0:0|0:0,0:0:0:0:
272,332,142200,2,0,B|328:332|328:332|384:299,1,93.500001783371,8|0,0:0|0:0,0:0:0:0:
444,112,142500,2,0,B|388:112|388:112|332:145,1,93.500001783371,2|0,0:0|0:0,0:0:0:0:
207,167,142800,6,0,P|216:213|210:260,1,93.500001783371,8|0,0:0|0:0,0:0:0:0:
88,152,143100,2,0,P|79:106|85:59,1,93.500001783371,2|0,0:0|0:0,0:0:0:0:
231,88,143400,2,0,P|277:79|324:85,1,93.500001783371,8|0,0:0|0:0,0:0:0:0:
302,256,143700,2,0,P|256:265|209:259,1,93.500001783371,2|0,0:0|0:0,0:0:0:0:
251,176,144000,6,0,B|251:120|251:120|218:64,1,93.500001783371,8|0,0:0|0:0,0:0:0:0:
88,152,144300,2,0,B|88:208|88:208|121:264,1,93.500001783371,2|0,0:0|0:0,0:0:0:0:
272,332,144600,2,0,B|328:332|328:332|384:299,1,93.500001783371,8|0,0:0|0:0,0:0:0:0:
444,112,144900,2,0,B|388:112|388:112|332:145,1,93.500001783371,2|0,0:0|0:0,0:0:0:0:
183,329,145200,6,0,P|247:341|291:317,1,93.500001783371,8|0,0:0|0:0,0:0:0:0:
384,224,145500,1,2,0:0:0:0:
228,148,145650,1,0,0:0:0:0:
119,281,145800,2,0,P|107:345|131:389,1,93.500001783371,8|0,0:0|0:0,0:0:0:0:
288,308,146100,1,2,0:0:0:0:
228,148,146250,1,0,0:0:0:0:
424,120,146400,6,0,L|448:20,1,93.500001783371,8|0,0:0|0:0,0:0:0:0:
360,200,146700,1,2,0:0:0:0:
276,88,146850,2,0,P|212:76|168:100,1,93.500001783371,0|8,0:0|0:0,0:0:0:0:
104,264,147150,2,0,P|168:276|212:252,1,93.500001783371,0|2,0:0|0:0,0:0:0:0:
268,184,147450,1,0,0:0:0:0:
106,129,147600,6,0,L|18:129,1,55,8|2,0:0|0:0,0:0:0:0:
268,184,147750,2,0,L|348:184,1,55,8|2,0:0|0:0,0:0:0:0:
104,264,147900,2,0,L|16:264,1,55,8|2,0:0|0:0,0:0:0:0:
104,264,148125,6,0,L|104:324,1,55,8|2,0:0|0:0,0:0:0:0:
104,264,148350,6,0,L|104:204,1,55,8|2,0:0|0:0,0:0:0:0:
341,284,148500,2,0,P|406:293|454:279,1,110,8|2,0:0|0:0,0:0:0:0:
341,284,148800,6,0,L|341:344,1,55,8|2,0:0|0:0,0:0:0:0:
268,184,148950,2,0,L|268:244,1,55,8|2,0:0|0:0,0:0:0:0:
256,87,149100,2,0,L|256:27,1,55,8|2,0:0|0:0,0:0:0:0:
256,32,149325,5,8,0:0:0:0:
316,55,149400,2,0,L|376:55,1,55,8|2,0:0|0:0,0:0:0:0:
268,184,149550,1,8,0:0:0:0:
172,296,149700,6,0,L|56:296,1,110,8|2,0:0|0:0,0:0:0:0:
388,232,150000,6,0,P|400:180|380:108,1,93.500001783371,8|0,0:0|0:0,0:0:0:0:
256,32,150300,1,2,0:0:0:0:
304,184,150450,1,0,0:0:0:0:
164,244,150600,2,0,P|112:256|40:236,1,93.500001783371,8|0,0:0|0:0,0:0:0:0:
28,92,150900,1,2,0:0:0:0:
168,160,151050,1,0,0:0:0:0:
344,112,151200,6,0,P|356:60|336:-12,1,93.500001783371,8|0,0:0|0:0,0:0:0:0:
159,66,151500,1,2,0:0:0:0:
257,207,151650,2,0,L|266:315,1,93.500001783371,0|8,0:0|0:0,0:0:0:0:
168,160,151950,2,0,L|158:52,1,93.500001783371,0|2,0:0|0:0,0:0:0:0:
64,196,152250,1,0,0:0:0:0:
320,304,152400,6,0,L|388:304,1,55,8|2,0:0|0:0,0:0:0:0:
223,160,152550,2,0,L|147:160,1,55,8|2,0:0|0:0,0:0:0:0:
392,56,152700,2,0,L|456:56,1,55,8|2,0:0|0:0,0:0:0:0:
447,56,152925,5,8,0:0:0:0:
416,128,153000,2,0,L|416:188,1,55,8|2,0:0|0:0,0:0:0:0:
320,249,153150,2,0,L|320:313,1,55,8|2,0:0|0:0,0:0:0:0:
223,160,153300,2,0,L|223:48,1,110,8|2,0:0|0:0,0:0:0:0:
136,224,153600,6,0,L|68:224,1,55,8|2,0:0|0:0,0:0:0:0:
320,249,153750,2,0,L|392:249,1,55,8|2,0:0|0:0,0:0:0:0:
136,304,153900,2,0,L|68:304,1,55,8|2,0:0|0:0,0:0:0:0:
81,304,154125,5,8,0:0:0:0:
136,279,154200,2,0,L|136:211,1,55,8|2,0:0|0:0,0:0:0:0:
269,157,154350,2,0,L|337:156,1,55,8|2,0:0|0:0,0:0:0:0:
232,44,154500,6,0,L|104:44,1,110,8|2,0:0|0:0,0:0:0:0:
320,249,154800,6,0,P|328:193|320:137,1,93.500001783371,12|0,0:0|0:0,0:0:0:0:
232,44,155100,1,2,0:0:0:0:
196,204,155250,1,0,0:0:0:0:
332,76,155400,2,0,L|460:76,1,93.500001783371,8|0,0:0|0:0,0:0:0:0:
320,249,155700,1,2,0:0:0:0:
136,144,155850,1,0,0:0:0:0:
248,344,156000,5,8,0:0:0:0:
356,217,156150,1,0,0:0:0:0:
140,344,156300,1,2,0:0:0:0:
320,249,156450,1,2,0:0:0:0:
356,217,156525,1,0,0:0:0:0:
360,160,156600,1,8,0:0:0:0:
340,108,156675,1,0,0:0:0:0:
300,72,156750,1,2,0:0:0:0:
172,112,156900,1,2,0:0:0:0:
136,144,156975,1,0,0:0:0:0:
132,201,157050,1,8,0:0:0:0:
152,253,157125,1,0,0:0:0:0:
192,289,157200,5,2,0:0:0:0:
356,217,157350,1,0,0:0:0:0:
136,144,157500,1,2,0:0:0:0:
272,312,157650,1,0,0:0:0:0:
276,144,157800,1,8,0:0:0:0:
276,144,157875,1,0,0:0:0:0:
276,144,157950,1,0,0:0:0:0:
176,344,158100,1,2,0:0:0:0:
356,217,158250,1,0,0:0:0:0:
136,144,158400,6,0,L|4:144,1,93.500001783371,8|0,0:0|0:0,0:0:0:0:
172,256,158700,1,2,0:0:0:0:
276,144,158850,1,0,0:0:0:0:
232,340,159000,1,8,0:0:0:0:
356,217,159150,1,0,0:0:0:0:
220,248,159300,1,2,0:0:0:0:
172,256,159375,1,0,0:0:0:0:
124,252,159450,1,2,0:0:0:0:
84,224,159525,1,0,0:0:0:0:
76,176,159600,5,8,0:0:0:0:
172,76,159750,1,0,0:0:0:0:
220,248,159900,1,2,0:0:0:0:
76,176,160050,1,2,0:0:0:0:
64,132,160125,1,0,0:0:0:0:
84,88,160200,1,8,0:0:0:0:
124,68,160275,1,0,0:0:0:0:
172,76,160350,1,2,0:0:0:0:
320,168,160500,1,2,0:0:0:0:
172,272,160650,1,0,0:0:0:0:
124,68,160800,5,8,0:0:0:0:
88,232,160950,1,0,0:0:0:0:
256,36,161100,1,2,0:0:0:0:
320,168,161250,1,2,0:0:0:0:
340,212,161325,1,0,0:0:0:0:
344,260,161400,1,8,0:0:0:0:
332,304,161475,1,0,0:0:0:0:
296,336,161550,1,2,0:0:0:0:
172,272,161700,1,2,0:0:0:0:
240,144,161850,1,0,0:0:0:0:
240,144,161925,1,0,0:0:0:0:
240,144,162000,5,8,0:0:0:0:
104,188,162150,1,0,0:0:0:0:
344,260,162300,1,2,0:0:0:0:
172,272,162450,1,0,0:0:0:0:
340,160,162600,1,8,0:0:0:0:
340,160,162675,1,0,0:0:0:0:
340,160,162750,1,0,0:0:0:0:
160,36,162900,1,2,0:0:0:0:
104,188,163050,1,0,0:0:0:0:
240,104,163200,5,8,0:0:0:0:
236,196,163350,1,0,0:0:0:0:
168,130,163500,1,2,0:0:0:0:
104,188,163650,1,0,0:0:0:0:
168,256,163800,1,8,0:0:0:0:
236,196,163950,1,0,0:0:0:0:
312,272,164100,1,2,0:0:0:0:
312,272,164175,1,0,0:0:0:0:
312,272,164250,1,2,0:0:0:0:
312,272,164325,1,0,0:0:0:0:
312,272,164400,6,0,L|416:272,1,98.9999969787599,8|2,0:0|0:0,0:0:0:0:
148,136,164700,2,0,L|32:136,1,98.9999969787599,8|2,0:0|0:0,0:0:0:0:
304,124,165000,2,0,L|408:124,1,98.9999969787599,8|2,0:0|0:0,0:0:0:0:
148,248,165300,2,0,L|32:248,1,98.9999969787599,8|2,0:0|0:0,0:0:0:0:
304,124,165600,6,0,L|304:16,1,98.9999969787599,8|2,0:0|0:0,0:0:0:0:
148,248,165900,1,8,0:0:0:0:
304,124,166050,2,0,L|408:124,1,98.9999969787599,8|0,0:0|0:0,0:0:0:0:
148,248,166350,2,0,L|32:248,1,98.9999969787599,8|0,0:0|0:0,0:0:0:0:
296,312,166650,1,2,0:0:0:0:
144,168,166800,6,0,P|136:108|148:56,1,98.9999969787599,8|2,0:0|0:0,0:0:0:0:
294,214,167100,2,0,P|302:274|290:326,1,98.9999969787599,8|2,0:0|0:0,0:0:0:0:
236,100,167400,2,0,P|296:92|348:104,1,98.9999969787599,8|2,0:0|0:0,0:0:0:0:
380,288,167700,1,2,0:0:0:0:
172,272,167850,6,0,P|164:212|176:160,1,98.9999969787599,8|0,0:0|0:0,0:0:0:0:
296,40,168150,1,8,0:0:0:0:
360,208,168300,1,8,0:0:0:0:
172,272,168450,2,0,P|112:280|60:268,1,98.9999969787599,8|0,0:0|0:0,0:0:0:0:
262,209,168750,2,0,P|321:201|373:213,1,98.9999969787599,8|0,0:0|0:0,0:0:0:0:
472,296,169050,1,2,0:0:0:0:
332,124,169200,6,0,B|276:124|236:84|236:84|192:124|144:124,1,197.99999395752,8|0,0:0|0:0,0:0:0:0:
172,272,169800,2,0,B|228:272|268:312|268:312|312:272|360:272,1,197.99999395752,8|0,0:0|0:0,0:0:0:0:
332,124,170400,2,0,B|264:72|220:156|104:112,1,197.99999395752,8|0,0:0|0:0,0:0:0:0:
172,272,171000,2,0,B|240:220|284:304|400:260,1,197.99999395752,8|0,0:0|0:0,0:0:0:0:
472,176,171600,6,0,B|472:76|472:76|408:32|360:132|72:72,1,494.999984893799,8|0,0:0|0:0,0:0:0:0:
40,160,172500,1,2,0:0:0:0:
104,228,172650,2,0,B|104:328|104:328|168:372|216:272|392:304|392:304|380:232|399:169|399:169|328:192|288:152|212:176|212:176|220:128|212:96,1,791.999975830079,8|0,0:0|0:0,0:0:0:0:
76,40,174000,6,0,P|56:88|80:152,1,98.9999969787599,8|0,0:0|0:0,0:0:0:0:
172,240,174300,1,2,0:0:0:0:
132,92,174450,1,0,0:0:0:0:
120,296,174600,2,0,P|168:316|232:292,1,98.9999969787599,8|0,0:0|0:0,0:0:0:0:
360,188,174900,1,2,0:0:0:0:
172,240,175050,1,0,0:0:0:0:
352,72,175200,6,0,L|456:72,1,98.9999969787599,8|0,0:0|0:0,0:0:0:0:
448,216,175500,1,2,0:0:0:0:
296,256,175650,2,0,L|296:360,1,98.9999969787599,0|8,0:0|0:0,0:0:0:0:
172,240,175950,2,0,L|172:116,1,98.9999969787599,0|2,0:0|0:0,0:0:0:0:
116,60,176250,1,0,0:0:0:0:
300,100,176400,5,8,0:0:0:0:
468,180,176550,1,0,0:0:0:0:
300,100,176700,1,2,0:0:0:0:
468,180,176850,1,0,0:0:0:0:
271,240,177000,2,0,P|220:248|167:240,1,98.9999969787599,8|0,0:0|0:0,0:0:0:0:
300,100,177300,2,0,P|351:92|404:100,1,98.9999969787599,2|0,0:0|0:0,0:0:0:0:
460,296,177600,5,8,0:0:0:0:
272,240,177750,1,0,0:0:0:0:
468,180,177900,1,2,0:0:0:0:
324,296,178050,2,0,P|276:316|212:292,1,98.9999969787599,0|8,0:0|0:0,0:0:0:0:
375,190,178350,2,0,P|423:170|487:194,1,98.9999969787599,0|2,0:0|0:0,0:0:0:0:
400,344,178650,1,0,0:0:0:0:
208,176,178800,6,0,L|96:166,1,98.9999969787599,8|0,0:0|0:0,0:0:0:0:
36,32,179100,1,2,0:0:0:0:
180,88,179250,1,0,0:0:0:0:
80,240,179400,2,0,L|68:347,1,98.9999969787599,8|0,0:0|0:0,0:0:0:0:
268,288,179700,1,2,0:0:0:0:
109,167,179850,1,0,0:0:0:0:
344,296,180000,6,0,P|400:296|456:308,1,98.9999969787599,8|0,0:0|0:0,0:0:0:0:
296,360,180300,1,2,0:0:0:0:
380,192,180450,1,0,0:0:0:0:
212,332,180600,2,0,P|156:332|100:320,1,98.9999969787599,8|0,0:0|0:0,0:0:0:0:
28,148,180900,1,2,0:0:0:0:
208,252,181050,1,0,0:0:0:0:
132,144,181200,5,8,0:0:0:0:
112,100,181275,1,0,0:0:0:0:
136,56,181350,1,2,0:0:0:0:
184,48,181425,1,0,0:0:0:0:
232,35,181500,1,8,0:0:0:0:
277,53,181575,1,0,0:0:0:0:
328,60,181650,1,2,0:0:0:0:
376,44,181725,1,0,0:0:0:0:
424,40,181800,5,8,0:0:0:0:
464,72,181875,1,0,0:0:0:0:
452,120,181950,1,2,0:0:0:0:
424,160,182025,1,0,0:0:0:0:
420,208,182100,1,8,0:0:0:0:
444,252,182175,1,0,0:0:0:0:
424,296,182250,1,2,0:0:0:0:
393,335,182325,1,0,0:0:0:0:
350,313,182400,5,8,0:0:0:0:
300,316,182475,1,0,0:0:0:0:
252,328,182550,1,2,0:0:0:0:
204,312,182625,1,0,0:0:0:0:
156,300,182700,1,8,0:0:0:0:
108,308,182775,1,0,0:0:0:0:
64,284,182850,1,2,0:0:0:0:
40,240,182925,1,0,0:0:0:0:
72,202,183000,5,8,0:0:0:0:
116,178,183075,1,0,0:0:0:0:
164,190,183150,1,2,0:0:0:0:
208,214,183225,1,0,0:0:0:0:
256,226,183300,1,8,0:0:0:0:
300,206,183375,1,0,0:0:0:0:
332,170,183450,1,2,0:0:0:0:
344,122,183525,1,0,0:0:0:0:
320,78,183600,5,12,0:0:0:0:
256,192,183675,12,0,185100,0:0:0:0:
261,157,187800,6,0,L|421:157,1,110,8|8,0:0|0:0,0:0:0:0:
261,157,188100,6,0,L|101:157,1,110,8|8,0:0|0:0,0:0:0:0:
360,264,188400,6,0,L|360:348,1,71.4999967269899
276,280,188700,2,0,L|247:358,1,71.4999967269899
196,256,189000,2,0,L|117:286,1,71.4999967269899
176,176,189300,2,0,L|96:148,1,71.4999967269899
64,60,189600,6,0,P|100:52|156:68,1,71.4999967269899
192,100,189900,2,0,P|228:108|284:92,1,71.4999967269899
320,40,190200,2,0,P|356:32|412:48,1,71.4999967269899
452,68,190500,2,0,P|460:104|444:160,1,71.4999967269899
416,196,190800,6,0,L|408:296,1,71.4999967269899
340,224,191100,2,0,L|332:324,1,71.4999967269899
416,196,191400,2,0,L|408:296,1,71.4999967269899
340,224,191700,2,0,L|332:324,1,71.4999967269899
410,267,192000,6,0,L|415:195,1,71.4999967269899
334,295,192300,2,0,L|340:224,1,71.4999967269899
410,267,192600,2,0,L|415:195,1,71.4999967269899
334,295,192900,2,0,L|340:224,1,71.4999967269899
320,88,193200,6,0,P|274:87|224:88,1,71.4999967269899
248,87,193500,2,0,L|143:87,1,71.4999967269899
177,87,193800,2,0,L|91:87,1,71.4999967269899
105,87,194100,2,0,L|7:87,1,71.4999967269899
56,208,194400,6,0,P|92:216|148:200,1,71.4999967269899
125,210,194700,2,0,P|161:202|217:218,1,71.4999967269899
194,207,195000,2,0,P|226:211|286:199,1,71.4999967269899
264,206,195300,2,0,P|300:198|356:214,1,71.4999967269899
432,256,195600,6,0,L|456:180,1,71.4999967269899
388,132,195900,2,0,L|364:56,1,71.4999967269899
285,137,196200,2,0,L|261:213,1,71.4999967269899
334,269,196500,2,0,L|358:345,1,71.4999967269899,0|0,0:0|0:0,0:0:0:0:
180,224,196800,5,8,0:0:0:0:
64,328,196950,1,0,0:0:0:0:
124,144,197100,1,2,0:0:0:0:
180,336,197250,1,0,0:0:0:0:
284,188,197400,1,8,0:0:0:0:
284,188,197475,1,0,0:0:0:0:
284,188,197550,1,2,0:0:0:0:
284,188,197625,1,0,0:0:0:0:
284,188,197700,1,8,0:0:0:0:
284,188,197775,1,0,0:0:0:0:
284,188,197850,1,2,0:0:0:0:
284,188,197925,1,0,0:0:0:0:
284,188,198000,6,0,L|392:188,1,82.5000031471254,8|0,0:0|0:0,0:0:0:0:
340,340,198300,1,2,0:0:0:0:
208,264,198450,1,2,0:0:0:0:
184,232,198525,1,0,0:0:0:0:
176,192,198600,1,8,0:0:0:0:
192,156,198675,1,0,0:0:0:0:
216,124,198750,1,2,0:0:0:0:
400,32,198900,1,2,0:0:0:0:
284,188,199050,1,0,0:0:0:0:
172,32,199200,5,8,0:0:0:0:
176,192,199350,1,0,0:0:0:0:
316,40,199500,1,2,0:0:0:0:
284,188,199650,1,2,0:0:0:0:
272,228,199725,1,0,0:0:0:0:
240,256,199800,1,8,0:0:0:0:
204,276,199875,1,0,0:0:0:0:
164,276,199950,1,2,0:0:0:0:
128,112,200100,1,2,0:0:0:0:
284,188,200250,1,0,0:0:0:0:
172,32,200400,5,8,0:0:0:0:
288,80,200550,1,0,0:0:0:0:
80,180,200700,1,2,0:0:0:0:
284,188,200850,1,2,0:0:0:0:
316,219,200925,1,0,0:0:0:0:
324,263,201000,1,8,0:0:0:0:
303,303,201075,1,0,0:0:0:0:
261,320,201150,1,2,0:0:0:0:
80,180,201300,1,2,0:0:0:0:
220,128,201450,1,0,0:0:0:0:
116,352,201600,5,8,0:0:0:0:
303,303,201750,1,0,0:0:0:0:
80,180,201900,1,2,0:0:0:0:
224,216,202050,1,2,0:0:0:0:
264,204,202125,1,0,0:0:0:0:
304,192,202200,1,8,0:0:0:0:
344,204,202275,1,0,0:0:0:0:
384,220,202350,1,2,0:0:0:0:
248,344,202500,1,2,0:0:0:0:
264,204,202650,1,0,0:0:0:0:
100,296,202800,5,8,0:0:0:0:
144,140,202950,1,0,0:0:0:0:
248,344,203100,1,2,0:0:0:0:
332,244,203250,1,2,0:0:0:0:
344,204,203325,1,0,0:0:0:0:
348,164,203400,1,8,0:0:0:0:
336,124,203475,1,0,0:0:0:0:
312,88,203550,1,2,0:0:0:0:
112,40,203700,1,2,0:0:0:0:
232,180,203850,1,0,0:0:0:0:
380,40,204000,5,8,0:0:0:0:
348,164,204150,1,0,0:0:0:0:
236,32,204300,1,2,0:0:0:0:
140,144,204450,1,2,0:0:0:0:
120,180,204525,1,0,0:0:0:0:
136,216,204600,1,8,0:0:0:0:
168,240,204675,1,0,0:0:0:0:
180,280,204750,1,2,0:0:0:0:
416,308,204900,1,2,0:0:0:0:
348,164,205050,1,0,0:0:0:0:
136,216,205200,5,8,0:0:0:0:
264,336,205350,1,0,0:0:0:0:
140,144,205500,1,2,0:0:0:0:
280,212,205650,1,2,0:0:0:0:
320,196,205725,1,0,0:0:0:0:
348,164,205800,1,8,0:0:0:0:
372,128,205875,1,0,0:0:0:0:
380,88,205950,1,2,0:0:0:0:
240,32,206100,1,2,0:0:0:0:
140,144,206250,1,0,0:0:0:0:
372,128,206400,5,8,0:0:0:0:
280,212,206550,1,0,0:0:0:0:
240,32,206700,1,2,0:0:0:0:
140,144,206850,1,2,0:0:0:0:
124,180,206925,1,0,0:0:0:0:
132,220,207000,1,8,0:0:0:0:
159,250,207075,1,0,0:0:0:0:
200,260,207150,1,2,0:0:0:0:
408,320,207300,1,0,0:0:0:0:
280,212,207450,1,8,0:0:0:0:
476,32,207600,5,12,0:0:0:0:
256,192,210000,12,0,213300,0:0:0:0:
228,168,213600,5,2,0:0:0:0:
228,168,214200,1,2,0:0:0:0:
228,168,214800,5,8,0:0:0:0:
116,96,214950,1,2,0:0:0:0:
320,88,215100,1,8,0:0:0:0:
148,264,215250,1,2,0:0:0:0:
228,44,215400,1,8,0:0:0:0:
308,292,215550,1,2,0:0:0:0:
116,96,215700,1,8,0:0:0:0:
356,160,215850,1,2,0:0:0:0:
148,264,216000,5,8,0:0:0:0:
104,276,216075,1,0,0:0:0:0:
64,256,216150,1,2,0:0:0:0:
48,212,216225,1,0,0:0:0:0:
52,164,216300,1,8,0:0:0:0:
76,124,216375,1,0,0:0:0:0:
116,96,216450,1,2,0:0:0:0:
164,100,216525,1,0,0:0:0:0:
208,116,216600,5,8,0:0:0:0:
240,152,216675,1,0,0:0:0:0:
280,176,216750,1,2,0:0:0:0:
328,176,216825,1,0,0:0:0:0:
372,156,216900,1,8,0:0:0:0:
420,160,216975,1,0,0:0:0:0:
456,192,217050,1,2,0:0:0:0:
452,240,217125,1,0,0:0:0:0:
412,264,217200,5,8,0:0:0:0:
204,240,217500,5,2,0:0:0:0:
204,240,218100,1,2,0:0:0:0:
284,144,218700,5,2,0:0:0:0:
284,144,219300,1,2,0:0:0:0:
136,108,219900,5,2,0:0:0:0:
136,108,220500,1,2,0:0:0:0:
344,288,221100,5,2,0:0:0:0:
344,288,221700,1,2,0:0:0:0:
204,240,222300,5,2,0:0:0:0:
204,240,222900,1,2,0:0:0:0:
344,96,223500,5,2,0:0:0:0:
344,96,224100,1,2,0:0:0:0:
164,136,224700,5,2,0:0:0:0:
164,136,225300,1,2,0:0:0:0:
324,168,225900,5,2,0:0:0:0:
324,168,226500,1,2,0:0:0:0:
40,56,226800,5,14,0:0:0:0:
116,292,227100,5,2,0:0:0:0:
116,292,227700,1,2,0:0:0:0:
332,284,228300,5,2,0:0:0:0:
332,284,228900,1,2,0:0:0:0:
164,136,229500,5,2,0:0:0:0:
164,136,230100,1,2,0:0:0:0:
344,136,230700,5,2,0:0:0:0:
344,136,231300,1,2,0:0:0:0:
248,256,231900,5,2,0:0:0:0:
248,256,232500,1,2,0:0:0:0:
264,64,233100,5,2,0:0:0:0:
264,64,233700,1,2,0:0:0:0:
136,212,234300,5,2,0:0:0:0:
136,212,234900,1,2,0:0:0:0:
392,276,235500,5,2,0:0:0:0:
392,276,236100,1,2,0:0:0:0:
268,148,236400,5,8,0:0:0:0:
160,240,236550,1,0,0:0:0:0:
355,75,236700,2,0,P|365:124|351:175,1,93.500001783371,2|0,0:0|0:0,0:0:0:0:
264,316,237000,1,8,0:0:0:0:
191,153,237150,1,0,0:0:0:0:
64,276,237300,1,2,0:0:0:0:
199,173,237450,1,0,0:0:0:0:
413,221,237600,6,0,L|509:221,1,93.500001783371,8|0,0:0|0:0,0:0:0:0:
264,316,237900,1,2,0:0:0:0:
268,148,238050,1,0,0:0:0:0:
136,344,238200,1,8,0:0:0:0:
60,196,238350,1,0,0:0:0:0:
264,316,238500,1,2,0:0:0:0:
176,184,238650,1,0,0:0:0:0:
372,76,238800,6,0,L|475:66,1,93.500001783371,8|0,0:0|0:0,0:0:0:0:
347,205,239100,1,2,0:0:0:0:
264,60,239250,1,0,0:0:0:0:
185,190,239400,1,8,0:0:0:0:
185,190,239475,1,0,0:0:0:0:
185,190,239550,1,2,0:0:0:0:
376,128,239700,1,0,0:0:0:0:
340,286,239850,1,0,0:0:0:0:
176,184,240000,5,8,0:0:0:0:
236,300,240150,1,0,0:0:0:0:
186,103,240300,2,0,P|136:97|83:102,1,93.500001783371,2|0,0:0|0:0,0:0:0:0:
26,279,240600,1,8,0:0:0:0:
176,184,240750,1,0,0:0:0:0:
236,300,240900,1,2,0:0:0:0:
256,153,241050,1,0,0:0:0:0:
428,328,241200,5,8,0:0:0:0:
388,188,241350,1,0,0:0:0:0:
303,333,241500,1,2,0:0:0:0:
186,211,241650,1,2,0:0:0:0:
186,211,241725,1,0,0:0:0:0:
186,211,241800,1,8,0:0:0:0:
259,46,241950,1,0,0:0:0:0:
388,188,242100,1,2,0:0:0:0:
232,136,242250,1,0,0:0:0:0:
65,198,242400,5,8,0:0:0:0:
206,346,242550,1,0,0:0:0:0:
232,136,242700,2,0,L|261:43,1,93.500001783371,2|0,0:0|0:0,0:0:0:0:
247,237,243000,1,8,0:0:0:0:
388,188,243150,1,0,0:0:0:0:
259,46,243300,1,2,0:0:0:0:
404,164,243450,1,0,0:0:0:0:
265,350,243600,5,8,0:0:0:0:
424,272,243750,1,0,0:0:0:0:
172,228,243900,1,2,0:0:0:0:
324,168,244050,1,2,0:0:0:0:
324,168,244125,1,0,0:0:0:0:
324,168,244200,1,8,0:0:0:0:
265,350,244350,1,0,0:0:0:0:
172,228,244500,1,2,0:0:0:0:
324,168,244650,1,0,0:0:0:0:
80,312,244800,5,14,0:0:0:0:
324,168,245400,5,14,0:0:0:0:
164,116,245700,5,10,0:0:0:0:
164,116,245850,1,10,0:0:0:0:
224,300,246000,6,8,P|284:304|352:292,1,104.499997209549,0|0,0:0|0:0,0:0:0:0:
488,200,246300,1,2,0:0:0:0:
324,168,246450,1,0,0:0:0:0:
432,64,246600,1,8,0:0:0:0:
392,228,246750,1,2,0:0:0:0:
316,56,246900,1,8,0:0:0:0:
488,200,247050,1,2,0:0:0:0:
256,272,247200,6,0,P|196:276|128:264,1,104.499997209549,8|0,0:0|0:0,0:0:0:0:
36,144,247500,1,2,0:0:0:0:
176,192,247650,1,0,0:0:0:0:
48,332,247800,1,8,0:0:0:0:
116,136,247950,1,2,0:0:0:0:
256,272,248100,1,8,0:0:0:0:
40,228,248250,1,2,0:0:0:0:
256,112,248400,6,0,P|316:108|384:120,1,104.499997209549,8|0,0:0|0:0,0:0:0:0:
436,312,248700,1,2,0:0:0:0:
256,272,248850,1,0,0:0:0:0:
464,196,249000,1,8,0:0:0:0:
348,332,249150,1,2,0:0:0:0:
256,112,249300,1,8,0:0:0:0:
384,232,249450,1,2,0:0:0:0:
160,328,249600,6,0,P|100:332|32:320,1,104.499997209549,8|0,0:0|0:0,0:0:0:0:
184,184,249900,1,2,0:0:0:0:
272,320,250050,1,0,0:0:0:0:
256,112,250200,1,8,0:0:0:0:
384,232,250350,1,2,0:0:0:0:
160,328,250500,1,8,0:0:0:0:
312,184,250650,1,2,0:0:0:0:
160,56,250800,6,0,P|100:52|32:64,1,104.499997209549,8|0,0:0|0:0,0:0:0:0:
152,232,251100,1,2,0:0:0:0:
312,184,251250,1,0,0:0:0:0:
160,328,251400,1,8,0:0:0:0:
232,168,251550,1,2,0:0:0:0:
344,340,251700,1,8,0:0:0:0:
152,232,251850,1,2,0:0:0:0:
328,64,252000,6,0,P|388:60|456:72,1,104.499997209549,8|0,0:0|0:0,0:0:0:0:
356,252,252300,1,2,0:0:0:0:
232,168,252450,1,0,0:0:0:0:
452,172,252600,1,8,0:0:0:0:
304,328,252750,1,2,0:0:0:0:
344,116,252900,1,8,0:0:0:0:
448,324,253050,1,2,0:0:0:0:
232,168,253200,6,0,P|172:164|104:176,1,104.499997209549,8|0,0:0|0:0,0:0:0:0:
200,344,253500,1,2,0:0:0:0:
328,200,253650,1,0,0:0:0:0:
120,296,253800,1,8,0:0:0:0:
328,352,253950,1,2,0:0:0:0:
232,168,254100,1,8,0:0:0:0:
396,280,254250,1,2,0:0:0:0:
88,188,254400,6,0,P|84:128|96:60,1,104.499997209549,8|0,0:0|0:0,0:0:0:0:
232,168,254700,1,2,0:0:0:0:
116,296,254850,1,0,0:0:0:0:
188,88,255000,1,8,0:0:0:0:
224,272,255150,1,2,0:0:0:0:
268,52,255300,1,8,0:0:0:0:
152,216,255450,1,2,0:0:0:0:
356,104,255600,6,0,P|416:100|484:112,1,104.499997209549,8|2,0:0|0:0,0:0:0:0:
324,200,255900,1,8,0:0:0:0:
268,52,256050,1,2,0:0:0:0:
152,216,256200,1,8,0:0:0:0:
356,104,256350,1,2,0:0:0:0:
140,64,256500,1,8,0:0:0:0:
248,216,256650,1,2,0:0:0:0:
71,23,256800,5,8,0:0:0:0:
152,216,256950,1,2,0:0:0:0:
228,36,257100,1,8,0:0:0:0:
64,224,257250,1,2,0:0:0:0:
292,112,257400,1,8,0:0:0:0:
224,328,257550,1,2,0:0:0:0:
152,100,257700,1,8,0:0:0:0:
320,272,257850,1,2,0:0:0:0:
152,100,258000,6,0,L|16:88,1,104.499997209549,8|0,0:0|0:0,0:0:0:0:
160,220,258300,1,2,0:0:0:0:
236,80,258450,1,0,0:0:0:0:
320,272,258600,1,8,0:0:0:0:
320,272,258675,1,0,0:0:0:0:
320,272,258750,1,2,0:0:0:0:
152,100,258900,2,0,L|16:88,1,104.499997209549,2|0,0:0|0:0,0:0:0:0:
134,266,259200,6,0,P|238:278|338:268,1,187.000003566742,8|0,0:0|0:0,0:0:0:0:
337,104,259650,2,0,P|233:92|134:103,1,187.000003566742,8|0,0:0|0:0,0:0:0:0:
52,144,260100,1,8,0:0:0:0:
134,266,260250,1,2,0:0:0:0:
333,196,260400,6,0,P|341:136|333:92,1,93.500001783371,8|0,0:0|0:0,0:0:0:0:
192,36,260700,1,2,0:0:0:0:
144,176,260850,1,0,0:0:0:0:
256,296,261000,2,0,P|316:304|360:296,1,93.500001783371,8|0,0:0|0:0,0:0:0:0:
440,200,261300,1,2,0:0:0:0:
312,92,261450,1,0,0:0:0:0:
145,175,261600,6,0,P|177:267|265:295,1,187.000003566742,8|2,0:0|0:0,0:0:0:0:
440,200,262050,2,0,P|384:108|312:92,1,187.000003566742,8|2,0:0|0:0,0:0:0:0:
145,175,262500,2,0,P|137:235|145:279,1,93.500001783371,8|0,0:0|0:0,0:0:0:0:
315,341,262800,6,0,L|324:238,1,93.500001783371,8|0,0:0|0:0,0:0:0:0:
312,91,263100,1,2,0:0:0:0:
145,175,263250,1,0,0:0:0:0:
323,248,263400,2,0,L|426:257,1,93.500001783371,8|0,0:0|0:0,0:0:0:0:
315,341,263700,1,2,0:0:0:0:
244,180,263850,1,0,0:0:0:0:
60,236,264000,6,0,P|92:328|180:356,1,187.000003566742,8|2,0:0|0:0,0:0:0:0:
354,300,264450,2,0,P|322:208|234:180,1,187.000003566742,8|2,0:0|0:0,0:0:0:0:
132,164,264900,2,0,P|76:156|32:168,1,93.500001783371,8|0,0:0|0:0,0:0:0:0:
262,300,265200,6,0,P|318:308|362:296,1,93.500001783371,8|0,0:0|0:0,0:0:0:0:
424,148,265500,1,2,0:0:0:0:
243,179,265650,1,0,0:0:0:0:
376,88,265800,2,0,P|428:72|472:88,1,93.500001783371,8|0,0:0|0:0,0:0:0:0:
420,268,266100,1,2,0:0:0:0:
243,179,266250,1,0,0:0:0:0:
89,302,266400,6,8,L|78:187,1,93.500001783371,8|0,0:0|0:0,0:0:0:0:
136,84,266700,1,0,0:0:0:0:
243,179,266850,2,8,L|358:189,1,93.500001783371,0|8,0:0|0:0,0:0:0:0:
280,320,267150,1,0,0:0:0:0:
152,168,267300,1,0,0:0:0:0:
89,302,267450,1,0,0:0:0:0:
243,179,267600,5,8,0:0:0:0:
48,112,267750,1,0,0:0:0:0:
184,264,267900,1,2,0:0:0:0:
212,96,268050,1,0,0:0:0:0:
288,272,268200,1,8,0:0:0:0:
89,302,268350,1,0,0:0:0:0:
243,179,268500,1,2,0:0:0:0:
84,184,268650,1,8,0:0:0:0:
84,184,268950,5,8,0:0:0:0:
232,96,269100,1,2,0:0:0:0:
200,280,269250,1,8,0:0:0:0:
200,280,269550,1,8,0:0:0:0:
232,96,269700,1,2,0:0:0:0:
84,184,269850,1,8,0:0:0:0:
372,260,270000,6,0,L|372:144,1,93.500001783371,8|0,0:0|0:0,0:0:0:0:
232,96,270300,2,0,L|232:196,1,93.500001783371,2|0,0:0|0:0,0:0:0:0:
372,260,270600,2,0,L|492:260,1,93.500001783371,8|0,0:0|0:0,0:0:0:0:
325,96,270900,2,0,L|225:96,1,93.500001783371,2|0,0:0|0:0,0:0:0:0:
116,312,271200,6,0,P|71:343|78:282,1,140.250002675057,8|0,0:0|0:0,0:0:0:0:
119,228,271500,1,2,0:0:0:0:
232,96,271650,2,0,P|280:88|344:104,1,93.500001783371,0|8,0:0|0:0,0:0:0:0:
416,160,271950,1,0,0:0:0:0:
328,316,272100,1,8,0:0:0:0:
328,316,272400,5,8,0:0:0:0:
472,228,272550,1,0,0:0:0:0:
323,95,272700,1,2,0:0:0:0:
268,224,272850,1,2,0:0:0:0:
240,256,272925,1,0,0:0:0:0:
204,276,273000,1,8,0:0:0:0:
160,280,273075,1,0,0:0:0:0:
124,260,273150,1,2,0:0:0:0:
60,88,273300,1,2,0:0:0:0:
208,144,273450,1,0,0:0:0:0:
208,144,273525,1,0,0:0:0:0:
208,144,273600,5,8,0:0:0:0:
352,84,273750,1,0,0:0:0:0:
252,204,273900,1,2,0:0:0:0:
128,264,274050,1,2,0:0:0:0:
88,252,274125,1,0,0:0:0:0:
64,220,274200,1,8,0:0:0:0:
56,180,274275,1,0,0:0:0:0:
68,140,274350,1,2,0:0:0:0:
252,204,274500,1,2,0:0:0:0:
240,244,274575,1,0,0:0:0:0:
208,268,274650,1,2,0:0:0:0:
168,276,274725,1,0,0:0:0:0:
128,264,274800,5,8,0:0:0:0:
68,140,274950,1,0,0:0:0:0:
288,120,275100,1,2,0:0:0:0:
348,292,275250,1,2,0:0:0:0:
380,320,275325,1,0,0:0:0:0:
420,328,275400,1,8,0:0:0:0:
456,308,275475,1,0,0:0:0:0:
460,268,275550,1,2,0:0:0:0:
392,92,275700,1,2,0:0:0:0:
276,216,275850,1,2,0:0:0:0:
276,216,275925,1,0,0:0:0:0:
276,216,276000,5,10,0:0:0:0:
148,340,276150,1,0,0:0:0:0:
348,292,276300,1,2,0:0:0:0:
192,256,276450,1,2,0:0:0:0:
152,248,276525,1,0,0:0:0:0:
116,224,276600,1,8,0:0:0:0:
96,188,276675,1,0,0:0:0:0:
88,148,276750,1,2,0:0:0:0:
200,20,276900,1,0,0:0:0:0:
240,28,276975,1,0,0:0:0:0:
276,52,277050,1,2,0:0:0:0:
296,88,277125,1,0,0:0:0:0:
304,128,277200,5,10,0:0:0:0:
260,280,277350,1,0,0:0:0:0:
88,148,277500,1,2,0:0:0:0:
224,260,277650,1,2,0:0:0:0:
260,280,277725,1,0,0:0:0:0:
300,292,277800,1,8,0:0:0:0:
340,284,277875,1,0,0:0:0:0:
376,260,277950,1,2,0:0:0:0:
396,68,278100,1,2,0:0:0:0:
440,200,278250,1,2,0:0:0:0:
440,200,278325,1,0,0:0:0:0:
440,200,278400,5,8,0:0:0:0:
236,132,278550,1,0,0:0:0:0:
300,292,278700,1,2,0:0:0:0:
160,268,278850,1,2,0:0:0:0:
124,236,278925,1,0,0:0:0:0:
104,192,279000,1,8,0:0:0:0:
95,145,279075,1,0,0:0:0:0:
97,98,279150,1,2,0:0:0:0:
236,132,279300,1,2,0:0:0:0:
272,164,279375,1,0,0:0:0:0:
292,208,279450,1,2,0:0:0:0:
303,253,279525,1,0,0:0:0:0:
306,297,279600,6,8,P|257:314|191:303,1,93.500001783371,8|0,0:0|0:0,0:0:0:0:
104,192,279900,2,0,P|153:175|219:186,1,93.500001783371,2|0,0:0|0:0,0:0:0:0:
292,208,280200,2,0,P|309:257|298:323,1,93.500001783371,8|0,0:0|0:0,0:0:0:0:
118,281,280500,2,0,P|101:232|112:166,1,93.500001783371,2|0,0:0|0:0,0:0:0:0:
376,168,280800,6,0,P|381:111|331:139,1,140.250002675057,8|0,0:0|0:0,0:0:0:0:
292,208,281100,1,2,0:0:0:0:
156,184,281250,2,0,P|148:128|164:72,1,93.500001783371,0|8,0:0|0:0,0:0:0:0:
260,24,281550,1,0,0:0:0:0:
292,208,281700,1,2,0:0:0:0:
292,208,282000,5,10,0:0:0:0:
192,304,282150,1,0,0:0:0:0:
288,104,282300,1,2,0:0:0:0:
160,168,282450,1,2,0:0:0:0:
144,208,282525,1,0,0:0:0:0:
132,248,282600,1,8,0:0:0:0:
156,284,282675,1,0,0:0:0:0:
192,304,282750,1,2,0:0:0:0:
388,352,282900,1,2,0:0:0:0:
303,208,283050,1,0,0:0:0:0:
303,208,283125,1,0,0:0:0:0:
303,208,283200,5,8,0:0:0:0:
192,304,283350,1,0,0:0:0:0:
256,108,283500,1,2,0:0:0:0:
124,192,283650,1,2,0:0:0:0:
100,228,283725,1,0,0:0:0:0:
84,268,283800,1,8,0:0:0:0:
92,308,283875,1,0,0:0:0:0:
116,340,283950,1,2,0:0:0:0:
124,192,284100,1,2,0:0:0:0:
100,156,284175,1,0,0:0:0:0:
84,116,284250,1,2,0:0:0:0:
92,76,284325,1,0,0:0:0:0:
116,44,284400,5,8,0:0:0:0:
264,32,284550,1,0,0:0:0:0:
124,192,284700,1,2,0:0:0:0:
280,176,284850,1,2,0:0:0:0:
320,180,284925,1,0,0:0:0:0:
360,192,285000,1,8,0:0:0:0:
400,208,285075,1,0,0:0:0:0:
436,232,285150,1,2,0:0:0:0:
352,344,285300,1,2,0:0:0:0:
224,256,285450,1,0,0:0:0:0:
224,256,285525,1,0,0:0:0:0:
224,256,285600,5,8,0:0:0:0:
128,160,285750,1,0,0:0:0:0:
360,192,285900,1,2,0:0:0:0:
224,256,286050,1,2,0:0:0:0:
188,276,286125,1,0,0:0:0:0:
148,280,286200,1,8,0:0:0:0:
108,276,286275,1,0,0:0:0:0:
72,256,286350,1,2,0:0:0:0:
128,160,286500,1,2,0:0:0:0:
164,140,286575,1,0,0:0:0:0:
204,136,286650,1,2,0:0:0:0:
244,140,286725,1,0,0:0:0:0:
280,160,286800,5,8,0:0:0:0:
320,312,286950,1,0,0:0:0:0:
128,160,287100,1,2,0:0:0:0:
240,292,287250,1,2,0:0:0:0:
280,308,287325,1,0,0:0:0:0:
320,312,287400,1,8,0:0:0:0:
360,304,287475,1,0,0:0:0:0:
392,280,287550,1,2,0:0:0:0:
360,116,287700,1,2,0:0:0:0:
216,204,287850,1,2,0:0:0:0:
216,204,287925,1,0,0:0:0:0:
216,204,288000,5,8,0:0:0:0:
168,332,288150,1,0,0:0:0:0:
392,280,288300,1,0,0:0:0:0:
388,136,288450,1,2,0:0:0:0:
360,116,288525,1,0,0:0:0:0:
332,100,288600,1,8,0:0:0:0:
300,88,288675,1,0,0:0:0:0:
268,84,288750,1,2,0:0:0:0:
236,88,288825,1,0,0:0:0:0:
204,96,288900,1,8,0:0:0:0:
176,108,288975,1,0,0:0:0:0:
152,128,289050,1,2,0:0:0:0:
136,156,289125,1,0,0:0:0:0:
128,188,289200,6,0,L|128:292,1,93.500001783371,8|0,0:0|0:0,0:0:0:0:
256,336,289500,1,2,0:0:0:0:
296,212,289650,1,2,0:0:0:0:
296,212,289725,1,0,0:0:0:0:
296,212,289800,1,8,0:0:0:0:
296,212,289875,1,0,0:0:0:0:
296,212,289950,1,2,0:0:0:0:
136,156,290100,1,2,0:0:0:0:
288,84,290250,1,2,0:0:0:0:
288,84,290325,1,0,0:0:0:0:
288,84,290400,6,0,L|416:84,1,93.500001783371,8|0,0:0|0:0,0:0:0:0:
440,224,290700,1,2,0:0:0:0:
296,212,290850,1,2,0:0:0:0:
296,212,290925,1,0,0:0:0:0:
296,212,291000,1,8,0:0:0:0:
296,212,291075,1,0,0:0:0:0:
296,212,291150,1,2,0:0:0:0:
168,284,291300,1,2,0:0:0:0:
136,156,291450,6,0,L|112:80,2,46.7500008916855,0|0|8,0:0|0:0|0:0,0:0:0:0:
268,104,291750,1,0,0:0:0:0:
420,196,291900,1,2,0:0:0:0:
292,264,292050,1,2,0:0:0:0:
292,264,292125,1,0,0:0:0:0:
292,264,292200,1,8,0:0:0:0:
292,264,292275,1,0,0:0:0:0:
292,264,292350,1,2,0:0:0:0:
136,156,292500,1,2,0:0:0:0:
148,292,292650,1,0,0:0:0:0:
148,292,292725,1,0,0:0:0:0:
148,292,292800,5,8,0:0:0:0:
60,196,292950,1,0,0:0:0:0:
288,172,293100,1,0,0:0:0:0:
176,84,293250,1,2,0:0:0:0:
176,84,293325,1,0,0:0:0:0:
176,84,293400,1,8,0:0:0:0:
176,84,293475,1,0,0:0:0:0:
176,84,293550,1,2,0:0:0:0:
304,44,293700,1,2,0:0:0:0:
304,44,293775,1,0,0:0:0:0:
304,44,293850,1,2,0:0:0:0:
304,44,293925,1,0,0:0:0:0:
304,44,294000,6,0,L|400:44,1,93.500001783371,8|0,0:0|0:0,0:0:0:0:
200,212,294300,1,2,0:0:0:0:
176,84,294450,1,2,0:0:0:0:
176,84,294525,1,0,0:0:0:0:
176,84,294600,1,8,0:0:0:0:
176,84,294675,1,0,0:0:0:0:
176,84,294750,1,2,0:0:0:0:
52,160,294900,1,2,0:0:0:0:
200,212,295050,6,0,L|264:232,2,46.7500008916855,0|0|8,0:0|0:0|0:0,0:0:0:0:
92,276,295350,1,0,0:0:0:0:
176,84,295500,1,0,0:0:0:0:
200,212,295650,1,2,0:0:0:0:
200,212,295725,1,0,0:0:0:0:
200,212,295800,1,8,0:0:0:0:
200,212,295875,1,0,0:0:0:0:
200,212,295950,1,2,0:0:0:0:
320,144,296100,1,2,0:0:0:0:
280,292,296250,1,0,0:0:0:0:
280,292,296325,1,0,0:0:0:0:
280,292,296400,6,0,L|399:302,1,93.500001783371,8|0,0:0|0:0,0:0:0:0:
236,136,296700,1,2,0:0:0:0:
132,236,296850,1,2,0:0:0:0:
132,236,296925,1,0,0:0:0:0:
132,236,297000,1,8,0:0:0:0:
132,236,297075,1,0,0:0:0:0:
132,236,297150,1,2,0:0:0:0:
108,80,297300,1,2,0:0:0:0:
236,136,297450,6,0,L|292:156,2,46.7500008916855,0|0|8,0:0|0:0|0:0,0:0:0:0:
108,80,297750,1,0,0:0:0:0:
268,256,297900,1,2,0:0:0:0:
132,236,298050,1,2,0:0:0:0:
132,236,298125,1,0,0:0:0:0:
132,236,298200,1,8,0:0:0:0:
132,236,298275,1,0,0:0:0:0:
132,236,298350,1,2,0:0:0:0:
356,184,298500,1,2,0:0:0:0:
160,328,298650,1,0,0:0:0:0:
160,328,298725,1,0,0:0:0:0:
160,328,298800,6,0,L|44:328,1,93.500001783371,8|0,0:0|0:0,0:0:0:0:
116,128,299100,1,2,0:0:0:0:
256,272,299250,1,2,0:0:0:0:
256,272,299325,1,0,0:0:0:0:
256,272,299400,1,8,0:0:0:0:
256,272,299475,1,0,0:0:0:0:
256,272,299550,1,2,0:0:0:0:
176,56,299700,1,2,0:0:0:0:
160,208,299850,1,0,0:0:0:0:
160,208,299925,1,0,0:0:0:0:
160,208,300000,5,8,0:0:0:0:
32,156,300150,1,0,0:0:0:0:
288,108,300300,1,2,0:0:0:0:
256,272,300450,1,2,0:0:0:0:
256,272,300525,1,0,0:0:0:0:
256,272,300600,1,8,0:0:0:0:
256,272,300675,1,0,0:0:0:0:
256,272,300750,1,2,0:0:0:0:
388,220,300900,1,0,0:0:0:0:
388,220,300975,1,0,0:0:0:0:
388,220,301050,1,2,0:0:0:0:
388,220,301125,1,0,0:0:0:0:
388,220,301200,6,0,L|388:96,1,93.500001783371,8|0,0:0|0:0,0:0:0:0:
256,272,301500,1,2,0:0:0:0:
188,128,301650,1,2,0:0:0:0:
188,128,301725,1,0,0:0:0:0:
188,128,301800,1,8,0:0:0:0:
188,128,301875,1,0,0:0:0:0:
188,128,301950,1,2,0:0:0:0:
104,276,302100,1,2,0:0:0:0:
268,192,302250,6,0,L|332:156,2,46.7500008916855,0|0|8,0:0|0:0|0:0,0:0:0:0:
200,340,302550,1,0,0:0:0:0:
188,128,302700,1,2,0:0:0:0:
324,288,302850,1,2,0:0:0:0:
324,288,302925,1,0,0:0:0:0:
324,288,303000,1,8,0:0:0:0:
324,288,303075,1,0,0:0:0:0:
324,288,303150,1,2,0:0:0:0:
304,88,303300,1,2,0:0:0:0:
304,88,303375,1,0,0:0:0:0:
304,88,303450,1,2,0:0:0:0:
304,88,303525,1,0,0:0:0:0:
304,88,303600,5,8,0:0:0:0:
224,232,303750,1,0,0:0:0:0:
140,84,303900,1,2,0:0:0:0:
192,320,304050,1,2,0:0:0:0:
192,320,304125,1,0,0:0:0:0:
192,320,304200,1,8,0:0:0:0:
192,320,304275,1,0,0:0:0:0:
192,320,304350,1,2,0:0:0:0:
384,184,304500,1,2,0:0:0:0:
152,172,304650,1,0,0:0:0:0:
152,172,304725,1,0,0:0:0:0:
152,172,304800,5,8,0:0:0:0:
376,64,304950,1,0,0:0:0:0:
112,252,305100,1,2,0:0:0:0:
276,96,305250,1,2,0:0:0:0:
276,96,305325,1,0,0:0:0:0:
276,96,305400,1,8,0:0:0:0:
276,96,305475,1,0,0:0:0:0:
276,96,305550,1,2,0:0:0:0:
364,324,305700,1,2,0:0:0:0:
152,172,305850,1,0,0:0:0:0:
152,172,305925,1,0,0:0:0:0:
152,172,306000,5,8,0:0:0:0:
420,236,306150,1,0,0:0:0:0:
148,68,306300,1,2,0:0:0:0:
280,296,306450,1,2,0:0:0:0:
280,296,306525,1,0,0:0:0:0:
280,296,306600,1,8,0:0:0:0:
280,296,306675,1,0,0:0:0:0:
280,296,306750,1,2,0:0:0:0:
292,48,306900,1,2,0:0:0:0:
144,264,307050,1,0,0:0:0:0:
308,204,307200,5,8,0:0:0:0:
336,168,307275,1,0,0:0:0:0:
344,120,307350,1,2,0:0:0:0:
328,76,307425,1,0,0:0:0:0:
292,48,307500,1,8,0:0:0:0:
248,52,307575,1,0,0:0:0:0:
208,72,307650,1,2,0:0:0:0:
164,84,307725,1,0,0:0:0:0:
116,80,307800,5,8,0:0:0:0:
72,72,307875,1,0,0:0:0:0:
28,88,307950,1,2,0:0:0:0:
32,136,308025,1,0,0:0:0:0:
64,172,308100,1,8,0:0:0:0:
108,188,308175,1,0,0:0:0:0:
148,212,308250,1,2,0:0:0:0:
176,248,308325,1,0,0:0:0:0:
192,292,308400,5,14,0:0:0:0:
