osu file format v14

[General]
AudioFilename: audio.mp3
AudioLeadIn: 0
PreviewTime: 153720
Countdown: 0
SampleSet: None
StackLeniency: 0.2
Mode: 0
LetterboxInBreaks: 0
WidescreenStoryboard: 0

[Editor]
Bookmarks: 2220,235320
DistanceSpacing: 0.6
BeatDivisor: 4
GridSize: 16
TimelineZoom: 2.5

[Metadata]
Title:Putin's Boner
TitleUnicode:Putin's Boner
Artist:Helblinde
ArtistUnicode:Helblinde
Creator:Sotarks
Version:Venax's Extra
Source:
Tags:Get Low The East Side Boyz Breakcore Hardcore Russia Lil Jon Russian Alphabet Kin Akitoshi Corinn Venax
BeatmapID:1561550
BeatmapSetID:737714

[Difficulty]
HPDrainRate:5.6
CircleSize:3.8
OverallDifficulty:8.6
ApproachRate:9.1
SliderMultiplier:1.84
SliderTickRate:1

[Events]
//Background and Video events
0,0,"BG.jpg",0,0
//Break Periods
2,12020,20836
2,80720,83836
2,141320,144736
//Storyboard Layer 0 (Background)
//Storyboard Layer 1 (Fail)
//Storyboard Layer 2 (Pass)
//Storyboard Layer 3 (Foreground)
//Storyboard Sound Samples

[TimingPoints]
2220,300,4,3,22,82,1,0
2220,-125,4,3,22,82,0,0
22920,300,4,3,22,82,1,0
22920,-100,4,3,22,82,0,0
26520,-200,4,3,22,82,0,0
26820,-80,4,3,22,82,0,0
27720,-100,4,3,22,82,0,0
31920,-133.333333333333,4,3,22,82,0,0
32520,-100,4,3,22,82,0,0
36120,-200,4,3,22,82,0,0
36420,-80,4,3,22,82,0,0
37320,-100,4,3,22,82,0,0
61320,-90.0900900900901,4,3,22,82,0,1
70320,-100,4,3,22,82,0,0
70920,-100,4,3,22,82,0,1
79920,-66.6666666666667,4,3,22,82,0,1
80520,-125,4,3,22,82,0,0
90120,-100,4,3,22,82,0,0
108120,-66.6666666666667,4,3,22,82,0,0
109620,-80,4,3,22,82,0,0
110520,-111.111111111111,4,2,22,82,0,0
114120,-200,4,3,22,82,0,0
114420,-66.6666666666667,4,3,22,82,0,0
115320,-111.111111111111,4,2,22,82,0,0
119520,-66.6666666666667,4,2,22,82,0,0
120120,-100,4,3,22,82,0,0
133470,-80,4,3,22,82,0,0
134520,-100,4,3,22,82,0,0
139320,-125,4,2,22,82,0,0
140670,-125,4,2,22,82,0,0
140820,-125,4,2,22,82,0,0
140970,-125,4,2,22,82,0,0
141120,-125,4,2,22,82,0,0
145470,-125,4,2,22,82,0,0
145620,-125,4,2,22,82,0,0
145770,-125,4,2,22,82,0,0
145920,-125,4,2,22,82,0,0
153120,-200,4,2,22,82,0,0
153720,-100,4,3,22,82,0,1
158520,-80,4,3,22,82,0,1
160920,-100,4,3,22,82,0,1
162120,-80,4,3,22,82,0,1
165720,-100,4,3,22,82,0,1
166920,-80,4,3,22,82,0,1
168120,-125,4,3,22,82,0,0
172920,-100,4,3,22,82,0,1
177720,-80,4,3,22,82,0,1
181320,-166.666666666667,4,3,22,82,0,0
182520,-100,4,3,22,82,0,1
187320,-80,4,3,22,82,0,1
189720,-100,4,3,22,82,0,1
192120,-80,4,3,22,82,0,1
195720,-100,4,3,22,82,0,0
216120,-100,4,3,22,82,0,0
233520,-66.6666666666667,4,3,22,82,0,0

[Colours]
Combo1 : 198,180,145
Combo2 : 145,83,81
Combo3 : 180,35,31
Combo4 : 150,91,27
SliderBorder : 245,255,255
SliderTrackOverride : 20,0,0

[HitObjects]
129,177,2220,6,0,L|212:181,1,73.6,2|0,1:0|0:0,0:0:0:0:
29,172,2520,1,8,0:0:0:0:
176,90,2670,1,0,0:0:0:0:
139,241,2820,1,2,1:0:0:0:
128,221,2895,1,0,0:0:0:0:
126,198,2970,1,8,0:0:0:0:
247,46,3120,1,0,0:0:0:0:
254,66,3195,1,0,0:0:0:0:
258,87,3270,1,2,0:0:0:0:
255,110,3345,1,0,0:0:0:0:
250,130,3420,6,0,L|329:123,1,73.6,2|0,1:0|0:0,0:0:0:0:
405,173,3720,1,8,0:0:0:0:
381,45,3870,1,0,0:0:0:0:
324,206,4020,1,2,1:0:0:0:
333,225,4095,1,0,0:0:0:0:
346,242,4170,1,8,0:0:0:0:
274,341,4320,1,2,0:0:0:0:
276,319,4395,1,0,0:0:0:0:
272,298,4470,1,0,0:0:0:0:
263,279,4545,1,0,0:0:0:0:
250,263,4620,6,0,L|173:279,1,73.6,2|0,1:0|1:0,0:0:0:0:
346,242,4920,1,8,0:0:0:0:
198,182,5070,1,0,0:0:0:0:
299,115,5220,1,2,1:0:0:0:
320,110,5295,1,0,0:0:0:0:
341,113,5370,1,0,0:0:0:0:
207,58,5520,1,2,0:0:0:0:
186,63,5595,1,0,0:0:0:0:
165,60,5670,1,0,0:0:0:0:
143,54,5745,1,0,0:0:0:0:
125,40,5820,5,0,1:0:0:0:
125,40,6120,1,0,1:0:0:0:
125,40,6420,1,2,1:0:0:0:
125,40,6720,1,2,1:0:0:0:
62,213,7020,6,0,L|57:133,1,73.6,2|0,1:0|0:0,0:0:0:0:
70,322,7320,1,8,0:0:0:0:
144,174,7470,1,0,0:0:0:0:
166,336,7620,1,2,1:0:0:0:
158,315,7695,1,0,0:0:0:0:
158,292,7770,1,8,0:0:0:0:
225,136,7920,1,0,0:0:0:0:
230,157,7995,1,0,0:0:0:0:
231,179,8070,1,2,0:0:0:0:
229,201,8145,1,0,0:0:0:0:
221,221,8220,6,0,L|306:230,1,73.6,2|0,1:0|0:0,0:0:0:0:
360,318,8520,1,8,0:0:0:0:
249,311,8670,1,0,0:0:0:0:
397,242,8820,1,2,1:0:0:0:
415,253,8895,1,0,0:0:0:0:
429,269,8970,1,8,0:0:0:0:
294,228,9120,1,0,0:0:0:0:
289,207,9195,1,0,0:0:0:0:
288,185,9270,1,2,0:0:0:0:
290,163,9345,1,0,0:0:0:0:
298,143,9420,6,0,L|399:154,1,73.6,2|0,1:0|1:1,0:0:0:0:
332,43,9720,1,8,0:0:0:0:
189,140,9870,1,0,0:0:0:0:
182,8,10020,1,2,1:0:0:0:
204,8,10095,1,0,0:0:0:0:
225,13,10170,1,8,0:0:0:0:
123,196,10320,1,2,0:0:0:0:
111,178,10395,1,0,0:0:0:0:
105,158,10470,1,0,0:0:0:0:
104,135,10545,1,0,0:0:0:0:
107,113,10620,5,2,1:0:0:0:
107,113,10920,1,0,1:0:0:0:
54,255,11220,1,0,1:0:0:0:
54,255,11520,1,2,1:0:0:0:
130,37,11820,5,6,1:0:0:0:
251,179,21420,5,0,1:0:0:0:
36,159,22920,6,0,L|141:165,1,92,6|0,1:0|0:0,0:0:0:0:
287,210,23220,2,0,P|240:207|200:229,1,92,10|0,0:0|0:0,0:0:0:0:
185,249,23445,1,0,0:0:0:0:
180,276,23520,1,2,1:0:0:0:
369,222,23670,1,0,0:0:0:0:
271,119,23820,2,0,L|289:223,1,92,10|0,0:0|0:0,0:0:0:0:
425,352,24120,6,0,L|440:261,1,92,2|0,1:0|0:0,0:0:0:0:
378,96,24420,1,10,0:0:0:0:
369,222,24570,1,0,0:0:0:0:
369,222,24645,1,0,0:0:0:0:
369,222,24720,1,2,1:0:0:0:
461,118,24870,1,0,0:0:0:0:
312,46,25020,2,0,P|295:87|312:145,1,92,10|0,0:0|0:0,0:0:0:0:
474,24,25320,6,0,L|380:15,1,92,2|0,1:0|0:0,0:0:0:0:
217,141,25620,2,0,P|259:123|303:132,1,92,10|0,0:0|0:0,0:0:0:0:
324,150,25845,1,0,0:0:0:0:
335,175,25920,1,2,1:0:0:0:
173,220,26070,1,0,0:0:0:0:
220,35,26220,2,0,L|320:46,1,92,10|0,0:0|0:0,0:0:0:0:
99,247,26520,6,0,P|93:226|98:193,1,46,6|0,1:0|1:0,0:0:0:0:
10,167,26820,6,0,P|46:123|103:111,1,115,10|0,0:0|0:0,0:0:0:0:
194,292,27120,2,0,P|134:285|96:240,1,115,2|0,1:0|1:0,0:0:0:0:
194,80,27420,1,10,0:0:0:0:
173,220,27570,1,2,1:0:0:0:
173,220,27720,6,0,L|276:209,1,92,6|0,1:0|0:0,0:0:0:0:
388,241,28020,2,0,P|392:178|364:143,1,92,10|0,0:0|0:0,0:0:0:0:
353,142,28245,1,0,0:0:0:0:
325,138,28320,1,2,1:0:0:0:
309,294,28470,1,0,0:0:0:0:
479,250,28620,2,0,L|376:239,1,92,10|0,0:0|0:0,0:0:0:0:
268,77,28920,6,0,P|321:54|371:72,1,92,2|0,1:0|0:0,0:0:0:0:
236,157,29220,2,0,P|189:122|180:70,1,92,10|0,0:0|0:0,0:0:0:0:
179,63,29445,1,0,0:0:0:0:
189,37,29520,1,2,1:0:0:0:
325,138,29670,1,0,0:0:0:0:
207,238,29820,2,0,P|213:180|254:146,1,92,10|0,0:0|0:0,0:0:0:0:
400,309,30120,6,0,B|360:296|327:314|327:314|291:334|244:313,1,138,2|0,1:0|2:0,0:0:0:0:
239,313,30420,1,8,0:0:0:0:
325,138,30570,2,0,L|336:204,1,46,0|0,0:0|0:0,0:0:0:0:
368,379,30720,1,2,1:0:0:0:
474,264,30870,1,0,0:0:0:0:
455,241,30945,1,0,0:0:0:0:
430,228,31020,1,8,0:0:0:0:
239,313,31170,1,0,0:0:0:0:
239,313,31320,6,0,L|126:320,1,92,2|0,1:0|1:0,0:0:0:0:
34,212,31620,2,0,L|147:219,1,92,8|0,0:0|0:0,0:0:0:0:
64,364,31920,6,0,L|58:279,1,69.0000026321412,2|0,1:0|1:0,0:0:0:0:
208,166,32220,2,0,L|202:250,1,69.0000026321412,8|0,0:0|0:0,0:0:0:0:
50,77,32520,6,0,P|102:66|150:85,1,92,6|0,1:0|0:0,0:0:0:0:
292,189,32820,2,0,L|281:78,1,92,10|0,0:0|0:0,0:0:0:0:
278,70,33045,1,0,0:0:0:0:
274,42,33120,1,2,1:0:0:0:
208,166,33270,1,0,0:0:0:0:
379,187,33420,2,0,P|324:176|285:194,1,92,10|0,0:0|0:0,0:0:0:0:
448,312,33720,6,0,L|455:204,1,92,2|0,1:0|0:0,0:0:0:0:
460,98,34020,1,10,0:0:0:0:
343,267,34170,1,0,0:0:0:0:
343,267,34245,1,0,0:0:0:0:
343,267,34320,1,2,1:0:0:0:
208,166,34470,1,0,0:0:0:0:
369,98,34620,2,0,P|385:155|363:213,1,92,10|0,0:0|0:0,0:0:0:0:
257,347,34920,6,0,L|256:238,1,92,2|0,1:0|0:0,0:0:0:0:
144,121,35220,2,0,P|129:171|156:224,1,92,10|0,0:0|0:0,0:0:0:0:
158,228,35445,1,0,0:0:0:0:
183,239,35520,1,2,1:0:0:0:
215,83,35670,1,0,0:0:0:0:
52,127,35820,2,0,L|157:120,1,92,10|0,0:0|0:0,0:0:0:0:
260,88,36120,6,0,L|196:81,1,46,6|0,1:0|1:0,0:0:0:0:
316,160,36420,6,0,L|438:151,1,115,10|0,0:0|0:0,0:0:0:0:
324,274,36720,2,0,L|315:152,1,115,2|0,1:0|1:0,0:0:0:0:
417,40,37020,1,10,0:0:0:0:
430,151,37170,1,2,1:0:0:0:
430,151,37320,6,0,L|436:242,1,92,6|0,1:0|0:0,0:0:0:0:
283,345,37620,2,0,P|248:309|246:253,1,92,10|0,0:0|0:0,0:0:0:0:
246,241,37845,1,0,0:0:0:0:
259,217,37920,1,2,1:0:0:0:
365,351,38070,1,0,0:0:0:0:
167,314,38220,2,0,L|159:216,1,92,10|0,0:0|0:0,0:0:0:0:
346,212,38520,6,0,P|291:226|245:208,1,92,2|0,1:0|0:0,0:0:0:0:
388,133,38820,2,0,P|427:173|435:222,1,92,10|0,0:0|0:0,0:0:0:0:
438,234,39045,1,0,0:0:0:0:
433,261,39120,1,2,1:0:0:0:
299,135,39270,1,0,0:0:0:0:
430,55,39420,2,0,P|414:109|376:140,1,92,10|0,0:0|0:0,0:0:0:0:
143,50,39720,6,0,B|205:43|205:43|237:54|237:54|290:48,1,138,2|0,1:0|2:0,0:0:0:0:
306,47,40020,1,8,0:0:0:0:
183,226,40170,2,0,L|169:149,1,46,0|0,0:0|0:0,0:0:0:0:
143,50,40320,1,2,1:0:0:0:
43,157,40470,1,0,0:0:0:0:
40,184,40545,1,0,0:0:0:0:
46,210,40620,1,8,0:0:0:0:
130,306,40770,1,0,0:0:0:0:
130,306,40920,6,0,B|94:295|94:295|17:308,1,92,2|0,1:0|2:0,0:0:0:0:
40,304,41145,2,0,B|76:315|76:315|153:302,1,92,0|0,1:0|2:0,0:0:0:0:
265,271,41370,5,8,0:0:0:0:
129,305,41670,5,0,1:0:0:0:
265,271,41820,2,0,L|366:248,1,92,8|0,0:0|0:0,0:0:0:0:
428,168,42120,6,0,P|467:232|452:306,1,138,6|0,1:0|0:0,0:0:0:0:
446,316,42420,1,10,0:0:0:0:
265,271,42570,2,0,L|197:288,2,46,0|0|2,0:0|0:0|1:0,0:0:0:0:
344,352,42870,1,0,0:0:0:0:
253,184,43020,2,0,L|154:208,1,92,10|0,0:0|0:0,0:0:0:0:
317,114,43320,5,2,1:0:0:0:
265,271,43470,1,2,0:0:0:0:
133,122,43620,2,0,L|222:99,1,92,10|0,0:0|0:0,0:0:0:0:
54,62,43920,2,0,P|31:116|60:193,1,138,2|0,1:0|0:0,0:0:0:0:
77,205,44220,1,10,0:0:0:0:
149,28,44370,1,2,0:0:0:0:
149,28,44445,1,0,0:0:0:0:
149,28,44520,6,0,L|249:32,1,92,2|0,1:0|0:0,0:0:0:0:
356,146,44820,1,10,0:0:0:0:
232,112,44970,1,0,0:0:0:0:
232,112,45045,1,0,0:0:0:0:
232,112,45120,1,2,1:0:0:0:
334,53,45270,1,0,0:0:0:0:
280,264,45420,2,0,P|268:223|291:160,1,92,10|0,0:0|0:0,0:0:0:0:
420,270,45720,6,0,P|390:300|324:312,1,92,2|2,1:0|0:0,0:0:0:0:
356,146,46020,2,0,P|397:156|440:207,1,92,10|0,0:0|0:0,0:0:0:0:
280,264,46320,2,0,B|213:257|213:257|208:261|208:261|131:256,1,138,2|0,1:0|0:0,0:0:0:0:
116,253,46620,1,10,0:0:0:0:
196,112,46770,2,0,L|190:176,1,46,2|0,0:0|0:0,0:0:0:0:
206,341,46920,6,0,L|58:331,1,138,2|0,1:0|0:0,0:0:0:0:
40,328,47220,1,10,0:0:0:0:
108,156,47370,2,0,P|112:125|107:98,2,46,0|0|2,0:0|0:0|1:0,0:0:0:0:
37,223,47670,1,0,0:0:0:0:
198,124,47820,2,0,P|257:116|297:137,1,92,10|0,0:0|0:0,0:0:0:0:
329,261,48120,5,2,1:0:0:0:
238,199,48270,1,2,0:0:0:0:
331,57,48420,2,0,P|367:104|369:149,1,92,10|0,0:0|0:0,0:0:0:0:
182,265,48720,2,0,P|151:201|209:118,1,138,2|0,1:0|0:0,0:0:0:0:
198,124,49020,1,10,0:0:0:0:
242,341,49170,1,2,0:0:0:0:
242,341,49245,1,0,0:0:0:0:
242,341,49320,6,0,B|190:358|190:358|76:347,1,138,2|0,1:0|2:0,0:0:0:0:
79,346,49620,1,10,0:0:0:0:
238,199,49770,1,0,0:0:0:0:
45,256,49920,2,0,P|32:183|50:144,1,92,2|0,1:0|0:0,0:0:0:0:
52,145,50145,1,0,0:0:0:0:
74,128,50220,2,0,L|189:136,1,92,10|0,0:0|0:0,0:0:0:0:
329,205,50520,5,2,1:0:0:0:
238,199,50670,1,2,0:0:0:0:
329,205,50820,2,0,L|234:198,1,92,10|0,0:0|0:0,0:0:0:0:
282,94,51120,5,2,1:0:0:0:
353,322,51270,1,2,0:0:0:0:
282,94,51420,1,10,0:0:0:0:
353,322,51570,1,2,0:0:0:0:
483,182,51720,6,0,P|448:125|352:114,1,138,2|0,1:0|0:0,0:0:0:0:
356,113,52020,1,10,0:0:0:0:
431,283,52170,2,0,P|466:300|491:300,2,46,0|0|2,0:0|0:0|1:0,0:0:0:0:
390,198,52470,1,0,0:0:0:0:
496,91,52620,2,0,L|480:196,1,92,10|0,0:0|0:0,0:0:0:0:
312,243,52920,5,2,1:0:0:0:
238,98,53070,1,2,0:0:0:0:
369,22,53220,2,0,L|353:127,1,92,10|0,0:0|0:0,0:0:0:0:
233,281,53520,2,0,B|199:264|162:277|162:277|122:291|82:269,1,138,2|0,1:0|0:0,0:0:0:0:
73,265,53820,1,10,0:0:0:0:
173,77,53970,1,2,0:0:0:0:
173,77,54045,1,0,0:0:0:0:
173,77,54120,6,0,P|224:107|232:192,1,138,2|0,1:0|0:0,0:0:0:0:
231,200,54420,1,10,0:0:0:0:
64,127,54570,2,0,L|12:132,2,46,0|0|2,0:0|0:0|1:0,0:0:0:0:
155,249,54870,1,0,0:0:0:0:
155,249,55020,2,0,P|137:198|155:151,1,92,10|0,0:0|0:0,0:0:0:0:
315,143,55320,5,2,1:0:0:0:
231,200,55470,1,2,0:0:0:0:
386,90,55620,2,0,P|404:141|386:188,1,92,10|0,0:0|0:0,0:0:0:0:
304,298,55920,2,0,B|366:291|366:291|382:296|382:296|462:286,1,138,2|0,1:0|0:0,0:0:0:0:
467,285,56220,1,10,0:0:0:0:
315,143,56370,2,0,L|312:205,1,46,2|0,0:0|0:0,0:0:0:0:
338,377,56520,6,0,L|182:359,1,138,2|0,1:0|0:0,0:0:0:0:
173,355,56820,1,10,0:0:0:0:
226,215,56970,2,0,P|230:245|224:268,2,46,0|0|2,0:0|0:0|1:0,0:0:0:0:
119,258,57270,1,0,0:0:0:0:
315,143,57420,2,0,L|411:156,1,92,10|0,0:0|0:0,0:0:0:0:
210,44,57720,5,2,1:0:0:0:
133,162,57870,1,2,0:0:0:0:
210,44,58020,1,10,0:0:0:0:
133,162,58170,1,2,0:0:0:0:
195,13,58320,5,2,1:0:0:0:
148,186,58470,1,2,0:0:0:0:
195,13,58620,1,10,0:0:0:0:
148,186,58770,1,2,0:0:0:0:
39,48,58920,5,2,1:0:0:0:
463,63,60120,5,0,1:0:0:0:
455,67,60195,1,0,0:0:0:0:
445,66,60270,1,0,0:0:0:0:
440,58,60345,1,0,0:0:0:0:
440,49,60420,1,0,0:0:0:0:
445,42,60495,1,0,0:0:0:0:
455,41,60570,1,0,0:0:0:0:
463,45,60645,1,0,0:0:0:0:
466,54,60720,5,0,0:0:0:0:
445,95,60795,1,0,0:0:0:0:
410,125,60870,1,0,0:0:0:0:
365,137,60945,1,0,0:0:0:0:
319,132,61020,5,2,2:0:0:0:
298,121,61095,1,0,0:0:0:0:
280,105,61170,1,0,0:0:0:0:
267,85,61245,1,0,2:0:0:0:
261,63,61320,5,6,1:0:0:0:
331,215,61470,1,0,0:0:0:0:
182,131,61620,2,0,L|72:121,1,102.120002493164,8|0,0:0|0:0,0:0:0:0:
229,224,61920,2,0,L|339:214,1,102.120002493164,2|0,1:0|0:0,0:0:0:0:
182,131,62220,1,8,0:0:0:0:
277,314,62370,1,2,0:0:0:0:
432,205,62520,6,0,L|322:215,1,102.120002493164,2|0,1:0|0:0,0:0:0:0:
182,131,62820,2,0,L|292:121,1,102.120002493164,8|0,0:0|0:0,0:0:0:0:
432,205,63120,1,2,1:0:0:0:
283,121,63270,1,0,0:0:0:0:
500,154,63420,2,0,P|518:209|495:263,1,102.120002493164,10|0,0:0|0:0,0:0:0:0:
273,37,63720,6,0,L|436:49,1,153.180003739746,2|0,1:0|2:0,0:0:0:0:
451,52,64020,1,8,0:0:0:0:
335,214,64170,1,0,0:0:0:0:
335,214,64320,2,0,P|324:267|343:318,1,102.120002493164,2|0,1:0|0:0,0:0:0:0:
432,205,64620,1,8,0:0:0:0:
283,121,64770,1,2,0:0:0:0:
237,217,64920,6,0,P|290:228|341:209,1,102.120002493164,2|0,1:0|0:0,0:0:0:0:
325,25,65220,2,0,P|272:14|221:33,1,102.120002493164,8|0,0:0|0:0,0:0:0:0:
119,133,65520,1,2,1:0:0:0:
283,121,65670,1,0,3:0:0:0:
37,139,65820,1,8,0:0:0:0:
201,128,65970,1,2,0:0:0:0:
129,221,66120,6,0,L|21:225,1,102.120002493164,2|0,1:0|0:0,0:0:0:0:
197,306,66420,2,0,L|305:302,1,102.120002493164,8|0,0:0|0:0,0:0:0:0:
129,221,66720,1,2,1:0:0:0:
78,350,66870,1,0,0:0:0:0:
215,209,67020,2,0,P|186:155|150:137,1,102.120002493164,10|0,0:0|0:0,0:0:0:0:
197,306,67320,6,0,L|305:302,1,102.120002493164,2|0,1:0|0:0,0:0:0:0:
407,201,67620,2,0,L|299:205,1,102.120002493164,8|0,0:0|0:0,0:0:0:0:
197,306,67920,1,2,1:0:0:0:
240,119,68070,1,0,0:0:0:0:
214,208,68220,2,0,P|171:182|151:137,1,102.120002493164,8|2,0:0|0:0,0:0:0:0:
267,34,68520,6,0,L|374:43,1,102.120002493164,2|0,1:0|3:0,0:0:0:0:
451,198,68820,2,0,L|344:189,1,102.120002493164,8|0,0:0|0:0,0:0:0:0:
267,34,69120,1,2,1:0:0:0:
214,208,69270,1,0,0:0:0:0:
179,50,69420,1,10,0:0:0:0:
302,192,69570,1,0,0:0:0:0:
89,67,69720,5,2,1:0:0:0:
89,67,69870,1,2,1:0:0:0:
126,221,70020,1,0,1:0:0:0:
126,221,70170,1,2,1:0:0:0:
22,9,70320,5,0,1:0:0:0:
150,302,70920,6,0,P|197:290|243:301,1,92,6|0,1:0|0:0,0:0:0:0:
359,215,71220,2,0,P|312:227|266:216,1,92,8|0,0:0|0:0,0:0:0:0:
150,302,71520,1,2,1:0:0:0:
270,217,71670,1,0,0:0:0:0:
81,344,71820,2,0,P|70:294|88:249,1,92,8|2,0:0|0:0,0:0:0:0:
190,88,72120,6,0,L|180:188,1,92,2|0,1:0|0:0,0:0:0:0:
82,256,72420,2,0,L|92:156,1,92,8|0,0:0|0:0,0:0:0:0:
190,88,72720,1,2,1:0:0:0:
270,217,72870,1,0,0:0:0:0:
110,87,73020,2,0,P|127:36|171:9,1,92,10|0,0:0|0:0,0:0:0:0:
281,97,73320,6,0,L|170:85,1,92,2|0,1:0|0:0,0:0:0:0:
270,217,73620,2,0,L|381:205,1,92,8|0,0:0|0:0,0:0:0:0:
281,97,73920,1,2,1:0:0:0:
151,165,74070,1,0,0:0:0:0:
253,303,74220,2,0,P|274:248|259:196,1,92,8|2,0:0|0:0,0:0:0:0:
125,314,74520,6,0,L|26:308,1,92,2|0,1:0|0:0,0:0:0:0:
194,249,74820,2,0,L|293:255,1,92,8|0,0:0|0:0,0:0:0:0:
125,314,75120,1,2,1:0:0:0:
151,165,75270,1,0,0:0:0:0:
303,336,75420,2,0,L|211:330,1,92,10|0,0:0|0:0,0:0:0:0:
316,160,75720,6,0,P|375:207|371:292,1,138,2|0,1:0|2:0,0:0:0:0:
377,288,76020,1,8,0:0:0:0:
235,203,76170,1,0,0:0:0:0:
235,203,76320,2,0,L|227:104,1,92,2|0,1:0|0:0,0:0:0:0:
323,68,76620,2,0,L|315:159,1,92,8|2,0:0|0:0,0:0:0:0:
153,62,76920,6,0,P|193:32|247:25,1,92,2|0,1:0|0:0,0:0:0:0:
403,30,77220,2,0,P|363:60|309:67,1,92,8|0,0:0|0:0,0:0:0:0:
153,62,77520,1,2,1:0:0:0:
235,203,77670,1,0,0:0:0:0:
322,67,77820,2,0,L|205:63,1,92,10|0,0:0|0:0,0:0:0:0:
67,172,78120,5,6,1:0:0:0:
67,172,78270,1,0,1:0:0:0:
235,203,78420,1,0,1:0:0:0:
235,203,78570,1,0,1:0:0:0:
167,109,78720,5,2,1:0:0:0:
136,277,78870,1,0,1:0:0:0:
167,109,79020,1,0,1:0:0:0:
136,277,79170,1,2,1:0:0:0:
305,229,79320,6,0,P|309:191|305:174,3,46,2|0|0|0,1:0|1:0|1:0|1:0,0:0:0:0:
247,287,79620,2,0,P|243:325|247:342,3,46,0|0|0|0,1:0|1:0|1:0|1:0,0:0:0:0:
349,183,79920,6,0,P|325:141|298:122,3,69.0000026321412,0|0|0|0,1:0|1:0|1:0|1:0,0:0:0:0:
414,292,80220,1,0,1:0:0:0:
447,256,80295,1,0,1:0:0:0:
465,211,80370,1,0,1:0:0:0:
466,162,80445,1,0,1:0:0:0:
451,116,80520,5,6,1:0:0:0:
451,116,84420,5,0,1:0:0:0:
451,116,84720,1,0,1:0:0:0:
451,116,85020,1,0,1:0:0:0:
300,89,85320,5,0,1:0:0:0:
451,116,85470,2,0,L|368:104,1,73.6,0|8,0:0|0:0,0:0:0:0:
220,72,85770,1,0,0:0:0:0:
280,160,85920,2,0,L|305:73,1,73.6,0|8,1:0|0:0,0:0:0:0:
141,56,86220,1,0,1:0:0:0:
188,172,86370,1,0,0:0:0:0:
196,147,86445,1,0,0:0:0:0:
204,122,86520,5,0,1:0:0:0:
212,97,86595,1,0,0:0:0:0:
220,72,86670,1,0,1:0:0:0:
62,47,86820,2,0,L|37:134,1,73.6,0|8,0:0|0:0,0:0:0:0:
172,222,87120,1,0,1:0:0:0:
180,197,87195,1,0,0:0:0:0:
188,172,87270,1,8,0:0:0:0:
88,293,87420,1,0,0:0:0:0:
107,311,87495,1,0,0:0:0:0:
128,324,87570,1,0,1:0:0:0:
153,331,87645,1,0,0:0:0:0:
178,331,87720,5,0,1:0:0:0:
272,190,87870,2,0,L|244:278,1,73.6,0|8,0:0|0:0,0:0:0:0:
178,331,88170,1,0,1:0:0:0:
345,219,88320,2,0,L|317:307,1,73.6,0|8,0:0|0:0,0:0:0:0:
178,331,88620,1,0,1:0:0:0:
198,161,88770,1,8,0:0:0:0:
262,359,88920,5,0,1:0:0:0:
256,192,88995,12,0,89970,0:0:0:0:
335,253,90120,6,0,P|355:189|333:134,1,92,6|0,1:0|0:0,0:0:0:0:
189,135,90420,2,0,P|234:184|293:192,1,92,8|0,0:0|0:0,0:0:0:0:
364,68,90720,2,0,P|298:82|261:129,1,92,0|0,1:0|0:0,0:0:0:0:
253,275,91020,1,10,0:0:0:0:
352,166,91170,1,2,0:0:0:0:
189,135,91320,6,0,L|91:145,1,92,2|0,1:0|0:0,0:0:0:0:
5,250,91620,2,0,L|103:260,1,92,8|0,0:0|0:0,0:0:0:0:
189,365,91920,2,0,L|91:375,1,92,0|0,1:0|0:0,0:0:0:0:
5,250,92220,1,10,0:0:0:0:
173,267,92370,1,2,0:0:0:0:
115,95,92520,6,0,P|91:153|99:197,1,92,2|0,1:0|0:0,0:0:0:0:
151,352,92820,2,0,P|175:294|167:250,1,92,8|0,0:0|0:0,0:0:0:0:
93,180,93120,2,0,L|2:187,1,92,2|0,1:0|0:0,0:0:0:0:
172,266,93420,2,0,L|263:259,1,92,10|0,0:0|0:0,0:0:0:0:
344,108,93720,6,0,B|331:141|331:141|343:219,1,92,2|0,1:0|0:0,0:0:0:0:
423,323,94020,2,0,B|436:290|436:290|424:212,1,92,8|0,0:0|0:0,0:0:0:0:
240,116,94320,1,0,1:0:0:0:
263,258,94470,1,0,0:0:0:0:
414,154,94620,1,8,0:0:0:0:
414,154,94770,1,0,1:0:0:0:
215,37,94920,6,0,P|173:67|161:127,1,92,2|0,1:0|0:0,0:0:0:0:
270,197,95220,2,0,P|265:145|219:105,1,92,8|0,0:0|0:0,0:0:0:0:
103,164,95520,2,0,P|149:185|207:165,1,92,0|0,1:0|0:0,0:0:0:0:
313,47,95820,1,8,0:0:0:0:
159,103,95970,1,0,0:0:0:0:
354,188,96120,6,0,L|468:177,1,92,2|0,1:0|0:0,0:0:0:0:
270,197,96420,2,0,L|281:311,1,92,10|0,0:0|0:0,0:0:0:0:
366,366,96720,2,0,L|355:252,1,92,2|0,1:0|0:0,0:0:0:0:
186,208,97020,2,0,L|72:219,1,92,10|0,0:0|0:0,0:0:0:0:
207,381,97320,6,0,L|198:289,1,92,2|0,1:0|0:0,0:0:0:0:
101,130,97620,2,0,P|84:181|103:230,1,92,8|0,0:0|0:0,0:0:0:0:
199,117,97920,1,0,1:0:0:0:
27,67,98070,1,0,0:0:0:0:
263,68,98220,2,0,P|280:119|261:168,1,92,8|2,0:0|0:0,0:0:0:0:
122,320,98520,5,2,1:0:0:0:
93,216,98670,1,0,0:0:0:0:
198,289,98820,2,0,P|199:357|167:392,1,92,8|0,0:0|0:0,0:0:0:0:
93,216,99120,2,0,P|92:148|124:113,1,92,0|0,1:0|0:0,0:0:0:0:
198,289,99420,1,0,1:0:0:0:
198,289,99570,1,0,1:0:0:0:
265,92,99720,6,0,L|157:101,1,92,6|0,1:0|0:0,0:0:0:0:
299,200,100020,2,0,L|407:191,1,92,8|0,0:0|0:0,0:0:0:0:
267,3,100320,2,0,P|255:54|276:109,1,92,0|0,1:0|0:0,0:0:0:0:
296,288,100620,2,0,P|308:237|287:182,1,92,8|0,0:0|0:0,0:0:0:0:
173,99,100920,5,2,1:0:0:0:
93,216,101070,1,0,0:0:0:0:
198,320,101220,1,10,0:0:0:0:
183,191,101370,1,0,0:0:0:0:
0,221,101520,2,0,P|16:274|59:301,1,92,2|0,1:0|0:0,0:0:0:0:
93,216,101820,2,0,P|77:163|34:136,1,92,10|0,0:0|0:0,0:0:0:0:
198,320,102120,6,0,L|298:316,1,92,2|0,1:0|0:0,0:0:0:0:
402,203,102420,2,0,L|302:199,1,92,8|0,0:0|0:0,0:0:0:0:
183,191,102720,1,0,1:0:0:0:
402,203,102870,1,0,0:0:0:0:
207,110,103020,1,10,0:0:0:0:
198,320,103170,1,0,0:0:0:0:
293,90,103320,6,0,P|250:33|202:26,1,92,2|0,1:0|0:0,0:0:0:0:
123,128,103620,2,0,P|166:185|214:192,1,92,8|0,0:0|0:0,0:0:0:0:
377,127,103920,1,0,1:0:0:0:
207,110,104070,1,0,0:0:0:0:
273,251,104220,1,0,1:0:0:0:
273,251,104370,1,0,1:0:0:0:
399,51,104520,6,0,P|342:54|307:89,1,92,2|0,1:0|0:0,0:0:0:0:
433,187,104820,2,0,P|458:136|446:88,1,92,8|0,0:0|0:0,0:0:0:0:
298,148,105120,2,0,P|329:195|376:208,1,92,2|0,1:0|0:0,0:0:0:0:
377,127,105420,1,8,0:0:0:0:
215,173,105570,1,2,1:0:0:0:
351,299,105720,6,0,L|361:190,1,92,2|0,1:0|0:0,0:0:0:0:
265,352,106020,2,0,L|256:260,1,92,8|0,0:0|0:0,0:0:0:0:
159,298,106320,2,0,L|169:189,1,92,2|0,1:0|0:0,0:0:0:0:
186,77,106620,1,8,0:0:0:0:
41,200,106770,2,0,L|95:204,1,46,0|0,0:0|0:0,0:0:0:0:
246,213,106920,6,0,L|300:217,7,46,2|0|0|0|8|0|0|0,1:0|0:0|0:0|0:0|0:0|0:0|0:0|0:0,0:0:0:0:
294,294,107520,2,0,L|348:298,7,46,8|0|0|0|0|0|0|0,0:0|0:0|0:0|0:0|0:0|0:0|0:0|0:0,0:0:0:0:
420,206,108120,6,0,B|429:164|429:164|414:126,9,69.0000026321412,2|0|0|0|8|0|8|8|8|0,1:0|0:0|0:0|0:0|0:0|0:0|0:0|0:0|0:0|0:0,0:0:0:0:
335,89,108870,2,0,B|326:131|326:131|341:169,5,69.0000026321412,2|0|0|0|0|0,1:0|0:0|0:0|0:0|0:0|0:0,0:0:0:0:
414,47,109320,1,8,0:0:0:0:
196,32,109620,6,0,L|69:42,1,115,2|0,1:0|0:0,0:0:0:0:
168,121,109845,1,0,0:0:0:0:
168,121,109920,2,0,L|41:131,1,115,0|0,0:0|0:0,0:0:0:0:
211,204,110145,1,0,0:0:0:0:
211,204,110220,2,0,L|84:214,1,115,0|0,0:0|0:0,0:0:0:0:
307,249,110520,6,0,P|319:206|304:161,1,82.7999974731446,2|0,1:0|0:0,0:0:0:0:
388,47,110820,2,0,P|376:90|391:135,1,82.7999974731446,2|0,1:0|0:0,0:0:0:0:
466,238,111120,1,2,1:0:0:0:
463,87,111270,1,0,0:0:0:0:
466,238,111420,1,0,1:0:0:0:
463,87,111570,1,0,0:0:0:0:
388,262,111720,6,0,L|291:246,1,82.7999974731446,2|0,1:0|0:0,0:0:0:0:
174,316,112020,2,0,L|271:332,1,82.7999974731446,2|0,1:0|0:0,0:0:0:0:
323,152,112320,1,2,1:0:0:0:
181,219,112470,1,0,0:0:0:0:
323,152,112620,1,0,1:0:0:0:
181,219,112770,1,0,0:0:0:0:
291,74,112920,6,0,P|350:70|386:96,1,82.7999974731446,2|0,1:0|0:0,0:0:0:0:
281,261,113220,1,2,1:0:0:0:
214,119,113370,1,2,0:0:0:0:
323,152,113520,1,2,1:0:0:0:
181,219,113670,1,2,0:0:0:0:
182,43,113820,2,0,P|241:39|277:65,1,82.7999974731446,2|2,1:0|0:0,0:0:0:0:
84,233,114120,6,0,L|89:168,1,46,2|0,1:0|0:0,0:0:0:0:
98,50,114420,6,0,L|87:195,1,138.000005264282,10|0,0:0|0:0,0:0:0:0:
151,349,114720,6,0,B|172:323|172:323|181:208,1,138.000005264282,10|0,0:0|0:0,0:0:0:0:
194,40,115020,1,0,1:0:0:0:
194,40,115170,1,2,0:0:0:0:
262,224,115320,6,0,L|155:216,1,82.7999974731446,2|0,1:0|0:0,0:0:0:0:
292,312,115620,2,0,L|399:320,1,82.7999974731446,0|0,1:0|0:0,0:0:0:0:
385,169,115920,1,0,1:0:0:0:
262,224,116070,1,0,0:0:0:0:
385,169,116220,1,2,1:0:0:0:
262,224,116370,1,0,0:0:0:0:
460,207,116520,6,0,P|469:160|454:123,1,82.7999974731446,2|0,1:0|0:0,0:0:0:0:
382,90,116820,2,0,P|373:137|388:174,1,82.7999974731446,2|0,1:0|0:0,0:0:0:0:
496,359,117120,6,0,L|508:251,1,82.7999974731446,2|0,1:0|0:0,0:0:0:0:
384,168,117420,2,0,L|372:276,1,82.7999974731446,2|0,1:0|0:0,0:0:0:0:
278,366,117720,6,0,P|268:322|286:277,1,82.7999974731446,2|0,1:0|0:0,0:0:0:0:
374,250,118020,2,0,P|384:294|366:339,1,82.7999974731446,2|0,1:0|0:0,0:0:0:0:
191,348,118320,6,0,L|97:338,1,82.7999974731446,0|0,1:0|0:0,0:0:0:0:
36,247,118620,2,0,L|130:257,1,82.7999974731446,0|0,1:0|0:0,0:0:0:0:
215,179,118920,5,0,1:0:0:0:
28,326,119070,1,8,3:0:0:0:
48,164,119220,1,0,0:0:0:0:
48,164,119370,1,0,0:0:0:0:
191,348,119520,6,0,P|177:305|167:359,1,138.000005264282,0|0,1:0|0:0,0:0:0:0:
239,249,119820,2,0,P|172:224|100:249,1,138.000005264282,0|0,1:0|0:0,0:0:0:0:
298,342,120120,5,6,1:0:0:0:
322,149,120270,1,0,0:0:0:0:
322,149,120345,1,0,0:0:0:0:
322,149,120420,2,0,L|216:156,1,92,10|0,0:0|0:0,0:0:0:0:
361,246,120720,5,0,1:0:0:0:
167,113,120870,2,0,P|152:148|154:162,2,46,0|0|10,1:0|0:0|0:0,0:0:0:0:
252,58,121170,1,2,0:0:0:0:
242,273,121320,6,0,L|140:265,1,92,2|0,1:0|0:0,0:0:0:0:
117,262,121545,1,0,0:0:0:0:
84,258,121620,1,10,0:0:0:0:
176,353,121770,1,0,0:0:0:0:
107,168,121920,5,2,1:0:0:0:
13,344,122070,1,0,1:0:0:0:
13,344,122145,1,0,0:0:0:0:
13,344,122220,1,10,0:0:0:0:
194,191,122370,1,2,0:0:0:0:
27,89,122520,5,2,1:0:0:0:
60,255,122670,1,0,0:0:0:0:
60,255,122745,1,0,0:0:0:0:
60,255,122820,2,0,P|99:269|153:258,1,92,8|0,0:0|0:0,0:0:0:0:
226,89,123120,5,0,1:0:0:0:
108,168,123270,2,0,P|101:128|106:113,2,46,0|0|10,0:0|0:0|0:0,0:0:0:0:
234,272,123570,1,0,0:0:0:0:
352,172,123720,6,0,L|249:180,1,92,2|0,1:0|0:0,0:0:0:0:
228,182,123945,1,0,0:0:0:0:
196,187,124020,1,8,0:0:0:0:
343,289,124170,1,0,0:0:0:0:
226,89,124320,5,0,1:0:0:0:
234,272,124470,1,0,0:0:0:0:
234,272,124545,1,0,0:0:0:0:
234,272,124620,1,10,0:0:0:0:
352,172,124770,1,2,0:0:0:0:
146,247,124920,6,0,P|144:297|179:341,1,92,2|0,1:0|0:0,0:0:0:0:
131,167,125145,1,0,0:0:0:0:
131,167,125220,2,0,P|86:190|66:242,1,92,10|0,0:0|0:0,0:0:0:0:
192,114,125520,6,0,P|149:87|94:95,1,92,2|0,1:0|0:0,0:0:0:0:
268,140,125745,1,0,0:0:0:0:
268,140,125820,2,0,P|270:90|235:46,1,92,10|0,0:0|0:0,0:0:0:0:
146,247,126120,5,2,1:0:0:0:
273,352,126270,1,0,0:0:0:0:
273,352,126345,1,0,0:0:0:0:
273,352,126420,2,0,L|373:346,1,92,10|0,0:0|0:0,0:0:0:0:
252,226,126720,1,2,1:0:0:0:
157,363,126870,2,0,P|120:371|100:365,2,46,0|0|10,0:0|0:0|0:0,0:0:0:0:
252,226,127170,1,2,0:0:0:0:
93,143,127320,5,2,1:0:0:0:
146,247,127470,1,0,0:0:0:0:
146,247,127545,1,0,0:0:0:0:
146,247,127620,1,8,0:0:0:0:
186,94,127770,1,0,0:0:0:0:
11,115,127920,6,0,P|6:161|44:216,1,92,0|0,1:0|0:0,0:0:0:0:
42,216,128145,1,0,0:0:0:0:
62,225,128220,1,8,0:0:0:0:
186,94,128370,1,2,0:0:0:0:
274,243,128520,5,2,1:0:0:0:
274,243,128820,1,0,1:0:0:0:
274,243,129120,1,0,1:0:0:0:
274,243,129420,1,2,1:0:0:0:
311,87,129570,1,0,1:0:0:0:
196,269,129720,6,0,P|223:313|280:326,1,92,6|0,1:0|0:0,0:0:0:0:
354,221,130020,2,0,P|327:177|270:164,1,92,10|0,0:0|0:0,0:0:0:0:
311,87,130245,1,0,0:0:0:0:
311,87,130320,2,0,P|259:88|219:131,1,92,2|0,1:0|0:0,0:0:0:0:
196,269,130620,1,10,0:0:0:0:
290,163,130770,1,0,0:0:0:0:
92,240,130920,5,2,1:0:0:0:
289,322,131070,2,0,P|335:329|353:325,2,46,2|0|10,1:0|0:0|0:0,0:0:0:0:
196,269,131370,1,2,0:0:0:0:
389,234,131520,5,2,1:0:0:0:
194,366,131670,1,2,1:0:0:0:
194,366,131745,1,0,0:0:0:0:
194,366,131820,2,0,P|130:345|110:315,1,92,10|2,0:0|0:0,0:0:0:0:
252,131,132120,5,2,1:0:0:0:
196,269,132270,1,0,0:0:0:0:
196,269,132345,1,0,0:0:0:0:
196,269,132420,1,10,0:0:0:0:
138,129,132570,1,0,0:0:0:0:
321,83,132720,6,0,P|335:149|305:194,1,92,2|0,1:0|0:0,0:0:0:0:
407,211,132945,1,0,0:0:0:0:
407,211,133020,2,0,P|356:256|302:252,1,92,10|0,0:0|0:0,0:0:0:0:
252,131,133320,5,2,1:0:0:0:
463,117,133470,2,0,L|381:121,1,57.5,2|0,1:0|0:0,0:0:0:0:
138,129,133620,2,0,B|167:136|167:136|264:131,1,115,10|2,0:0|0:0,0:0:0:0:
140,25,133920,6,0,B|111:18|111:18|14:23,1,115,2|2,1:0|1:0,0:0:0:0:
135,242,134220,1,10,0:0:0:0:
239,29,134370,1,0,0:0:0:0:
239,29,134445,1,0,0:0:0:0:
239,29,134520,6,0,P|292:42|316:83,1,92,2|0,1:0|0:0,0:0:0:0:
450,160,134820,2,0,P|421:195|376:203,1,92,10|0,0:0|0:0,0:0:0:0:
383,34,135045,1,0,0:0:0:0:
382,33,135120,2,0,P|398:76|383:118,1,92,2|0,1:0|0:0,0:0:0:0:
239,113,135420,2,0,P|276:73|324:73,1,92,10|0,0:0|0:0,0:0:0:0:
357,295,135720,5,2,1:0:0:0:
178,182,135870,1,2,1:0:0:0:
178,182,135945,1,0,0:0:0:0:
178,182,136020,2,0,L|80:192,1,92,10|2,0:0|0:0,0:0:0:0:
226,330,136320,5,2,1:0:0:0:
239,113,136470,1,2,1:0:0:0:
239,113,136545,1,0,0:0:0:0:
239,113,136620,1,10,0:0:0:0:
129,279,136770,1,2,0:0:0:0:
315,369,136920,6,0,P|324:325|308:283,1,92,2|0,1:0|0:0,0:0:0:0:
366,139,137220,2,0,P|356:183|373:225,1,92,10|0,0:0|0:0,0:0:0:0:
358,55,137445,1,0,0:0:0:0:
358,55,137520,6,0,P|314:69|286:104,1,92,2|0,1:0|0:0,0:0:0:0:
440,177,137820,2,0,P|483:162|511:127,1,92,10|0,0:0|0:0,0:0:0:0:
286,104,138120,5,2,1:0:0:0:
307,282,138270,1,0,1:0:0:0:
307,282,138345,1,0,0:0:0:0:
307,282,138420,1,10,0:0:0:0:
358,55,138570,1,2,0:0:0:0:
192,181,138720,5,2,1:0:0:0:
366,139,138870,1,2,1:0:0:0:
116,137,139020,5,10,0:0:0:0:
290,179,139170,1,2,1:0:0:0:
230,23,139320,5,6,1:0:0:0:
82,374,140520,6,0,L|75:295,1,73.6,2|0,0:0|0:0,0:0:0:0:
148,262,140820,2,0,L|141:183,1,73.6,2|0,0:0|0:0,0:0:0:0:
214,150,141120,5,6,1:0:0:0:
430,374,145320,6,0,L|437:295,1,73.6,2|0,0:0|0:0,0:0:0:0:
364,262,145620,2,0,L|371:183,1,73.6,2|0,0:0|0:0,0:0:0:0:
298,150,145920,5,4,1:0:0:0:
298,150,146670,1,0,1:0:0:0:
384,45,146970,1,0,1:0:0:0:
364,262,147120,1,2,1:0:0:0:
364,262,147570,1,0,1:0:0:0:
298,150,147720,5,2,1:0:0:0:
456,166,147870,1,2,1:0:0:0:
356,350,148020,1,2,1:0:0:0:
381,118,148170,1,0,1:0:0:0:
356,350,148320,5,2,1:0:0:0:
356,350,148920,6,0,B|310:340|310:340|206:358,1,147.2,6|2,1:0|1:0,0:0:0:0:
42,272,149520,2,0,B|88:282|88:282|192:264,1,147.2,2|2,1:0|1:0,0:0:0:0:
341,211,150120,5,2,1:0:0:0:
186,264,150420,1,2,1:0:0:0:
341,211,150720,1,2,1:0:0:0:
186,264,151020,1,2,1:0:0:0:
350,132,151320,5,0,1:0:0:0:
291,272,151470,2,0,P|264:232|264:198,2,73.6,2|0|2,0:0|1:0|0:0,0:0:0:0:
341,211,151920,1,2,1:0:0:0:
341,211,152220,1,0,1:0:0:0:
251,100,152370,1,2,0:0:0:0:
394,278,152520,5,2,1:0:0:0:
394,278,153120,6,0,P|428:263|373:250,1,138,0|0,0:0|0:0,0:0:0:0:
326,328,153720,6,0,P|371:363|435:346,1,92,6|0,1:0|0:0,0:0:0:0:
342,158,154020,1,8,0:0:0:0:
256,273,154170,1,2,0:0:0:0:
256,273,154245,1,0,0:0:0:0:
256,273,154320,2,0,P|211:308|147:291,1,92,2|0,1:0|0:0,0:0:0:0:
129,191,154620,2,0,P|174:156|238:173,1,92,10|0,0:0|0:0,0:0:0:0:
326,328,154920,5,2,1:0:0:0:
342,158,155070,1,2,0:0:0:0:
342,158,155220,2,0,L|441:169,1,92,10|2,0:0|0:0,0:0:0:0:
350,65,155520,2,0,L|251:76,1,92,2|0,1:0|0:0,0:0:0:0:
235,78,155745,1,0,0:0:0:0:
212,82,155820,1,10,0:0:0:0:
334,246,155970,1,0,0:0:0:0:
150,142,156120,6,0,P|124:85|148:26,1,92,2|0,1:0|0:0,0:0:0:0:
232,193,156420,1,8,0:0:0:0:
120,286,156570,1,2,0:0:0:0:
120,286,156645,1,0,0:0:0:0:
120,286,156720,2,0,P|57:280|18:229,1,92,2|0,1:0|0:0,0:0:0:0:
66,118,157020,2,0,P|128:123|167:174,1,92,10|0,0:0|0:0,0:0:0:0:
202,344,157320,5,2,1:0:0:0:
232,193,157470,1,2,0:0:0:0:
290,325,157620,1,10,0:0:0:0:
305,249,157770,1,2,0:0:0:0:
378,303,157920,1,2,1:0:0:0:
168,258,158070,1,0,0:0:0:0:
168,258,158145,1,0,0:0:0:0:
168,258,158220,1,8,0:0:0:0:
316,150,158370,1,0,0:0:0:0:
485,300,158520,6,0,P|423:319|371:297,1,115,2|0,1:0|0:0,0:0:0:0:
316,150,158820,2,0,P|378:131|430:153,1,115,10|0,0:0|0:0,0:0:0:0:
351,380,159120,1,2,1:0:0:0:
305,249,159270,1,0,0:0:0:0:
305,249,159345,1,0,0:0:0:0:
305,249,159420,1,10,0:0:0:0:
485,300,159570,1,2,0:0:0:0:
423,147,159720,5,2,1:0:0:0:
377,302,159870,1,2,1:0:0:0:
379,74,160020,5,10,1:3:0:0:
430,233,160170,1,2,1:0:0:0:
475,22,160320,5,2,1:0:0:0:
475,22,160620,2,0,L|356:17,1,115,10|0,0:0|0:0,0:0:0:0:
181,171,160920,5,0,1:0:0:0:
133,96,161070,1,2,0:0:0:0:
133,96,161145,1,0,0:0:0:0:
133,96,161220,2,0,P|192:78|235:101,1,92,8|2,0:0|0:0,0:0:0:0:
240,253,161520,1,2,1:0:0:0:
181,171,161670,1,0,0:0:0:0:
289,323,161820,2,0,P|230:341|187:318,1,92,8|2,0:0|0:0,0:0:0:0:
61,247,162120,5,2,1:0:0:0:
325,249,162270,1,2,1:0:0:0:
107,326,162420,5,10,1:3:0:0:
181,171,162570,1,2,1:0:0:0:
289,323,162720,5,2,1:0:0:0:
289,323,163020,2,0,P|352:328|395:296,1,115,8|0,0:0|0:0,0:0:0:0:
191,56,163320,6,0,L|179:185,1,115,2|0,1:0|0:0,0:0:0:0:
107,326,163620,2,0,L|96:211,1,115,10|0,0:0|0:0,0:0:0:0:
273,140,163920,1,2,1:0:0:0:
198,267,164070,1,0,0:0:0:0:
198,267,164145,1,0,0:0:0:0:
198,267,164220,1,10,0:0:0:0:
93,110,164370,1,2,0:0:0:0:
329,62,164520,5,2,1:0:0:0:
180,170,164670,1,2,1:0:0:0:
388,154,164820,5,10,1:3:0:0:
191,56,164970,1,2,1:0:0:0:
458,35,165120,5,2,1:0:0:0:
458,35,165420,2,0,P|479:115|458:156,1,115,10|0,0:0|0:0,0:0:0:0:
326,232,165720,5,0,1:0:0:0:
296,95,165870,1,2,0:0:0:0:
296,95,165945,1,0,0:0:0:0:
296,95,166020,2,0,L|392:92,1,92,8|2,0:0|0:0,0:0:0:0:
348,314,166320,1,2,1:0:0:0:
221,170,166470,1,0,0:0:0:0:
412,195,166620,1,8,0:0:0:0:
326,232,166770,1,0,0:0:0:0:
479,268,166920,5,2,1:0:0:0:
221,170,167070,1,2,0:0:0:0:
486,150,167220,5,10,0:0:0:0:
251,268,167370,1,2,0:0:0:0:
337,117,167520,6,0,L|325:233,1,115,2|0,1:0|0:0,0:0:0:0:
176,364,167820,2,0,L|164:249,1,115,8|0,0:0|0:0,0:0:0:0:
325,317,168120,6,0,P|365:324|405:305,1,73.6,6|0,1:0|0:0,0:0:0:0:
498,338,168420,2,0,P|505:298|486:258,1,73.6,0|0,0:0|0:0,0:0:0:0:
411,191,168720,1,2,0:0:0:0:
411,191,169020,2,0,L|406:115,1,73.6,0|0,0:0|0:0,0:0:0:0:
291,46,169320,5,2,0:0:0:0:
314,156,169470,1,0,0:0:0:0:
291,46,169620,1,2,0:0:0:0:
314,156,169770,1,0,0:0:0:0:
205,83,169920,2,0,P|197:37|206:6,1,73.6,2|0,0:0|0:0,0:0:0:0:
391,121,170220,2,0,P|399:167|390:198,1,73.6,2|0,0:0|0:0,0:0:0:0:
325,317,170520,5,2,0:0:0:0:
325,317,170820,1,0,0:0:0:0:
237,251,170970,1,0,0:0:0:0:
434,294,171120,2,0,L|519:310,1,73.6,2|0,0:0|0:0,0:0:0:0:
392,192,171420,2,0,L|307:208,1,73.6,0|0,0:0|0:0,0:0:0:0:
232,345,171720,5,2,0:0:0:0:
185,176,171870,1,0,0:0:0:0:
237,251,172020,1,2,0:0:0:0:
99,150,172170,1,0,0:0:0:0:
13,187,172320,6,0,P|36:221|75:240,1,73.6,2|0,0:0|0:0,0:0:0:0:
111,60,172620,2,0,P|69:63|33:87,1,73.6,2|0,0:0|0:0,0:0:0:0:
178,267,172920,6,0,L|185:163,1,92,6|0,1:0|0:0,0:0:0:0:
266,59,173220,2,0,L|272:150,1,92,10|0,0:0|0:0,0:0:0:0:
378,258,173520,1,2,1:0:0:0:
376,116,173670,1,0,0:0:0:0:
376,116,173745,1,0,0:0:0:0:
376,116,173820,1,10,0:0:0:0:
279,259,173970,1,2,0:0:0:0:
469,271,174120,6,0,P|467:222|429:181,1,92,2|0,1:0|0:0,0:0:0:0:
279,259,174420,1,10,0:0:0:0:
378,258,174570,1,2,0:0:0:0:
212,196,174720,2,0,P|185:232|184:278,1,92,2|0,1:0|0:0,0:0:0:0:
297,175,175020,2,0,P|278:133|239:110,1,92,10|0,0:0|0:0,0:0:0:0:
212,196,175320,5,0,1:0:0:0:
378,258,175470,2,0,L|475:250,1,92,2|8,0:0|0:0,0:0:0:0:
408,156,175770,1,2,0:0:0:0:
343,348,175920,2,0,L|246:340,1,92,2|0,1:0|0:0,0:0:0:0:
138,320,176220,1,8,0:0:0:0:
296,226,176370,1,2,0:0:0:0:
90,235,176520,5,2,1:0:0:0:
90,235,176670,1,2,0:0:0:0:
190,158,176820,1,10,0:0:0:0:
138,320,176970,1,2,0:0:0:0:
20,184,177120,2,0,P|57:155|109:152,1,92,2|0,1:0|0:0,0:0:0:0:
258,209,177420,2,0,P|221:238|169:241,1,92,8|0,0:0|0:0,0:0:0:0:
154,62,177720,6,0,L|278:77,1,115,6|0,1:0|0:0,0:0:0:0:
459,179,178020,2,0,L|335:194,1,115,10|0,0:0|0:0,0:0:0:0:
190,158,178320,1,2,1:0:0:0:
361,94,178470,1,0,0:0:0:0:
361,94,178545,1,0,0:0:0:0:
361,94,178620,1,10,0:0:0:0:
258,209,178770,1,2,0:0:0:0:
305,19,178920,6,0,P|365:4|426:35,1,115,2|0,1:0|0:0,0:0:0:0:
395,221,179220,1,10,0:0:0:0:
361,94,179370,1,2,0:0:0:0:
447,297,179520,2,0,P|387:312|326:281,1,115,2|0,1:0|0:0,0:0:0:0:
258,209,179820,1,10,0:0:0:0:
278,360,179970,1,0,0:0:0:0:
395,221,180120,5,0,1:0:0:0:
173,200,180270,2,0,P|181:246|250:295,1,115,2|8,0:0|0:0,0:0:0:0:
219,124,180570,1,2,0:0:0:0:
86,240,180720,2,0,L|106:360,1,115,2|0,1:0|0:0,0:0:0:0:
173,200,181020,1,8,0:0:0:0:
18,170,181170,1,2,0:0:0:0:
219,124,181320,6,0,L|281:134,4,55.1999983154297,2|0|2|0|2,1:0|0:0|0:0|0:0|0:0,0:0:0:0:
219,124,182220,1,2,1:0:0:0:
409,134,182520,6,0,L|389:230,1,92,6|0,1:0|0:0,0:0:0:0:
342,313,182820,1,8,0:0:0:0:
273,132,182970,1,2,0:0:0:0:
273,132,183045,1,0,0:0:0:0:
273,132,183120,2,0,L|293:228,1,92,2|0,1:0|0:0,0:0:0:0:
433,333,183420,1,8,0:0:0:0:
258,335,183570,1,2,0:0:0:0:
415,247,183720,6,0,P|482:258|509:302,1,92,2|2,1:0|0:0,0:0:0:0:
258,335,184020,2,0,P|191:324|164:280,1,92,10|2,0:0|0:0,0:0:0:0:
273,132,184320,2,0,L|377:138,1,92,2|0,1:0|0:0,0:0:0:0:
387,140,184545,1,0,0:0:0:0:
409,143,184620,1,10,0:0:0:0:
301,48,184770,1,0,0:0:0:0:
242,212,184920,6,0,P|195:176|189:130,1,92,2|0,1:0|0:0,0:0:0:0:
273,132,185220,1,8,0:0:0:0:
208,291,185370,1,2,0:0:0:0:
96,131,185520,2,0,L|195:147,1,92,2|0,1:0|0:0,0:0:0:0:
332,226,185820,2,0,L|233:210,1,92,8|2,0:0|0:0,0:0:0:0:
62,262,186120,5,2,1:0:0:0:
208,291,186270,1,2,1:0:0:0:
81,348,186420,1,10,0:0:0:0:
154,362,186570,1,2,1:0:0:0:
145,217,186720,1,2,1:0:0:0:
308,316,186870,1,0,0:0:0:0:
308,316,186945,1,0,0:0:0:0:
308,316,187020,1,8,0:0:0:0:
208,291,187170,1,0,0:0:0:0:
391,269,187320,6,0,P|403:330|370:390,1,115,2|0,1:0|0:0,0:0:0:0:
271,222,187620,2,0,P|259:161|292:101,1,115,10|0,0:0|0:0,0:0:0:0:
505,256,187920,2,0,L|366:271,1,115,2|0,1:0|0:0,0:0:0:0:
279,114,188220,1,10,0:0:0:0:
429,182,188370,1,2,0:0:0:0:
271,222,188520,5,2,1:0:0:0:
271,222,188670,1,0,0:0:0:0:
183,63,188820,1,10,0:0:0:0:
377,97,188970,1,2,0:0:0:0:
279,114,189120,2,0,P|277:57|319:10,1,115,2|0,1:0|0:0,0:0:0:0:
377,97,189420,2,0,P|379:154|337:201,1,115,10|0,0:0|0:0,0:0:0:0:
226,328,189720,5,0,1:0:0:0:
179,213,189870,2,0,L|297:224,1,92,2|8,0:0|0:0,0:0:0:0:
146,357,190170,1,2,0:0:0:0:
96,191,190320,2,0,P|135:138|194:131,1,92,2|0,1:0|0:0,0:0:0:0:
308,296,190620,1,8,0:0:0:0:
179,213,190770,1,2,0:0:0:0:
389,262,190920,5,2,1:0:0:0:
226,328,191070,1,2,1:0:0:0:
351,183,191220,1,10,0:0:0:0:
351,183,191370,1,2,0:0:0:0:
376,348,191520,1,2,1:0:0:0:
263,191,191670,1,0,0:0:0:0:
263,191,191745,1,0,0:0:0:0:
263,191,191820,2,0,P|272:134|326:98,1,92,8|0,0:0|0:0,0:0:0:0:
465,189,192120,6,0,L|332:181,1,115,2|0,1:0|0:0,0:0:0:0:
180,103,192420,2,0,L|313:111,1,115,10|0,0:0|0:0,0:0:0:0:
389,275,192720,2,0,L|256:267,1,115,2|0,1:0|0:0,0:0:0:0:
122,254,193020,1,10,0:0:0:0:
263,191,193170,1,2,0:0:0:0:
149,338,193320,5,2,1:0:0:0:
92,170,193470,1,0,0:0:0:0:
274,268,193620,1,10,0:0:0:0:
274,268,193770,1,2,0:0:0:0:
122,254,193920,2,0,P|61:254|11:213,1,115,2|0,1:0|0:0,0:0:0:0:
59,82,194220,2,0,P|120:82|170:123,1,115,10|0,0:0|0:0,0:0:0:0:
240,348,194520,5,0,1:0:0:0:
92,170,194670,1,2,1:0:0:0:
149,338,194820,5,8,1:3:0:0:
297,160,194970,1,2,1:0:0:0:
331,358,195120,5,2,1:0:0:0:
183,180,195270,1,0,1:0:0:0:
240,348,195420,5,8,1:3:0:0:
388,170,195570,1,2,1:0:0:0:
417,365,195720,5,2,1:0:0:0:
417,365,196620,1,2,1:0:0:0:
417,365,196920,6,0,P|434:320|425:279,1,92,6|0,1:0|0:0,0:0:0:0:
410,260,197145,1,0,0:0:0:0:
391,246,197220,1,10,0:0:0:0:
289,311,197370,1,0,0:0:0:0:
461,195,197520,1,2,1:0:0:0:
298,171,197670,2,0,P|268:169|246:174,2,46,2|0|8,0:0|0:0|0:0,0:0:0:0:
391,246,197970,1,0,0:0:0:0:
254,94,198120,6,0,P|198:115|175:160,1,92,2|0,1:0|0:0,0:0:0:0:
177,162,198345,1,0,0:0:0:0:
178,184,198420,1,10,0:0:0:0:
298,171,198570,1,0,0:0:0:0:
83,111,198720,1,2,1:0:0:0:
236,246,198870,2,0,L|232:292,2,46,2|0|8,0:0|0:0|0:0,0:0:0:0:
254,94,199170,1,0,0:0:0:0:
366,240,199320,6,0,P|408:251|461:240,1,92,2|2,1:0|1:0,0:0:0:0:
475,231,199545,1,0,0:0:0:0:
490,214,199620,1,10,0:0:0:0:
413,138,199770,1,0,0:0:0:0:
298,171,199920,1,2,1:0:0:0:
379,342,200070,1,2,1:0:0:0:
379,342,200145,1,0,0:0:0:0:
379,342,200220,1,10,0:0:0:0:
366,240,200370,1,0,0:0:0:0:
232,291,200520,5,2,1:0:0:0:
232,291,200670,1,0,0:0:0:0:
77,237,200820,1,2,1:0:0:0:
77,237,200970,1,0,0:0:0:0:
148,183,201120,2,0,P|166:231|70:325,1,184,2|2,1:0|1:0,0:0:0:0:
27,33,201720,5,6,1:0:0:0:
145,98,201870,1,0,0:0:0:0:
145,98,201945,1,0,0:0:0:0:
145,98,202020,2,0,L|266:87,1,92,10|0,0:0|0:0,0:0:0:0:
115,5,202320,1,2,1:0:0:0:
36,154,202470,2,0,P|34:182|38:204,2,46,2|0|8,0:0|0:0|0:0,0:0:0:0:
145,98,202770,1,0,0:0:0:0:
254,216,202920,6,0,P|215:233|150:216,1,92,2|0,1:0|0:0,0:0:0:0:
145,218,203145,1,0,0:0:0:0:
127,202,203220,1,10,0:0:0:0:
236,89,203370,1,0,0:0:0:0:
148,307,203520,1,2,1:0:0:0:
36,199,203670,2,0,P|33:176|36:154,2,46,2|0|8,0:0|0:0|0:0,0:0:0:0:
148,307,203970,1,0,0:0:0:0:
345,221,204120,6,0,L|230:214,1,92,2|0,1:0|0:0,0:0:0:0:
230,214,204345,1,0,0:0:0:0:
207,212,204420,1,10,0:0:0:0:
293,307,204570,1,0,0:0:0:0:
340,127,204720,1,2,1:0:0:0:
207,212,204870,1,2,1:0:0:0:
207,212,204945,1,0,0:0:0:0:
207,212,205020,1,10,0:0:0:0:
431,226,205170,1,0,0:0:0:0:
336,35,205320,5,2,1:0:0:0:
345,221,205470,1,0,0:0:0:0:
336,35,205620,1,2,1:0:0:0:
345,221,205770,1,0,0:0:0:0:
340,127,205920,2,0,P|259:191|286:292,1,184,2|2,1:0|1:0,0:0:0:0:
494,361,206520,5,6,1:0:0:0:
376,312,206670,1,0,0:0:0:0:
376,312,206745,1,0,0:0:0:0:
376,312,206820,2,0,L|269:319,1,92,10|0,0:0|0:0,0:0:0:0:
174,326,207120,1,2,1:0:0:0:
316,230,207270,2,0,L|362:227,2,46,2|0|10,0:0|0:0|0:0,0:0:0:0:
221,238,207570,1,0,0:0:0:0:
397,145,207720,6,0,P|447:198|445:249,1,92,2|0,1:0|0:0,0:0:0:0:
448,237,207945,1,0,0:0:0:0:
440,258,208020,1,10,0:0:0:0:
310,142,208170,1,0,0:0:0:0:
474,53,208320,1,2,1:0:0:0:
322,12,208470,2,0,P|284:10|260:20,2,46,0|0|10,0:0|0:0|0:0,0:0:0:0:
397,145,208770,1,0,0:0:0:0:
242,202,208920,6,0,P|217:159|229:102,1,92,0|2,1:0|1:0,0:0:0:0:
230,97,209145,1,0,0:0:0:0:
244,79,209220,1,10,0:0:0:0:
337,224,209370,1,0,0:0:0:0:
146,217,209520,1,2,1:0:0:0:
315,146,209670,1,0,0:0:0:0:
315,146,209745,1,0,0:0:0:0:
315,146,209820,1,10,0:0:0:0:
195,287,209970,1,0,0:0:0:0:
88,120,210120,5,2,1:0:0:0:
88,120,210270,1,0,0:0:0:0:
66,288,210420,1,2,1:0:0:0:
66,288,210570,1,0,0:0:0:0:
6,82,210720,2,0,B|69:78|69:78|114:100|114:100|208:95,1,184,2|2,1:0|1:0,0:0:0:0:
491,33,211320,5,4,1:0:0:0:
384,138,211470,1,0,0:0:0:0:
384,138,211545,1,0,0:0:0:0:
384,138,211620,2,0,P|367:88|381:45,1,92,10|2,0:0|0:0,0:0:0:0:
474,175,211920,1,2,1:0:0:0:
285,129,212070,2,0,P|263:127|233:139,2,46,2|0|10,0:0|0:0|0:0,0:0:0:0:
399,230,212370,1,2,0:0:0:0:
295,329,212520,6,0,L|196:323,1,92,2|2,1:0|0:0,0:0:0:0:
180,320,212745,1,0,0:0:0:0:
157,319,212820,1,10,0:0:0:0:
253,220,212970,1,0,0:0:0:0:
385,343,213120,1,2,1:0:0:0:
399,230,213270,2,0,L|404:181,2,46,2|0|8,0:0|0:0|0:0,0:0:0:0:
295,329,213570,1,0,0:0:0:0:
181,166,213720,6,0,P|223:134|291:142,1,92,0|0,1:0|0:0,0:0:0:0:
283,135,213945,1,0,0:0:0:0:
303,146,214020,1,10,0:0:0:0:
172,249,214170,1,0,0:0:0:0:
91,83,214320,1,2,1:0:0:0:
181,166,214470,1,0,0:0:0:0:
181,166,214545,1,0,0:0:0:0:
181,166,214620,1,10,0:0:0:0:
5,111,214770,1,2,0:0:0:0:
195,55,214920,5,2,1:0:0:0:
26,366,216120,6,0,P|17:318|34:275,1,92,6|0,1:0|0:0,0:0:0:0:
46,182,216420,2,0,P|89:196|119:230,1,92,10|0,0:0|0:0,0:0:0:0:
195,291,216720,2,0,P|161:321|116:330,1,92,2|2,1:0|0:0,0:0:0:0:
93,329,216945,1,0,0:0:0:0:
70,322,217020,1,8,0:0:0:0:
119,230,217170,1,0,0:0:0:0:
275,338,217320,6,0,L|376:331,1,92,2|0,1:0|0:0,0:0:0:0:
466,243,217620,2,0,L|365:236,1,92,10|0,0:0|0:0,0:0:0:0:
275,148,217920,2,0,L|376:141,1,92,2|2,1:0|0:0,0:0:0:0:
389,138,218145,1,0,0:0:0:0:
411,137,218220,1,8,0:0:0:0:
205,107,218370,2,0,P|192:141|199:173,1,46,0|0,0:0|0:0,0:0:0:0:
328,289,218520,5,2,1:0:0:0:
275,148,218670,1,2,0:0:0:0:
244,335,218820,1,10,0:0:0:0:
401,230,218970,1,2,0:0:0:0:
401,230,219045,1,0,0:0:0:0:
401,230,219120,5,0,1:0:0:0:
210,260,219270,2,0,P|250:252|271:260,1,46,2|0,0:0|0:0,0:0:0:0:
399,349,219420,1,10,0:0:0:0:
244,335,219570,1,0,0:0:0:0:
478,262,219720,6,0,P|484:217|457:170,1,92,2|0,1:0|0:0,0:0:0:0:
437,86,220020,2,0,P|395:103|367:150,1,92,10|0,0:0|0:0,0:0:0:0:
305,209,220320,2,0,P|340:236|395:236,1,92,2|2,1:0|0:0,0:0:0:0:
408,235,220545,1,0,0:0:0:0:
428,224,220620,1,8,0:0:0:0:
275,133,220770,2,0,P|255:144|236:166,1,46,0|0,0:0|0:0,0:0:0:0:
257,327,220920,6,0,L|361:321,1,92,2|0,1:0|0:0,0:0:0:0:
138,242,221220,2,0,L|242:248,1,92,10|0,0:0|0:0,0:0:0:0:
42,349,221520,2,0,L|146:343,1,92,2|0,1:0|0:0,0:0:0:0:
157,342,221745,1,0,0:0:0:0:
179,340,221820,1,10,0:0:0:0:
64,202,221970,2,0,P|53:238|64:285,1,46,2|0,0:0|0:0,0:0:0:0:
176,145,222120,5,2,1:0:0:0:
54,111,222270,1,0,0:0:0:0:
197,151,222420,1,10,0:0:0:0:
28,37,222570,2,0,P|71:33|89:41,1,46,0|0,0:0|0:0,0:0:0:0:
252,206,222720,6,0,P|276:148|256:107,1,92,2|0,1:0|0:0,0:0:0:0:
257,102,222945,1,0,0:0:0:0:
240,85,223020,1,10,0:0:0:0:
175,231,223170,1,0,0:0:0:0:
350,179,223320,6,0,L|452:192,1,92,0|0,1:0|0:0,0:0:0:0:
457,286,223620,2,0,L|355:273,1,92,10|0,0:0|0:0,0:0:0:0:
333,89,223920,2,0,L|435:102,1,92,2|0,1:0|0:0,0:0:0:0:
446,105,224145,1,0,0:0:0:0:
468,109,224220,1,10,0:0:0:0:
350,179,224370,2,0,L|283:167,1,46
195,95,224520,5,2,1:0:0:0:
333,89,224670,1,2,0:0:0:0:
128,144,224820,2,0,P|111:94|144:36,1,92,10|2,0:0|0:0,0:0:0:0:
135,38,225045,1,0,0:0:0:0:
152,23,225120,5,2,1:0:0:0:
185,204,225270,2,0,P|152:224|118:230,1,46,2|0,0:0|0:0,0:0:0:0:
23,87,225420,1,10,0:0:0:0:
252,155,225570,1,0,0:0:0:0:
70,297,225720,6,0,L|63:198,1,92,0|0,1:0|0:0,0:0:0:0:
222,280,226020,2,0,L|215:371,1,92,10|2,0:0|0:0,0:0:0:0:
367,354,226320,2,0,L|374:263,1,92,2|0,1:0|0:0,0:0:0:0:
377,240,226545,1,0,0:0:0:0:
379,217,226620,1,10,0:0:0:0:
217,234,226770,2,0,P|218:266|230:296,1,46,0|0,0:0|0:0,0:0:0:0:
335,135,226920,5,2,1:0:0:0:
166,166,227070,1,2,0:0:0:0:
358,128,227220,1,10,0:0:0:0:
123,93,227370,2,0,P|161:82|200:91,1,46,0|0,0:0|0:0,0:0:0:0:
385,125,227520,6,0,L|377:234,1,92,2|0,1:0|0:0,0:0:0:0:
254,104,227820,2,0,L|262:-5,1,92,10|0,0:0|0:0,0:0:0:0:
464,81,228120,6,0,P|476:134|460:174,1,92,2|0,1:0|0:0,0:0:0:0:
297,273,228420,2,0,P|285:220|301:180,1,92,10|2,0:0|0:0,0:0:0:0:
468,270,228720,2,0,P|480:323|464:363,1,92,2|2,1:0|0:0,0:0:0:0:
450,372,228945,1,0,0:0:0:0:
427,378,229020,1,10,0:0:0:0:
297,273,229170,2,0,P|285:233|294:197,1,46,2|0,0:0|0:0,0:0:0:0:
383,100,229320,6,0,L|374:194,1,92,0|0,1:0|0:0,0:0:0:0:
235,341,229620,2,0,P|206:296|215:240,1,92,10|0,0:0|0:0,0:0:0:0:
215,237,229845,1,0,0:0:0:0:
228,218,229920,1,2,1:0:0:0:
385,309,230070,2,0,P|350:303|329:307,1,46,2|0,0:0|0:0,0:0:0:0:
141,356,230220,1,8,0:0:0:0:
247,201,230370,1,0,0:0:0:0:
247,201,230445,1,0,0:0:0:0:
247,201,230520,6,0,L|243:104,1,92,0|0,1:0|0:0,0:0:0:0:
122,39,230820,2,0,L|118:130,1,92,8|0,0:0|0:0,0:0:0:0:
56,256,231120,2,0,P|111:276|150:272,1,92,2|0,1:0|0:0,0:0:0:0:
165,268,231345,1,0,0:0:0:0:
184,256,231420,1,10,0:0:0:0:
118,130,231570,2,0,P|113:160|119:185,1,46,0|0,0:0|0:0,0:0:0:0:
255,307,231720,6,0,P|271:250|245:200,1,92,2|2,1:0|1:0,0:0:0:0:
309,55,232020,2,0,P|293:112|319:162,1,92,10|0,0:0|0:0,0:0:0:0:
387,223,232320,2,0,P|444:239|494:213,1,92,2|2,1:0|0:0,0:0:0:0:
493,217,232545,1,0,0:0:0:0:
503,196,232620,1,8,0:0:0:0:
376,102,232770,1,0,0:0:0:0:
335,286,232920,6,0,P|366:304|401:306,3,46,10|0|0|0,0:0|0:0|0:0|0:0,0:0:0:0:
262,218,233220,2,0,P|231:200|196:198,3,46,10|0|0|0,0:0|0:0|0:0|0:0,0:0:0:0:
355,329,233520,6,0,P|390:329|430:310,3,69.0000026321412,10|0|0|0,0:0|0:0|0:0|0:0,0:0:0:0:
243,184,233820,2,0,P|207:183|168:203,3,69.0000026321412,10|0|0|0,0:0|0:0|0:0|0:0,0:0:0:0:
125,327,234120,5,8,0:0:0:0:
133,307,234195,1,8,0:0:0:0:
126,288,234270,1,8,0:0:0:0:
107,280,234345,1,8,0:0:0:0:
88,287,234420,1,8,0:0:0:0:
79,306,234495,1,8,0:0:0:0:
86,325,234570,1,8,0:0:0:0:
106,333,234645,1,8,0:0:0:0:
125,327,234720,5,8,0:0:0:0:
167,304,234795,1,8,0:0:0:0:
213,291,234870,1,8,0:0:0:0:
261,294,234945,1,8,0:0:0:0:
304,314,235020,1,10,0:0:0:0:
343,341,235095,1,8,0:0:0:0:
391,344,235170,1,10,0:0:0:0:
437,331,235245,1,8,0:0:0:0:
472,298,235320,5,4,1:0:0:0:
