osu file format v14

[General]
AudioFilename: audio.mp3
AudioLeadIn: 0
PreviewTime: 153720
Countdown: 0
SampleSet: None
StackLeniency: 0.7
Mode: 0
LetterboxInBreaks: 0
WidescreenStoryboard: 0

[Editor]
Bookmarks: 2220,235320
DistanceSpacing: 1.3
BeatDivisor: 4
GridSize: 4
TimelineZoom: 2.5

[Metadata]
Title:Putin's Boner
TitleUnicode:Putin's Boner
Artist:Helblinde
ArtistUnicode:Helblinde
Creator:Sotarks
Version:Kin's Hard
Source:
Tags:Get Low The East Side Boyz Breakcore Hardcore Russia Lil Jon Russian Alphabet Kin Akitoshi Corinn Venax
BeatmapID:1572874
BeatmapSetID:737714

[Difficulty]
HPDrainRate:5
CircleSize:3.8
OverallDifficulty:6
ApproachRate:8
SliderMultiplier:1.22
SliderTickRate:1

[Events]
//Background and Video events
0,0,"BG.jpg",0,0
//Break Periods
2,12020,20670
2,80720,83670
2,139520,140370
2,141320,145170
2,168320,172170
//Storyboard Layer 0 (Background)
//Storyboard Layer 1 (Fail)
//Storyboard Layer 2 (Pass)
//Storyboard Layer 3 (Foreground)
//Storyboard Sound Samples

[TimingPoints]
2220,300,4,3,22,82,1,0
22920,300,4,3,22,82,1,0
61320,-100,4,3,22,82,0,1
70320,-100,4,3,22,82,0,0
70920,-100,4,3,22,82,0,1
80520,-100,4,3,22,82,0,0
110520,-100,4,2,22,82,0,0
114120,-100,4,3,22,82,0,0
115320,-100,4,2,22,82,0,0
120120,-100,4,3,22,82,0,0
139320,-100,4,2,22,82,0,0
153720,-100,4,3,22,82,0,1
168120,-100,4,3,22,82,0,0
172920,-100,4,3,22,82,0,1
181320,-100,4,3,22,82,0,0
182520,-100,4,3,22,82,0,1
195720,-100,4,3,22,82,0,0

[Colours]
Combo1 : 198,180,145
Combo2 : 145,83,81
Combo3 : 180,35,31
Combo4 : 150,91,27
SliderBorder : 245,255,255
SliderTrackOverride : 20,0,0

[HitObjects]
236,48,2220,6,0,P|288:56|360:48,1,122,2|8,1:0|0:0,0:0:0:0:
492,128,2820,2,0,P|440:120|368:128,1,122,2|0,1:0|0:0,0:0:0:0:
300,160,3270,1,2,0:0:0:0:
300,160,3420,6,0,B|312:220|312:220|304:280,1,122,2|8,1:0|0:0,0:0:0:0:
148,316,4020,2,0,L|76:312,1,61,2|8,1:0|0:0,0:0:0:0:
152,240,4320,2,0,L|80:236,1,61,2|0,0:0|0:0,0:0:0:0:
156,164,4620,2,0,L|302:155,1,122,2|8,1:0|0:0,0:0:0:0:
416,84,5220,2,0,L|269:75,1,122,2|2,1:0|0:0,0:0:0:0:
277,157,5670,1,0,0:0:0:0:
277,157,5820,5,0,1:0:0:0:
356,168,6120,1,0,1:0:0:0:
373,88,6420,1,2,1:0:0:0:
294,77,6720,1,2,1:0:0:0:
277,157,7020,6,0,P|288:216|276:284,1,122,2|8,1:0|0:0,0:0:0:0:
128,328,7620,2,0,L|64:324,2,61,2|8|0,1:0|0:0|0:0,0:0:0:0:
204,304,8070,1,2,0:0:0:0:
204,304,8220,6,0,P|213:244|202:184,1,122,2|8,1:0|0:0,0:0:0:0:
308,64,8820,2,0,P|298:123|309:183,1,122,2|0,1:0|0:0,0:0:0:0:
376,228,9270,1,2,0:0:0:0:
376,228,9420,2,0,B|316:224|316:224|240:240,1,122,2|8,1:0|0:0,0:0:0:0:
100,280,10020,2,0,L|20:276,1,61,2|8,1:0|0:0,0:0:0:0:
104,204,10320,2,0,L|24:200,1,61,2|0,0:0|0:0,0:0:0:0:
108,128,10620,5,2,1:0:0:0:
172,172,10920,1,0,1:0:0:0:
236,128,11220,1,0,1:0:0:0:
300,172,11520,1,2,1:0:0:0:
364,128,11820,5,6,1:0:0:0:
212,144,21420,5,0,1:0:0:0:
151,208,22920,6,0,P|207:216|283:196,1,122,6|10,1:0|0:0,0:0:0:0:
418,126,23520,2,0,L|411:186,1,61,2|0,1:0|0:0,0:0:0:0:
348,244,23820,2,0,L|356:320,1,61,10|0,0:0|0:0,0:0:0:0:
408,364,24120,2,0,P|472:356|512:304,2,122,2|10|2,1:0|0:0|1:0,0:0:0:0:
354,304,24870,1,0,0:0:0:0:
354,304,25020,2,0,L|280:308,1,61,10|0,0:0|0:0,0:0:0:0:
236,364,25320,6,0,P|216:336|244:244,1,122,2|10,1:0|0:0,0:0:0:0:
304,228,25770,1,0,0:0:0:0:
304,228,25920,2,0,P|328:164|308:96,1,122,2|10,1:0|0:0,0:0:0:0:
256,60,26370,1,0,0:0:0:0:
196,112,26520,6,0,L|132:108,1,61,6|0,1:0|1:0,0:0:0:0:
64,188,26820,2,0,L|128:184,1,61,10|0,0:0|0:0,0:0:0:0:
196,264,27120,2,0,L|132:260,1,61,6|0,1:0|1:0,0:0:0:0:
224,356,27420,1,10,0:0:0:0:
228,360,27570,1,2,1:0:0:0:
232,364,27720,6,0,B|296:368|288:344|368:348,1,122,2|10,1:0|0:0,0:0:0:0:
480,252,28320,2,0,P|488:216|488:180,1,61,2|0,1:0|0:0,0:0:0:0:
452,120,28620,2,0,L|372:124,1,61,10|0,0:0|0:0,0:0:0:0:
324,168,28920,2,0,P|312:140|356:52,2,122,2|10|2,1:0|0:0|1:0,0:0:0:0:
396,200,29670,1,0,0:0:0:0:
400,204,29820,2,0,P|404:244|396:280,1,61,10|0,0:0|0:0,0:0:0:0:
352,324,30120,6,0,B|320:328|320:328|260:324|260:324|228:328,1,122,2|8,1:0|0:0,0:0:0:0:
72,304,30720,2,0,B|64:276|64:276|72:216|72:216|64:184,1,122,2|8,1:0|0:0,0:0:0:0:
119,38,31320,2,0,B|147:30|147:30|207:38|207:38|239:30,1,122,2|8,1:0|0:0,0:0:0:0:
385,85,31920,2,0,B|401:113|401:113|385:173|385:173|397:197,1,122,2|8,1:0|0:0,0:0:0:0:
472,164,32370,1,0,0:0:0:0:
448,268,32520,6,0,P|372:280|328:248,1,122,6|10,1:0|0:0,0:0:0:0:
256,120,33120,2,0,L|184:124,1,61,2|0,1:0|0:0,0:0:0:0:
120,100,33420,2,0,L|124:172,1,61,10|0,0:0|0:0,0:0:0:0:
176,220,33720,2,0,P|120:240|56:200,2,122,2|10|2,1:0|0:0|1:0,0:0:0:0:
256,84,34620,1,10,0:0:0:0:
328,48,34770,1,0,0:0:0:0:
404,64,34920,6,0,P|424:96|432:188,1,122,2|10,1:0|0:0,0:0:0:0:
364,320,35520,2,0,P|304:304|228:304,1,122,2|10,1:0|0:0,0:0:0:0:
172,336,35970,1,0,0:0:0:0:
112,284,36120,6,0,P|96:256|88:208,1,61,6|0,1:0|1:0,0:0:0:0:
176,160,36420,2,0,P|176:127|193:82,1,61,10|0,0:0|0:0,0:0:0:0:
293,84,36720,2,0,P|309:56|346:25,1,61,6|0,1:0|1:0,0:0:0:0:
420,96,37020,1,10,0:0:0:0:
424,100,37170,1,2,1:0:0:0:
428,104,37320,6,0,B|436:164|436:164|416:232,1,122,2|10,1:0|0:0,0:0:0:0:
312,340,37920,2,0,L|240:336,1,61,2|0,1:0|0:0,0:0:0:0:
176,364,38220,2,0,L|127:310,1,61,10|0,0:0|0:0,0:0:0:0:
84,256,38520,2,0,P|60:284|80:376,2,122,2|10|2,1:0|0:0|1:0,0:0:0:0:
164,244,39270,1,0,0:0:0:0:
164,244,39420,2,0,L|236:248,1,61,10|0,0:0|0:0,0:0:0:0:
296,280,39720,6,0,B|300:248|300:248|296:188|296:188|300:156,1,122,2|8,1:0|0:0,0:0:0:0:
380,20,40320,2,0,B|388:52|388:52|380:112|380:112|388:140,1,122,2|8,1:0|0:0,0:0:0:0:
468,277,40920,6,0,B|480:244|480:244|468:185,2,91.5,2|0|8,1:0|1:0|0:0,0:0:0:0:
320,336,41670,1,0,1:0:0:0:
256,248,41820,2,0,P|248:216|248:184,1,61,8|0,0:0|0:0,0:0:0:0:
288,84,42120,6,0,P|332:88|412:60,1,122,6|10,1:0|0:0,0:0:0:0:
460,8,42570,1,0,0:0:0:0:
480,84,42720,2,0,L|472:208,1,122,2|10,1:0|0:0,0:0:0:0:
340,296,43320,2,0,P|304:304|272:300,1,61,2|2,1:0|0:0,0:0:0:0:
216,348,43620,2,0,P|184:328|165:302,1,61,10|0,0:0|0:0,0:0:0:0:
91,297,43920,2,0,P|83:261|87:228,1,61,2|0,1:0|0:0,0:0:0:0:
116,164,44220,2,0,P|148:168|200:160,1,61,10|2,0:0|0:0,0:0:0:0:
224,100,44520,6,0,L|348:104,2,122,2|10|2,1:0|0:0|1:0,0:0:0:0:
68,136,45420,1,10,0:0:0:0:
44,212,45570,1,0,0:0:0:0:
68,288,45720,2,0,P|84:320|160:376,1,122,2|10,1:0|0:0,0:0:0:0:
212,324,46170,1,0,0:0:0:0:
276,372,46320,2,0,L|344:368,1,61,2|0,1:0|0:0,0:0:0:0:
384,304,46620,1,10,0:0:0:0:
388,300,46770,1,2,0:0:0:0:
392,296,46920,6,0,P|404:236|388:160,1,122,2|10,1:0|0:0,0:0:0:0:
256,96,47520,2,0,L|120:104,1,122,2|10,1:0|0:0,0:0:0:0:
88,40,47970,1,0,0:0:0:0:
52,112,48120,2,0,L|55:180,1,61,2|2,1:0|0:0,0:0:0:0:
136,184,48420,2,0,L|139:252,1,61,10|0,0:0|0:0,0:0:0:0:
60,252,48720,2,0,L|63:320,1,61,2|0,1:0|0:0,0:0:0:0:
128,360,49020,2,0,P|160:364|192:360,1,61,10|2,0:0|0:0,0:0:0:0:
252,316,49320,6,0,B|256:284|256:284|252:224|252:224|256:192,1,122,2|10,1:0|0:0,0:0:0:0:
384,100,49920,2,0,B|376:132|376:132|384:192|384:192|376:220,1,122,2|10,1:0|0:0,0:0:0:0:
252,316,50520,6,0,B|264:284|264:284|248:224|248:224|260:196,1,122,2|10,1:0|0:0,0:0:0:0:
384,100,51120,2,0,B|368:128|368:128|392:184|392:184|376:208,1,122,2|10,1:0|0:0,0:0:0:0:
252,316,51720,6,0,P|192:300|120:300,1,122,2|10,1:0|0:0,0:0:0:0:
56,324,52170,1,0,0:0:0:0:
56,324,52320,2,0,P|44:280|44:252,1,61,2|0,1:0|0:0,0:0:0:0:
52,184,52620,2,0,P|67:141|83:118,1,61,10|0,0:0|0:0,0:0:0:0:
140,84,52920,2,0,P|192:92|272:76,1,122,2|10,1:0|0:0,0:0:0:0:
312,20,53370,1,0,0:0:0:0:
336,96,53520,2,0,L|324:160,1,61,2|0,1:0|0:0,0:0:0:0:
388,204,53820,2,0,L|400:268,1,61,10|2,0:0|0:0,0:0:0:0:
344,320,54120,6,0,P|400:344|456:316,2,122,2|10|2,1:0|0:0|1:0,0:0:0:0:
256,188,55020,1,10,0:0:0:0:
180,164,55170,1,0,0:0:0:0:
108,200,55320,2,0,P|84:240|88:332,1,122,2|10,1:0|0:0,0:0:0:0:
136,372,55770,1,0,0:0:0:0:
212,348,55920,2,0,L|288:352,1,61,2|0,1:0|0:0,0:0:0:0:
320,288,56220,1,10,0:0:0:0:
324,284,56370,1,2,0:0:0:0:
328,280,56520,6,0,P|340:256|336:152,1,122,2|10,1:0|0:0,0:0:0:0:
208,76,57120,2,0,L|144:80,1,61,2|0,1:0|0:0,0:0:0:0:
112,152,57420,2,0,L|176:156,1,61,10|0,0:0|0:0,0:0:0:0:
252,144,57720,2,0,B|256:180|236:204|236:204|248:232|240:260,2,122,2|10|2,1:0|0:0|1:0,0:0:0:0:
208,76,58470,1,2,0:0:0:0:
208,76,58620,2,0,L|144:80,1,61,10|2,0:0|0:0,0:0:0:0:
68,84,58920,5,2,1:0:0:0:
68,84,60120,6,0,L|128:80,1,61,0|0,1:0|0:0,0:0:0:0:
200,120,60420,2,0,B|204:128|204:128|196:144|196:144|204:160|204:160|196:176|196:176|204:192|204:192|196:208|196:208|204:224|204:224|200:232,1,122,0|0,0:0|0:0,0:0:0:0:
138,307,60870,1,0,0:0:0:0:
138,307,61020,2,0,P|168:308|198:315,1,61,0|2,0:0|2:0,0:0:0:0:
268,348,61320,6,0,P|320:356|408:336,1,122,6|8,1:0|0:0,0:0:0:0:
436,280,61770,1,0,0:0:0:0:
436,280,61920,2,0,L|424:204,1,61,2|0,1:0|0:0,0:0:0:0:
388,148,62220,1,8,0:0:0:0:
324,192,62370,1,2,0:0:0:0:
244,196,62520,6,0,P|188:188|128:160,2,122,2|8|2,1:0|0:0|1:0,0:0:0:0:
280,124,63270,1,0,0:0:0:0:
324,192,63420,2,0,L|316:260,1,61,10|0,0:0|0:0,0:0:0:0:
392,336,63720,2,0,P|424:344|492:296,1,122,2|8,1:0|0:0,0:0:0:0:
472,220,64170,1,0,0:0:0:0:
472,220,64320,2,0,P|464:192|464:144,1,61,2|0,1:0|0:0,0:0:0:0:
484,84,64620,1,8,0:0:0:0:
444,16,64770,1,2,0:0:0:0:
364,28,64920,6,0,P|320:36|220:32,1,122,2|8,1:0|0:0,0:0:0:0:
108,120,65520,2,0,P|152:112|252:116,1,122,2|8,1:0|0:0,0:0:0:0:
232,192,65970,1,2,0:0:0:0:
300,148,66120,2,0,P|322:186|353:281,1,122,2|8,1:0|0:0,0:0:0:0:
200,312,66720,2,0,P|177:273|146:178,1,122,2|10,1:0|0:0,0:0:0:0:
232,192,67170,1,0,0:0:0:0:
300,148,67320,6,0,P|356:160|432:140,1,122,2|8,1:0|0:0,0:0:0:0:
464,80,67770,1,0,0:0:0:0:
464,80,67920,2,0,P|492:108|500:136,1,61,2|0,1:0|0:0,0:0:0:0:
476,204,68220,1,8,0:0:0:0:
400,228,68370,1,2,0:0:0:0:
340,176,68520,2,0,P|312:164|200:160,1,122,2|8,1:0|0:0,0:0:0:0:
156,300,69120,2,0,P|184:312|296:316,1,122,2|10,1:0|0:0,0:0:0:0:
400,228,69720,5,2,1:0:0:0:
312,164,69870,1,0,1:0:0:0:
376,76,70020,1,0,1:0:0:0:
464,140,70170,1,0,1:0:0:0:
400,228,70320,5,0,1:0:0:0:
312,164,70920,6,0,L|168:168,1,122,6|8,1:0|0:0,0:0:0:0:
48,240,71520,2,0,L|192:244,1,122,2|8,1:0|0:0,0:0:0:0:
248,220,71970,1,2,0:0:0:0:
190,167,72120,2,0,B|176:136|176:104|192:72|192:72|216:96,1,122,2|8,1:0|0:0,0:0:0:0:
268,144,72570,1,0,0:0:0:0:
268,144,72720,2,0,P|320:152|388:144,1,122,2|10,1:0|0:0,0:0:0:0:
428,76,73170,1,0,0:0:0:0:
472,144,73320,6,0,L|456:284,1,122,2|8,1:0|0:0,0:0:0:0:
316,336,73920,2,0,L|302:214,1,122,2|8,1:0|0:0,0:0:0:0:
268,144,74370,1,2,0:0:0:0:
228,212,74520,2,0,P|180:216|148:208,1,61,2|0,1:0|0:0,0:0:0:0:
96,244,74820,2,0,P|59:212|42:184,1,61,8|0,0:0|0:0,0:0:0:0:
28,128,75120,2,0,P|44:84|128:64,1,122,2|10,1:0|0:0,0:0:0:0:
172,108,75570,1,0,0:0:0:0:
244,72,75720,6,0,L|380:80,1,122,2|8,1:0|0:0,0:0:0:0:
492,172,76320,2,0,L|356:180,1,122,2|8,1:0|0:0,0:0:0:0:
292,184,76770,1,2,0:0:0:0:
232,132,76920,2,0,P|212:172|244:248,1,122,2|8,1:0|0:0,0:0:0:0:
312,264,77370,1,0,0:0:0:0:
316,268,77520,2,0,L|376:264,1,61,2|0,1:0|0:0,0:0:0:0:
456,260,77820,1,10,0:0:0:0:
396,112,78120,6,0,L|335:108,1,61,6|0,1:0|1:0,0:0:0:0:
232,68,78420,2,0,L|228:128,1,61,0|0,1:0|1:0,0:0:0:0:
188,232,78720,2,0,L|248:235,1,61,6|0,1:0|1:0,0:0:0:0:
352,276,79020,2,0,L|355:215,1,61,0|2,1:0|1:0,0:0:0:0:
256,192,79320,12,6,80520,1:0:0:0:
156,152,84420,6,0,L|24:148,2,122,0|0|0,1:0|1:0|1:0,0:0:0:0:
296,76,85320,6,0,P|312:112|312:156,1,61,0|0,1:0|0:0,0:0:0:0:
280,204,85620,2,0,L|214:202,2,61,8|0|0,0:0|0:0|1:0,0:0:0:0:
332,264,86070,2,0,L|398:262,1,61,8|0,0:0|1:0,0:0:0:0:
444,204,86370,1,0,0:0:0:0:
444,204,86445,1,0,0:0:0:0:
444,204,86520,6,0,P|456:176|444:80,1,122,0|0,1:0|0:0,0:0:0:0:
388,36,86970,2,0,B|328:44,1,61,8|0,0:0|1:0,0:0:0:0:
252,20,87270,2,0,B|107:39,1,122,8|0,0:0|1:0,0:0:0:0:
52,52,87720,5,0,1:0:0:0:
0,200,88020,1,8,0:0:0:0:
0,200,88170,2,0,P|0:240|44:320,1,122,0|8,1:0|0:0,0:0:0:0:
112,332,88620,2,0,P|156:320|192:320,1,61,0|8,1:0|0:0,0:0:0:0:
248,340,88920,5,0,1:0:0:0:
248,340,90120,6,0,P|288:344|392:324,2,122,2|8|0,1:0|0:0|1:0,0:0:0:0:
160,208,91020,1,10,0:0:0:0:
140,132,91170,1,2,0:0:0:0:
164,56,91320,2,0,P|220:40|304:36,1,122,2|8,1:0|0:0,0:0:0:0:
408,132,91920,2,0,P|416:168|412:216,1,61,0|0,1:0|0:0,0:0:0:0:
392,268,92220,1,10,0:0:0:0:
332,320,92370,1,2,0:0:0:0:
252,316,92520,6,0,P|192:312|112:328,1,122,2|8,1:0|0:0,0:0:0:0:
44,192,93120,2,0,P|32:160|32:120,1,61,2|0,1:0|0:0,0:0:0:0:
56,56,93420,2,0,P|96:60|144:56,1,61,10|0,0:0|0:0,0:0:0:0:
216,16,93720,2,0,L|356:28,2,122,2|8|0,1:0|0:0|1:0,0:0:0:0:
140,156,94620,1,0,1:0:0:0:
220,152,94770,1,0,1:0:0:0:
180,84,94920,6,0,P|140:156|156:196,1,122,2|8,1:0|0:0,0:0:0:0:
220,232,95370,1,0,0:0:0:0:
224,236,95520,2,0,L|352:232,1,122,0|8,1:0|0:0,0:0:0:0:
396,172,95970,1,0,0:0:0:0:
420,248,96120,6,0,L|412:320,1,61,2|0,1:0|0:0,0:0:0:0:
352,360,96420,2,0,L|280:352,1,61,10|0,0:0|0:0,0:0:0:0:
240,292,96720,2,0,L|248:220,1,61,2|0,1:0|0:0,0:0:0:0:
308,180,97020,2,0,L|380:188,1,61,10|0,0:0|0:0,0:0:0:0:
420,248,97320,6,0,P|448:188|408:120,2,122,2|8|0,1:0|0:0|1:0,0:0:0:0:
344,264,98070,1,0,1:0:0:0:
344,264,98220,2,0,L|283:257,1,61,8|2,0:0|1:0,0:0:0:0:
204,244,98520,6,0,P|188:212|200:112,1,122,2|8,1:0|0:0,0:0:0:0:
236,60,98970,1,0,0:0:0:0:
236,60,99120,2,0,L|308:68,1,61,0|0,1:0|0:0,0:0:0:0:
336,140,99420,1,0,1:0:0:0:
372,36,99570,1,0,1:0:0:0:
444,120,99720,6,0,P|456:168|440:248,2,122,2|8|0,1:0|0:0|1:0,0:0:0:0:
364,132,100470,1,0,1:0:0:0:
364,132,100620,2,0,L|288:128,1,61,8|0,0:0|0:0,0:0:0:0:
236,84,100920,6,0,P|224:124|236:168,1,61,2|0,1:0|0:0,0:0:0:0:
148,148,101220,2,0,P|161:187|196:216,1,61,10|0,0:0|0:0,0:0:0:0:
112,250,101520,2,0,P|145:274|190:278,1,61,2|0,1:0|0:0,0:0:0:0:
236,248,101820,2,0,L|312:252,1,61,10|0,0:0|0:0,0:0:0:0:
356,304,102120,6,0,P|376:248|336:184,2,122,2|8|0,1:0|0:0|1:0,0:0:0:0:
200,340,103020,1,10,0:0:0:0:
80,236,103320,2,0,P|76:204|124:108,1,122,2|8,1:0|0:0,0:0:0:0:
180,88,103770,1,0,0:0:0:0:
180,88,103920,2,0,L|256:92,1,61,0|0,1:0|0:0,0:0:0:0:
292,152,104220,1,0,1:0:0:0:
304,44,104370,1,0,1:0:0:0:
392,112,104520,6,0,B|404:172|372:172|388:236,1,122,2|8,1:0|0:0,0:0:0:0:
440,292,104970,1,0,0:0:0:0:
444,296,105120,2,0,P|408:316|376:316,1,61,2|0,1:0|0:0,0:0:0:0:
320,280,105420,2,0,L|236:288,1,61,8|2,0:0|1:0,0:0:0:0:
188,252,105720,6,0,L|66:240,1,122,2|8,1:0|0:0,0:0:0:0:
144,104,106320,2,0,L|204:98,1,61,2|0,1:0|0:0,0:0:0:0:
256,36,106620,2,0,L|316:41,1,61,8|0,0:0|0:0,0:0:0:0:
351,110,106920,6,0,B|337:157|367:190|367:190|359:254|319:274|259:258|247:198|279:150|331:154|367:190|367:190|400:224|447:214,1,427,2|0,1:0|0:0,0:0:0:0:
424,136,108120,2,0,P|382:40|274:96,1,244,2|8,1:0|0:0,0:0:0:0:
252,160,108870,2,0,B|232:200|252:240|252:240|272:284|252:336|252:336|240:304|252:272,1,244,2|0,1:0|0:0,0:0:0:0:
328,199,109620,2,0,P|272:76|164:156,1,305,2|0,1:0|0:0,0:0:0:0:
168,264,110520,6,0,P|232:268|292:308,1,122,2|2,1:0|1:0,0:0:0:0:
332,356,110970,1,0,0:0:0:0:
336,360,111120,2,0,P|364:364|404:360,1,61,2|0,1:0|0:0,0:0:0:0:
460,316,111420,2,0,P|472:292|472:248,1,61,0|0,1:0|0:0,0:0:0:0:
436,188,111720,6,0,L|368:180,1,61,2|0,1:0|0:0,0:0:0:0:
328,244,112020,2,0,L|260:252,1,61,2|0,1:0|0:0,0:0:0:0:
220,188,112320,2,0,L|152:180,1,61,2|0,1:0|0:0,0:0:0:0:
112,244,112620,2,0,L|44:252,1,61,0|0,1:0|0:0,0:0:0:0:
8,184,112920,6,0,P|0:136|12:48,2,122,2|2|2,1:0|1:0|1:0,0:0:0:0:
51,251,113670,1,2,0:0:0:0:
51,251,113820,2,0,L|112:244,1,61,2|2,1:0|0:0,0:0:0:0:
159,180,114120,6,0,B|220:188|220:188|256:176,1,91.5,2|0,1:0|0:0,0:0:0:0:
260,172,114420,2,0,L|321:180,1,61,10|0,0:0|0:0,0:0:0:0:
400,252,114720,2,0,L|339:260,1,61,10|0,0:0|0:0,0:0:0:0:
260,268,115020,1,0,1:0:0:0:
248,264,115095,1,0,0:0:0:0:
236,260,115170,1,2,0:0:0:0:
132,224,115320,6,0,P|116:188|136:92,1,122,2|0,1:0|1:0,0:0:0:0:
263,29,115920,2,0,L|327:33,1,61,0|0,1:0|0:0,0:0:0:0:
400,12,116220,2,0,L|396:72,1,61,2|0,1:0|0:0,0:0:0:0:
472,100,116520,2,0,P|448:136|424:148,1,61,2|0,1:0|0:0,0:0:0:0:
480,212,116820,2,0,P|439:227|413:223,1,61,2|0,1:0|0:0,0:0:0:0:
360,180,117120,2,0,L|224:196,1,122,2|2,1:0|1:0,0:0:0:0:
172,148,117570,1,0,0:0:0:0:
172,148,117720,6,0,P|156:188|164:224,1,61,2|0,1:0|0:0,0:0:0:0:
76,204,118020,2,0,P|85:245|113:270,1,61,2|0,1:0|0:0,0:0:0:0:
172,284,118320,2,0,L|293:269,1,122,0|0,1:0|1:0,0:0:0:0:
416,172,118920,5,0,1:0:0:0:
416,172,119070,2,0,P|428:136|416:52,1,122,8|0,3:0|0:0,0:0:0:0:
344,24,119520,2,0,L|276:32,1,61,0|0,1:0|0:0,0:0:0:0:
236,96,119820,2,0,L|168:88,1,61,0|0,1:0|0:0,0:0:0:0:
96,16,120120,6,0,P|74:51|76:132,1,122,2|10,1:0|0:0,0:0:0:0:
204,224,120720,2,0,L|264:220,1,61,0|0,1:0|1:0,0:0:0:0:
336,188,121020,2,0,L|340:248,1,61,10|2,0:0|0:0,0:0:0:0:
404,296,121320,2,0,L|282:304,1,122,2|10,1:0|0:0,0:0:0:0:
204,308,121770,1,0,0:0:0:0:
204,308,121920,2,0,P|188:280|184:236,1,61,2|0,1:0|1:0,0:0:0:0:
240,196,122220,2,0,P|256:168|260:124,1,61,10|2,0:0|0:0,0:0:0:0:
208,80,122520,6,0,P|260:60|324:92,2,122,2|8|0,1:0|0:0|1:0,0:0:0:0:
140,224,123420,2,0,L|148:296,1,61,10|0,0:0|0:0,0:0:0:0:
220,320,123720,2,0,P|284:328|352:320,1,122,2|8,1:0|0:0,0:0:0:0:
476,236,124320,2,0,P|488:188|476:104,1,122,0|10,1:0|0:0,0:0:0:0:
428,60,124770,1,2,0:0:0:0:
352,88,124920,6,0,L|284:84,1,61,2|0,1:0|0:0,0:0:0:0:
236,28,125220,2,0,L|168:32,1,61,10|0,0:0|0:0,0:0:0:0:
120,88,125520,2,0,L|52:84,1,61,2|0,1:0|0:0,0:0:0:0:
16,152,125820,2,0,P|8:184|12:224,1,61,10|0,0:0|0:0,0:0:0:0:
48,280,126120,6,0,L|184:272,2,122,2|10|2,1:0|0:0|1:0,0:0:0:0:
136,148,127020,2,0,L|204:152,1,61,10|2,0:0|0:0,0:0:0:0:
268,116,127320,2,0,P|280:176|264:256,1,122,2|8,1:0|0:0,0:0:0:0:
216,292,127770,1,0,0:0:0:0:
216,292,127920,2,0,L|148:288,1,61,0|0,1:0|0:0,0:0:0:0:
80,312,128220,2,0,L|84:244,1,61,8|2,0:0|0:0,0:0:0:0:
88,172,128520,6,0,B|40:172|16:208|16:208|12:184|0:168,2,122,2|0|0,1:0|1:0|1:0,0:0:0:0:
212,268,129420,1,2,1:0:0:0:
256,204,129570,1,0,1:0:0:0:
320,292,129720,6,0,P|352:300|456:288,1,122,6|10,1:0|0:0,0:0:0:0:
492,232,130170,1,0,0:0:0:0:
492,232,130320,2,0,L|488:172,1,61,2|0,1:0|0:0,0:0:0:0:
460,96,130620,2,0,P|420:104|372:104,1,61,10|0,0:0|0:0,0:0:0:0:
328,76,130920,6,0,P|316:48|312:16,2,61,2|2|10,1:0|1:0|0:0,0:0:0:0:
340,156,131370,2,0,P|352:184|356:216,2,61,2|2|2,0:0|1:0|1:0,0:0:0:0:
264,128,131820,2,0,L|184:132,1,61,10|2,0:0|0:0,0:0:0:0:
144,188,132120,6,0,P|124:152|144:72,2,122,2|10|2,1:0|0:0|1:0,0:0:0:0:
256,300,133020,2,0,L|332:296,1,61,10|0,0:0|0:0,0:0:0:0:
376,244,133320,2,0,P|384:208|384:180,1,61,2|2,1:0|1:0,0:0:0:0:
356,112,133620,1,10,0:0:0:0:
280,84,133770,1,2,0:0:0:0:
204,112,133920,2,0,P|156:120|64:104,1,122,2|10,1:0|0:0,0:0:0:0:
0,248,134520,6,0,P|48:240|140:256,1,122,2|10,1:0|0:0,0:0:0:0:
248,344,135120,2,0,L|316:340,1,61,2|0,1:0|0:0,0:0:0:0:
356,276,135420,2,0,L|424:280,1,61,10|0,0:0|0:0,0:0:0:0:
472,224,135720,5,2,1:0:0:0:
472,224,135870,1,2,1:0:0:0:
472,224,136020,2,0,P|488:192|472:104,1,122,10|2,0:0|1:0,0:0:0:0:
404,72,136470,1,2,1:0:0:0:
332,104,136620,2,0,L|272:100,1,61,10|2,0:0|0:0,0:0:0:0:
216,156,136920,6,0,P|192:112|220:40,2,122,2|10|2,1:0|0:0|1:0,0:0:0:0:
292,180,137670,1,0,0:0:0:0:
348,124,137820,2,0,L|408:128,1,61,10|0,0:0|0:0,0:0:0:0:
472,176,138120,1,0,1:0:0:0:
485,254,138270,1,2,0:0:0:0:
434,314,138420,2,0,P|366:297|351:300,1,61,10|0,0:0|0:0,0:0:0:0:
332,364,138720,2,0,L|264:360,1,61,2|2,1:0|1:0,0:0:0:0:
192,376,139020,2,0,L|146:325,1,61,10|2,0:0|1:0,0:0:0:0:
84,240,139320,5,6,1:0:0:0:
256,192,141120,5,6,1:0:0:0:
256,192,145920,5,4,1:0:0:0:
256,192,146670,6,0,P|292:196|316:192,1,61,0|0,1:0|0:0,0:0:0:0:
376,140,146970,1,0,1:0:0:0:
376,140,147120,2,0,P|360:180|360:264,1,122,2|2,1:0|0:0,0:0:0:0:
404,324,147570,1,0,1:0:0:0:
408,328,147720,6,0,L|480:324,2,61,2|2|2,1:0|1:0|1:0,0:0:0:0:
328,332,148170,1,0,1:0:0:0:
280,268,148320,1,2,1:0:0:0:
280,268,148920,6,0,P|220:280|140:264,2,122,6|2|2,1:0|1:0|1:0,0:0:0:0:
408,176,149820,2,0,L|400:100,1,61,2|2,1:0|0:0,0:0:0:0:
348,60,150120,2,0,B|292:48|288:76|228:64,1,122,2|2,1:0|1:0,0:0:0:0:
160,24,150570,1,2,0:0:0:0:
160,24,150720,2,0,P|136:60|140:156,1,122,2|2,1:0|1:0,0:0:0:0:
196,284,151320,6,0,L|256:280,1,61,0|2,1:0|0:0,0:0:0:0:
324,320,151620,2,0,L|384:316,1,61,0|2,1:0|0:0,0:0:0:0:
448,268,151920,2,0,P|460:232|444:124,1,122,2|0,1:0|1:0,0:0:0:0:
404,88,152370,1,2,0:0:0:0:
328,116,152520,5,2,1:0:0:0:
328,116,153720,6,0,P|276:124|192:112,1,122,6|8,1:0|0:0,0:0:0:0:
148,64,154170,1,2,0:0:0:0:
88,116,154320,2,0,L|92:184,1,61,2|0,1:0|0:0,0:0:0:0:
44,240,154620,2,0,L|48:308,1,61,10|0,0:0|0:0,0:0:0:0:
100,360,154920,2,0,B|160:368|160:368|240:352,1,122,2|10,1:0|0:0,0:0:0:0:
256,284,155370,1,2,0:0:0:0:
256,284,155520,2,0,L|400:288,1,122,2|10,1:0|0:0,0:0:0:0:
248,108,156120,6,0,L|104:112,1,122,2|8,1:0|0:0,0:0:0:0:
64,60,156570,1,2,0:0:0:0:
12,120,156720,2,0,P|4:156|24:260,1,122,2|10,1:0|0:0,0:0:0:0:
76,292,157170,1,0,0:0:0:0:
80,296,157320,2,0,L|160:292,1,61,2|2,1:0|0:0,0:0:0:0:
212,332,157620,2,0,L|292:328,1,61,10|2,0:0|0:0,0:0:0:0:
352,348,157920,2,0,B|364:284|320:284|336:212,1,122,2|8,1:0|0:0,0:0:0:0:
424,100,158520,6,0,L|352:96,1,61,2|0,1:0|0:0,0:0:0:0:
300,52,158820,2,0,L|228:56,1,61,10|0,0:0|0:0,0:0:0:0:
176,100,159120,2,0,P|160:160|176:240,1,122,2|10,1:0|0:0,0:0:0:0:
220,280,159570,1,2,0:0:0:0:
224,284,159720,2,0,L|308:280,1,61,2|2,1:0|1:0,0:0:0:0:
384,192,160020,2,0,L|300:188,1,61,10|2,1:3|1:0,0:0:0:0:
224,100,160320,2,0,L|345:94,1,122,2|10,1:0|0:0,0:0:0:0:
488,168,160920,6,0,P|496:208|492:232,1,61,0|2,1:0|0:0,0:0:0:0:
456,296,161220,2,0,P|420:292|384:292,1,61,8|2,0:0|0:0,0:0:0:0:
336,344,161520,2,0,P|280:348|208:344,1,122,2|8,1:0|0:0,0:0:0:0:
112,148,162120,5,2,1:0:0:0:
68,216,162270,1,2,1:0:0:0:
148,220,162420,2,0,L|220:208,1,61,10|2,1:3|1:0,0:0:0:0:
263,153,162720,2,0,P|291:205|286:294,1,122,2|8,1:0|0:0,0:0:0:0:
170,367,163320,6,0,L|102:363,1,61,2|0,1:0|0:0,0:0:0:0:
68,296,163620,2,0,P|56:260|56:228,1,61,10|0,0:0|0:0,0:0:0:0:
76,160,163920,2,0,P|136:168|212:152,1,122,2|10,1:0|0:0,0:0:0:0:
236,88,164370,1,2,0:0:0:0:
236,88,164520,2,0,L|320:96,1,61,2|2,1:0|1:0,0:0:0:0:
408,172,164820,2,0,L|324:180,1,61,10|2,1:3|1:0,0:0:0:0:
236,256,165120,2,0,L|357:267,1,122,2|10,1:0|0:0,0:0:0:0:
496,188,165720,6,0,P|508:156|508:128,1,61,0|2,1:0|0:0,0:0:0:0:
484,56,166020,2,0,L|416:60,1,61,8|2,0:0|0:0,0:0:0:0:
356,104,166320,2,0,L|224:96,1,122,2|8,1:0|0:0,0:0:0:0:
180,36,166770,1,0,0:0:0:0:
180,36,166920,2,0,P|156:68|152:100,1,61,2|2,1:0|0:0,0:0:0:0:
76,64,167220,2,0,P|74:103|89:132,1,61,10|2,0:0|0:0,0:0:0:0:
148,168,167520,2,0,L|269:175,1,122,2|8,1:0|0:0,0:0:0:0:
332,124,167970,1,0,0:0:0:0:
420,188,168120,5,2,1:0:0:0:
420,188,172920,6,0,P|432:240|408:324,1,122,2|10,1:0|0:0,0:0:0:0:
356,356,173370,1,0,0:0:0:0:
356,356,173520,2,0,P|304:348|220:352,1,122,2|10,1:0|0:0,0:0:0:0:
160,372,173970,1,2,0:0:0:0:
160,372,174120,2,0,P|148:344|144:304,1,61,2|0,1:0|0:0,0:0:0:0:
180,244,174420,2,0,P|192:216|196:176,1,61,10|2,0:0|0:0,0:0:0:0:
168,112,174720,2,0,P|228:96|296:96,1,122,2|10,1:0|0:0,0:0:0:0:
436,152,175320,6,0,P|444:192|444:228,1,61,0|2,1:0|0:0,0:0:0:0:
420,288,175620,2,0,L|360:284,1,61,8|2,0:0|0:0,0:0:0:0:
288,316,175920,2,0,P|244:328|160:320,1,122,2|8,1:0|0:0,0:0:0:0:
112,268,176370,1,2,0:0:0:0:
112,268,176520,2,0,L|120:188,1,61,2|2,1:0|0:0,0:0:0:0:
148,132,176820,1,10,0:0:0:0:
220,100,176970,1,2,0:0:0:0:
300,108,177120,2,0,P|340:112|432:100,1,122,2|8,1:0|0:0,0:0:0:0:
464,36,177570,1,0,0:0:0:0:
488,144,177720,6,0,P|496:192|488:272,1,122,6|10,1:0|0:0,0:0:0:0:
360,356,178320,2,0,P|324:364|288:364,1,61,2|0,1:0|0:0,0:0:0:0:
232,328,178620,2,0,L|236:252,1,61,10|2,0:0|0:0,0:0:0:0:
296,216,178920,2,0,L|289:94,1,122,2|10,1:0|0:0,0:0:0:0:
240,32,179370,1,2,0:0:0:0:
176,80,179520,2,0,P|124:88|60:64,1,122,2|10,1:0|0:0,0:0:0:0:
132,204,180120,6,0,P|140:248|140:280,1,61,0|2,1:0|0:0,0:0:0:0:
92,328,180420,2,0,P|128:344|156:340,1,61,8|2,0:0|0:0,0:0:0:0:
216,296,180720,2,0,L|352:304,1,122,2|8,1:0|0:0,0:0:0:0:
400,256,181170,1,2,0:0:0:0:
400,256,181320,5,2,1:0:0:0:
400,256,182220,1,2,1:0:0:0:
400,256,182520,6,0,P|420:228|424:120,1,122,6|8,1:0|0:0,0:0:0:0:
388,76,182970,1,2,0:0:0:0:
320,112,183120,2,0,L|256:108,1,61,2|0,1:0|0:0,0:0:0:0:
192,64,183420,2,0,L|128:68,1,61,8|2,0:0|0:0,0:0:0:0:
68,116,183720,1,2,1:0:0:0:
68,116,183870,1,2,0:0:0:0:
68,116,184020,2,0,P|60:152|64:188,1,61,10|2,0:0|0:0,0:0:0:0:
96,248,184320,2,0,L|217:240,1,122,2|10,1:0|0:0,0:0:0:0:
328,356,184920,6,0,L|206:348,1,122,2|8,1:0|0:0,0:0:0:0:
132,320,185370,1,2,0:0:0:0:
96,248,185520,2,0,P|88:196|104:108,1,122,2|8,1:0|0:0,0:0:0:0:
132,56,185970,1,2,0:0:0:0:
204,84,186120,2,0,L|280:80,1,61,2|2,1:0|1:0,0:0:0:0:
332,40,186420,1,10,0:0:0:0:
332,40,186570,1,2,1:0:0:0:
332,40,186720,2,0,P|348:108|340:172,1,122,2|8,1:0|0:0,0:0:0:0:
204,240,187320,6,0,P|188:172|196:108,1,122,2|10,1:0|0:0,0:0:0:0:
256,72,187770,1,0,0:0:0:0:
332,40,187920,2,0,L|456:48,1,122,2|10,1:0|0:0,0:0:0:0:
508,104,188370,1,2,0:0:0:0:
456,164,188520,2,0,P|444:200|444:244,1,61,2|0,1:0|0:0,0:0:0:0:
480,292,188820,1,10,0:0:0:0:
484,296,188970,1,2,0:0:0:0:
488,300,189120,2,0,L|364:292,1,122,2|10,1:0|0:0,0:0:0:0:
220,356,189720,6,0,P|212:324|212:284,1,61,0|2,1:0|0:0,0:0:0:0:
260,236,190020,2,0,P|268:204|268:164,1,61,8|2,0:0|0:0,0:0:0:0:
204,128,190320,2,0,L|344:120,1,122,2|8,1:0|0:0,0:0:0:0:
364,52,190770,1,2,0:0:0:0:
404,120,190920,2,0,L|407:180,1,61,2|2,1:0|1:0,0:0:0:0:
348,232,191220,1,10,0:0:0:0:
348,232,191370,1,2,0:0:0:0:
348,232,191520,2,0,P|304:248|216:236,1,122,2|8,1:0|0:0,0:0:0:0:
152,104,192120,6,0,L|160:36,1,61,2|0,1:0|0:0,0:0:0:0:
232,80,192420,2,0,L|285:37,1,61,10|0,0:0|0:0,0:0:0:0:
305,119,192720,2,0,L|373:127,1,61,2|0,1:0|0:0,0:0:0:0:
332,204,193020,1,10,0:0:0:0:
332,204,193170,1,2,0:0:0:0:
332,204,193320,2,0,L|374:257,1,61,2|0,1:0|0:0,0:0:0:0:
428,320,193620,2,0,P|448:292|444:244,1,61,10|2,0:0|0:0,0:0:0:0:
424,192,193920,2,0,P|408:152|416:56,1,122,2|10,1:0|0:0,0:0:0:0:
260,124,194520,6,0,P|228:128|184:128,1,61,0|2,1:0|1:0,0:0:0:0:
92,212,194820,2,0,P|124:208|168:208,1,61,8|2,1:3|1:0,0:0:0:0:
260,288,195120,2,0,P|228:284|184:284,1,61,2|0,1:0|1:0,0:0:0:0:
132,372,195420,1,8,1:3:0:0:
40,308,195570,1,2,1:0:0:0:
92,212,195720,5,2,1:0:0:0:
92,212,196620,5,2,1:0:0:0:
92,212,196920,6,0,P|140:228|232:216,1,122,6|10,1:0|0:0,0:0:0:0:
260,164,197370,1,0,0:0:0:0:
260,164,197520,2,0,L|324:172,1,61,2|2,1:0|0:0,0:0:0:0:
368,236,197820,2,0,L|432:228,1,61,8|0,0:0|0:0,0:0:0:0:
488,172,198120,2,0,P|496:136|484:32,2,122,2|10|2,1:0|0:0|1:0,0:0:0:0:
428,228,198870,1,2,0:0:0:0:
360,192,199020,2,0,L|292:196,1,61,8|0,0:0|0:0,0:0:0:0:
248,256,199320,6,0,P|224:224|248:136,1,122,2|10,1:0|0:0,0:0:0:0:
308,116,199770,1,0,0:0:0:0:
308,116,199920,2,0,L|368:112,1,61,2|2,1:0|1:0,0:0:0:0:
440,76,200220,2,0,L|443:136,1,61,10|0,0:0|0:0,0:0:0:0:
388,232,200520,6,0,P|448:252|496:224,2,122,2|2|2,1:0|1:0|1:0,0:0:0:0:
440,76,201420,1,2,1:0:0:0:
496,224,201720,6,0,L|484:348,1,122,6|10,1:0|0:0,0:0:0:0:
412,312,202170,1,0,0:0:0:0:
340,344,202320,2,0,L|280:340,1,61,2|2,1:0|0:0,0:0:0:0:
212,296,202620,2,0,L|152:300,1,61,8|0,0:0|0:0,0:0:0:0:
92,352,202920,2,0,P|72:312|116:232,1,122,2|10,1:0|0:0,0:0:0:0:
256,228,203520,2,0,L|316:232,1,61,2|2,1:0|0:0,0:0:0:0:
372,288,203820,2,0,L|432:284,1,61,8|0,0:0|0:0,0:0:0:0:
492,232,204120,6,0,P|512:188|504:100,1,122,2|10,1:0|0:0,0:0:0:0:
468,48,204570,1,0,0:0:0:0:
396,84,204720,2,0,L|328:80,1,61,2|2,1:0|1:0,0:0:0:0:
264,40,205020,2,0,L|196:44,1,61,10|0,0:0|0:0,0:0:0:0:
128,124,205320,6,0,B|72:96|72:96|116:44,2,122,2|2|2,1:0|1:0|1:0,0:0:0:0:
268,200,206220,1,2,1:0:0:0:
136,284,206520,6,0,P|120:252|120:156,1,122,6|10,1:0|0:0,0:0:0:0:
240,68,207120,2,0,L|308:76,1,61,2|2,1:0|0:0,0:0:0:0:
376,48,207420,2,0,L|418:101,1,61,10|0,0:0|0:0,0:0:0:0:
408,176,207720,2,0,P|444:172|476:148,2,61,2|0|10,1:0|0:0|0:0,0:0:0:0:
340,132,208170,1,0,0:0:0:0:
264,160,208320,2,0,L|124:148,1,122,2|10,1:0|0:0,0:0:0:0:
76,108,208770,1,0,0:0:0:0:
16,160,208920,6,0,P|8:196|12:232,1,61,0|2,1:0|1:0,0:0:0:0:
44,292,209220,2,0,L|165:302,1,122,10|2,0:0|1:0,0:0:0:0:
236,340,209670,1,0,0:0:0:0:
240,344,209820,2,0,L|300:338,1,61,10|0,0:0|0:0,0:0:0:0:
392,276,210120,6,0,B|424:304|420:344|420:344|444:336|480:344,2,122,2|2|2,1:0|1:0|1:0,0:0:0:0:
232,264,211020,1,2,1:0:0:0:
320,132,211320,6,0,P|372:200|384:244,1,122,4|10,1:0|0:0,0:0:0:0:
364,312,211770,1,2,0:0:0:0:
296,352,211920,2,0,L|236:344,1,61,2|2,1:0|0:0,0:0:0:0:
168,304,212220,2,0,P|156:264|164:228,1,61,10|2,0:0|0:0,0:0:0:0:
176,168,212520,2,0,L|252:164,1,61,2|2,1:0|0:0,0:0:0:0:
292,104,212820,2,0,L|436:111,1,122,10|2,0:0|1:0,0:0:0:0:
464,172,213270,1,2,0:0:0:0:
468,176,213420,2,0,P|476:216|472:252,1,61,8|0,0:0|0:0,0:0:0:0:
424,296,213720,6,0,L|288:288,1,122,0|10,1:0|0:0,0:0:0:0:
252,228,214170,1,0,0:0:0:0:
252,228,214320,2,0,P|241:199|238:169,1,61,2|0,1:0|0:0,0:0:0:0:
308,132,214620,2,0,P|318:103|321:73,1,61,10|2,0:0|0:0,0:0:0:0:
232,12,214920,5,2,1:0:0:0:
232,12,216120,6,0,P|208:40|200:128,1,122,6|10,1:0|0:0,0:0:0:0:
308,236,216720,1,2,1:0:0:0:
320,156,216870,1,2,0:0:0:0:
244,184,217020,2,0,P|232:208|228:248,1,61,8|0,0:0|0:0,0:0:0:0:
268,312,217320,6,0,P|320:320|408:316,1,122,2|10,1:0|0:0,0:0:0:0:
444,168,217920,1,2,1:0:0:0:
496,228,218070,1,2,0:0:0:0:
416,240,218220,2,0,P|384:220|372:192,1,61,8|0,0:0|0:0,0:0:0:0:
376,120,218520,6,0,L|384:60,1,61,2|2,1:0|0:0,0:0:0:0:
460,32,218820,2,0,L|468:92,1,61,10|2,0:0|0:0,0:0:0:0:
444,168,219120,2,0,L|452:228,1,61,0|2,1:0|0:0,0:0:0:0:
428,304,219420,2,0,L|436:364,1,61,10|0,0:0|0:0,0:0:0:0:
356,352,219720,6,0,B|292:340|296:372|236:356,1,122,2|10,1:0|0:0,0:0:0:0:
108,264,220320,1,2,1:0:0:0:
108,264,220470,1,2,0:0:0:0:
108,264,220620,2,0,P|100:228|100:188,1,61,8|0,0:0|0:0,0:0:0:0:
128,128,220920,6,0,L|268:136,1,122,2|10,1:0|0:0,0:0:0:0:
380,228,221520,2,0,L|240:236,1,122,2|10,1:0|0:0,0:0:0:0:
208,296,221970,1,2,0:0:0:0:
208,296,222120,2,0,P|184:268|180:236,1,61,2|0,1:0|0:0,0:0:0:0:
212,172,222420,2,0,P|216:140|212:108,1,61,10|0,0:0|0:0,0:0:0:0:
156,52,222720,2,0,P|204:64|292:60,1,122,2|10,1:0|0:0,0:0:0:0:
428,12,223320,6,0,P|444:56|432:148,1,122,0|10,1:0|0:0,0:0:0:0:
380,184,223770,1,0,0:0:0:0:
312,228,223920,2,0,L|248:224,1,61,2|0,1:0|0:0,0:0:0:0:
180,260,224220,2,0,L|116:256,1,61,10|0,0:0|0:0,0:0:0:0:
64,200,224520,1,2,1:0:0:0:
64,200,224670,1,2,0:0:0:0:
64,200,224820,2,0,P|56:168|56:128,1,61,10|2,0:0|0:0,0:0:0:0:
92,68,225120,2,0,P|156:80|228:72,1,122,2|10,1:0|0:0,0:0:0:0:
360,20,225720,6,0,L|432:28,1,61,0|0,1:0|0:0,0:0:0:0:
468,92,226020,2,0,P|480:128|480:168,1,61,10|2,0:0|0:0,0:0:0:0:
452,224,226320,2,0,P|404:216|328:216,1,122,2|10,1:0|0:0,0:0:0:0:
192,292,226920,1,2,1:0:0:0:
116,312,227070,1,2,0:0:0:0:
40,284,227220,2,0,P|24:248|28:148,1,122,10|2,0:0|1:0,0:0:0:0:
64,100,227670,1,0,0:0:0:0:
140,124,227820,2,0,L|200:120,1,61,10|0,0:0|0:0,0:0:0:0:
258,65,228120,6,0,P|281:120|260:176,1,122,2|10,1:0|0:0,0:0:0:0:
184,200,228570,1,2,0:0:0:0:
124,252,228720,2,0,P|116:288|120:328,1,61,2|2,1:0|0:0,0:0:0:0:
160,380,229020,2,0,L|240:372,1,61,10|2,0:0|0:0,0:0:0:0:
280,320,229320,2,0,L|418:333,2,122,0|10|2,1:0|0:0|1:0,0:0:0:0:
232,256,230070,1,2,0:0:0:0:
232,256,230220,2,0,P|224:228|224:184,1,61,8|0,0:0|0:0,0:0:0:0:
252,124,230520,6,0,P|304:128|376:120,1,122,0|8,1:0|0:0,0:0:0:0:
424,56,230970,1,0,0:0:0:0:
452,132,231120,2,0,L|440:208,1,61,2|0,1:0|0:0,0:0:0:0:
480,264,231420,2,0,L|468:340,1,61,10|0,0:0|0:0,0:0:0:0:
396,356,231720,6,0,P|364:364|268:352,1,122,2|10,1:0|0:0,0:0:0:0:
224,296,232170,1,0,0:0:0:0:
192,224,232320,2,0,L|200:152,1,61,2|2,1:0|0:0,0:0:0:0:
264,120,232620,2,0,L|256:48,1,61,8|0,0:0|0:0,0:0:0:0:
192,16,232920,5,10,0:0:0:0:
256,192,233070,12,4,235320,1:0:0:0:
