osu file format v14

[General]
AudioFilename: audio.mp3
AudioLeadIn: 0
PreviewTime: 153720
Countdown: 0
SampleSet: None
StackLeniency: 0.7
Mode: 0
LetterboxInBreaks: 0
WidescreenStoryboard: 0

[Editor]
Bookmarks: 11820,22920,80520,85320,168120,172920,196920,201720,232920,235320
DistanceSpacing: 1
BeatDivisor: 4
GridSize: 16
TimelineZoom: 1.3

[Metadata]
Title:Putin's Boner
TitleUnicode:Putin's Boner
Artist:Helblinde
ArtistUnicode:Helblinde
Creator:Sotarks
Version:Akitoshi's Normal
Source:
Tags:Get Low The East Side Boyz Breakcore Hardcore Russia Lil Jon Russian Alphabet Kin Akitoshi Corinn Venax
BeatmapID:1559211
BeatmapSetID:737714

[Difficulty]
HPDrainRate:4
CircleSize:3.3
OverallDifficulty:4
ApproachRate:5
SliderMultiplier:1.05
SliderTickRate:1

[Events]
//Background and Video events
0,0,"BG.jpg",0,0
//Break Periods
2,12020,21420
2,80720,84120
2,168320,171720
2,197120,200520
//Storyboard Layer 0 (Background)
//Storyboard Layer 1 (Fail)
//Storyboard Layer 2 (Pass)
//Storyboard Layer 3 (Foreground)
//Storyboard Sound Samples

[TimingPoints]
2220,300,4,3,22,82,1,0
2220,-111.111111111111,4,3,22,82,0,0
22920,300,4,3,22,82,1,0
40920,-100,4,3,22,82,0,0
41370,-100,4,3,22,82,0,0
41670,-100,4,3,22,82,0,0
41820,-100,4,3,22,82,0,0
42120,-100,4,3,22,82,0,0
59520,-100,4,3,22,82,0,0
61020,-100,4,3,22,82,0,0
61320,-100,4,3,22,82,0,1
70320,-100,4,3,22,82,0,0
70920,-100,4,3,22,82,0,1
80520,-100,4,3,22,82,0,0
85320,-105.263157894737,4,3,22,82,0,0
90120,-100,4,3,22,82,0,0
106920,-100,4,3,22,82,0,0
107520,-100,4,3,22,82,0,0
108120,-100,4,3,22,82,0,0
109020,-100,4,3,22,82,0,0
109320,-100,4,3,22,82,0,0
110520,-100,4,2,22,82,0,0
114120,-100,4,3,22,82,0,0
115320,-100,4,2,22,82,0,0
120120,-100,4,3,22,82,0,0
139320,-105.263157894737,4,2,22,82,0,0
148920,-100,4,2,22,82,0,0
153720,-100,4,3,22,82,0,1
168120,-100,4,3,22,82,0,0
172920,-100,4,3,22,82,0,1
181320,-100,4,3,22,82,0,0
182520,-100,4,3,22,82,0,1
195720,-100,4,3,22,82,0,0
196920,-100,4,3,22,82,0,0

[Colours]
Combo1 : 198,180,145
Combo2 : 145,83,81
Combo3 : 180,35,31
Combo4 : 150,91,27
SliderBorder : 245,255,255
SliderTrackOverride : 20,0,0

[HitObjects]
20,151,2220,6,0,P|120:118|196:150,1,188.999994232178,2|2,1:0|1:0,0:0:0:0:
256,219,3120,1,0,0:0:0:0:
269,312,3420,2,0,B|393:328|393:328|427:322|453:286,1,188.999994232178,2|2,1:0|1:0,0:0:0:0:
491,212,4320,1,2,0:0:0:0:
459,122,4620,6,0,P|365:91|270:135,2,188.999994232178,2|2|0,1:0|1:0|1:0,0:0:0:0:
491,212,6120,1,0,1:0:0:0:
449,297,6420,1,2,1:0:0:0:
359,328,6720,1,2,1:0:0:0:
273,286,7020,6,0,B|182:269|184:340|74:310,1,188.999994232178,2|2,1:0|1:0,0:0:0:0:
9,264,7920,1,0,0:0:0:0:
41,175,8220,2,0,P|107:131|227:135,1,188.999994232178,2|2,1:0|1:0,0:0:0:0:
289,186,9120,1,0,0:0:0:0:
337,266,9420,6,0,B|398:297|473:277|473:277|511:223,2,188.999994232178,2|2|2,1:0|1:0|1:0,0:0:0:0:
289,186,10920,1,0,1:0:0:0:
289,91,11220,1,0,1:0:0:0:
363,32,11520,1,2,1:0:0:0:
456,43,11820,5,6,1:0:0:0:
248,199,22920,6,0,L|138:204,2,105,6|10|2,1:0|0:0|1:0,0:0:0:0:
329,132,23820,1,10,0:0:0:0:
267,46,24120,2,0,P|221:34|149:47,1,105,2|10,1:0|0:0,0:0:0:0:
65,75,24720,1,2,1:0:0:0:
18,168,25020,1,10,0:0:0:0:
57,265,25320,6,0,L|51:373,2,105,2|10|2,1:0|0:0|1:0,0:0:0:0:
143,203,26220,1,10,0:0:0:0:
225,267,26520,2,0,B|277:278|277:278|336:264,1,105,6|10,1:0|0:0,0:0:0:0:
426,231,27120,1,6,1:0:0:0:
493,150,27420,1,10,0:0:0:0:
451,53,27720,6,0,P|404:34|344:38,2,105,2|10|2,1:0|0:0|1:0,0:0:0:0:
493,150,28620,1,10,0:0:0:0:
426,231,28920,2,0,L|307:224,1,105,2|10,1:0|0:0,0:0:0:0:
217,208,29520,1,2,1:0:0:0:
119,248,29820,1,10,0:0:0:0:
73,342,30120,6,0,P|18:273|68:157,1,210,2|2,1:0|1:0,0:0:0:0:
148,120,31020,1,8,0:0:0:0:
249,145,31320,2,0,B|362:116|342:192|462:156,1,210,2|2,1:0|1:0,0:0:0:0:
490,60,32220,1,8,0:0:0:0:
394,15,32520,6,0,L|283:22,1,105,6|10,1:0|0:0,0:0:0:0:
193,64,33120,2,0,L|82:57,1,105,2|10,1:0|0:0,0:0:0:0:
10,128,33720,1,2,1:0:0:0:
48,225,34020,1,10,0:0:0:0:
149,250,34320,2,0,P|207:258|260:243,1,105,2|10,1:0|0:0,0:0:0:0:
314,162,34920,6,0,P|372:154|425:169,1,105,2|10,1:0|0:0,0:0:0:0:
504,221,35520,2,0,P|512:279|497:332,1,105,2|10,1:0|0:0,0:0:0:0:
408,373,36120,1,6,1:0:0:0:
303,373,36420,1,10,0:0:0:0:
215,315,36720,2,0,P|157:307|104:322,1,105,6|10,1:0|0:0,0:0:0:0:
12,348,37320,6,0,L|7:229,1,105,2|10,1:0|0:0,0:0:0:0:
4,138,37920,2,0,P|54:125|116:135,1,105,2|10,1:0|0:0,0:0:0:0:
185,200,38520,1,2,1:0:0:0:
288,219,38820,1,10,0:0:0:0:
388,187,39120,2,0,P|401:137|391:75,1,105,2|10,1:0|0:0,0:0:0:0:
301,35,39720,6,0,P|218:24|136:118,1,210,2|2,1:0|1:0,0:0:0:0:
167,210,40620,1,8,0:0:0:0:
255,266,40920,6,0,L|246:360,2,78.75,2|0|0,1:0|1:0|1:0,0:0:0:0:
316,181,41670,2,0,L|389:189,1,52.5,2|0,1:0|1:0,0:0:0:0:
433,270,42120,6,0,P|444:322|429:375,2,105,6|10|2,1:0|0:0|1:0,0:0:0:0:
369,187,43020,1,10,0:0:0:0:
277,136,43320,2,0,L|285:19,2,105,2|10|2,1:0|0:0|1:0,0:0:0:0:
194,200,44220,1,10,0:0:0:0:
104,145,44520,6,0,P|49:142|-2:166,2,105,2|10|2,1:0|0:0|1:0,0:0:0:0:
194,200,45420,1,10,0:0:0:0:
252,287,45720,2,0,L|369:279,2,105,2|10|2,1:0|0:0|1:0,0:0:0:0:
180,363,46620,1,10,0:0:0:0:
76,343,46920,6,0,P|58:290|68:235,1,105,2|10,1:0|0:0,0:0:0:0:
104,145,47520,1,2,1:0:0:0:
204,114,47820,1,10,0:0:0:0:
301,153,48120,2,0,L|418:148,2,105,2|10|2,1:0|0:0|1:0,0:0:0:0:
238,237,49020,1,10,0:0:0:0:
269,337,49320,6,0,P|348:350|385:338,1,105,2|10,1:0|0:0,0:0:0:0:
465,297,49920,1,2,1:0:0:0:
498,197,50220,1,10,0:0:0:0:
433,113,50520,2,0,L|440:8,2,105,2|10|2,1:0|0:0|1:0,0:0:0:0:
350,177,51420,1,10,0:0:0:0:
248,148,51720,6,0,P|184:148|136:173,2,105,2|10|2,1:0|0:0|1:0,0:0:0:0:
350,177,52620,1,10,0:0:0:0:
333,280,52920,2,0,L|210:288,1,105,2|10,1:0|0:0,0:0:0:0:
123,291,53520,1,2,1:0:0:0:
33,236,53820,1,10,0:0:0:0:
48,132,54120,6,0,L|40:23,2,105,2|10|2,1:0|0:0|1:0,0:0:0:0:
139,183,55020,1,10,0:0:0:0:
235,142,55320,2,0,P|288:132|358:150,1,105,2|10,1:0|0:0,0:0:0:0:
433,185,55920,1,2,1:0:0:0:
476,280,56220,1,10,0:0:0:0:
409,361,56520,6,0,L|301:356,1,105,2|10,1:0|0:0,0:0:0:0:
227,284,57120,2,0,L|119:289,1,105,2|10,1:0|0:0,0:0:0:0:
47,214,57720,1,2,1:0:0:0:
47,109,58020,1,10,0:0:0:0:
121,34,58320,1,2,1:0:0:0:
226,34,58620,1,10,0:0:0:0:
300,108,58920,5,2,1:0:0:0:
194,289,59520,2,0,L|201:355,2,52.5,0|0|0,2:0|2:0|2:0,0:0:0:0:
138,201,60120,1,0,1:0:0:0:
138,201,61320,6,0,P|190:213|245:198,1,105,6|8,1:0|0:0,0:0:0:0:
312,125,61920,2,0,P|383:112|472:155,1,157.5,2|2,1:0|0:0,0:0:0:0:
493,184,62520,2,0,L|487:307,1,105,2|8,1:0|0:0,0:0:0:0:
414,363,63120,1,2,1:0:0:0:
309,363,63420,1,10,0:0:0:0:
209,329,63720,6,0,P|173:268|183:175,1,157.5,2|0,1:0|0:0,0:0:0:0:
204,137,64320,1,2,1:0:0:0:
289,76,64620,1,8,0:0:0:0:
389,107,64920,2,0,L|497:101,2,105,2|8|2,1:0|0:0|1:0,0:0:0:0:
314,181,65820,1,8,0:0:0:0:
295,284,66120,6,0,P|341:306|404:304,1,105,2|8,1:0|0:0,0:0:0:0:
487,259,66720,2,0,L|494:92,1,157.5,2|0,1:0|0:0,0:0:0:0:
493,49,67320,2,0,P|443:44|378:37,1,105,2|8,1:0|0:0,0:0:0:0:
284,20,67920,1,2,1:0:0:0:
179,29,68220,1,8,0:0:0:0:
90,84,68520,6,0,P|64:133|72:243,1,157.5,2|0,1:0|0:0,0:0:0:0:
87,281,69120,1,2,1:0:0:0:
175,336,69420,1,10,0:0:0:0:
271,294,69720,2,0,L|268:229,2,52.5,2|0|0,1:0|1:0|1:0,0:0:0:0:
347,365,70320,1,0,1:0:0:0:
506,228,70920,6,0,L|499:124,1,105,6|8,1:0|0:0,0:0:0:0:
406,74,71520,2,0,B|315:69|346:119|249:109,1,157.5,2|2,1:0|0:0,0:0:0:0:
212,80,72120,2,0,L|101:85,1,105,2|8,1:0|0:0,0:0:0:0:
18,140,72720,1,2,1:0:0:0:
21,245,73020,1,10,0:0:0:0:
76,334,73320,6,0,P|134:344|186:330,1,105,2|8,1:0|0:0,0:0:0:0:
267,278,73920,2,0,B|294:204|237:193|268:106,1,157.5,2|2,1:0|0:0,0:0:0:0:
285,76,74520,2,0,P|348:64|392:75,1,105,2|8,1:0|0:0,0:0:0:0:
480,120,75120,1,2,1:0:0:0:
503,222,75420,1,10,0:0:0:0:
457,316,75720,6,0,L|332:309,1,105,2|8,1:0|0:0,0:0:0:0:
249,288,76320,2,0,B|147:296|147:296|113:285|92:255,1,157.5,2|2,1:0|0:0,0:0:0:0:
73,221,76920,2,0,L|80:108,1,105,2|8,1:0|0:0,0:0:0:0:
148,36,77520,1,2,1:0:0:0:
250,14,77820,1,10,0:0:0:0:
342,63,78120,6,0,L|403:61,2,52.5,6|0|0,1:0|1:0|1:0,0:0:0:0:
265,135,78720,2,0,L|204:133,2,52.5,6|0|0,1:0|1:0|1:0,0:0:0:0:
352,193,79320,2,0,B|401:213|453:186|453:186|425:230|443:286|443:286|385:274|346:313|346:313|297:267|238:270,1,420,6|6,1:0|1:0,0:0:0:0:
187,206,85320,6,0,L|28:222,2,149.624996004582,0|0|0,1:0|0:0|1:0,0:0:0:0:
245,125,86520,2,0,P|284:99|432:134,1,199.499994672775,0|0,1:0|1:0,0:0:0:0:
473,213,87420,1,0,0:0:0:0:
404,285,87720,6,0,P|331:291|234:299,2,149.624996004582,0|0|0,1:0|1:0|1:0,0:0:0:0:
473,213,88920,1,0,1:0:0:0:
473,213,90120,6,0,P|490:263|486:318,2,105,2|8|0,1:0|0:0|1:0,0:0:0:0:
393,144,91020,1,10,0:0:0:0:
303,199,91320,2,0,L|183:206,2,105,2|8|0,1:0|0:0|1:0,0:0:0:0:
393,144,92220,1,10,0:0:0:0:
336,55,92520,6,0,P|280:45|210:62,1,105,2|8,1:0|0:0,0:0:0:0:
133,85,93120,1,2,1:0:0:0:
86,179,93420,1,10,0:0:0:0:
131,273,93720,2,0,B|175:286|215:265|215:265|248:288|248:288|286:268|339:282,1,210,2|0,1:0|1:0,0:0:0:0:
429,311,94620,1,0,1:0:0:0:
504,237,94920,6,0,B|511:86|511:86|459:51,1,210,2|0,1:0|1:0,0:0:0:0:
364,14,95820,1,8,0:0:0:0:
271,64,96120,2,0,P|215:77|149:57,1,105,2|10,1:0|0:0,0:0:0:0:
70,31,96720,1,2,1:0:0:0:
12,118,97020,1,10,0:0:0:0:
44,217,97320,6,0,L|37:324,2,105,2|8|0,1:0|0:0|1:0,0:0:0:0:
132,159,98220,1,8,0:0:0:0:
229,199,98520,2,0,P|280:186|345:193,2,105,2|8|0,1:0|0:0|1:0,0:0:0:0:
164,282,99420,1,0,1:0:0:0:
224,367,99720,6,0,L|347:360,1,105,2|8,1:0|0:0,0:0:0:0:
433,350,100320,1,0,1:0:0:0:
487,259,100620,1,8,0:0:0:0:
445,162,100920,2,0,L|452:55,2,105,2|10|2,1:0|0:0|1:0,0:0:0:0:
353,213,101820,1,10,0:0:0:0:
273,144,102120,6,0,B|229:132|190:134|190:134|157:149|157:149|112:123|51:139,1,210,2|0,1:0|1:0,0:0:0:0:
8,220,103020,1,10,0:0:0:0:
70,304,103320,2,0,P|116:316|185:296,2,105,2|8|0,1:0|0:0|1:0,0:0:0:0:
8,220,104220,1,0,1:0:0:0:
71,135,104520,6,0,P|124:130|183:125,1,105,2|8,1:0|0:0,0:0:0:0:
280,118,105120,1,2,1:0:0:0:
376,159,105420,1,8,0:0:0:0:
427,250,105720,2,0,P|434:303|414:360,2,105,2|8|2,1:0|0:0|1:0,0:0:0:0:
376,159,106620,1,8,0:0:0:0:
280,118,106920,5,2,1:0:0:0:
256,192,107070,12,2,109620,1:0:0:0:
163,122,110520,6,0,L|167:243,1,105,2|2,1:0|1:0,0:0:0:0:
240,301,111120,1,0,1:0:0:0:
345,301,111420,1,0,1:0:0:0:
419,226,111720,2,0,P|432:168|418:116,1,105,2|2,1:0|1:0,0:0:0:0:
354,44,112320,1,2,1:0:0:0:
250,23,112620,1,0,1:0:0:0:
150,55,112920,6,0,L|142:170,1,105,2|2,1:0|1:0,0:0:0:0:
56,219,113520,2,0,L|64:334,1,105,2|2,1:0|1:0,0:0:0:0:
154,375,114120,1,2,1:0:0:0:
258,364,114420,1,10,0:0:0:0:
317,277,114720,1,10,0:0:0:0:
288,176,115020,1,0,1:0:0:0:
195,126,115320,6,0,P|184:69|200:17,2,105,2|0|0,1:0|1:0|1:0,0:0:0:0:
288,176,116220,1,2,1:0:0:0:
384,133,116520,2,0,P|441:122|493:138,2,105,2|2|2,1:0|1:0|1:0,0:0:0:0:
288,176,117420,1,2,1:0:0:0:
232,265,117720,6,0,L|115:258,2,105,2|2|0,1:0|1:0|1:0,0:0:0:0:
311,333,118620,1,0,1:0:0:0:
415,321,118920,2,0,B|461:238|377:200|426:110,1,210,0|0,1:0|1:0,0:0:0:0:
360,32,119820,1,0,1:0:0:0:
264,76,120120,6,0,P|209:88|143:71,1,105,2|10,1:0|0:0,0:0:0:0:
64,39,120720,1,0,1:0:0:0:
0,122,121020,1,10,0:0:0:0:
39,219,121320,2,0,L|153:223,1,105,2|10,1:0|0:0,0:0:0:0:
248,226,121920,1,2,1:0:0:0:
343,181,122220,2,0,L|348:111,1,52.5,10|0,0:0|0:0,0:0:0:0:
354,76,122520,6,0,P|407:62|466:73,1,105,2|8,1:0|0:0,0:0:0:0:
503,162,123120,2,0,L|493:268,1,105,0|10,1:0|0:0,0:0:0:0:
427,349,123720,2,0,P|374:335|315:346,1,105,2|8,1:0|0:0,0:0:0:0:
221,362,124320,1,0,1:0:0:0:
130,308,124620,2,0,P|119:266|118:242,1,52.5,10|0,0:0|0:0,0:0:0:0:
116,204,124920,6,0,L|11:207,2,105,2|10|2,1:0|0:0|1:0,0:0:0:0:
181,122,125820,1,10,0:0:0:0:
253,47,126120,2,0,P|310:39|373:58,1,105,2|10,1:0|0:0,0:0:0:0:
440,110,126720,2,0,P|448:167|429:230,1,105,2|10,1:0|0:0,0:0:0:0:
365,289,127320,6,0,L|243:297,1,105,2|8,1:0|0:0,0:0:0:0:
170,351,127920,2,0,L|48:343,1,105,0|8,1:0|0:0,0:0:0:0:
4,258,128520,2,0,P|21:158|125:117,1,210,2|0,1:0|1:0,0:0:0:0:
215,135,129420,1,2,1:0:0:0:
267,226,129720,6,0,P|319:220|387:215,2,105,6|10|2,1:0|0:0|1:0,0:0:0:0:
166,256,130620,1,10,0:0:0:0:
214,348,130920,2,0,P|266:365|329:360,1,105,2|10,1:0|0:0,0:0:0:0:
417,334,131520,1,2,1:0:0:0:
488,256,131820,1,10,0:0:0:0:
456,155,132120,6,0,L|463:35,2,105,2|10|2,1:0|0:0|1:0,0:0:0:0:
372,216,133020,1,10,0:0:0:0:
281,162,133320,2,0,P|224:155|174:170,1,105,2|10,1:0|0:0,0:0:0:0:
83,211,133920,1,2,1:0:0:0:
14,131,134220,1,10,0:0:0:0:
81,50,134520,6,0,L|198:42,2,105,2|10|2,1:0|0:0|1:0,0:0:0:0:
14,131,135420,1,10,0:0:0:0:
83,211,135720,2,0,P|100:251|102:320,1,105,2|10,1:0|0:0,0:0:0:0:
202,346,136320,2,0,P|203:293|222:245,1,105,2|10,1:0|0:0,0:0:0:0:
290,164,136920,6,0,L|281:47,2,105,2|10|2,1:0|0:0|1:0,0:0:0:0:
327,262,137820,1,10,0:0:0:0:
431,264,138120,2,0,P|471:227|490:163,1,105,2|10,1:0|0:0,0:0:0:0:
463,78,138720,2,0,P|426:38|362:19,1,105,2|10,1:0|0:0,0:0:0:0:
280,32,139320,6,0,B|159:29,1,99.7499973363877,6|2,1:0|0:0,0:0:0:0:
80,33,139920,2,0,P|49:73|39:125,1,99.7499973363877
26,219,140520,1,2,0:0:0:0:
92,293,140820,1,2,0:0:0:0:
189,314,141120,6,0,P|241:298|296:304,1,99.7499973363877,6|0,1:0|0:0,0:0:0:0:
379,335,141720,2,0,B|409:189|409:189|354:123|262:128,1,299.249992009163,2|2,0:0|0:0,0:0:0:0:
193,182,142920,2,0,L|86:171,1,99.7499973363877,2|2,0:0|0:0,0:0:0:0:
72,74,143520,2,0,L|179:63,1,99.7499973363877,0|2,0:0|0:0,0:0:0:0:
261,21,144120,6,0,L|365:28,1,99.7499973363877,2|0,0:0|0:0,0:0:0:0:
460,30,144720,2,0,P|478:65|480:143,1,99.7499973363877,2|0,0:0|0:0,0:0:0:0:
451,219,145320,1,2,0:0:0:0:
355,248,145620,1,2,0:0:0:0:
258,223,145920,5,4,1:0:0:0:
190,151,146220,2,0,P|136:144|78:162,1,99.7499973363877,0|2,0:0|0:0,0:0:0:0:
56,189,146670,2,0,L|65:295,1,99.7499973363877,0|0,1:0|1:0,0:0:0:0:
103,318,147120,2,0,P|157:325|215:307,1,99.7499973363877,2|2,1:0|0:0,0:0:0:0:
278,251,147720,6,0,L|276:201,2,49.8749986681939,2|2|2,1:0|1:0|1:0,0:0:0:0:
329,336,148320,2,0,P|410:343|470:308,1,149.624996004582,2|0,1:0|0:0,0:0:0:0:
487,261,148920,6,0,L|479:151,1,105,6|2,1:0|1:0,0:0:0:0:
385,109,149520,2,0,L|377:219,1,105,2|2,1:0|1:0,0:0:0:0:
278,251,150120,2,0,L|270:141,1,105,2|2,1:0|1:0,0:0:0:0:
247,43,150720,1,2,1:0:0:0:
144,22,151020,1,2,1:0:0:0:
52,73,151320,6,0,L|0:69,2,52.5,0|2|0,1:0|0:0|1:0,0:0:0:0:
131,141,151920,2,0,P|144:189|131:252,1,105,2|0,1:0|1:0,0:0:0:0:
73,327,152520,1,2,1:0:0:0:
73,327,153720,6,0,B|167:308|139:361|235:344,1,157.5,6|2,1:0|0:0,0:0:0:0:
274,325,154320,2,0,L|267:220,1,105,2|10,1:0|0:0,0:0:0:0:
263,115,154920,1,2,1:0:0:0:
330,34,155220,1,10,0:0:0:0:
435,34,155520,2,0,P|460:85|458:140,1,105,2|10,1:0|0:0,0:0:0:0:
424,232,156120,6,0,P|351:226|245:219,1,157.5,2|2,1:0|0:0,0:0:0:0:
223,190,156720,2,0,P|170:194|94:199,1,105,2|10,1:0|0:0,0:0:0:0:
15,218,157320,1,2,1:0:0:0:
12,322,157620,1,10,0:0:0:0:
108,364,157920,2,0,P|161:369|232:350,1,105,2|8,1:0|0:0,0:0:0:0:
305,311,158520,6,0,L|426:318,2,105,2|10|2,1:0|0:0|1:0,0:0:0:0:
226,241,159420,1,10,0:0:0:0:
144,174,159720,2,0,L|83:177,2,52.5,2|2|10,1:0|1:0|1:3,0:0:0:0:
215,97,160320,1,2,1:0:0:0:
314,64,160620,1,10,0:0:0:0:
414,96,160920,6,0,P|434:143|431:217,1,105,0|8,1:0|0:0,0:0:0:0:
375,282,161520,2,0,P|297:265|208:291,1,157.5,2|2,1:0|0:0,0:0:0:0:
175,307,162120,2,0,L|183:377,2,52.5,2|2|10,1:0|1:0|1:3,0:0:0:0:
164,202,162720,1,2,1:0:0:0:
204,105,163020,1,8,0:0:0:0:
297,57,163320,6,0,P|352:60|402:89,2,105,2|10|2,1:0|0:0|1:0,0:0:0:0:
204,105,164220,1,10,0:0:0:0:
250,199,164520,2,0,L|246:273,2,52.5,2|2|10,1:0|1:0|1:3,0:0:0:0:
349,165,165120,1,2,1:0:0:0:
430,230,165420,1,10,0:0:0:0:
424,334,165720,6,0,P|378:363|316:366,1,105,0|8,1:0|0:0,0:0:0:0:
223,364,166320,2,0,P|174:330|134:238,1,157.5,0|0,1:0|0:0,0:0:0:0:
119,192,166920,2,0,L|57:197,2,52.5,2|2|8,1:0|1:0|0:0,0:0:0:0:
187,112,167520,1,0,1:0:0:0:
288,85,167820,1,8,0:0:0:0:
382,130,168120,5,2,1:0:0:0:
324,171,172920,6,0,L|450:164,2,105,2|10|2,1:0|0:0|1:0,0:0:0:0:
219,177,173820,1,10,0:0:0:0:
130,233,174120,2,0,P|125:280|146:337,1,105,2|10,1:0|0:0,0:0:0:0:
240,376,174720,1,2,1:0:0:0:
343,360,175020,1,10,0:0:0:0:
400,272,175320,6,0,L|386:104,1,157.5,0|2,1:0|0:0,0:0:0:0:
378,63,175920,2,0,P|325:48|264:56,1,105,2|8,1:0|0:0,0:0:0:0:
179,95,176520,1,2,1:0:0:0:
129,187,176820,1,10,0:0:0:0:
167,284,177120,2,0,L|280:275,1,105,2|8,1:0|0:0,0:0:0:0:
355,212,177720,6,0,L|468:221,2,105,6|10|2,1:0|0:0|1:0,0:0:0:0:
267,153,178620,1,10,0:0:0:0:
179,95,178920,2,0,P|105:95|60:122,1,105,2|10,1:0|0:0,0:0:0:0:
17,194,179520,1,2,1:0:0:0:
63,288,179820,1,10,0:0:0:0:
165,312,180120,6,0,B|221:305|221:305|269:350|335:325,1,157.5,0|2,1:0|0:0,0:0:0:0:
362,310,180720,2,0,L|350:198,1,105,2|8,1:0|0:0,0:0:0:0:
338,101,181320,1,2,1:0:0:0:
338,101,182220,1,0,1:0:0:0:
418,32,182520,6,0,P|440:80|435:142,1,105,6|8,1:0|0:0,0:0:0:0:
420,234,183120,2,0,B|414:335|414:335|361:366,1,157.5,2|2,1:0|0:0,0:0:0:0:
313,371,183720,2,0,P|261:367|206:364,1,105,2|10,1:0|0:0,0:0:0:0:
111,322,184320,1,2,1:0:0:0:
110,217,184620,1,10,0:0:0:0:
192,152,184920,6,0,P|231:137|312:147,1,105,2|8,1:0|0:0,0:0:0:0:
392,175,185520,2,0,B|410:72|410:72|385:22,1,157.5,2|2,1:0|0:0,0:0:0:0:
334,15,186120,2,0,P|282:18|224:22,1,105,2|10,1:0|0:0,0:0:0:0:
124,29,186720,1,2,1:0:0:0:
78,123,187020,1,8,0:0:0:0:
135,213,187320,6,0,L|121:326,2,105,2|10|2,1:0|0:0|1:0,0:0:0:0:
217,148,188220,1,10,0:0:0:0:
318,120,188520,2,0,P|374:115|435:148,1,105,2|10,1:0|0:0,0:0:0:0:
483,215,189120,1,2,1:0:0:0:
450,314,189420,1,10,0:0:0:0:
353,356,189720,6,0,L|230:350,1,105,0|8,1:0|0:0,0:0:0:0:
143,343,190320,1,2,1:0:0:0:
89,252,190620,1,8,0:0:0:0:
113,149,190920,2,0,P|61:137|9:142,2,105,2|10|2,1:0|0:0|1:0,0:0:0:0:
205,197,191820,1,8,0:0:0:0:
293,254,192120,6,0,L|414:245,1,105,2|10,1:0|0:0,0:0:0:0:
485,189,192720,1,2,1:0:0:0:
483,84,193020,1,10,0:0:0:0:
396,24,193320,2,0,P|336:18|279:35,1,105,2|10,1:0|0:0,0:0:0:0:
197,73,193920,1,2,1:0:0:0:
162,172,194220,1,10,0:0:0:0:
215,262,194520,6,0,L|279:258,2,52.5,0|2|8,1:0|1:0|1:3,0:0:0:0:
130,323,195120,2,0,L|66:319,2,52.5,2|0|8,1:0|1:0|1:3,0:0:0:0:
220,375,195720,1,2,1:0:0:0:
256,192,195870,12,6,196920,1:0:0:0:
149,274,201720,6,0,L|31:282,2,105,6|10|2,1:0|0:0|1:0,0:0:0:0:
253,265,202620,1,8,0:0:0:0:
342,209,202920,2,0,L|460:217,2,105,2|10|2,1:0|0:0|1:0,0:0:0:0:
263,139,203820,1,8,0:0:0:0:
175,80,204120,6,0,P|119:67|55:88,1,105,2|10,1:0|0:0,0:0:0:0:
17,166,204720,1,2,1:0:0:0:
45,267,205020,1,10,0:0:0:0:
137,316,205320,2,0,L|134:384,2,52.5,2|0|2,1:0|0:0|1:0,0:0:0:0:
214,244,205920,2,0,B|255:240|255:240|280:247|280:247|330:241,1,105,2|2,1:0|1:0,0:0:0:0:
421,223,206520,6,0,P|428:171|410:116,2,105,6|10|2,1:0|0:0|1:0,0:0:0:0:
388,322,207420,1,10,0:0:0:0:
288,354,207720,2,0,L|170:360,2,105,2|10|2,1:0|0:0|1:0,0:0:0:0:
388,322,208620,1,10,0:0:0:0:
317,242,208920,6,0,P|255:226|202:235,1,105,0|10,1:0|0:0,0:0:0:0:
115,264,209520,1,2,1:0:0:0:
40,190,209820,1,10,0:0:0:0:
97,102,210120,2,0,L|93:46,2,52.5,2|0|2,1:0|0:0|1:0,0:0:0:0:
191,147,210720,2,0,B|232:143|232:143|257:150|257:150|307:144,1,105,2|2,1:0|1:0,0:0:0:0:
399,149,211320,6,0,P|414:204|410:258,1,105,4|10,1:0|0:0,0:0:0:0:
306,247,211920,2,0,P|291:192|295:138,1,105,2|10,1:0|0:0,0:0:0:0:
305,40,212520,1,2,1:0:0:0:
202,16,212820,1,10,0:0:0:0:
108,63,213120,2,0,L|98:174,1,105,2|8,1:0|0:0,0:0:0:0:
14,231,213720,6,0,L|24:342,1,105,0|10,1:0|0:0,0:0:0:0:
121,373,214320,2,0,P|180:375|232:351,1,105,2|10,1:0|0:0,0:0:0:0:
292,280,214920,1,2,1:0:0:0:
292,280,216120,6,0,L|415:288,2,105,6|10|2,1:0|0:0|1:0,0:0:0:0:
187,271,217020,1,8,0:0:0:0:
118,191,217320,2,0,L|-5:199,2,105,2|10|2,1:0|0:0|1:0,0:0:0:0:
198,123,218220,1,8,0:0:0:0:
278,55,218520,6,0,P|331:51|394:77,2,105,2|10|0,1:0|0:0|1:0,0:0:0:0:
198,123,219420,1,10,0:0:0:0:
278,190,219720,2,0,P|331:194|394:168,2,105,2|10|2,1:0|0:0|1:0,0:0:0:0:
198,123,220620,1,8,0:0:0:0:
117,190,220920,6,0,L|126:302,1,105,2|10,1:0|0:0,0:0:0:0:
210,355,221520,1,2,1:0:0:0:
314,365,221820,1,10,0:0:0:0:
411,327,222120,2,0,P|424:272|415:219,1,105,2|10,1:0|0:0,0:0:0:0:
378,127,222720,1,2,1:0:0:0:
284,80,223020,1,10,0:0:0:0:
184,113,223320,6,0,L|61:108,1,105,0|10,1:0|0:0,0:0:0:0:
72,213,223920,2,0,L|195:218,1,105,2|10,1:0|0:0,0:0:0:0:
281,221,224520,1,2,1:0:0:0:
383,196,224820,1,10,0:0:0:0:
435,105,225120,1,2,1:0:0:0:
373,19,225420,1,10,0:0:0:0:
268,15,225720,6,0,P|254:70|262:130,1,105,0|10,1:0|0:0,0:0:0:0:
281,221,226320,1,2,1:0:0:0:
221,307,226620,1,10,0:0:0:0:
117,326,226920,2,0,L|123:387,2,52.5,2|2|10,1:0|0:0|0:0,0:0:0:0:
96,223,227520,1,2,1:0:0:0:
154,135,227820,1,10,0:0:0:0:
258,117,228120,6,0,L|377:123,1,105,2|10,1:0|0:0,0:0:0:0:
400,220,228720,2,0,L|281:226,1,105,2|10,1:0|0:0,0:0:0:0:
190,232,229320,1,0,1:0:0:0:
96,184,229620,2,0,P|84:119|95:82,1,105,10|2,0:0|1:0,0:0:0:0:
130,44,230070,2,0,P|177:77|277:62,1,157.5,2|0,0:0|1:0,0:0:0:0:
368,23,230820,5,8,0:0:0:0:
456,79,231120,2,0,L|445:193,1,105,2|10,1:0|0:0,0:0:0:0:
417,284,231720,1,2,1:0:0:0:
321,327,232020,2,0,P|255:327|216:304,1,105,10|2,0:0|1:0,0:0:0:0:
190,266,232470,2,0,B|142:260|142:260|90:280|90:280|32:267,1,157.5,2|10,0:0|0:0,0:0:0:0:
256,192,233070,12,4,235320,1:0:0:0:
