osu file format v14

[General]
AudioFilename: audio.mp3
AudioLeadIn: 0
PreviewTime: 52350
Countdown: 0
SampleSet: None
StackLeniency: 0.7
Mode: 3
LetterboxInBreaks: 0
SpecialStyle: 0
WidescreenStoryboard: 1

[Editor]
DistanceSpacing: 1.1
BeatDivisor: 4
GridSize: 4
TimelineZoom: 1.6

[Metadata]
Title:Pretty Girls with Mental Disorders
TitleUnicode:Pretty Girls with Mental Disorders
Artist:Helblinde
ArtistUnicode:Helblinde
Creator:hubbla
Version:NM
Source:デート・ア・ライブ
Tags:date a live fadillsan
BeatmapID:1524991
BeatmapSetID:722309

[Difficulty]
HPDrainRate:6
CircleSize:4
OverallDifficulty:7
ApproachRate:5
SliderMultiplier:1.4
SliderTickRate:1

[Events]
//Background and Video events
0,0,"bggd_edited.png",0,0
//Break Periods
2,190550,199350
//Storyboard Layer 0 (Background)
//Storyboard Layer 1 (Fail)
//Storyboard Layer 2 (Pass)
//Storyboard Layer 3 (Foreground)
//Storyboard Sound Samples

[TimingPoints]
5850,300,4,2,1,25,1,0
73950,-100,4,2,1,25,0,1
93750,-100,4,2,1,25,0,0
113550,-100,4,2,1,25,0,1
132300,-100,4,2,1,25,0,0
171150,-100,4,2,1,25,0,1
190350,-100,4,2,1,25,0,0
212550,-100,4,2,1,25,0,1
231825,-100,4,2,1,25,0,0
232950,-100,4,2,1,25,0,1
271050,-100,4,2,1,25,0,0

[HitObjects]
448,192,5850,5,0,0:0:0:0:
64,192,6150,1,0,0:0:0:0:
320,192,6150,1,0,0:0:0:0:
448,192,6450,1,0,0:0:0:0:
320,192,6450,1,0,0:0:0:0:
64,192,6750,1,0,0:0:0:0:
448,192,7050,1,0,0:0:0:0:
192,192,7050,1,0,0:0:0:0:
192,192,7350,1,0,0:0:0:0:
64,192,7650,1,0,0:0:0:0:
320,192,7650,1,0,0:0:0:0:
192,192,7950,1,0,0:0:0:0:
448,192,8250,1,0,0:0:0:0:
320,192,8250,1,0,0:0:0:0:
64,192,8550,1,0,0:0:0:0:
192,192,8850,1,0,0:0:0:0:
448,192,8850,1,0,0:0:0:0:
192,192,9150,1,0,0:0:0:0:
320,192,9450,1,0,0:0:0:0:
64,192,9450,1,0,0:0:0:0:
320,192,9750,1,0,0:0:0:0:
448,192,10050,1,0,0:0:0:0:
64,192,10050,1,0,0:0:0:0:
192,192,10350,1,0,0:0:0:0:
64,192,10650,1,0,0:0:0:0:
448,192,10650,1,0,0:0:0:0:
320,192,10800,1,0,0:0:0:0:
192,192,10950,1,0,0:0:0:0:
64,192,10950,1,0,0:0:0:0:
192,192,11250,1,0,0:0:0:0:
320,192,11250,1,0,0:0:0:0:
64,192,11550,1,0,0:0:0:0:
448,192,11850,1,0,0:0:0:0:
320,192,11850,1,0,0:0:0:0:
192,192,12150,1,0,0:0:0:0:
448,192,12450,1,0,0:0:0:0:
64,192,12450,1,0,0:0:0:0:
448,192,12750,1,0,0:0:0:0:
320,192,13050,1,0,0:0:0:0:
64,192,13050,1,0,0:0:0:0:
192,192,13350,1,0,0:0:0:0:
192,192,13650,1,0,0:0:0:0:
448,192,13650,1,0,0:0:0:0:
320,192,13950,1,0,0:0:0:0:
64,192,14250,1,0,0:0:0:0:
320,192,14250,1,0,0:0:0:0:
192,192,14550,1,0,0:0:0:0:
448,192,14850,1,0,0:0:0:0:
64,192,14850,1,0,0:0:0:0:
192,192,15150,1,0,0:0:0:0:
448,192,15450,128,0,15750:0:0:0:0:
64,192,15750,1,0,0:0:0:0:
448,192,16050,1,0,0:0:0:0:
192,192,16050,1,0,0:0:0:0:
320,192,16350,1,0,0:0:0:0:
320,192,16650,1,0,0:0:0:0:
64,192,16650,1,0,0:0:0:0:
192,192,16950,1,0,0:0:0:0:
448,192,17250,1,0,0:0:0:0:
64,192,17250,1,0,0:0:0:0:
448,192,17550,1,0,0:0:0:0:
320,192,17850,1,0,0:0:0:0:
64,192,17850,1,0,0:0:0:0:
192,192,18150,1,0,0:0:0:0:
448,192,18450,1,0,0:0:0:0:
192,192,18450,1,0,0:0:0:0:
320,192,18750,1,0,0:0:0:0:
320,192,19050,1,0,0:0:0:0:
448,192,19050,1,0,0:0:0:0:
192,192,19350,1,0,0:0:0:0:
64,192,19650,1,0,0:0:0:0:
448,192,19650,1,0,0:0:0:0:
320,192,19950,1,0,0:0:0:0:
192,192,20250,1,0,0:0:0:0:
448,192,20250,1,0,0:0:0:0:
64,192,20550,1,0,0:0:0:0:
448,192,20850,1,0,0:0:0:0:
64,192,20850,1,0,0:0:0:0:
320,192,21150,1,0,0:0:0:0:
192,192,21450,1,0,0:0:0:0:
320,192,21450,1,0,0:0:0:0:
64,192,21750,1,0,0:0:0:0:
192,192,22050,1,0,0:0:0:0:
448,192,22050,1,0,0:0:0:0:
192,192,22350,1,0,0:0:0:0:
64,192,22650,1,0,0:0:0:0:
320,192,22650,1,0,0:0:0:0:
320,192,22950,1,0,0:0:0:0:
64,192,23250,1,0,0:0:0:0:
192,192,23250,1,0,0:0:0:0:
192,192,23550,1,0,0:0:0:0:
64,192,23850,1,0,0:0:0:0:
448,192,23850,1,0,0:0:0:0:
192,192,24150,1,0,0:0:0:0:
448,192,24150,1,0,0:0:0:0:
448,192,24450,1,0,0:0:0:0:
320,192,24600,1,0,0:0:0:0:
192,192,24750,1,0,0:0:0:0:
448,192,24900,1,0,0:0:0:0:
320,192,25050,1,0,0:0:0:0:
192,192,25200,1,0,0:0:0:0:
64,192,25350,1,0,0:0:0:0:
320,192,25350,1,0,0:0:0:0:
64,192,25650,1,0,0:0:0:0:
448,192,25650,1,0,0:0:0:0:
448,192,25950,1,0,0:0:0:0:
448,192,26250,1,0,0:0:0:0:
192,192,26250,1,0,0:0:0:0:
320,192,26550,1,0,0:0:0:0:
64,192,26850,1,0,0:0:0:0:
448,192,26850,1,0,0:0:0:0:
448,192,27150,1,0,0:0:0:0:
64,192,27450,1,0,0:0:0:0:
320,192,27450,1,0,0:0:0:0:
192,192,27750,128,0,28200:0:0:0:0:
64,192,28200,128,0,28500:0:0:0:0:
320,192,28500,128,0,28800:0:0:0:0:
448,192,28800,128,0,29550:0:0:0:0:
320,192,29850,1,0,0:0:0:0:
64,192,29850,1,0,0:0:0:0:
192,192,30150,1,0,0:0:0:0:
192,192,30450,1,0,0:0:0:0:
448,192,30450,1,0,0:0:0:0:
448,192,30750,1,0,0:0:0:0:
64,192,31050,1,0,0:0:0:0:
192,192,31050,1,0,0:0:0:0:
64,192,31350,1,0,0:0:0:0:
320,192,31650,1,0,0:0:0:0:
64,192,31650,1,0,0:0:0:0:
192,192,31950,1,0,0:0:0:0:
64,192,32250,1,0,0:0:0:0:
448,192,32250,1,0,0:0:0:0:
320,192,32550,1,0,0:0:0:0:
192,192,32850,1,0,0:0:0:0:
448,192,32850,1,0,0:0:0:0:
64,192,33150,1,0,0:0:0:0:
448,192,33450,1,0,0:0:0:0:
192,192,33450,1,0,0:0:0:0:
320,192,33600,1,0,0:0:0:0:
192,192,33750,1,0,0:0:0:0:
64,192,33750,1,0,0:0:0:0:
320,192,34050,1,0,0:0:0:0:
448,192,34050,1,0,0:0:0:0:
64,192,34350,1,0,0:0:0:0:
192,192,34650,1,0,0:0:0:0:
448,192,34650,1,0,0:0:0:0:
448,192,34950,1,0,0:0:0:0:
448,192,35250,1,0,0:0:0:0:
320,192,35250,1,0,0:0:0:0:
192,192,35550,1,0,0:0:0:0:
64,192,35850,1,0,0:0:0:0:
448,192,35850,1,0,0:0:0:0:
320,192,36150,1,0,0:0:0:0:
64,192,36450,1,0,0:0:0:0:
192,192,36450,1,0,0:0:0:0:
448,192,36750,1,0,0:0:0:0:
64,192,37050,1,0,0:0:0:0:
320,192,37050,1,0,0:0:0:0:
448,192,37350,128,0,37800:0:0:0:0:
320,192,37800,128,0,38100:0:0:0:0:
192,192,38100,128,0,38400:0:0:0:0:
64,192,38400,128,0,39150:0:0:0:0:
448,192,39450,1,0,0:0:0:0:
64,192,39450,1,0,0:0:0:0:
320,192,39750,1,0,0:0:0:0:
448,192,40050,1,0,0:0:0:0:
192,192,40050,1,0,0:0:0:0:
64,192,40350,1,0,0:0:0:0:
320,192,40650,1,0,0:0:0:0:
64,192,40650,1,0,0:0:0:0:
64,192,40950,1,0,0:0:0:0:
192,192,41250,1,0,0:0:0:0:
320,192,41250,1,0,0:0:0:0:
448,192,41550,1,0,0:0:0:0:
448,192,41850,1,0,0:0:0:0:
320,192,41850,1,0,0:0:0:0:
64,192,42150,1,0,0:0:0:0:
192,192,42450,1,0,0:0:0:0:
448,192,42450,1,0,0:0:0:0:
448,192,42750,1,0,0:0:0:0:
64,192,42750,1,0,0:0:0:0:
320,192,42900,1,0,0:0:0:0:
192,192,43050,1,0,0:0:0:0:
64,192,43050,1,0,0:0:0:0:
64,192,43350,1,0,0:0:0:0:
448,192,43350,128,0,48150:0:0:0:0:
320,192,43650,1,0,0:0:0:0:
320,192,44100,1,0,0:0:0:0:
192,192,44250,1,0,0:0:0:0:
320,192,44550,1,0,0:0:0:0:
64,192,44850,1,0,0:0:0:0:
320,192,45300,1,0,0:0:0:0:
64,192,45450,1,0,0:0:0:0:
192,192,45750,1,0,0:0:0:0:
64,192,46050,1,0,0:0:0:0:
320,192,46500,1,0,0:0:0:0:
64,192,46650,1,0,0:0:0:0:
192,192,46950,1,0,0:0:0:0:
64,192,47250,1,0,0:0:0:0:
320,192,47700,1,0,0:0:0:0:
64,192,47850,1,0,0:0:0:0:
320,192,48150,128,0,50550:0:0:0:0:
64,192,48450,1,0,0:0:0:0:
192,192,48900,1,0,0:0:0:0:
64,192,49050,1,0,0:0:0:0:
448,192,49350,1,0,0:0:0:0:
64,192,49650,1,0,0:0:0:0:
192,192,50100,1,0,0:0:0:0:
64,192,50250,1,0,0:0:0:0:
448,192,50550,1,0,0:0:0:0:
448,192,51000,1,0,0:0:0:0:
64,192,51450,128,0,52350:0:0:0:0:
448,192,51450,1,0,0:0:0:0:
192,192,51750,1,0,0:0:0:0:
320,192,51900,1,0,0:0:0:0:
448,192,52050,1,0,0:0:0:0:
192,192,52350,128,0,52650:0:0:0:0:
448,192,52350,1,0,0:0:0:0:
64,192,52650,128,0,52800:0:0:0:0:
320,192,52800,128,0,53100:0:0:0:0:
448,192,53100,128,0,53250:0:0:0:0:
192,192,53250,128,0,53850:0:0:0:0:
320,192,53850,128,0,54000:0:0:0:0:
192,192,54000,128,0,54300:0:0:0:0:
448,192,54300,128,0,54450:0:0:0:0:
64,192,54450,128,0,55050:0:0:0:0:
320,192,55050,128,0,55200:0:0:0:0:
192,192,55200,128,0,55500:0:0:0:0:
448,192,55500,128,0,55800:0:0:0:0:
320,192,55800,128,0,56100:0:0:0:0:
192,192,56100,128,0,56400:0:0:0:0:
64,192,56400,128,0,56700:0:0:0:0:
320,192,56700,128,0,57000:0:0:0:0:
448,192,57000,128,0,57450:0:0:0:0:
192,192,57450,128,0,57750:0:0:0:0:
320,192,57750,128,0,58050:0:0:0:0:
64,192,58050,128,0,58650:0:0:0:0:
192,192,58650,128,0,58950:0:0:0:0:
320,192,58950,128,0,59250:0:0:0:0:
448,192,59250,128,0,59550:0:0:0:0:
320,192,59550,128,0,59850:0:0:0:0:
64,192,59850,128,0,60150:0:0:0:0:
192,192,60150,128,0,60750:0:0:0:0:
448,192,60750,128,0,60900:0:0:0:0:
320,192,60900,128,0,61050:0:0:0:0:
192,192,61050,128,0,61200:0:0:0:0:
64,192,61200,128,0,61950:0:0:0:0:
320,192,61950,1,0,0:0:0:0:
192,192,62100,1,0,0:0:0:0:
448,192,62250,1,0,0:0:0:0:
320,192,62400,1,0,0:0:0:0:
192,192,62550,1,0,0:0:0:0:
448,192,62550,1,0,0:0:0:0:
448,192,62850,1,0,0:0:0:0:
64,192,62850,1,0,0:0:0:0:
64,192,63150,1,0,0:0:0:0:
320,192,63150,1,0,0:0:0:0:
192,192,63450,1,0,0:0:0:0:
448,192,63450,1,0,0:0:0:0:
448,192,63750,1,0,0:0:0:0:
64,192,63750,1,0,0:0:0:0:
320,192,64050,1,0,0:0:0:0:
64,192,64050,1,0,0:0:0:0:
192,192,64350,1,0,0:0:0:0:
448,192,64350,1,0,0:0:0:0:
320,192,64650,1,0,0:0:0:0:
64,192,64650,1,0,0:0:0:0:
64,192,64950,1,0,0:0:0:0:
448,192,64950,1,0,0:0:0:0:
448,192,65250,1,0,0:0:0:0:
192,192,65250,1,0,0:0:0:0:
320,192,65550,1,0,0:0:0:0:
64,192,65550,1,0,0:0:0:0:
64,192,65850,1,0,0:0:0:0:
448,192,65850,1,0,0:0:0:0:
320,192,66150,1,0,0:0:0:0:
64,192,66150,1,0,0:0:0:0:
192,192,66450,1,0,0:0:0:0:
448,192,66450,1,0,0:0:0:0:
320,192,66750,1,0,0:0:0:0:
64,192,66750,1,0,0:0:0:0:
64,192,67050,1,0,0:0:0:0:
448,192,67050,1,0,0:0:0:0:
448,192,67350,1,0,0:0:0:0:
192,192,67350,1,0,0:0:0:0:
448,192,67650,1,0,0:0:0:0:
64,192,67650,1,0,0:0:0:0:
64,192,67950,1,0,0:0:0:0:
320,192,67950,1,0,0:0:0:0:
448,192,68250,1,0,0:0:0:0:
192,192,68250,1,0,0:0:0:0:
320,192,68550,1,0,0:0:0:0:
64,192,68550,1,0,0:0:0:0:
64,192,68850,1,0,0:0:0:0:
448,192,68850,1,0,0:0:0:0:
448,192,69150,1,0,0:0:0:0:
192,192,69150,1,0,0:0:0:0:
64,192,69450,1,0,0:0:0:0:
320,192,69450,1,0,0:0:0:0:
448,192,69750,1,0,0:0:0:0:
192,192,69750,1,0,0:0:0:0:
448,192,70050,1,0,0:0:0:0:
64,192,70050,1,0,0:0:0:0:
192,192,70350,1,0,0:0:0:0:
448,192,70350,1,0,0:0:0:0:
320,192,70650,1,0,0:0:0:0:
64,192,70650,1,0,0:0:0:0:
64,192,70950,1,0,0:0:0:0:
448,192,70950,1,0,0:0:0:0:
320,192,71100,1,0,0:0:0:0:
192,192,71250,128,0,73050:0:0:0:0:
320,192,73050,128,0,73650:0:0:0:0:
320,192,73950,1,0,0:0:0:0:
448,192,74250,1,0,0:0:0:0:
64,192,74250,1,0,0:0:0:0:
192,192,74550,1,0,0:0:0:0:
64,192,74850,1,0,0:0:0:0:
320,192,74850,1,0,0:0:0:0:
192,192,75150,1,0,0:0:0:0:
192,192,75450,1,0,0:0:0:0:
448,192,75450,1,0,0:0:0:0:
192,192,75750,1,0,0:0:0:0:
64,192,76050,1,0,0:0:0:0:
448,192,76050,1,0,0:0:0:0:
320,192,76350,1,0,0:0:0:0:
448,192,76650,1,0,0:0:0:0:
192,192,76650,1,0,0:0:0:0:
320,192,76950,1,0,0:0:0:0:
64,192,77250,1,0,0:0:0:0:
448,192,77250,1,0,0:0:0:0:
320,192,77550,1,0,0:0:0:0:
192,192,77850,1,0,0:0:0:0:
64,192,77850,1,0,0:0:0:0:
320,192,78150,1,0,0:0:0:0:
448,192,78450,1,0,0:0:0:0:
64,192,78450,1,0,0:0:0:0:
192,192,78750,1,0,0:0:0:0:
320,192,79050,1,0,0:0:0:0:
448,192,79050,1,0,0:0:0:0:
64,192,79350,1,0,0:0:0:0:
64,192,79650,1,0,0:0:0:0:
320,192,79650,1,0,0:0:0:0:
192,192,79950,1,0,0:0:0:0:
320,192,80250,1,0,0:0:0:0:
64,192,80250,1,0,0:0:0:0:
192,192,80550,1,0,0:0:0:0:
448,192,80850,1,0,0:0:0:0:
320,192,80850,1,0,0:0:0:0:
192,192,81150,1,0,0:0:0:0:
448,192,81450,1,0,0:0:0:0:
320,192,81450,1,0,0:0:0:0:
192,192,81750,1,0,0:0:0:0:
64,192,82050,1,0,0:0:0:0:
448,192,82050,1,0,0:0:0:0:
192,192,82350,1,0,0:0:0:0:
192,192,82650,1,0,0:0:0:0:
448,192,82650,1,0,0:0:0:0:
192,192,82950,1,0,0:0:0:0:
448,192,83250,1,0,0:0:0:0:
320,192,83250,1,0,0:0:0:0:
192,192,83550,1,0,0:0:0:0:
448,192,83850,1,0,0:0:0:0:
192,192,83850,1,0,0:0:0:0:
448,192,84150,1,0,0:0:0:0:
64,192,84450,1,0,0:0:0:0:
448,192,84450,1,0,0:0:0:0:
192,192,84750,1,0,0:0:0:0:
448,192,85050,1,0,0:0:0:0:
192,192,85050,1,0,0:0:0:0:
192,192,85350,1,0,0:0:0:0:
448,192,85650,1,0,0:0:0:0:
320,192,85650,1,0,0:0:0:0:
64,192,85950,1,0,0:0:0:0:
320,192,86250,1,0,0:0:0:0:
448,192,86250,1,0,0:0:0:0:
64,192,86550,1,0,0:0:0:0:
64,192,86850,1,0,0:0:0:0:
448,192,86850,1,0,0:0:0:0:
192,192,87150,1,0,0:0:0:0:
64,192,87450,1,0,0:0:0:0:
448,192,87450,1,0,0:0:0:0:
320,192,87750,1,0,0:0:0:0:
320,192,88050,1,0,0:0:0:0:
64,192,88050,1,0,0:0:0:0:
192,192,88350,1,0,0:0:0:0:
64,192,88650,1,0,0:0:0:0:
448,192,88650,1,0,0:0:0:0:
320,192,88950,1,0,0:0:0:0:
320,192,89250,1,0,0:0:0:0:
64,192,89250,1,0,0:0:0:0:
192,192,89550,1,0,0:0:0:0:
448,192,89850,1,0,0:0:0:0:
192,192,89850,1,0,0:0:0:0:
64,192,90150,1,0,0:0:0:0:
320,192,90450,1,0,0:0:0:0:
448,192,90450,1,0,0:0:0:0:
192,192,90750,1,0,0:0:0:0:
448,192,91050,1,0,0:0:0:0:
64,192,91050,1,0,0:0:0:0:
448,192,91350,1,0,0:0:0:0:
64,192,91350,1,0,0:0:0:0:
320,192,91500,1,0,0:0:0:0:
192,192,91650,1,0,0:0:0:0:
64,192,91650,1,0,0:0:0:0:
320,192,91950,1,0,0:0:0:0:
64,192,92250,1,0,0:0:0:0:
192,192,92250,1,0,0:0:0:0:
320,192,92550,1,0,0:0:0:0:
64,192,92850,1,0,0:0:0:0:
448,192,92850,1,0,0:0:0:0:
64,192,93150,1,0,0:0:0:0:
192,192,93150,1,0,0:0:0:0:
448,192,93450,1,0,0:0:0:0:
192,192,93450,1,0,0:0:0:0:
320,192,93600,1,0,0:0:0:0:
192,192,93750,1,0,0:0:0:0:
64,192,93750,1,0,0:0:0:0:
320,192,94200,1,0,0:0:0:0:
192,192,94350,128,0,94650:0:0:0:0:
320,192,94650,128,0,94950:0:0:0:0:
64,192,94950,128,0,95250:0:0:0:0:
320,192,95250,128,0,95400:0:0:0:0:
192,192,95400,128,0,95700:0:0:0:0:
320,192,95700,128,0,95850:0:0:0:0:
64,192,95850,128,0,96150:0:0:0:0:
320,192,96150,128,0,96450:0:0:0:0:
192,192,96450,128,0,96600:0:0:0:0:
448,192,96600,128,0,96900:0:0:0:0:
192,192,96900,128,0,97050:0:0:0:0:
320,192,97050,128,0,97350:0:0:0:0:
64,192,97350,128,0,97650:0:0:0:0:
320,192,97650,128,0,97800:0:0:0:0:
192,192,97800,128,0,98100:0:0:0:0:
320,192,98100,128,0,98250:0:0:0:0:
64,192,98250,128,0,98550:0:0:0:0:
320,192,98550,128,0,98850:0:0:0:0:
192,192,98850,128,0,99150:0:0:0:0:
448,192,99150,128,0,99450:0:0:0:0:
64,192,99450,128,0,99750:0:0:0:0:
320,192,99750,128,0,100050:0:0:0:0:
192,192,100050,128,0,100200:0:0:0:0:
448,192,100200,128,0,100500:0:0:0:0:
192,192,100500,128,0,100650:0:0:0:0:
320,192,100650,128,0,100950:0:0:0:0:
192,192,100950,128,0,101250:0:0:0:0:
448,192,101250,128,0,101400:0:0:0:0:
64,192,101400,128,0,102150:0:0:0:0:
320,192,102150,128,0,102750:0:0:0:0:
192,192,102750,128,0,103350:0:0:0:0:
448,192,103350,128,0,103650:0:0:0:0:
320,192,103650,128,0,103950:0:0:0:0:
192,192,103950,128,0,104250:0:0:0:0:
320,192,104250,128,0,104550:0:0:0:0:
64,192,104550,128,0,104850:0:0:0:0:
320,192,104850,128,0,105000:0:0:0:0:
192,192,105000,128,0,105300:0:0:0:0:
320,192,105300,128,0,105450:0:0:0:0:
64,192,105450,128,0,105750:0:0:0:0:
320,192,105750,128,0,106050:0:0:0:0:
192,192,106050,128,0,106200:0:0:0:0:
448,192,106200,128,0,106500:0:0:0:0:
192,192,106500,128,0,106650:0:0:0:0:
320,192,106650,128,0,106950:0:0:0:0:
64,192,106950,128,0,107250:0:0:0:0:
320,192,107250,128,0,107400:0:0:0:0:
192,192,107400,128,0,107700:0:0:0:0:
320,192,107700,128,0,107850:0:0:0:0:
64,192,107850,128,0,108150:0:0:0:0:
320,192,108150,128,0,108450:0:0:0:0:
192,192,108450,128,0,108750:0:0:0:0:
448,192,108750,128,0,109050:0:0:0:0:
64,192,109050,128,0,109350:0:0:0:0:
320,192,109350,128,0,109650:0:0:0:0:
192,192,109650,128,0,109800:0:0:0:0:
448,192,109800,128,0,110100:0:0:0:0:
192,192,110100,128,0,110250:0:0:0:0:
320,192,110250,128,0,110550:0:0:0:0:
192,192,110550,128,0,110850:0:0:0:0:
448,192,110850,128,0,111150:0:0:0:0:
64,192,111150,128,0,111750:0:0:0:0:
320,192,111750,128,0,112350:0:0:0:0:
192,192,112350,128,0,112800:0:0:0:0:
448,192,112800,128,0,113250:0:0:0:0:
192,192,113550,1,0,0:0:0:0:
64,192,113850,1,0,0:0:0:0:
320,192,113850,1,0,0:0:0:0:
192,192,114150,1,0,0:0:0:0:
448,192,114450,1,0,0:0:0:0:
192,192,114450,1,0,0:0:0:0:
320,192,114600,1,0,0:0:0:0:
320,192,114900,1,0,0:0:0:0:
448,192,115050,1,0,0:0:0:0:
192,192,115050,1,0,0:0:0:0:
448,192,115350,1,0,0:0:0:0:
192,192,115650,1,0,0:0:0:0:
320,192,115650,1,0,0:0:0:0:
64,192,115800,1,0,0:0:0:0:
64,192,116100,1,0,0:0:0:0:
192,192,116250,1,0,0:0:0:0:
320,192,116250,1,0,0:0:0:0:
192,192,116550,1,0,0:0:0:0:
320,192,116850,1,0,0:0:0:0:
64,192,116850,1,0,0:0:0:0:
448,192,117000,1,0,0:0:0:0:
448,192,117300,1,0,0:0:0:0:
320,192,117450,1,0,0:0:0:0:
64,192,117450,1,0,0:0:0:0:
320,192,117750,1,0,0:0:0:0:
192,192,118050,1,0,0:0:0:0:
448,192,118050,1,0,0:0:0:0:
448,192,118350,1,0,0:0:0:0:
320,192,118650,1,0,0:0:0:0:
64,192,118650,1,0,0:0:0:0:
192,192,118950,1,0,0:0:0:0:
320,192,119250,1,0,0:0:0:0:
64,192,119250,1,0,0:0:0:0:
448,192,119400,1,0,0:0:0:0:
448,192,119700,1,0,0:0:0:0:
320,192,119850,1,0,0:0:0:0:
64,192,119850,1,0,0:0:0:0:
320,192,120150,1,0,0:0:0:0:
64,192,120450,128,0,120750:0:0:0:0:
192,192,120750,128,0,121350:0:0:0:0:
320,192,121350,128,0,121950:0:0:0:0:
448,192,121950,128,0,122400:0:0:0:0:
320,192,122400,128,0,122850:0:0:0:0:
192,192,123150,1,0,0:0:0:0:
64,192,123450,1,0,0:0:0:0:
320,192,123450,1,0,0:0:0:0:
192,192,123750,1,0,0:0:0:0:
448,192,124050,1,0,0:0:0:0:
64,192,124050,1,0,0:0:0:0:
320,192,124200,1,0,0:0:0:0:
320,192,124500,1,0,0:0:0:0:
448,192,124650,1,0,0:0:0:0:
64,192,124650,1,0,0:0:0:0:
448,192,124950,1,0,0:0:0:0:
192,192,125250,1,0,0:0:0:0:
320,192,125250,1,0,0:0:0:0:
64,192,125400,1,0,0:0:0:0:
64,192,125700,1,0,0:0:0:0:
192,192,125850,1,0,0:0:0:0:
320,192,125850,1,0,0:0:0:0:
192,192,126150,1,0,0:0:0:0:
320,192,126450,1,0,0:0:0:0:
64,192,126450,1,0,0:0:0:0:
448,192,126600,1,0,0:0:0:0:
448,192,126900,1,0,0:0:0:0:
320,192,127050,1,0,0:0:0:0:
64,192,127050,1,0,0:0:0:0:
320,192,127350,1,0,0:0:0:0:
192,192,127650,1,0,0:0:0:0:
448,192,127650,1,0,0:0:0:0:
448,192,127950,1,0,0:0:0:0:
320,192,128250,1,0,0:0:0:0:
64,192,128250,1,0,0:0:0:0:
192,192,128550,1,0,0:0:0:0:
320,192,128850,1,0,0:0:0:0:
192,192,128850,1,0,0:0:0:0:
448,192,129000,1,0,0:0:0:0:
448,192,129300,1,0,0:0:0:0:
320,192,129450,1,0,0:0:0:0:
192,192,129450,1,0,0:0:0:0:
320,192,129750,5,0,0:0:0:0:
64,192,130050,1,0,0:0:0:0:
320,192,130050,1,0,0:0:0:0:
64,192,130350,128,0,132750:0:0:0:0:
448,192,132750,128,0,133200:0:0:0:0:
192,192,133200,128,0,133650:0:0:0:0:
320,192,133650,128,0,134100:0:0:0:0:
64,192,134100,128,0,134550:0:0:0:0:
192,192,134550,128,0,134850:0:0:0:0:
448,192,134850,128,0,135150:0:0:0:0:
320,192,135150,128,0,135600:0:0:0:0:
64,192,135600,128,0,136050:0:0:0:0:
192,192,136050,128,0,136500:0:0:0:0:
320,192,136500,128,0,136950:0:0:0:0:
448,192,136950,128,0,137250:0:0:0:0:
192,192,137250,128,0,137550:0:0:0:0:
64,192,137550,128,0,138000:0:0:0:0:
448,192,138000,128,0,138450:0:0:0:0:
192,192,138450,128,0,138900:0:0:0:0:
320,192,138900,128,0,139350:0:0:0:0:
64,192,139350,128,0,139650:0:0:0:0:
192,192,139650,128,0,139950:0:0:0:0:
448,192,139950,128,0,140400:0:0:0:0:
320,192,140400,128,0,140850:0:0:0:0:
64,192,140850,128,0,141150:0:0:0:0:
320,192,141150,128,0,141750:0:0:0:0:
64,192,141750,128,0,142050:0:0:0:0:
192,192,142050,128,0,142350:0:0:0:0:
448,192,142350,128,0,142800:0:0:0:0:
192,192,142800,128,0,143250:0:0:0:0:
320,192,143250,128,0,143700:0:0:0:0:
64,192,143700,128,0,144150:0:0:0:0:
320,192,144150,128,0,144450:0:0:0:0:
448,192,144450,128,0,144750:0:0:0:0:
192,192,144750,128,0,145200:0:0:0:0:
64,192,145200,128,0,145650:0:0:0:0:
192,192,145650,128,0,146100:0:0:0:0:
320,192,146100,128,0,146550:0:0:0:0:
448,192,146550,128,0,146850:0:0:0:0:
192,192,146850,128,0,147150:0:0:0:0:
64,192,147150,128,0,147600:0:0:0:0:
448,192,147600,128,0,148050:0:0:0:0:
192,192,148050,128,0,148500:0:0:0:0:
320,192,148500,128,0,148950:0:0:0:0:
64,192,148950,128,0,149250:0:0:0:0:
192,192,149250,128,0,149550:0:0:0:0:
448,192,149550,128,0,150000:0:0:0:0:
320,192,150000,128,0,150450:0:0:0:0:
64,192,150450,128,0,150750:0:0:0:0:
320,192,150750,128,0,151350:0:0:0:0:
64,192,151350,128,0,151950:0:0:0:0:
448,192,151650,1,0,0:0:0:0:
448,192,151950,1,0,0:0:0:0:
64,192,152250,1,0,0:0:0:0:
192,192,152550,1,0,0:0:0:0:
448,192,152850,1,0,0:0:0:0:
192,192,153150,1,0,0:0:0:0:
64,192,153450,1,0,0:0:0:0:
192,192,153750,1,0,0:0:0:0:
192,192,154050,1,0,0:0:0:0:
448,192,154350,1,0,0:0:0:0:
448,192,154650,1,0,0:0:0:0:
64,192,154950,1,0,0:0:0:0:
320,192,155250,1,0,0:0:0:0:
64,192,155550,1,0,0:0:0:0:
448,192,155850,1,0,0:0:0:0:
448,192,156150,1,0,0:0:0:0:
64,192,156450,1,0,0:0:0:0:
448,192,156600,1,0,0:0:0:0:
192,192,156750,1,0,0:0:0:0:
320,192,157050,1,0,0:0:0:0:
320,192,157350,1,0,0:0:0:0:
64,192,157650,1,0,0:0:0:0:
448,192,157950,1,0,0:0:0:0:
320,192,158250,1,0,0:0:0:0:
64,192,158550,1,0,0:0:0:0:
320,192,158850,1,0,0:0:0:0:
192,192,159150,1,0,0:0:0:0:
448,192,159450,1,0,0:0:0:0:
64,192,159750,1,0,0:0:0:0:
192,192,160050,1,0,0:0:0:0:
192,192,160350,1,0,0:0:0:0:
448,192,160650,1,0,0:0:0:0:
320,192,160950,1,0,0:0:0:0:
64,192,161250,128,0,161550:0:0:0:0:
192,192,161550,1,0,0:0:0:0:
448,192,161850,1,0,0:0:0:0:
64,192,162150,1,0,0:0:0:0:
448,192,162450,1,0,0:0:0:0:
192,192,162750,1,0,0:0:0:0:
64,192,163050,1,0,0:0:0:0:
192,192,163350,1,0,0:0:0:0:
192,192,163650,1,0,0:0:0:0:
448,192,163950,1,0,0:0:0:0:
448,192,164250,1,0,0:0:0:0:
192,192,164550,1,0,0:0:0:0:
320,192,164850,1,0,0:0:0:0:
64,192,165150,1,0,0:0:0:0:
320,192,165450,1,0,0:0:0:0:
192,192,165750,1,0,0:0:0:0:
192,192,166050,1,0,0:0:0:0:
320,192,166350,1,0,0:0:0:0:
64,192,166650,1,0,0:0:0:0:
192,192,166950,1,0,0:0:0:0:
192,192,167250,1,0,0:0:0:0:
448,192,167550,1,0,0:0:0:0:
320,192,167850,1,0,0:0:0:0:
192,192,168150,1,0,0:0:0:0:
320,192,168450,1,0,0:0:0:0:
64,192,168750,1,0,0:0:0:0:
320,192,169050,1,0,0:0:0:0:
64,192,169350,1,0,0:0:0:0:
448,192,169650,1,0,0:0:0:0:
448,192,169950,128,0,171150:0:0:0:0:
64,192,171150,1,0,0:0:0:0:
448,192,171450,1,0,0:0:0:0:
192,192,171450,1,0,0:0:0:0:
64,192,171750,1,0,0:0:0:0:
320,192,172050,1,0,0:0:0:0:
64,192,172050,1,0,0:0:0:0:
448,192,172350,1,0,0:0:0:0:
448,192,172650,1,0,0:0:0:0:
64,192,172650,1,0,0:0:0:0:
448,192,172950,1,0,0:0:0:0:
320,192,172950,1,0,0:0:0:0:
192,192,173250,1,0,0:0:0:0:
64,192,173250,1,0,0:0:0:0:
320,192,173550,1,0,0:0:0:0:
64,192,173550,1,0,0:0:0:0:
192,192,173850,1,0,0:0:0:0:
448,192,173850,1,0,0:0:0:0:
320,192,174150,1,0,0:0:0:0:
64,192,174450,1,0,0:0:0:0:
320,192,174450,1,0,0:0:0:0:
64,192,174750,1,0,0:0:0:0:
448,192,175050,1,0,0:0:0:0:
192,192,175050,1,0,0:0:0:0:
448,192,175350,1,0,0:0:0:0:
64,192,175350,1,0,0:0:0:0:
192,192,175650,1,0,0:0:0:0:
320,192,175650,1,0,0:0:0:0:
448,192,175950,1,0,0:0:0:0:
192,192,175950,1,0,0:0:0:0:
448,192,176250,1,0,0:0:0:0:
320,192,176250,1,0,0:0:0:0:
448,192,176550,1,0,0:0:0:0:
192,192,176850,1,0,0:0:0:0:
64,192,176850,1,0,0:0:0:0:
320,192,177150,1,0,0:0:0:0:
64,192,177450,1,0,0:0:0:0:
320,192,177450,1,0,0:0:0:0:
448,192,177750,1,0,0:0:0:0:
192,192,177750,1,0,0:0:0:0:
64,192,178050,1,0,0:0:0:0:
192,192,178050,1,0,0:0:0:0:
320,192,178350,1,0,0:0:0:0:
448,192,178350,1,0,0:0:0:0:
64,192,178650,1,0,0:0:0:0:
448,192,178650,1,0,0:0:0:0:
448,192,178950,1,0,0:0:0:0:
192,192,179250,1,0,0:0:0:0:
64,192,179250,1,0,0:0:0:0:
320,192,179550,1,0,0:0:0:0:
192,192,179850,1,0,0:0:0:0:
64,192,179850,1,0,0:0:0:0:
448,192,180150,1,0,0:0:0:0:
320,192,180450,1,0,0:0:0:0:
192,192,180450,1,0,0:0:0:0:
64,192,180750,1,0,0:0:0:0:
448,192,180750,1,0,0:0:0:0:
448,192,181050,1,0,0:0:0:0:
192,192,181050,1,0,0:0:0:0:
448,192,181350,1,0,0:0:0:0:
320,192,181650,1,0,0:0:0:0:
64,192,181650,1,0,0:0:0:0:
448,192,181950,1,0,0:0:0:0:
448,192,182250,1,0,0:0:0:0:
64,192,182250,1,0,0:0:0:0:
448,192,182550,1,0,0:0:0:0:
320,192,182550,1,0,0:0:0:0:
192,192,182850,1,0,0:0:0:0:
64,192,182850,1,0,0:0:0:0:
320,192,183150,1,0,0:0:0:0:
64,192,183150,1,0,0:0:0:0:
192,192,183450,1,0,0:0:0:0:
448,192,183450,1,0,0:0:0:0:
320,192,183750,1,0,0:0:0:0:
64,192,184050,1,0,0:0:0:0:
192,192,184050,1,0,0:0:0:0:
64,192,184350,1,0,0:0:0:0:
448,192,184650,1,0,0:0:0:0:
192,192,184650,1,0,0:0:0:0:
448,192,184950,1,0,0:0:0:0:
192,192,185250,1,0,0:0:0:0:
320,192,185250,1,0,0:0:0:0:
448,192,185550,1,0,0:0:0:0:
64,192,185550,1,0,0:0:0:0:
448,192,185850,1,0,0:0:0:0:
320,192,185850,1,0,0:0:0:0:
448,192,186150,1,0,0:0:0:0:
192,192,186450,1,0,0:0:0:0:
64,192,186450,1,0,0:0:0:0:
320,192,186750,1,0,0:0:0:0:
64,192,187050,1,0,0:0:0:0:
320,192,187050,1,0,0:0:0:0:
448,192,187350,1,0,0:0:0:0:
64,192,187650,1,0,0:0:0:0:
192,192,187650,1,0,0:0:0:0:
64,192,187950,1,0,0:0:0:0:
192,192,188025,1,0,0:0:0:0:
448,192,188175,1,0,0:0:0:0:
320,192,188250,1,0,0:0:0:0:
64,192,188400,1,0,0:0:0:0:
192,192,188475,1,0,0:0:0:0:
448,192,188625,1,0,0:0:0:0:
320,192,188700,1,0,0:0:0:0:
64,192,188850,1,0,0:0:0:0:
192,192,188925,1,0,0:0:0:0:
448,192,189075,1,0,0:0:0:0:
320,192,189150,128,0,190350:0:0:0:0:
64,192,190350,1,0,0:0:0:0:
320,192,200550,5,0,0:0:0:0:
320,192,200850,1,0,0:0:0:0:
320,192,201150,1,0,0:0:0:0:
320,192,201450,1,0,0:0:0:0:
192,192,201750,1,0,0:0:0:0:
192,192,202050,1,0,0:0:0:0:
192,192,202350,1,0,0:0:0:0:
192,192,202650,1,0,0:0:0:0:
192,192,202950,1,0,0:0:0:0:
448,192,203250,1,0,0:0:0:0:
448,192,203550,1,0,0:0:0:0:
448,192,203850,1,0,0:0:0:0:
448,192,204150,1,0,0:0:0:0:
448,192,204450,1,0,0:0:0:0:
448,192,204750,1,0,0:0:0:0:
448,192,205050,1,0,0:0:0:0:
448,192,205350,1,0,0:0:0:0:
64,192,205650,1,0,0:0:0:0:
64,192,205950,1,0,0:0:0:0:
64,192,206250,1,0,0:0:0:0:
64,192,206550,1,0,0:0:0:0:
64,192,206850,1,0,0:0:0:0:
64,192,207150,1,0,0:0:0:0:
64,192,207450,1,0,0:0:0:0:
448,192,207750,1,0,0:0:0:0:
448,192,208050,1,0,0:0:0:0:
192,192,208350,1,0,0:0:0:0:
192,192,208650,1,0,0:0:0:0:
64,192,208950,1,0,0:0:0:0:
64,192,209250,1,0,0:0:0:0:
64,192,209550,1,0,0:0:0:0:
64,192,209850,1,0,0:0:0:0:
192,192,210150,1,0,0:0:0:0:
320,192,210150,1,0,0:0:0:0:
64,192,211350,1,0,0:0:0:0:
64,192,211500,1,0,0:0:0:0:
64,192,211650,1,0,0:0:0:0:
448,192,211650,128,0,212550:0:0:0:0:
64,192,211800,1,0,0:0:0:0:
64,192,211950,1,0,0:0:0:0:
64,192,212400,1,0,0:0:0:0:
64,192,212550,1,0,0:0:0:0:
64,192,212850,1,0,0:0:0:0:
448,192,212850,1,0,0:0:0:0:
192,192,213150,1,0,0:0:0:0:
320,192,213450,1,0,0:0:0:0:
64,192,213450,1,0,0:0:0:0:
192,192,213750,1,0,0:0:0:0:
448,192,214050,1,0,0:0:0:0:
192,192,214050,1,0,0:0:0:0:
192,192,214350,1,0,0:0:0:0:
448,192,214650,1,0,0:0:0:0:
64,192,214650,1,0,0:0:0:0:
320,192,214950,1,0,0:0:0:0:
192,192,215250,1,0,0:0:0:0:
448,192,215250,1,0,0:0:0:0:
320,192,215550,1,0,0:0:0:0:
448,192,215850,1,0,0:0:0:0:
64,192,215850,1,0,0:0:0:0:
320,192,216150,1,0,0:0:0:0:
64,192,216450,1,0,0:0:0:0:
192,192,216450,1,0,0:0:0:0:
320,192,216750,1,0,0:0:0:0:
64,192,217050,1,0,0:0:0:0:
448,192,217050,1,0,0:0:0:0:
192,192,217350,1,0,0:0:0:0:
448,192,217650,1,0,0:0:0:0:
320,192,217650,1,0,0:0:0:0:
64,192,217950,1,0,0:0:0:0:
320,192,218250,1,0,0:0:0:0:
64,192,218250,1,0,0:0:0:0:
192,192,218550,1,0,0:0:0:0:
64,192,218850,1,0,0:0:0:0:
320,192,218850,1,0,0:0:0:0:
192,192,219150,1,0,0:0:0:0:
320,192,219450,1,0,0:0:0:0:
448,192,219450,1,0,0:0:0:0:
192,192,219750,1,0,0:0:0:0:
320,192,220050,1,0,0:0:0:0:
448,192,220050,1,0,0:0:0:0:
192,192,220350,1,0,0:0:0:0:
448,192,220650,1,0,0:0:0:0:
64,192,220650,1,0,0:0:0:0:
192,192,220950,1,0,0:0:0:0:
448,192,221250,1,0,0:0:0:0:
192,192,221250,1,0,0:0:0:0:
192,192,221550,1,0,0:0:0:0:
320,192,221850,1,0,0:0:0:0:
448,192,221850,1,0,0:0:0:0:
192,192,222150,1,0,0:0:0:0:
192,192,222450,1,0,0:0:0:0:
448,192,222450,1,0,0:0:0:0:
448,192,222750,1,0,0:0:0:0:
448,192,223050,1,0,0:0:0:0:
64,192,223050,1,0,0:0:0:0:
192,192,223350,1,0,0:0:0:0:
192,192,223650,1,0,0:0:0:0:
448,192,223650,1,0,0:0:0:0:
192,192,223950,1,0,0:0:0:0:
320,192,224250,1,0,0:0:0:0:
448,192,224250,1,0,0:0:0:0:
64,192,224550,1,0,0:0:0:0:
448,192,224850,1,0,0:0:0:0:
320,192,224850,1,0,0:0:0:0:
64,192,225150,1,0,0:0:0:0:
448,192,225450,1,0,0:0:0:0:
64,192,225450,1,0,0:0:0:0:
192,192,225750,1,0,0:0:0:0:
448,192,226050,1,0,0:0:0:0:
64,192,226050,1,0,0:0:0:0:
320,192,226350,1,0,0:0:0:0:
64,192,226650,1,0,0:0:0:0:
320,192,226650,1,0,0:0:0:0:
192,192,226950,1,0,0:0:0:0:
448,192,227250,1,0,0:0:0:0:
64,192,227250,1,0,0:0:0:0:
320,192,227550,1,0,0:0:0:0:
64,192,227850,1,0,0:0:0:0:
320,192,227850,1,0,0:0:0:0:
192,192,228150,1,0,0:0:0:0:
64,192,228450,128,0,228750:0:0:0:0:
192,192,228750,128,0,229050:0:0:0:0:
448,192,229050,128,0,229350:0:0:0:0:
320,192,229350,128,0,229650:0:0:0:0:
64,192,229650,1,0,0:0:0:0:
448,192,229950,1,0,0:0:0:0:
320,192,230100,1,0,0:0:0:0:
64,192,230250,1,0,0:0:0:0:
192,192,230250,1,0,0:0:0:0:
320,192,230550,1,0,0:0:0:0:
192,192,230850,1,0,0:0:0:0:
64,192,230850,1,0,0:0:0:0:
320,192,231150,1,0,0:0:0:0:
448,192,231450,1,0,0:0:0:0:
64,192,231450,1,0,0:0:0:0:
192,192,231750,1,0,0:0:0:0:
64,192,231750,1,0,0:0:0:0:
448,192,232050,1,0,0:0:0:0:
64,192,232050,1,0,0:0:0:0:
320,192,232200,1,0,0:0:0:0:
64,192,232350,1,0,0:0:0:0:
192,192,232350,1,0,0:0:0:0:
320,192,232800,1,0,0:0:0:0:
192,192,232950,128,0,233250:0:0:0:0:
320,192,233250,128,0,233550:0:0:0:0:
64,192,233550,128,0,233850:0:0:0:0:
320,192,233850,128,0,234000:0:0:0:0:
192,192,234000,128,0,234300:0:0:0:0:
320,192,234300,128,0,234450:0:0:0:0:
64,192,234450,128,0,234750:0:0:0:0:
320,192,234750,128,0,235050:0:0:0:0:
192,192,235050,128,0,235200:0:0:0:0:
448,192,235200,128,0,235500:0:0:0:0:
192,192,235500,128,0,235650:0:0:0:0:
320,192,235650,128,0,235950:0:0:0:0:
64,192,235950,128,0,236250:0:0:0:0:
320,192,236250,128,0,236400:0:0:0:0:
192,192,236400,128,0,236700:0:0:0:0:
320,192,236700,128,0,236850:0:0:0:0:
64,192,236850,128,0,237150:0:0:0:0:
320,192,237150,128,0,237450:0:0:0:0:
192,192,237450,128,0,237750:0:0:0:0:
448,192,237750,128,0,238050:0:0:0:0:
64,192,238050,128,0,238350:0:0:0:0:
320,192,238350,128,0,238650:0:0:0:0:
192,192,238650,128,0,238800:0:0:0:0:
448,192,238800,128,0,239100:0:0:0:0:
192,192,239100,128,0,239250:0:0:0:0:
320,192,239250,128,0,239550:0:0:0:0:
192,192,239550,128,0,239850:0:0:0:0:
448,192,239850,128,0,240150:0:0:0:0:
64,192,240150,128,0,240750:0:0:0:0:
320,192,240750,128,0,241350:0:0:0:0:
64,192,241350,128,0,241650:0:0:0:0:
192,192,241650,128,0,241950:0:0:0:0:
448,192,242250,1,0,0:0:0:0:
64,192,242250,1,0,0:0:0:0:
448,192,242550,128,0,242850:0:0:0:0:
320,192,242850,128,0,243150:0:0:0:0:
64,192,243150,128,0,243450:0:0:0:0:
320,192,243450,128,0,243600:0:0:0:0:
192,192,243600,128,0,243900:0:0:0:0:
320,192,243900,128,0,244050:0:0:0:0:
64,192,244050,128,0,244350:0:0:0:0:
320,192,244350,128,0,244650:0:0:0:0:
192,192,244650,128,0,244800:0:0:0:0:
448,192,244800,128,0,245100:0:0:0:0:
192,192,245100,128,0,245250:0:0:0:0:
320,192,245250,128,0,245550:0:0:0:0:
64,192,245550,128,0,245850:0:0:0:0:
320,192,245850,128,0,246000:0:0:0:0:
192,192,246000,128,0,246300:0:0:0:0:
320,192,246300,128,0,246450:0:0:0:0:
64,192,246450,128,0,246750:0:0:0:0:
320,192,246750,128,0,247050:0:0:0:0:
192,192,247050,128,0,247350:0:0:0:0:
448,192,247350,128,0,247650:0:0:0:0:
64,192,247650,128,0,247950:0:0:0:0:
320,192,247950,128,0,248250:0:0:0:0:
192,192,248250,128,0,248400:0:0:0:0:
448,192,248400,128,0,248700:0:0:0:0:
192,192,248700,128,0,248850:0:0:0:0:
320,192,248850,128,0,249150:0:0:0:0:
192,192,249150,128,0,249450:0:0:0:0:
448,192,249450,128,0,249750:0:0:0:0:
64,192,249750,128,0,250350:0:0:0:0:
320,192,250350,128,0,250950:0:0:0:0:
192,192,250950,128,0,251400:0:0:0:0:
448,192,251400,128,0,251850:0:0:0:0:
192,192,252150,1,0,0:0:0:0:
64,192,252450,1,0,0:0:0:0:
320,192,252450,1,0,0:0:0:0:
192,192,252750,1,0,0:0:0:0:
448,192,253050,1,0,0:0:0:0:
192,192,253050,1,0,0:0:0:0:
320,192,253200,1,0,0:0:0:0:
320,192,253500,1,0,0:0:0:0:
448,192,253650,1,0,0:0:0:0:
192,192,253650,1,0,0:0:0:0:
448,192,253950,1,0,0:0:0:0:
192,192,254250,1,0,0:0:0:0:
320,192,254250,1,0,0:0:0:0:
64,192,254400,1,0,0:0:0:0:
64,192,254700,1,0,0:0:0:0:
192,192,254850,1,0,0:0:0:0:
320,192,254850,1,0,0:0:0:0:
192,192,255150,1,0,0:0:0:0:
320,192,255450,1,0,0:0:0:0:
64,192,255450,1,0,0:0:0:0:
448,192,255600,1,0,0:0:0:0:
448,192,255900,1,0,0:0:0:0:
320,192,256050,1,0,0:0:0:0:
64,192,256050,1,0,0:0:0:0:
320,192,256350,1,0,0:0:0:0:
192,192,256650,1,0,0:0:0:0:
448,192,256650,1,0,0:0:0:0:
448,192,256950,1,0,0:0:0:0:
320,192,257250,1,0,0:0:0:0:
64,192,257250,1,0,0:0:0:0:
192,192,257550,1,0,0:0:0:0:
320,192,257850,1,0,0:0:0:0:
64,192,257850,1,0,0:0:0:0:
448,192,258000,1,0,0:0:0:0:
448,192,258300,1,0,0:0:0:0:
320,192,258450,1,0,0:0:0:0:
64,192,258450,1,0,0:0:0:0:
320,192,258750,1,0,0:0:0:0:
64,192,259050,128,0,259350:0:0:0:0:
192,192,259350,128,0,259950:0:0:0:0:
320,192,259950,128,0,260550:0:0:0:0:
448,192,260550,128,0,261000:0:0:0:0:
320,192,261000,128,0,261450:0:0:0:0:
192,192,261750,1,0,0:0:0:0:
64,192,262050,1,0,0:0:0:0:
320,192,262050,1,0,0:0:0:0:
192,192,262350,1,0,0:0:0:0:
448,192,262650,1,0,0:0:0:0:
64,192,262650,1,0,0:0:0:0:
320,192,262800,1,0,0:0:0:0:
320,192,263100,1,0,0:0:0:0:
448,192,263250,1,0,0:0:0:0:
64,192,263250,1,0,0:0:0:0:
448,192,263550,1,0,0:0:0:0:
192,192,263850,1,0,0:0:0:0:
320,192,263850,1,0,0:0:0:0:
64,192,264000,1,0,0:0:0:0:
64,192,264300,1,0,0:0:0:0:
192,192,264450,1,0,0:0:0:0:
320,192,264450,1,0,0:0:0:0:
192,192,264750,1,0,0:0:0:0:
320,192,265050,1,0,0:0:0:0:
64,192,265050,1,0,0:0:0:0:
448,192,265200,1,0,0:0:0:0:
448,192,265500,1,0,0:0:0:0:
320,192,265650,1,0,0:0:0:0:
64,192,265650,1,0,0:0:0:0:
320,192,265950,1,0,0:0:0:0:
192,192,266250,1,0,0:0:0:0:
448,192,266250,1,0,0:0:0:0:
448,192,266550,1,0,0:0:0:0:
320,192,266850,1,0,0:0:0:0:
64,192,266850,1,0,0:0:0:0:
192,192,267150,1,0,0:0:0:0:
320,192,267450,1,0,0:0:0:0:
192,192,267450,1,0,0:0:0:0:
448,192,267600,1,0,0:0:0:0:
448,192,267900,1,0,0:0:0:0:
320,192,268050,1,0,0:0:0:0:
192,192,268050,1,0,0:0:0:0:
320,192,268350,5,0,0:0:0:0:
64,192,268650,1,0,0:0:0:0:
320,192,268650,1,0,0:0:0:0:
64,192,268950,128,0,271350:0:0:0:0:
448,192,271350,1,0,0:0:0:0:
192,192,271650,1,0,0:0:0:0:
448,192,271650,1,0,0:0:0:0:
64,192,271950,1,0,0:0:0:0:
448,192,272250,1,0,0:0:0:0:
64,192,272250,1,0,0:0:0:0:
192,192,272550,1,0,0:0:0:0:
64,192,272850,1,0,0:0:0:0:
448,192,272850,1,0,0:0:0:0:
192,192,273150,1,0,0:0:0:0:
64,192,273450,1,0,0:0:0:0:
448,192,273450,1,0,0:0:0:0:
64,192,273750,1,0,0:0:0:0:
448,192,274050,1,0,0:0:0:0:
64,192,274050,1,0,0:0:0:0:
320,192,274350,1,0,0:0:0:0:
64,192,274650,1,0,0:0:0:0:
448,192,274650,1,0,0:0:0:0:
448,192,274950,1,0,0:0:0:0:
64,192,275250,1,0,0:0:0:0:
320,192,275250,1,0,0:0:0:0:
192,192,275550,1,0,0:0:0:0:
192,192,275850,1,0,0:0:0:0:
448,192,275850,1,0,0:0:0:0:
320,192,276000,1,0,0:0:0:0:
64,192,276150,1,0,0:0:0:0:
192,192,276150,1,0,0:0:0:0:
448,192,276450,1,0,0:0:0:0:
192,192,276450,1,0,0:0:0:0:
64,192,276750,1,0,0:0:0:0:
64,192,277050,1,0,0:0:0:0:
320,192,277050,1,0,0:0:0:0:
192,192,277350,1,0,0:0:0:0:
448,192,277650,1,0,0:0:0:0:
64,192,277650,1,0,0:0:0:0:
448,192,277950,1,0,0:0:0:0:
320,192,278250,1,0,0:0:0:0:
64,192,278250,1,0,0:0:0:0:
192,192,278550,1,0,0:0:0:0:
448,192,278850,1,0,0:0:0:0:
64,192,278850,1,0,0:0:0:0:
320,192,279150,1,0,0:0:0:0:
64,192,279450,1,0,0:0:0:0:
320,192,279450,1,0,0:0:0:0:
192,192,279750,1,0,0:0:0:0:
448,192,280050,1,0,0:0:0:0:
192,192,280050,1,0,0:0:0:0:
192,192,280350,1,0,0:0:0:0:
448,192,280650,1,0,0:0:0:0:
320,192,280800,1,0,0:0:0:0:
192,192,280950,1,0,0:0:0:0:
64,192,280950,1,0,0:0:0:0:
448,192,281250,1,0,0:0:0:0:
320,192,281250,1,0,0:0:0:0:
320,192,281550,1,0,0:0:0:0:
320,192,281850,1,0,0:0:0:0:
64,192,281850,1,0,0:0:0:0:
192,192,282150,1,0,0:0:0:0:
64,192,282450,1,0,0:0:0:0:
192,192,282450,1,0,0:0:0:0:
448,192,282750,1,0,0:0:0:0:
320,192,283050,1,0,0:0:0:0:
64,192,283050,1,0,0:0:0:0:
192,192,283350,1,0,0:0:0:0:
448,192,283650,1,0,0:0:0:0:
192,192,283650,1,0,0:0:0:0:
448,192,283950,1,0,0:0:0:0:
320,192,284250,1,0,0:0:0:0:
64,192,284250,1,0,0:0:0:0:
64,192,284550,1,0,0:0:0:0:
448,192,284850,1,0,0:0:0:0:
192,192,284850,1,0,0:0:0:0:
320,192,285150,1,0,0:0:0:0:
64,192,285450,1,0,0:0:0:0:
320,192,285450,1,0,0:0:0:0:
192,192,285600,1,0,0:0:0:0:
448,192,285750,1,0,0:0:0:0:
320,192,285750,1,0,0:0:0:0:
448,192,286050,1,0,0:0:0:0:
64,192,286050,1,0,0:0:0:0:
320,192,286350,1,0,0:0:0:0:
192,192,286650,1,0,0:0:0:0:
448,192,286650,1,0,0:0:0:0:
64,192,286950,1,0,0:0:0:0:
192,192,287250,1,0,0:0:0:0:
64,192,287250,1,0,0:0:0:0:
192,192,287550,1,0,0:0:0:0:
64,192,287850,1,0,0:0:0:0:
320,192,287850,1,0,0:0:0:0:
320,192,288150,1,0,0:0:0:0:
320,192,288450,1,0,0:0:0:0:
64,192,288450,1,0,0:0:0:0:
320,192,288750,1,0,0:0:0:0:
448,192,289050,1,0,0:0:0:0:
320,192,289050,1,0,0:0:0:0:
192,192,289350,1,0,0:0:0:0:
448,192,289650,1,0,0:0:0:0:
192,192,289650,1,0,0:0:0:0:
64,192,289950,1,0,0:0:0:0:
320,192,290550,1,0,0:0:0:0:
