osu file format v14

[General]
AudioFilename: audio.mp3
AudioLeadIn: 0
PreviewTime: -1
Countdown: 0
SampleSet: None
StackLeniency: 0.4
Mode: 0
LetterboxInBreaks: 0
WidescreenStoryboard: 0

[Editor]
Bookmarks: 39973,66073,75231,89106,144681,151881,187881,200481,215331,215631
DistanceSpacing: 2.6
BeatDivisor: 2
GridSize: 8
TimelineZoom: 2.4

[Metadata]
Title:Pretty Girls with Mental Disorders
TitleUnicode:Pretty Girls with Mental Disorders
Artist:Helblinde
ArtistUnicode:Helblinde
Creator:Wintermute
Version:Yandere
Source:
Tags:
BeatmapID:1612515
BeatmapSetID:767135

[Difficulty]
HPDrainRate:5
CircleSize:4
OverallDifficulty:9.3
ApproachRate:9.5
SliderMultiplier:2
SliderTickRate:1

[Events]
//Background and Video events
0,0,"__itsuka_shidou_and_tokisaki_kurumi_date_a_live_drawn_by_aixioo__9020de696c7f86863c57a0ad93a5dbd8.jpg",0,0
//Break Periods
2,52481,61873
2,190481,199956
//Storyboard Layer 0 (Background)
//Storyboard Layer 1 (Fail)
//Storyboard Layer 2 (Pass)
//Storyboard Layer 3 (Foreground)
//Storyboard Sound Samples

[TimingPoints]
81,300,4,2,0,48,1,0
43281,-200,4,2,0,48,0,0
50931,-133.333333333333,4,2,0,48,0,0
51381,-50,4,2,0,48,0,0
62481,-100,4,2,0,48,0,0
67281,-133.333333333333,4,2,0,48,0,0
73881,300,4,1,0,55,1,0
73881,-80,4,1,0,55,0,1
90681,-80,4,1,0,55,0,0
92481,-100,4,1,0,55,0,0
92781,-133.333333333333,4,1,0,55,0,0
94281,-100,4,2,0,48,0,0
132681,-400,4,2,0,48,0,0
141681,-200,4,2,0,48,0,0
142281,-100,4,2,0,48,0,0
200481,300,4,2,0,48,1,0
200481,-133.333333333333,4,2,0,48,0,0
210081,-200,4,2,0,48,0,0
212481,-80,4,1,0,55,0,1
229281,-80,4,1,0,55,0,0
231081,-100,4,1,0,55,0,0
231381,-133.333333333333,4,1,0,55,0,0
232881,-100,4,1,0,55,0,0

[HitObjects]
256,192,81,12,0,5781,0:0:0:0:
104,88,6081,6,0,P|192:80|240:88,1,100
384,168,6381,2,0,P|296:176|248:168,1,100,8|0,0:0|0:0,0:0:0:0:
464,80,6681,1,0,0:0:0:0:
472,232,6831,1,0,0:0:0:0:
266,301,6981,1,8,0:0:0:0:
285,152,7131,1,0,0:0:0:0:
378,369,7281,6,0,P|380:317|376:270,1,100,4|0,0:0|0:0,0:0:0:0:
178,252,7581,2,0,P|222:280|265:300,1,100,8|0,0:0|0:0,0:0:0:0:
315,158,7881,1,0,0:0:0:0:
167,128,8031,1,0,0:0:0:0:
31,292,8181,1,8,0:0:0:0:
176,253,8331,1,0,0:0:0:0:
47,76,8481,6,0,P|38:125|47:175,1,100,4|0,0:0|0:0,0:0:0:0:
167,128,8781,1,8,0:0:0:0:
269,18,8931,1,0,0:0:0:0:
263,266,9081,1,0,0:0:0:0:
265,116,9231,1,0,0:0:0:0:
96,223,9381,1,8,0:0:0:0:
168,354,9531,1,0,0:0:0:0:
315,328,9681,6,0,L|443:322,1,100
195,254,9981,2,0,L|291:207,1,100,8|0,0:0|0:0,0:0:0:0:
168,142,10281,1,0,0:0:0:0:
210,285,10431,1,0,0:0:0:0:
385,101,10581,1,8,0:0:0:0:
355,248,10731,1,8,0:0:0:0:
274,159,10881,6,0,P|284:98|269:35,1,100
463,173,11181,2,0,P|453:234|467:296,1,100,8|0,0:0|0:0,0:0:0:0:
278,322,11481,1,0,0:0:0:0:
362,198,11631,1,0,0:0:0:0:
237,78,11781,1,8,0:0:0:0:
266,224,11931,1,0,0:0:0:0:
350,99,12081,6,0,P|410:93|470:99,1,100,4|0,0:0|0:0,0:0:0:0:
275,222,12381,2,0,P|215:228|155:222,1,100,8|0,0:0|0:0,0:0:0:0:
17,100,12681,1,0,0:0:0:0:
163,131,12831,1,0,0:0:0:0:
59,310,12981,1,8,0:0:0:0:
80,161,13131,1,0,0:0:0:0:
56,324,13281,6,0,B|114:315|114:315|183:329,1,100
271,228,13581,2,0,B|213:237|213:237|144:223,1,100,8|0,0:0|0:0,0:0:0:0:
215,146,13881,1,0,0:0:0:0:
82,234,14031,1,0,0:0:0:0:
212,327,14181,1,8,0:0:0:0:
67,238,14331,1,0,0:0:0:0:
225,323,14481,6,0,P|230:268|223:204,1,100
126,50,14781,2,0,P|121:105|128:169,1,100,8|0,0:0|0:0,0:0:0:0:
325,225,15081,1,0,0:0:0:0:
231,107,15231,1,0,0:0:0:0:
205,305,15381,1,8,0:0:0:0:
251,110,15531,1,0,0:0:0:0:
341,321,15681,6,0,P|324:273|331:201,1,100,4|0,0:0|0:0,0:0:0:0:
460,156,15981,2,0,P|460:206|444:253,1,100,8|0,0:0|0:0,0:0:0:0:
351,135,16281,1,0,0:0:0:0:
469,43,16431,1,0,0:0:0:0:
444,253,16581,1,8,0:0:0:0:
326,159,16731,1,0,0:0:0:0:
195,232,16881,6,0,B|183:293|183:293|198:350,1,100
109,215,17181,2,0,B|121:154|121:154|106:97,1,100,8|0,0:0|0:0,0:0:0:0:
275,273,17481,1,0,0:0:0:0:
216,134,17631,1,0,0:0:0:0:
371,342,17781,1,8,0:0:0:0:
396,194,17931,1,0,0:0:0:0:
178,274,18081,6,0,P|236:262|305:293,1,100
408,184,18381,2,0,P|350:196|281:165,1,100,8|0,0:0|0:0,0:0:0:0:
176,118,18681,1,0,0:0:0:0:
48,197,18831,1,0,0:0:0:0:
301,174,18981,1,8,0:0:0:0:
173,253,19131,1,0,0:0:0:0:
92,35,19281,6,0,P|85:84|97:133,1,100
178,284,19581,2,0,P|189:235|182:186,1,100,8|0,0:0|0:0,0:0:0:0:
73,229,19881,1,0,0:0:0:0:
110,374,20031,1,0,0:0:0:0:
325,247,20181,1,8,0:0:0:0:
180,286,20331,1,0,0:0:0:0:
306,367,20481,6,0,P|356:354|436:375,1,100
512,259,20781,2,0,P|462:272|382:251,1,100,8|0,0:0|0:0,0:0:0:0:
236,145,21081,1,0,0:0:0:0:
379,83,21231,1,0,0:0:0:0:
299,219,21381,1,8,0:0:0:0:
285,62,21531,1,0,0:0:0:0:
405,277,21681,6,0,L|387:179,1,100
205,238,21981,2,0,L|223:139,1,100,8|0,0:0|0:0,0:0:0:0:
241,338,22281,1,0,0:0:0:0:
127,173,22431,1,0,0:0:0:0:
39,352,22581,1,8,0:0:0:0:
135,165,22731,1,0,0:0:0:0:
136,352,22881,6,0,L|134:235,1,100
228,59,23181,2,0,L|230:176,1,100,8|0,0:0|0:0,0:0:0:0:
333,329,23481,1,0,0:0:0:0:
386,136,23631,1,0,0:0:0:0:
233,257,23781,1,8,0:0:0:0:
432,238,23931,1,0,0:0:0:0:
263,131,24081,1,0,0:0:0:0:
263,131,24831,5,0,0:0:0:0:
272,112,24981,1,0,0:0:0:0:
292,111,25131,1,0,0:0:0:0:
309,129,25281,6,0,B|319:178|319:178|310:227,1,100,4|0,0:0|0:0,0:0:0:0:
82,365,25581,2,0,B|72:316|72:316|81:267,1,100,8|0,0:0|0:0,0:0:0:0:
226,182,25881,1,0,0:0:0:0:
165,319,26031,1,0,0:0:0:0:
176,53,26181,1,8,0:0:0:0:
69,159,26331,1,0,0:0:0:0:
271,246,26481,6,0,B|238:198|191:189,1,100
171,301,26781,1,8,0:0:0:0:
312,349,26931,1,0,0:0:0:0:
453,207,27081,1,0,0:0:0:0:
348,315,27231,1,0,0:0:0:0:
357,93,27381,2,0,B|341:143|341:143|348:194,1,100,8|0,0:0|0:0,0:0:0:0:
463,345,27681,6,0,P|478:305|469:246,1,100
280,271,27981,2,0,P|326:291|375:287,1,100,8|0,0:0|0:0,0:0:0:0:
474,113,28281,1,0,0:0:0:0:
347,190,28431,1,0,0:0:0:0:
489,237,28581,1,8,0:0:0:0:
356,87,28731,1,0,0:0:0:0:
274,369,28881,6,0,P|286:314|279:265,1,100
252,40,29181,2,0,P|243:95|254:144,1,100,8|0,0:0|0:0,0:0:0:0:
280,271,29481,1,0,0:0:0:0:
142,295,29631,1,0,0:0:0:0:
331,163,29781,1,8,0:0:0:0:
204,131,29931,1,0,0:0:0:0:
426,221,30081,6,0,P|440:163|423:100,1,100
109,73,30381,2,0,P|94:123|114:192,1,100,8|0,0:0|0:0,0:0:0:0:
243,276,30681,1,0,0:0:0:0:
204,131,30831,1,0,0:0:0:0:
192,363,30981,2,0,P|239:378|288:371,1,100,8|0,0:0|0:0,0:0:0:0:
367,104,31281,6,0,P|320:89|271:96,1,100,4|0,0:0|0:0,0:0:0:0:
243,276,31581,1,8,0:0:0:0:
311,187,31731,1,0,0:0:0:0:
117,290,31881,2,0,B|134:237|134:237|129:193,1,100
229,75,32181,2,0,B|212:128|212:128|217:172,1,100,8|0,0:0|0:0,0:0:0:0:
128,302,32481,5,0,0:0:0:0:
132,152,32631,1,0,0:0:0:0:
7,234,32781,1,8,0:0:0:0:
247,261,32931,1,0,0:0:0:0:
164,57,33081,1,0,0:0:0:0:
100,312,33231,1,0,0:0:0:0:
283,162,33381,2,0,L|223:146,1,50,8|0,0:0|0:0,0:0:0:0:
19,86,33531,2,0,L|74:99,1,50,8|0,0:0|0:0,0:0:0:0:
126,242,33681,6,0,P|146:193|137:133,1,100,4|0,0:0|0:0,0:0:0:0:
250,54,33981,2,0,P|230:103|239:163,1,100,8|0,0:0|0:0,0:0:0:0:
332,118,34281,1,0,0:0:0:0:
39,178,34431,1,0,0:0:0:0:
181,333,34581,2,0,P|198:282|189:234,1,100,8|0,0:0|0:0,0:0:0:0:
25,79,34881,6,0,P|8:130|17:178,1,100
94,278,35181,1,8,0:0:0:0:
112,134,35331,1,0,0:0:0:0:
94,278,35481,1,0,0:0:0:0:
95,252,35556,1,0,0:0:0:0:
98,229,35631,1,0,0:0:0:0:
101,204,35706,1,0,0:0:0:0:
105,181,35781,2,0,B|156:163|156:163|206:166,1,100,8|0,0:0|0:0,0:0:0:0:
394,221,36081,6,0,B|340:229|340:229|296:219,1,100
179,56,36381,1,8,0:0:0:0:
344,126,36531,1,0,0:0:0:0:
202,165,36681,1,0,0:0:0:0:
298,317,36831,1,0,0:0:0:0:
394,221,36981,2,0,L|501:217,1,100,8|0,0:0|0:0,0:0:0:0:
196,203,37281,6,0,L|304:206,1,100,4|0,0:0|0:0,0:0:0:0:
298,317,37581,1,8,0:0:0:0:
256,80,37731,1,0,0:0:0:0:
226,227,37881,1,0,0:0:0:0:
265,71,38031,1,0,0:0:0:0:
211,325,38181,2,0,L|226:220,1,100,8|0,0:0|0:0,0:0:0:0:
400,128,38481,6,0,L|397:230,1,100
283,159,38781,1,8,0:0:0:0:
384,21,38931,1,0,0:0:0:0:
310,288,39081,1,0,0:0:0:0:
284,282,39156,1,0,0:0:0:0:
280,256,39231,1,0,0:0:0:0:
304,245,39306,1,0,0:0:0:0:
323,262,39381,1,8,0:0:0:0:
196,342,39531,1,8,0:0:0:0:
145,148,39681,6,0,P|194:138|247:143,1,100,4|0,0:0|0:0,0:0:0:0:
409,259,39981,5,8,0:0:0:0:
388,263,40056,1,0,0:0:0:0:
366,265,40131,1,0,0:0:0:0:
345,265,40206,1,0,0:0:0:0:
323,262,40281,1,0,0:0:0:0:
429,155,40431,1,0,0:0:0:0:
498,287,40581,1,8,0:0:0:0:
276,171,40731,1,8,0:0:0:0:
372,354,40881,6,0,P|402:286|374:220,1,150,4|0,0:0|0:0,0:0:0:0:
217,277,41181,2,0,P|264:292|314:286,1,100,8|0,0:0|0:0,0:0:0:0:
285,80,41481,2,0,P|270:127|274:176,1,100
207,362,41781,1,8,0:0:0:0:
210,341,41856,1,0,0:0:0:0:
213,319,41931,1,0,0:0:0:0:
216,297,42006,1,0,0:0:0:0:
217,277,42080,6,0,P|149:305|80:282,1,150,4|0,0:0|0:0,0:0:0:0:
148,206,42381,1,8,0:0:0:0:
350,285,42531,2,0,L|354:158,1,100
227,71,42831,1,0,0:0:0:0:
230,88,42981,1,0,0:0:0:0:
234,105,43131,1,0,0:0:0:0:
119,286,43281,6,0,B|141:242|125:197|90:176|40:178|3:201|-10:242|-4:293|37:322|88:319|88:319|121:330|139:345|139:345|151:326|158:321|158:321|179:333|179:333|212:299|252:295|252:295|303:337|303:337|375:305|424:329,1,700,4|0,0:0|0:0,0:0:0:0:
492,243,45531,1,0,0:0:0:0:
492,243,45681,2,0,B|463:194|457:148|457:148|461:104|488:71|488:71|466:59|448:59|448:59|424:78|396:78|396:78|388:118|355:108|355:108|313:128|264:108|264:108|227:137|246:203|246:203|253:186|260:208|260:208|292:191|333:180|378:194|394:205,1,700
332,331,47931,1,0,0:0:0:0:
332,331,48081,6,0,B|324:340|285:331|246:311|250:267|250:267|238:243|238:243|250:211|198:175|142:167|94:199|74:239|78:287,1,400,4|0,0:0|0:0,0:0:0:0:
106,300,49581,1,0,0:0:0:0:
198,272,49731,2,0,P|234:272|266:288,1,52.5000020027161
336,312,50031,2,0,P|383:327|445:311,1,100
408,236,50481,6,0,P|382:245|411:225,1,125,8|0,0:3|0:3,0:3:0:0:
408,236,50931,6,0,P|355:195|412:225,1,187.500007152558,8|0,0:3|0:3,0:3:0:0:
408,236,51381,6,0,P|393:173|412:225,1,300,8|0,0:3|0:3,0:3:0:0:
408,236,51681,5,8,0:3:0:0:
148,336,51831,1,8,0:3:0:0:
224,68,51981,1,8,0:3:0:0:
364,364,52281,1,8,0:3:0:0:
66,103,62481,5,0,0:0:0:0:
88,86,62781,1,0,0:0:0:0:
115,82,63081,1,0,0:0:0:0:
141,91,63381,1,0,0:0:0:0:
376,330,63681,5,0,0:0:0:0:
458,277,63981,1,0,0:0:0:0:
476,181,64281,1,0,0:0:0:0:
434,93,64581,1,0,0:0:0:0:
208,144,64881,5,0,0:0:0:0:
264,327,65181,1,0,0:0:0:0:
447,271,65481,1,0,0:0:0:0:
391,87,65781,1,0,0:0:0:0:
46,316,66081,5,0,0:0:0:0:
272,359,66381,1,0,0:0:0:0:
316,132,66681,1,0,0:0:0:0:
88,88,66981,1,0,0:0:0:0:
415,248,67281,6,0,P|368:238|328:246,1,75.0000028610231
338,147,67581,2,0,P|292:163|262:189,1,75.0000028610231
220,99,67881,2,0,P|188:135|174:173,1,75.0000028610231
94,115,68181,2,0,P|84:163|91:203,1,75.0000028610231
240,357,68481,6,0,P|250:308|242:268,1,75.0000028610231
84,114,68781,2,0,P|80:163|93:201,1,75.0000028610231
250,357,69081,2,0,P|253:307|240:269,1,75.0000028610231
73,115,69381,2,0,P|76:164|94:200,1,75.0000028610231
246,283,69681,5,0,0:0:0:0:
251,270,69831,1,0,0:0:0:0:
95,311,69981,5,0,0:0:0:0:
102,324,70131,1,0,0:0:0:0:
271,265,70281,5,0,0:0:0:0:
265,280,70431,1,0,0:0:0:0:
85,322,70581,5,0,0:0:0:0:
94,338,70731,1,0,0:0:0:0:
176,157,70881,6,0,B|177:155|201:161|201:161|223:153|236:132|236:132|235:104|211:75|159:65|102:82|80:119|81:169|87:205|132:225|132:225|170:229|214:237|214:237|257:227|285:190|285:190|317:224|292:257|292:257|252:286|249:350|249:350|224:314|192:304|134:291|102:316|102:316|88:349,1,900.000034332277
264,279,73881,5,4,0:0:0:0:
267,229,73956,1,0,0:0:0:0:
269,179,74031,2,0,L|272:111,1,62.5
369,36,74181,5,8,0:0:0:0:
375,85,74256,1,0,0:0:0:0:
381,134,74331,2,0,L|391:214,1,62.5
414,320,74481,1,0,0:0:0:0:
479,78,74631,1,0,0:0:0:0:
229,97,74781,2,0,L|261:150,1,62.5,8|0,0:0|0:0,0:0:0:0:
413,187,74931,2,0,L|361:101,1,62.5,8|0,0:0|0:0,0:0:0:0:
126,36,75081,5,4,0:0:0:0:
119,85,75156,1,0,0:0:0:0:
111,134,75231,2,0,L|99:208,1,62.5
219,341,75381,5,0,0:0:0:0:
212,292,75456,1,0,0:0:0:0:
204,243,75531,2,0,L|192:169,1,62.5
99,306,75681,1,0,0:0:0:0:
309,171,75831,1,0,0:0:0:0:
144,80,75981,1,8,0:0:0:0:
233,313,76131,6,0,L|246:241,3,62.5
418,280,76431,2,0,L|406:218,3,62.5,0|0|8|0,0:0|0:0|0:0|0:0,0:0:0:0:
214,325,76731,2,0,L|227:253,3,62.5
444,285,77031,2,0,L|432:223,3,62.5,0|0|8|0,0:0|0:0|0:0|0:0,0:0:0:0:
347,81,77331,1,0,0:0:0:0:
347,81,77406,1,0,0:0:0:0:
347,81,77481,5,0,0:0:0:0:
359,129,77556,1,0,0:0:0:0:
342,176,77631,1,0,0:0:0:0:
303,207,77706,1,0,0:0:0:0:
253,212,77781,2,0,P|190:194|111:213,1,125
363,285,78081,1,0,0:0:0:0:
268,124,78231,1,0,0:0:0:0:
185,338,78381,2,0,L|194:206,1,125,8|0,0:0|0:0,0:0:0:0:
259,0,78681,6,0,L|267:124,1,125,4|0,0:0|0:0,0:0:0:0:
206,302,78981,1,8,0:0:0:0:
77,99,79131,2,0,P|67:162|116:244,1,125
335,257,79431,1,0,0:0:0:0:
179,146,79581,1,8,0:0:0:0:
332,37,79731,1,0,0:0:0:0:
431,265,79881,6,0,P|397:181|327:159,1,125
217,261,80106,1,0,0:0:0:0:
217,261,80180,2,0,P|276:277|334:255,1,125,8|0,0:0|0:0,0:0:0:0:
271,174,80406,1,0,0:0:0:0:
271,174,80481,1,0,0:0:0:0:
111,272,80631,1,0,0:0:0:0:
117,84,80781,1,8,0:0:0:0:
290,155,80931,1,8,0:0:0:0:
213,326,81081,6,0,P|189:269|208:192,1,125
386,77,81381,2,0,P|410:134|391:211,1,125,8|0,0:0|0:0,0:0:0:0:
291,252,81681,1,0,0:0:0:0:
252,68,81831,1,0,0:0:0:0:
309,272,81981,1,8,0:0:0:0:
246,95,82131,1,8,0:0:0:0:
41,238,82281,5,0,0:0:0:0:
79,269,82356,1,0,0:0:0:0:
116,301,82431,2,0,L|174:347,1,62.5
311,180,82581,5,8,0:0:0:0:
261,187,82656,1,0,0:0:0:0:
212,198,82731,2,0,L|112:204,1,62.5
52,123,82881,1,0,0:0:0:0:
91,92,82956,1,0,0:0:0:0:
138,77,83031,1,0,0:0:0:0:
187,82,83106,1,0,0:0:0:0:
231,105,83181,2,0,P|257:137|268:166,1,62.5,8|0,0:0|0:0,0:0:0:0:
151,263,83331,2,0,P|147:232|149:201,1,62.5,8|0,0:0|0:0,0:0:0:0:
367,118,83481,5,4,0:0:0:0:
372,166,83556,1,0,0:0:0:0:
371,216,83631,2,0,P|346:254|311:277,1,62.5
129,183,83781,5,8,0:0:0:0:
176,166,83856,1,0,0:0:0:0:
225,156,83931,2,0,P|255:160|284:173,1,62.5
450,259,84081,1,0,0:0:0:0:
476,73,84231,1,0,0:0:0:0:
338,313,84381,2,0,P|310:299|289:276,1,62.5,8|0,0:0|0:0,0:0:0:0:
261,126,84531,2,0,P|252:155|255:187,1,62.5,8|0,0:0|0:0,0:0:0:0:
384,208,84681,5,0,0:0:0:0:
373,160,84756,1,0,0:0:0:0:
363,110,84831,2,0,L|348:38,1,62.5
255,187,84981,5,8,2:0:0:0:
253,236,85056,1,0,2:0:0:0:
253,288,85131,2,0,L|249:363,1,62.5,0|0,2:0|2:0,2:0:0:0:
168,253,85281,1,0,0:0:0:0:
240,80,85431,1,0,0:0:0:0:
360,304,85581,1,8,0:0:0:0:
23,349,85731,6,0,L|27:280,3,62.5
140,235,86031,2,0,L|143:297,3,62.5,0|0|8|0,0:0|0:0|0:0|0:0,0:0:0:0:
1,353,86331,2,0,L|5:284,3,62.5
166,218,86631,2,0,L|169:280,3,62.5,0|0|8|0,0:0|0:0|0:0|0:0,0:0:0:0:
213,155,86931,1,0,0:0:0:0:
213,155,87006,1,0,0:0:0:0:
213,155,87081,5,0,0:0:0:0:
160,120,87156,1,0,0:0:0:0:
97,120,87231,1,0,0:0:0:0:
44,154,87306,1,0,0:0:0:0:
18,210,87381,1,8,0:0:0:0:
73,30,87531,1,0,0:0:0:0:
293,230,87681,2,0,P|209:266|128:226,1,187.5
199,39,87981,2,8,P|186:99|212:154,1,125
383,278,88281,5,0,0:0:0:0:
383,278,88431,1,0,0:0:0:0:
274,87,88581,2,0,L|420:80,1,125,8|0,0:0|0:0,0:0:0:0:
212,154,88881,1,0,0:0:0:0:
212,154,89031,1,0,0:0:0:0:
368,304,89181,2,0,L|222:311,1,125,8|0,0:0|0:0,0:0:0:0:
411,224,89481,5,0,0:0:0:0:
312,147,89631,1,0,0:0:0:0:
142,278,89781,2,0,P|203:287|258:259,1,125,8|0,0:0|0:0,0:0:0:0:
105,88,90081,1,0,0:0:0:0:
187,184,90231,1,0,0:0:0:0:
43,305,90381,2,0,L|69:182,1,125,8|0,0:0|0:0,0:0:0:0:
429,340,90681,6,0,L|402:217,1,125,4|0,0:0|0:0,0:0:0:0:
409,353,90981,1,12,0:0:0:0:
409,353,91131,1,0,0:0:0:0:
467,138,91281,6,0,P|399:114|334:140,1,125
402,217,91581,1,8,0:0:0:0:
402,217,91731,2,0,P|318:237|238:115,1,250
138,1,92181,6,0,P|148:62|126:120,1,125
237,116,92481,6,0,P|216:173|168:213,1,100
272,262,92781,6,0,P|236:292|189:300,1,75.0000028610231
110,274,93081,5,0,0:0:0:0:
115,286,93381,1,0,0:0:0:0:
52,133,93531,1,0,0:0:0:0:
122,299,93681,1,0,0:0:0:0:
265,38,94131,1,0,0:0:0:0:
81,84,94281,6,0,P|130:76|197:88,1,100
354,196,94581,2,0,P|309:205|238:192,1,100,8|0,0:0|0:0,0:0:0:0:
456,138,94881,2,0,P|470:183|465:235,1,100
354,196,95181,1,8,0:0:0:0:
467,351,95331,6,0,P|389:292|288:325,1,200
130,354,95781,2,0,P|123:301|134:232,1,100,8|0,0:0|0:0,0:0:0:0:
256,113,96081,2,0,P|266:162|259:211,1,100
225,301,96381,1,8,0:0:0:0:
179,40,96531,6,0,P|256:7|351:64,1,200
142,149,96981,2,0,P|95:121|67:74,1,100,8|0,0:0|0:0,0:0:0:0:
256,113,97281,2,0,P|259:169|239:218,1,100
179,40,97581,1,8,0:0:0:0:
187,261,97731,2,0,P|90:259|24:188,1,200
143,51,98181,2,0,P|134:99|142:149,1,100,8|0,0:0|0:0,0:0:0:0:
349,231,98481,2,0,P|358:182|350:133,1,100
268,292,98781,2,0,P|344:334|408:316,1,150,8|0,0:0|0:0,0:0:0:0:
474,204,99081,6,0,P|399:155|349:231,1,200,4|8,0:0|0:0,0:0:0:0:
160,344,99681,1,0,0:0:0:0:
96,134,99831,1,0,0:0:0:0:
58,259,99981,1,8,0:0:0:0:
325,184,100131,2,0,P|254:249|163:222,1,200
226,57,100581,2,0,L|234:157,1,100,8|0,0:0|0:0,0:0:0:0:
338,384,100881,2,0,L|361:279,1,100
384,104,101181,1,8,0:0:0:0:
149,199,101331,6,0,P|230:251|313:206,1,200
234,156,101781,1,8,0:0:0:0:
234,156,101931,1,0,0:0:0:0:
483,118,102081,6,0,P|403:67|319:112,1,200,0|8,0:0|0:0,0:0:0:0:
399,163,102531,1,8,0:0:0:0:
399,163,102681,6,0,L|393:267,2,100,0|0|8,0:0|0:0|0:0,0:0:0:0:
291,87,103131,1,0,0:0:0:0:
244,218,103281,2,0,P|177:247|107:224,1,150
291,87,103581,2,0,L|314:147,1,50,8|0,0:0|0:0,0:0:0:0:
173,144,103731,2,0,L|198:78,1,50
319,267,103881,6,0,P|334:220|323:172,1,100,4|0,0:0|0:0,0:0:0:0:
100,93,104181,2,8,P|84:139|96:188,1,100,8|0,0:0|0:0,0:0:0:0:
197,318,104481,1,0,0:0:0:0:
175,144,104631,1,0,0:0:0:0:
86,294,104781,1,8,0:0:0:0:
199,52,104931,6,0,P|260:102|235:218,1,200
45,175,105381,1,8,0:0:0:0:
175,144,105531,1,0,0:0:0:0:
197,318,105681,2,0,L|332:330,1,100
450,200,105981,1,8,0:0:0:0:
268,105,106131,1,0,0:0:0:0:
323,209,106281,6,0,P|269:222|196:200,1,100
268,105,106581,1,8,0:0:0:0:
379,300,106731,1,0,0:0:0:0:
149,155,106881,2,0,P|130:202|145:269,1,100
225,215,107181,1,8,0:0:0:0:
71,98,107331,2,0,P|159:57|236:110,1,200
135,249,107781,2,0,P|130:200|149:155,1,100,8|0,0:0|0:0,0:0:0:0:
329,77,108081,2,0,P|334:127|315:171,1,100
236,110,108381,1,8,0:0:0:0:
235,96,108456,1,0,0:0:0:0:
234,82,108531,1,8,0:0:0:0:
233,72,108606,1,0,0:0:0:0:
233,62,108681,6,0,P|285:55|375:71,1,100,4|0,0:0|0:0,0:0:0:0:
467,193,108981,2,0,P|415:200|342:191,1,100,8|0,0:0|0:0,0:0:0:0:
83,211,109281,1,0,0:0:0:0:
256,230,109431,1,0,0:0:0:0:
143,363,109581,1,8,0:0:0:0:
162,135,109731,2,0,P|111:186|6:137,1,200
246,86,110181,2,0,P|260:136|241:193,1,100,8|0,0:0|0:0,0:0:0:0:
87,107,110481,1,0,0:0:0:0:
87,98,110556,1,0,0:0:0:0:
88,89,110631,1,0,0:0:0:0:
88,80,110706,1,0,0:0:0:0:
88,71,110781,1,8,0:0:0:0:
126,92,110856,1,0,0:0:0:0:
169,96,110931,1,8,0:0:0:0:
211,88,111006,1,0,0:0:0:0:
249,68,111081,6,0,P|306:54|359:62,1,100
449,119,111381,1,8,0:0:0:0:
449,119,111531,1,0,0:0:0:0:
434,327,111681,6,0,P|387:340|323:333,1,100
234,276,111981,1,8,0:0:0:0:
234,276,112131,1,0,0:0:0:0:
370,217,112281,1,0,0:0:0:0:
356,194,112431,1,0,0:0:0:0:
382,191,112581,1,8,0:0:0:0:
372,203,112881,5,8,0:0:0:0:
372,203,112956,1,0,0:0:0:0:
372,203,113031,1,0,0:0:0:0:
372,203,113106,1,0,0:0:0:0:
372,203,113181,1,8,0:0:0:0:
306,239,113256,1,0,0:0:0:0:
231,249,113331,1,8,0:0:0:0:
156,243,113406,1,0,0:0:0:0:
87,212,113481,6,0,P|80:162|83:112,1,100,4|0,0:0|0:0,0:0:0:0:
255,54,113781,2,0,P|262:107|257:163,1,100,8|0,0:0|0:0,0:0:0:0:
205,347,114081,1,0,0:0:0:0:
258,153,114231,1,0,0:0:0:0:
334,281,114381,1,8,0:0:0:0:
359,50,114531,6,0,P|369:128|272:188,1,200
187,107,114981,2,0,P|234:92|286:101,1,100,8|0,0:0|0:0,0:0:0:0:
344,264,115281,2,0,P|297:279|245:270,1,100
458,205,115581,1,8,0:0:0:0:
454,213,115656,1,0,0:0:0:0:
450,221,115731,1,0,0:0:0:0:
447,229,115806,1,0,0:0:0:0:
444,237,115881,6,0,L|398:352,1,100,4|0,0:0|0:0,0:0:0:0:
100,351,116181,1,8,0:0:0:0:
168,184,116331,1,0,0:0:0:0:
220,302,116481,2,0,L|339:317,1,100
78,221,116781,1,8,0:0:0:0:
260,135,116931,6,0,P|192:83|84:125,1,200
156,280,117381,2,0,P|173:234|168:184,1,100,8|0,0:0|0:0,0:0:0:0:
17,61,117681,2,0,P|0:107|5:156,1,100
168,184,117981,1,8,0:0:0:0:
197,165,118056,1,0,0:0:0:0:
231,158,118131,1,8,0:0:0:0:
265,164,118206,1,0,0:0:0:0:
296,178,118281,6,0,P|350:189|407:177,1,100,4|0,0:0|0:0,0:0:0:0:
236,353,118581,2,0,P|246:305|235:256,1,100,8|0,0:0|0:0,0:0:0:0:
361,299,118881,1,0,0:0:0:0:
140,305,119031,1,0,0:0:0:0:
342,89,119181,1,8,0:0:0:0:
280,183,119331,6,0,P|233:115|264:6,1,200
440,90,119781,2,0,P|390:94|341:88,1,100,8|0,0:0|0:0,0:0:0:0:
180,181,120081,2,0,P|229:176|279:182,1,100
290,324,120381,1,8,0:0:0:0:
300,290,120456,1,0,0:0:0:0:
300,255,120531,1,8,0:0:0:0:
293,220,120606,1,0,0:0:0:0:
279,182,120681,6,0,P|229:176|180:181,1,100,4|0,0:0|0:0,0:0:0:0:
418,236,120981,1,8,0:0:0:0:
418,236,121131,1,0,0:0:0:0:
262,176,121281,6,0,P|199:178|149:189,1,100
418,236,121581,1,8,0:0:0:0:
418,236,121731,1,0,0:0:0:0:
70,286,121881,5,0,0:0:0:0:
95,309,121956,1,0,0:0:0:0:
127,323,122031,1,0,0:0:0:0:
161,327,122106,1,0,0:0:0:0:
195,322,122181,1,8,0:0:0:0:
226,307,122256,1,0,0:0:0:0:
251,282,122331,1,0,0:0:0:0:
266,250,122406,1,0,0:0:0:0:
275,216,122481,1,0,0:0:0:0:
266,181,122556,1,0,0:0:0:0:
245,152,122631,1,0,0:0:0:0:
210,145,122706,1,0,0:0:0:0:
178,159,122781,1,8,0:0:0:0:
165,191,122856,1,0,0:0:0:0:
169,225,122931,1,8,0:0:0:0:
192,251,123006,1,0,0:0:0:0:
226,259,123081,6,0,P|271:250|342:263,1,100,4|0,0:0|0:0,0:0:0:0:
367,141,123381,2,0,P|322:150|251:137,1,100,8|0,0:0|0:0,0:0:0:0:
469,83,123681,2,0,P|483:128|478:180,1,100
367,141,123981,1,8,0:0:0:0:
332,311,124131,6,0,P|391:233|358:132,1,200
181,210,124581,2,0,P|231:217|281:213,1,100,8|0,0:0|0:0,0:0:0:0:
423,51,124881,2,0,P|374:41|324:48,1,100
245,121,125181,1,8,0:0:0:0:
333,344,125331,6,0,P|256:377|161:320,1,200
370,235,125781,2,0,P|417:263|445:310,1,100,8|0,0:0|0:0,0:0:0:0:
255,270,126081,2,0,P|252:221|267:174,1,100
333,344,126381,1,8,0:0:0:0:
321,65,126531,2,0,P|385:139|370:235,1,200
169,173,126981,2,0,P|217:182|267:174,1,100,8|0,0:0|0:0,0:0:0:0:
49,121,127281,2,0,P|40:170|48:219,1,100
252,113,127581,2,0,P|176:71|112:89,1,150,8|0,0:0|0:0,0:0:0:0:
72,250,127881,6,0,P|161:262|169:173,1,200,4|8,0:0|0:0,0:0:0:0:
352,40,128481,1,0,0:0:0:0:
416,250,128631,1,0,0:0:0:0:
454,125,128781,1,8,0:0:0:0:
187,200,128931,2,0,P|258:135|349:162,1,200
286,327,129381,2,0,L|278:227,1,100,8|0,0:0|0:0,0:0:0:0:
172,0,129681,2,0,L|149:105,1,100
128,280,129981,1,8,0:0:0:0:
363,185,130131,1,0,0:0:0:0:
278,228,130281,5,8,0:1:0:0:
278,228,130431,1,8,0:3:0:0:
29,32,130731,1,8,0:3:0:0:
410,102,131481,1,8,0:3:0:0:
175,370,131931,1,8,0:3:0:0:
76,67,132231,1,8,0:3:0:0:
449,191,132531,1,8,0:3:0:0:
448,200,132681,6,0,B|480:240|480:312|432:352|386:344|386:344|381:321|370:291|339:283|325:289|319:273|319:273|326:261|326:261|319:237|326:216,1,350
80,160,135081,6,0,B|114:182|115:227|115:227|115:256|93:290|93:290|124:298|164:332|164:332|169:280|174:264|174:264|204:268|229:258,1,350
324,338,137481,6,0,B|353:296|361:240|342:184|310:157|310:157|338:151|338:151|375:118|427:133|427:133|453:117,1,350
144,240,139881,6,0,P|214:313|233:213,1,250
45,238,141681,6,0,P|92:247|151:237,1,100
421,129,142281,6,0,P|374:120|315:130,1,100,4|0,0:0|0:0,0:0:0:0:
204,195,142581,1,8,0:0:0:0:
189,191,142656,1,0,0:0:0:0:
174,187,142731,1,0,0:0:0:0:
159,183,142806,1,0,0:0:0:0:
149,181,142881,2,0,P|138:127|158:52,1,100
370,159,143181,1,8,0:0:0:0:
373,183,143256,1,0,0:0:0:0:
374,207,143331,2,0,L|377:268,1,50
272,329,143481,5,0,0:0:0:0:
251,180,143631,1,0,0:0:0:0:
126,283,143781,1,8,0:0:0:0:
116,285,143856,1,0,0:0:0:0:
106,287,143931,1,0,0:0:0:0:
96,290,144006,1,0,0:0:0:0:
86,293,144081,5,4,0:0:0:0:
202,264,144231,1,2,0:0:0:0:
28,217,144381,1,8,0:0:0:0:
137,167,144531,1,0,0:0:0:0:
271,329,144681,6,0,P|289:282|287:233,1,100,4|0,0:0|0:0,0:0:0:0:
240,73,144981,1,8,0:0:0:0:
228,95,145056,1,0,0:0:0:0:
222,119,145131,1,0,0:0:0:0:
220,144,145206,1,0,0:0:0:0:
223,168,145281,2,0,B|272:145|272:145|324:151,1,100
365,285,145581,1,8,0:0:0:0:
340,278,145656,1,0,0:0:0:0:
316,273,145731,2,0,L|280:224,1,50
429,214,145881,5,0,0:0:0:0:
455,255,145956,1,0,0:0:0:0:
457,305,146031,1,0,0:0:0:0:
434,348,146106,1,0,0:0:0:0:
393,375,146181,1,8,0:0:0:0:
157,244,146331,1,0,0:0:0:0:
365,285,146481,1,0,0:0:0:0:
365,285,146631,1,0,0:0:0:0:
150,342,146781,2,8,B|160:291|160:291|155:232,1,100
264,200,147081,6,0,P|255:247|265:306,1,100,4|0,0:0|0:0,0:0:0:0:
362,180,147381,1,8,0:0:0:0:
358,165,147456,1,0,0:0:0:0:
354,150,147531,1,0,0:0:0:0:
350,135,147606,1,0,0:0:0:0:
348,125,147680,2,0,B|300:103|300:103|237:99,1,100
142,225,147981,1,8,0:0:0:0:
139,201,148056,1,0,0:0:0:0:
138,177,148131,2,0,L|135:116,1,50
240,55,148281,5,0,0:0:0:0:
261,204,148431,1,0,0:0:0:0:
386,101,148581,1,8,0:0:0:0:
396,99,148656,1,0,0:0:0:0:
406,97,148731,1,0,0:0:0:0:
416,94,148806,1,0,0:0:0:0:
426,91,148881,5,4,0:0:0:0:
310,120,149031,1,2,0:0:0:0:
484,167,149181,1,8,0:0:0:0:
375,217,149331,1,0,0:0:0:0:
241,55,149481,1,0,0:0:0:0:
256,192,149556,12,0,151206,0:0:0:0:
147,99,151281,5,0,0:0:0:0:
147,99,151431,1,0,0:0:0:0:
210,248,151581,5,8,0:3:0:0:
210,248,151881,5,0,0:0:0:0:
249,277,151956,1,0,0:0:0:0:
298,281,152031,1,0,0:0:0:0:
342,259,152106,1,0,0:0:0:0:
367,216,152181,1,8,0:0:0:0:
365,167,152256,1,0,0:0:0:0:
338,126,152331,1,0,0:0:0:0:
293,106,152406,1,0,0:0:0:0:
244,113,152481,1,0,0:0:0:0:
207,145,152556,1,0,0:0:0:0:
158,156,152631,1,0,0:0:0:0:
111,140,152706,1,0,0:0:0:0:
80,102,152781,1,8,0:0:0:0:
89,53,152856,1,0,0:0:0:0:
128,22,152931,1,0,0:0:0:0:
175,37,153006,1,0,0:0:0:0:
198,81,153081,5,0,0:0:0:0:
191,130,153156,1,0,0:0:0:0:
151,160,153231,1,0,0:0:0:0:
102,173,153306,1,0,0:0:0:0:
57,194,153381,1,8,0:0:0:0:
29,235,153456,1,0,0:0:0:0:
24,284,153531,1,0,0:0:0:0:
44,329,153606,1,0,0:0:0:0:
83,359,153681,1,0,0:0:0:0:
132,365,153756,1,0,0:0:0:0:
179,349,153831,1,0,0:0:0:0:
210,310,153906,1,0,0:0:0:0:
219,260,153981,6,0,L|218:205,1,50,8|0,0:0|0:0,0:0:0:0:
56,144,154131,2,0,L|57:207,1,50,8|0,0:0|0:0,0:0:0:0:
121,268,154281,5,4,0:0:0:0:
130,218,154356,1,0,0:0:0:0:
162,179,154431,1,0,0:0:0:0:
209,162,154506,1,0,0:0:0:0:
258,170,154581,1,8,0:0:0:0:
298,198,154656,1,0,0:0:0:0:
314,245,154731,1,0,0:0:0:0:
306,294,154806,1,0,0:0:0:0:
327,337,154881,1,0,0:0:0:0:
372,356,154956,1,0,0:0:0:0:
418,339,155031,1,0,0:0:0:0:
440,296,155106,1,0,0:0:0:0:
428,248,155181,1,8,0:0:0:0:
389,221,155256,1,0,0:0:0:0:
391,173,155331,1,0,0:0:0:0:
433,150,155406,1,0,0:0:0:0:
475,173,155481,5,0,0:0:0:0:
466,222,155556,1,0,0:0:0:0:
420,242,155631,1,0,0:0:0:0:
370,238,155706,1,0,0:0:0:0:
327,211,155781,1,8,0:0:0:0:
282,187,155856,1,0,0:0:0:0:
232,188,155931,1,0,0:0:0:0:
187,210,156006,1,0,0:0:0:0:
159,251,156081,6,0,L|142:303,3,50
260,337,156381,2,0,L|259:288,1,50,8|0,0:0|0:0,0:0:0:0:
230,138,156531,2,0,L|231:187,1,50,8|0,0:0|0:0,0:0:0:0:
143,335,156681,5,4,0:0:0:0:
187,313,156756,1,0,0:0:0:0:
214,272,156831,1,0,0:0:0:0:
217,223,156906,1,0,0:0:0:0:
194,179,156981,1,8,0:0:0:0:
152,153,157056,1,0,0:0:0:0:
103,152,157131,1,0,0:0:0:0:
60,176,157206,1,0,0:0:0:0:
35,219,157281,1,0,0:0:0:0:
32,269,157356,1,0,0:0:0:0:
50,315,157431,1,0,0:0:0:0:
88,347,157506,1,0,0:0:0:0:
136,360,157581,1,8,0:0:0:0:
184,350,157656,1,0,0:0:0:0:
223,319,157731,1,0,0:0:0:0:
244,274,157806,1,0,0:0:0:0:
248,224,157881,5,0,0:0:0:0:
225,179,157956,1,0,0:0:0:0:
178,160,158031,1,0,0:0:0:0:
129,161,158106,1,0,0:0:0:0:
88,133,158181,1,8,0:0:0:0:
71,87,158256,1,0,0:0:0:0:
84,40,158331,1,0,0:0:0:0:
121,8,158406,1,0,0:0:0:0:
170,6,158481,5,0,0:0:0:0:
175,19,158556,1,0,0:0:0:0:
179,33,158631,1,0,0:0:0:0:
184,47,158706,1,0,0:0:0:0:
235,114,158781,5,8,0:0:0:0:
286,59,158856,1,0,0:0:0:0:
357,34,158931,1,8,0:0:0:0:
430,46,159006,1,0,0:0:0:0:
491,88,159081,5,0,0:0:0:0:
445,67,159156,1,0,0:0:0:0:
396,72,159231,1,0,0:0:0:0:
355,100,159306,1,0,0:0:0:0:
329,143,159381,1,8,0:0:0:0:
330,192,159456,1,0,0:0:0:0:
353,236,159531,1,0,0:0:0:0:
394,263,159606,1,0,0:0:0:0:
443,264,159681,1,0,0:0:0:0:
488,243,159756,1,0,0:0:0:0:
504,195,159831,1,0,0:0:0:0:
483,149,159906,1,0,0:0:0:0:
433,146,159981,1,8,0:0:0:0:
399,183,160056,1,0,0:0:0:0:
397,232,160131,1,0,0:0:0:0:
427,271,160206,1,0,0:0:0:0:
466,302,160281,5,0,0:0:0:0:
432,338,160356,1,0,0:0:0:0:
388,361,160431,1,0,0:0:0:0:
338,366,160506,1,0,0:0:0:0:
290,354,160581,1,8,0:0:0:0:
249,326,160656,1,0,0:0:0:0:
221,285,160731,1,0,0:0:0:0:
209,236,160806,1,0,0:0:0:0:
212,187,160881,6,0,L|225:129,3,50
346,230,161181,1,8,0:0:0:0:
346,230,161481,5,0,0:0:0:0:
337,279,161556,1,0,0:0:0:0:
310,321,161631,1,0,0:0:0:0:
267,346,161706,1,0,0:0:0:0:
213,350,161781,1,8,0:0:0:0:
163,342,161856,1,0,0:0:0:0:
114,332,161931,1,0,0:0:0:0:
75,300,162006,1,0,0:0:0:0:
51,256,162081,1,8,0:0:0:0:
43,206,162156,1,0,0:0:0:0:
53,152,162231,1,0,0:0:0:0:
92,110,162306,1,0,0:0:0:0:
144,95,162381,1,8,0:0:0:0:
197,108,162456,1,0,0:0:0:0:
236,146,162531,1,0,0:0:0:0:
244,200,162606,1,0,0:0:0:0:
225,251,162681,5,0,0:0:0:0:
180,229,162756,1,0,0:0:0:0:
149,190,162831,1,0,0:0:0:0:
136,142,162906,1,0,0:0:0:0:
145,93,162981,1,8,0:0:0:0:
174,53,163056,1,0,0:0:0:0:
217,29,163131,1,0,0:0:0:0:
249,67,163206,1,0,0:0:0:0:
292,93,163281,1,8,0:0:0:0:
340,102,163356,1,0,0:0:0:0:
390,95,163431,1,0,0:0:0:0:
433,72,163506,1,0,0:0:0:0:
467,35,163581,6,0,L|498:-12,1,50,4|0,0:0|0:0,0:0:0:0:
418,201,163731,2,0,L|383:247,1,50,4|0,0:0|0:0,0:0:0:0:
335,20,163881,5,6,0:0:0:0:
333,69,163956,1,0,0:0:0:0:
353,115,164031,1,0,0:0:0:0:
390,147,164106,1,0,0:0:0:0:
438,161,164181,1,8,0:0:0:0:
487,152,164256,1,0,0:0:0:0:
505,198,164331,1,0,0:0:0:0:
503,248,164406,1,0,0:0:0:0:
481,292,164481,1,8,0:0:0:0:
442,324,164556,1,0,0:0:0:0:
394,337,164631,1,0,0:0:0:0:
345,330,164706,1,0,0:0:0:0:
306,301,164781,1,8,0:0:0:0:
286,256,164856,1,0,0:0:0:0:
290,207,164931,1,0,0:0:0:0:
317,166,165006,1,0,0:0:0:0:
361,143,165081,5,8,0:0:0:0:
381,188,165156,1,0,0:0:0:0:
385,237,165231,1,0,0:0:0:0:
373,286,165306,1,0,0:0:0:0:
345,327,165381,1,8,0:0:0:0:
306,357,165456,1,0,0:0:0:0:
257,368,165531,1,0,0:0:0:0:
208,359,165606,1,0,0:0:0:0:
166,333,165681,6,0,L|116:288,3,50
246,187,165981,2,0,L|259:264,3,50,8|0|0|0,0:0|0:0|0:0|0:0,0:0:0:0:
120,72,166281,5,12,0:0:0:0:
71,76,166356,1,0,0:0:0:0:
37,111,166431,1,0,0:0:0:0:
34,160,166506,1,0,0:0:0:0:
64,198,166581,1,8,0:0:0:0:
113,207,166656,1,0,0:0:0:0:
155,182,166731,1,0,0:0:0:0:
170,136,166806,1,0,0:0:0:0:
184,89,166881,1,8,0:0:0:0:
224,60,166956,1,0,0:0:0:0:
273,61,167031,1,0,0:0:0:0:
311,92,167106,1,0,0:0:0:0:
322,140,167181,1,8,0:0:0:0:
303,186,167256,1,0,0:0:0:0:
262,215,167331,1,0,0:0:0:0:
212,224,167406,1,0,0:0:0:0:
163,210,167481,5,8,0:0:0:0:
130,171,167556,1,0,0:0:0:0:
81,162,167631,1,0,0:0:0:0:
37,184,167706,1,0,0:0:0:0:
14,227,167781,1,8,0:0:0:0:
21,276,167856,1,0,0:0:0:0:
55,312,167931,1,0,0:0:0:0:
103,320,168006,1,0,0:0:0:0:
149,301,168081,6,0,L|201:320,3,50,8|0|0|0,0:0|0:0|0:0|0:0,0:0:0:0:
222,129,168381,2,0,L|156:104,1,50,8|0,0:0|0:0,0:0:0:0:
149,301,168531,2,0,L|203:312,1,50,8|0,0:0|0:0,0:0:0:0:
305,290,168681,5,4,0:0:0:0:
276,249,168756,1,0,0:0:0:0:
280,199,168831,1,0,0:0:0:0:
312,161,168906,1,0,0:0:0:0:
359,144,168981,1,8,0:0:0:0:
405,163,169056,1,0,0:0:0:0:
434,203,169131,1,0,0:0:0:0:
435,252,169206,1,0,0:0:0:0:
407,293,169281,1,0,0:0:0:0:
363,268,169356,1,0,0:0:0:0:
344,221,169431,1,0,0:0:0:0:
338,171,169506,1,0,0:0:0:0:
351,122,169581,6,0,P|323:53|193:59,1,200,8|0,0:0|0:0,0:0:0:0:
140,209,170031,2,0,P|234:207|261:118,1,200
36,154,170481,2,0,P|24:229|65:301,1,150
79,300,170781,1,0,0:0:0:0:
174,131,171081,5,0,0:0:0:0:
177,150,171156,1,0,0:0:0:0:
181,169,171231,1,0,0:0:0:0:
185,188,171306,1,0,0:0:0:0:
190,207,171381,2,0,P|254:207|313:200,1,100,8|0,0:0|0:0,0:0:0:0:
426,59,171681,1,0,0:0:0:0:
280,97,171831,1,0,0:0:0:0:
371,251,171981,2,0,P|386:200|373:155,1,100,8|0,0:0|0:0,0:0:0:0:
289,203,172281,5,0,0:0:0:0:
345,342,172431,1,0,0:0:0:0:
373,156,172581,1,8,0:0:0:0:
260,296,172731,1,0,0:0:0:0:
453,243,172881,1,0,0:0:0:0:
428,247,172956,1,0,0:0:0:0:
403,251,173031,1,0,0:0:0:0:
379,256,173106,1,0,0:0:0:0:
354,260,173181,1,8,0:0:0:0:
504,128,173331,1,8,0:0:0:0:
233,174,173481,5,4,0:0:0:0:
257,169,173556,1,0,0:0:0:0:
282,165,173631,1,0,0:0:0:0:
306,164,173706,1,0,0:0:0:0:
331,170,173781,2,0,P|338:231|337:271,1,100,8|0,0:0|0:0,0:0:0:0:
154,351,174081,1,0,0:0:0:0:
138,201,174231,1,0,0:0:0:0:
267,353,174381,1,8,0:0:0:0:
79,284,174531,1,0,0:0:0:0:
160,101,174681,5,0,0:0:0:0:
199,245,174831,1,0,0:0:0:0:
168,88,174981,1,8,0:0:0:0:
190,256,175131,1,0,0:0:0:0:
315,149,175281,1,0,0:0:0:0:
329,147,175356,1,0,0:0:0:0:
343,146,175431,1,0,0:0:0:0:
357,144,175506,1,0,0:0:0:0:
371,142,175581,1,8,0:0:0:0:
223,166,175731,1,0,0:0:0:0:
297,272,175881,5,4,0:0:0:0:
279,282,175956,1,0,0:0:0:0:
260,290,176031,1,0,0:0:0:0:
241,296,176106,1,0,0:0:0:0:
221,299,176181,2,0,L|92:303,1,100,8|0,0:0|0:0,0:0:0:0:
81,106,176481,1,0,0:0:0:0:
210,182,176631,1,0,0:0:0:0:
100,349,176781,2,0,P|92:290|100:227,1,100,8|0,0:0|0:0,0:0:0:0:
189,68,177081,5,0,0:0:0:0:
310,161,177231,1,0,0:0:0:0:
368,22,177381,1,8,0:0:0:0:
204,179,177531,1,0,0:0:0:0:
395,237,177681,1,0,0:0:0:0:
282,71,177831,1,0,0:0:0:0:
287,332,177981,2,0,P|293:270|287:207,1,100,8|0,0:0|0:0,0:0:0:0:
378,27,178281,5,4,0:0:0:0:
371,51,178356,1,0,0:0:0:0:
367,75,178431,1,0,0:0:0:0:
364,100,178506,1,0,0:0:0:0:
363,125,178581,2,0,P|367:174|379:223,1,100,8|0,0:0|0:0,0:0:0:0:
512,295,178881,1,0,0:0:0:0:
480,148,179031,1,0,0:0:0:0:
498,316,179181,2,0,P|441:321|362:314,1,100,8|0,0:0|0:0,0:0:0:0:
246,188,179481,5,0,0:0:0:0:
392,219,179631,1,0,0:0:0:0:
213,309,179781,1,8,0:0:0:0:
342,94,179931,1,0,0:0:0:0:
321,292,180081,1,0,0:0:0:0:
151,185,180231,1,0,0:0:0:0:
376,194,180381,1,8,0:0:0:0:
351,188,180456,1,0,0:0:0:0:
326,186,180531,1,0,0:0:0:0:
301,188,180606,1,0,0:0:0:0:
277,193,180681,6,0,P|228:209|155:209,1,100,4|0,0:0|0:0,0:0:0:0:
20,94,180981,2,0,P|69:78|142:78,1,100,8|0,0:0|0:0,0:0:0:0:
211,253,181281,1,0,0:0:0:0:
88,166,181431,1,0,0:0:0:0:
195,49,181581,2,0,P|200:98|192:148,1,100,8|0,0:0|0:0,0:0:0:0:
67,313,181881,5,0,0:0:0:0:
86,164,182031,1,0,0:0:0:0:
80,333,182181,1,8,0:0:0:0:
75,143,182331,1,0,0:0:0:0:
223,261,182481,1,0,0:0:0:0:
247,254,182556,1,0,0:0:0:0:
271,252,182631,1,0,0:0:0:0:
296,253,182706,1,0,0:0:0:0:
321,259,182781,1,8,0:0:0:0:
172,338,182931,1,8,0:0:0:0:
25,216,183081,5,4,0:0:0:0:
49,210,183156,1,0,0:0:0:0:
73,208,183231,1,0,0:0:0:0:
98,209,183306,1,0,0:0:0:0:
122,214,183381,2,0,P|170:230|219:229,1,100,8|0,0:0|0:0,0:0:0:0:
329,62,183681,1,0,0:0:0:0:
188,114,183831,1,0,0:0:0:0:
304,278,183981,2,0,P|320:226|308:178,1,100,8|0,0:0|0:0,0:0:0:0:
224,225,184281,5,0,0:0:0:0:
402,314,184431,1,0,0:0:0:0:
351,99,184581,1,8,0:0:0:0:
303,293,184731,1,0,0:0:0:0:
242,81,184881,1,0,0:0:0:0:
432,188,185031,1,0,0:0:0:0:
286,153,185181,1,8,0:0:0:0:
288,177,185256,1,0,0:0:0:0:
291,202,185331,1,0,0:0:0:0:
293,227,185406,1,0,0:0:0:0:
296,252,185481,6,0,L|311:350,1,100,4|0,0:0|0:0,0:0:0:0:
448,168,185781,2,0,L|432:266,1,100,8|0,0:0|0:0,0:0:0:0:
191,189,186081,1,0,0:0:0:0:
338,160,186231,1,0,0:0:0:0:
108,76,186381,2,0,P|102:125|109:187,1,100,8|0,0:0|0:0,0:0:0:0:
223,300,186681,6,0,P|229:251|222:189,1,100
19,168,186981,2,0,P|35:214|68:267,1,100,8|0,0:0|0:0,0:0:0:0:
284,247,187281,2,0,P|256:225|207:222,1,50
176,276,187431,2,0,P|204:298|253:301,1,50
234,139,187581,2,0,P|200:152|173:193,1,50
304,329,187731,2,0,P|337:315|364:274,1,50
327,166,187881,5,0,0:0:0:0:
256,192,187956,12,0,190206,0:0:0:0:
256,192,190281,5,0,0:0:0:0:
32,176,200481,6,0,P|80:184|129:173,1,75.0000028610231
184,128,200781,2,0,P|232:128|264:136,1,75.0000028610231
328,208,201081,2,0,P|376:208|416:192,1,75.0000028610231
425,87,201381,2,0,P|388:86|352:96,1,75.0000028610231
224,216,201681,6,0,L|240:320,1,75.0000028610231
80,256,201981,2,0,L|64:360,1,75.0000028610231
248,232,202281,2,0,L|264:336,1,75.0000028610231
56,264,202581,2,0,L|40:368,1,75.0000028610231
144,208,202881,6,0,P|112:176|72:160,1,75.0000028610231
144,304,203181,2,0,P|187:292|221:265,1,75.0000028610231
153,135,203481,2,0,P|141:178|147:221,1,75.0000028610231
296,328,203781,2,0,P|307:284|301:241,1,75.0000028610231
224,109,204081,6,0,L|232:184,1,75.0000028610231
400,136,204381,2,0,L|392:210,1,75.0000028610231
208,96,204681,2,0,L|215:170,1,75.0000028610231
416,128,204981,2,0,L|408:202,1,75.0000028610231
376,320,205281,6,0,P|336:328|288:320,1,75.0000028610231
240,232,205581,2,0,P|203:224|166:227,1,75.0000028610231
72,288,205881,2,0,P|56:248|64:184,1,75.0000028610231
192,312,206181,2,0,P|189:349|174:383,1,75.0000028610231
144,224,206481,6,0,P|184:216|232:224,1,75.0000028610231
304,288,206781,2,0,P|340:295|377:292,1,75.0000028610231
464,216,207081,2,0,P|478:181|481:144,1,75.0000028610231
368,128,207381,2,0,P|353:162|350:199,1,75.0000028610231
368,320,207681,5,8,0:0:0:0:
352,238,207831,1,0,0:0:0:0:
390,164,207981,1,8,0:0:0:0:
464,128,208131,1,0,0:0:0:0:
478,256,208281,5,8,0:0:0:0:
409,210,208431,1,0,0:0:0:0:
326,206,208581,1,8,0:0:0:0:
248,234,208731,1,0,0:0:0:0:
207,305,208881,5,8,0:0:0:0:
197,293,209031,1,0,0:0:0:0:
360,352,209181,5,8,0:0:0:0:
362,337,209331,1,0,0:0:0:0:
192,296,209481,5,8,0:0:0:0:
190,280,209631,1,0,0:0:0:0:
368,336,209781,5,8,0:0:0:0:
363,322,209931,1,0,0:0:0:0:
182,118,210081,6,0,P|192:184|152:104,1,300
97,288,211281,5,8,3:0:0:0:
82,283,211431,1,8,3:0:0:0:
82,267,211581,1,8,3:0:0:0:
97,263,211731,1,8,3:0:0:0:
105,275,211881,1,8,3:0:0:0:
452,84,212331,1,0,0:0:0:0:
416,338,212481,5,0,0:0:0:0:
424,288,212556,1,0,0:0:0:0:
430,238,212631,2,0,L|440:165,1,62.5
329,54,212781,5,8,0:0:0:0:
331,104,212856,1,0,0:0:0:0:
332,154,212931,2,0,L|333:216,1,62.5
286,335,213081,1,0,0:0:0:0:
220,89,213231,1,0,0:0:0:0:
430,238,213381,1,8,0:0:0:0:
180,248,213531,2,0,P|172:212|175:168,1,62.5
297,201,213681,5,0,0:0:0:0:
295,250,213756,1,0,0:0:0:0:
292,299,213831,2,0,P|273:330|244:352,1,62.5
34,242,213981,5,8,0:0:0:0:
79,218,214056,1,0,0:0:0:0:
126,217,214130,2,0,P|155:228|179:247,1,62.5
104,321,214281,1,0,0:0:0:0:
3,126,214431,1,0,0:0:0:0:
104,321,214581,1,8,0:0:0:0:
63,48,214731,6,0,P|90:81|101:141,3,62.5
280,89,215031,2,0,P|258:111|245:140,3,62.5,0|0|8|0,0:0|0:0|0:0|0:0,0:0:0:0:
82,67,215331,2,0,P|96:107|85:167,3,62.5
260,107,215630,2,0,P|248:135|245:166,3,62.5,0|0|8|0,0:0|0:0|0:0|0:0,0:0:0:0:
265,293,215931,1,0,0:0:0:0:
265,293,216006,1,0,0:0:0:0:
265,293,216081,5,0,0:0:0:0:
305,322,216156,1,0,0:0:0:0:
353,332,216231,1,0,0:0:0:0:
401,319,216306,1,0,0:0:0:0:
438,285,216381,2,0,B|459:242|449:199|449:199|412:174,1,125,8|0,0:0|0:0,0:0:0:0:
158,146,216681,1,0,0:0:0:0:
348,227,216831,1,0,0:0:0:0:
98,246,216981,2,0,B|77:289|87:332|87:332|124:357,1,125,8|0,0:0|0:0,0:0:0:0:
268,153,217281,6,0,P|252:87|203:45,1,125
24,71,217581,1,8,0:0:0:0:
270,262,217731,2,0,P|203:245|143:264,1,125
7,332,218031,1,0,0:0:0:0:
158,146,218181,1,8,0:0:0:0:
208,365,218331,1,0,0:0:0:0:
308,163,218481,6,0,P|378:153|459:175,1,125,4|0,0:0|0:0,0:0:0:0:
503,301,218706,1,0,0:0:0:0:
503,301,218781,2,0,P|433:311|352:289,1,125,8|0,0:0|0:0,0:0:0:0:
261,261,219006,1,0,0:0:0:0:
261,261,219081,1,0,0:0:0:0:
80,311,219231,1,0,0:0:0:0:
124,128,219381,1,8,0:0:0:0:
191,368,219531,1,0,0:0:0:0:
13,192,219681,6,0,B|25:161|44:144|44:144|41:119|43:102|52:87|63:74,1,125
132,235,219981,1,8,0:0:0:0:
279,119,220131,1,0,0:0:0:0:
124,128,220281,1,0,0:0:0:0:
263,254,220431,1,0,0:0:0:0:
120,113,220581,2,0,P|177:78|242:84,1,125,8|0,0:0|0:0,0:0:0:0:
359,156,220881,5,0,0:0:0:0:
310,163,220956,1,0,0:0:0:0:
262,171,221031,2,0,L|200:179,1,62.5
64,258,221181,5,8,0:0:0:0:
114,265,221256,1,0,0:0:0:0:
163,276,221331,2,0,L|225:279,1,62.5
474,201,221481,1,0,0:0:0:0:
482,152,221556,1,0,0:0:0:0:
471,103,221631,1,0,0:0:0:0:
442,63,221706,1,0,0:0:0:0:
401,36,221780,2,0,P|370:29|339:31,1,62.5,8|0,0:0|0:0,0:0:0:0:
304,185,221931,2,0,P|332:172|358:155,1,62.5,8|0,0:0|0:0,0:0:0:0:
244,90,222081,5,4,0:0:0:0:
208,125,222156,1,0,0:0:0:0:
193,172,222231,2,0,P|196:215|204:235,1,62.5
429,276,222381,5,8,0:0:0:0:
399,235,222456,1,0,0:0:0:0:
363,200,222531,2,0,P|334:188|303:184,1,62.5
96,241,222681,1,0,0:0:0:0:
85,53,222831,1,0,0:0:0:0:
125,331,222982,2,0,P|152:317|173:294,1,62.5,8|0,0:0|0:0,0:0:0:0:
251,126,223131,2,0,P|260:155|257:186,1,62.5,8|0,0:0|0:0,0:0:0:0:
96,241,223281,5,0,0:0:0:0:
107,193,223356,1,0,0:0:0:0:
117,143,223431,2,0,L|129:81,1,62.5
257,187,223581,5,8,2:0:0:0:
259,236,223656,1,0,2:0:0:0:
259,288,223731,2,0,L|262:350,1,62.5,0|0,2:0|2:0,2:0:0:0:
344,253,223881,1,0,0:0:0:0:
272,80,224031,1,0,0:0:0:0:
152,304,224181,1,8,0:0:0:0:
489,349,224331,6,0,L|485:286,3,62.5
372,235,224631,2,0,L|369:297,3,62.5,0|0|8|0,0:0|0:0|0:0|0:0,0:0:0:0:
511,353,224931,2,0,L|507:290,3,62.5
346,218,225231,2,0,L|343:280,3,62.5,0|0|8|0,0:0|0:0|0:0|0:0,0:0:0:0:
299,155,225531,1,0,0:0:0:0:
299,155,225606,1,0,0:0:0:0:
299,155,225681,5,0,0:0:0:0:
352,120,225756,1,0,0:0:0:0:
415,120,225831,1,0,0:0:0:0:
468,154,225906,1,0,0:0:0:0:
494,210,225981,1,8,0:0:0:0:
439,30,226131,1,0,0:0:0:0:
218,229,226281,2,0,P|302:266|384:225,1,187.5
312,38,226581,2,8,P|325:99|299:154,1,125
129,278,226881,5,0,0:0:0:0:
129,278,227031,1,0,0:0:0:0:
238,87,227181,2,0,L|113:81,1,125,8|0,0:0|0:0,0:0:0:0:
300,154,227481,1,0,0:0:0:0:
300,154,227631,1,0,0:0:0:0:
144,304,227781,2,0,L|268:309,1,125,8|0,0:0|0:0,0:0:0:0:
101,224,228081,5,0,0:0:0:0:
200,147,228231,1,0,0:0:0:0:
369,278,228381,2,0,P|309:287|254:259,1,125,8|0,0:0|0:0,0:0:0:0:
407,88,228681,1,0,0:0:0:0:
325,184,228831,1,0,0:0:0:0:
469,305,228981,2,0,L|443:182,1,125,8|0,0:0|0:0,0:0:0:0:
83,340,229281,6,0,L|110:217,1,125,4|0,0:0|0:0,0:0:0:0:
103,353,229581,1,12,0:0:0:0:
103,353,229731,1,0,0:0:0:0:
44,138,229882,6,0,P|101:114|161:128,1,125
110,217,230181,1,8,0:0:0:0:
110,217,230330,2,0,P|227:223|274:116,1,250
373,1,230780,6,0,P|363:61|385:119,1,125
275,116,231081,6,0,P|296:173|344:213,1,100
240,262,231381,6,0,P|276:292|323:300,1,75.0000028610231
402,274,231681,5,0,0:0:0:0:
397,286,231981,1,0,0:0:0:0:
460,133,232131,1,0,0:0:0:0:
390,299,232281,1,0,0:0:0:0:
247,38,232731,1,0,0:0:0:0:
431,300,232881,6,0,P|382:308|315:296,1,100
158,188,233181,2,0,P|203:179|274:192,1,100,8|0,0:0|0:0,0:0:0:0:
56,246,233481,2,0,P|42:201|47:149,1,100
158,188,233781,1,8,0:0:0:0:
45,33,233931,6,0,P|123:92|224:59,1,200
382,30,234381,2,0,P|389:83|378:152,1,100,8|0,0:0|0:0,0:0:0:0:
256,271,234681,2,0,P|246:222|253:173,1,100
287,83,234981,1,8,0:0:0:0:
333,344,235131,6,0,P|256:377|161:320,1,200
370,235,235581,2,0,P|417:263|445:310,1,100,8|0,0:0|0:0,0:0:0:0:
256,271,235881,2,0,P|253:215|273:166,1,100
333,344,236181,1,8,0:0:0:0:
325,123,236331,2,0,P|422:125|488:196,1,200
369,333,236781,2,0,P|378:285|370:235,1,100,8|0,0:0|0:0,0:0:0:0:
163,153,237081,2,0,P|154:202|162:251,1,100
244,92,237381,2,0,P|168:50|104:68,1,150,8|0,0:0|0:0,0:0:0:0:
38,180,237681,6,0,P|113:229|163:153,1,200,4|8,0:0|0:0,0:0:0:0:
352,40,238281,1,0,0:0:0:0:
416,250,238431,1,0,0:0:0:0:
454,125,238581,1,8,0:0:0:0:
187,200,238731,2,0,P|258:135|349:162,1,200
286,327,239181,2,0,L|278:227,1,100,8|0,0:0|0:0,0:0:0:0:
174,0,239481,2,0,L|151:105,1,100
128,280,239781,1,8,0:0:0:0:
363,185,239931,6,0,P|282:133|199:178,1,200
278,228,240381,1,8,0:0:0:0:
278,228,240531,1,0,0:0:0:0:
29,266,240681,6,0,P|109:317|193:272,1,200,0|8,0:0|0:0,0:0:0:0:
113,221,241131,1,8,0:0:0:0:
113,221,241281,6,0,L|119:117,2,100,0|0|8,0:0|0:0|0:0,0:0:0:0:
221,297,241731,1,0,0:0:0:0:
268,166,241881,2,0,P|335:137|405:160,1,150
221,297,242181,2,0,L|198:237,1,50,8|0,0:0|0:0,0:0:0:0:
339,240,242331,2,0,L|314:306,1,50
193,117,242481,6,0,P|178:164|189:212,1,100,4|0,0:0|0:0,0:0:0:0:
412,291,242781,2,8,P|428:245|416:196,1,100,8|0,0:0|0:0,0:0:0:0:
315,66,243081,1,0,0:0:0:0:
337,240,243231,1,0,0:0:0:0:
426,90,243381,1,8,0:0:0:0:
313,332,243531,6,0,P|252:282|277:166,1,200
467,209,243981,1,8,0:0:0:0:
337,240,244131,1,0,0:0:0:0:
315,66,244281,2,0,L|180:54,1,100
62,184,244581,1,8,0:0:0:0:
244,279,244731,1,0,0:0:0:0:
189,175,244881,6,0,P|243:162|316:184,1,100
244,279,245181,1,8,0:0:0:0:
133,84,245331,1,0,0:0:0:0:
363,229,245481,2,0,P|382:182|367:115,1,100
287,169,245781,1,8,0:0:0:0:
441,286,245931,2,0,P|353:327|276:274,1,200
377,135,246381,2,0,P|382:184|363:229,1,100,8|0,0:0|0:0,0:0:0:0:
183,307,246681,2,0,P|178:257|197:213,1,100
276,274,246981,1,8,0:0:0:0:
277,288,247056,1,0,0:0:0:0:
278,302,247131,1,8,0:0:0:0:
279,312,247206,1,0,0:0:0:0:
279,322,247281,6,0,P|227:329|137:313,1,100,4|0,0:0|0:0,0:0:0:0:
45,191,247581,2,0,P|97:184|170:193,1,100,8|0,0:0|0:0,0:0:0:0:
429,173,247881,1,0,0:0:0:0:
256,154,248031,1,0,0:0:0:0:
369,21,248181,1,8,0:0:0:0:
350,249,248331,2,0,P|401:198|506:247,1,200
266,298,248781,2,0,P|252:248|271:191,1,100,8|0,0:0|0:0,0:0:0:0:
425,277,249081,1,0,0:0:0:0:
425,286,249156,1,0,0:0:0:0:
424,295,249231,1,0,0:0:0:0:
424,304,249306,1,0,0:0:0:0:
424,313,249381,1,8,0:0:0:0:
386,292,249456,1,0,0:0:0:0:
343,288,249531,1,8,0:0:0:0:
301,296,249606,1,0,0:0:0:0:
263,316,249681,6,0,P|206:330|153:322,1,100
63,265,249981,1,8,0:0:0:0:
63,265,250131,1,0,0:0:0:0:
78,57,250281,6,0,P|125:44|189:51,1,100
278,108,250581,1,8,0:0:0:0:
278,108,250731,1,0,0:0:0:0:
142,167,250881,1,0,0:0:0:0:
156,190,251031,1,0,0:0:0:0:
130,193,251181,1,8,0:0:0:0:
140,181,251481,5,8,0:0:0:0:
140,181,251556,1,0,0:0:0:0:
140,181,251631,1,0,0:0:0:0:
140,181,251706,1,0,0:0:0:0:
140,181,251781,1,8,0:0:0:0:
206,145,251856,1,0,0:0:0:0:
281,135,251931,1,8,0:0:0:0:
356,141,252006,1,0,0:0:0:0:
425,172,252081,6,0,P|432:222|429:272,1,100,4|0,0:0|0:0,0:0:0:0:
257,330,252381,2,0,P|250:277|255:221,1,100,8|0,0:0|0:0,0:0:0:0:
307,37,252681,1,0,0:0:0:0:
254,231,252831,1,0,0:0:0:0:
178,103,252981,1,8,0:0:0:0:
153,334,253131,6,0,P|143:256|240:196,1,200
325,277,253581,2,0,P|278:292|226:283,1,100,8|0,0:0|0:0,0:0:0:0:
168,120,253881,2,0,P|215:105|267:114,1,100
54,179,254181,1,8,0:0:0:0:
58,171,254256,1,0,0:0:0:0:
62,163,254331,1,0,0:0:0:0:
65,155,254406,1,0,0:0:0:0:
68,147,254481,6,0,L|114:32,1,100,4|0,0:0|0:0,0:0:0:0:
412,33,254781,1,8,0:0:0:0:
344,200,254931,1,0,0:0:0:0:
292,82,255081,2,0,L|173:67,1,100
434,163,255381,1,8,0:0:0:0:
252,249,255531,6,0,P|320:301|428:259,1,200
356,104,255981,2,0,P|339:150|344:200,1,100,8|0,0:0|0:0,0:0:0:0:
495,323,256281,2,0,P|512:277|507:228,1,100
344,200,256581,1,8,0:0:0:0:
315,219,256656,1,0,0:0:0:0:
281,226,256731,1,8,0:0:0:0:
247,220,256806,1,0,0:0:0:0:
216,206,256881,6,0,P|162:195|105:207,1,100,4|0,0:0|0:0,0:0:0:0:
276,31,257181,2,0,P|266:79|277:128,1,100,8|0,0:0|0:0,0:0:0:0:
151,85,257481,1,0,0:0:0:0:
372,79,257631,1,0,0:0:0:0:
170,295,257781,1,8,0:0:0:0:
232,201,257931,6,0,P|279:269|248:378,1,200
72,294,258381,2,0,P|122:290|171:296,1,100,8|0,0:0|0:0,0:0:0:0:
332,203,258681,2,0,P|283:208|233:202,1,100
222,60,258981,1,8,0:0:0:0:
212,94,259056,1,0,0:0:0:0:
212,129,259131,1,8,0:0:0:0:
219,164,259206,1,0,0:0:0:0:
233,202,259281,6,0,P|283:208|332:203,1,100,4|0,0:0|0:0,0:0:0:0:
94,148,259581,1,8,0:0:0:0:
94,148,259731,1,0,0:0:0:0:
250,208,259881,6,0,P|313:206|363:195,1,100
94,148,260181,1,8,0:0:0:0:
94,148,260331,1,0,0:0:0:0:
442,98,260481,5,0,0:0:0:0:
417,75,260556,1,0,0:0:0:0:
385,61,260631,1,0,0:0:0:0:
351,57,260706,1,0,0:0:0:0:
317,62,260781,1,8,0:0:0:0:
286,77,260856,1,0,0:0:0:0:
261,102,260931,1,0,0:0:0:0:
246,134,261006,1,0,0:0:0:0:
237,168,261081,1,0,0:0:0:0:
246,203,261156,1,0,0:0:0:0:
267,232,261231,1,0,0:0:0:0:
302,239,261306,1,0,0:0:0:0:
334,225,261381,1,8,0:0:0:0:
347,193,261456,1,0,0:0:0:0:
343,159,261531,1,8,0:0:0:0:
320,133,261606,1,0,0:0:0:0:
286,125,261681,6,0,P|241:134|170:121,1,100,4|0,0:0|0:0,0:0:0:0:
145,243,261981,2,0,P|190:234|261:247,1,100,8|0,0:0|0:0,0:0:0:0:
43,301,262281,2,0,P|29:256|34:204,1,100
145,243,262581,1,8,0:0:0:0:
180,73,262731,6,0,P|121:151|154:252,1,200
331,174,263181,2,0,P|281:167|231:171,1,100,8|0,0:0|0:0,0:0:0:0:
89,333,263481,2,0,P|138:343|188:336,1,100
267,263,263781,1,8,0:0:0:0:
179,40,263931,6,0,P|256:7|351:64,1,200
142,149,264381,2,0,P|95:121|67:74,1,100,8|0,0:0|0:0,0:0:0:0:
257,114,264681,2,0,P|260:163|245:210,1,100
179,40,264981,1,8,0:0:0:0:
191,319,265131,2,0,P|127:245|142:149,1,200
343,211,265581,2,0,P|295:202|245:210,1,100,8|0,0:0|0:0,0:0:0:0:
463,263,265881,2,0,P|472:214|464:165,1,100
260,271,266181,2,0,P|336:313|400:295,1,150,8|0,0:0|0:0,0:0:0:0:
440,134,266481,6,0,P|351:122|343:211,1,200,4|8,0:0|0:0,0:0:0:0:
160,344,267081,1,0,0:0:0:0:
96,134,267231,1,0,0:0:0:0:
58,259,267381,1,8,0:0:0:0:
325,184,267531,2,0,P|254:249|163:222,1,200
226,57,267981,2,0,L|234:157,1,100,8|0,0:0|0:0,0:0:0:0:
340,384,268281,2,0,L|363:279,1,100
384,104,268581,1,8,0:0:0:0:
149,199,268731,1,0,0:0:0:0:
234,156,268881,5,8,0:1:0:0:
234,156,269031,1,8,0:3:0:0:
483,352,269331,1,8,0:3:0:0:
102,282,270081,1,8,0:3:0:0:
337,14,270531,1,8,0:3:0:0:
436,317,270831,1,8,0:3:0:0:
63,193,271131,1,8,0:3:0:0:
63,193,271281,6,0,P|151:185|199:193,1,100
258,302,271581,2,0,P|170:310|122:302,1,100,8|0,0:0|0:0,0:0:0:0:
63,193,271881,1,0,0:0:0:0:
126,56,272031,1,0,0:0:0:0:
258,302,272181,1,8,0:0:0:0:
257,152,272331,1,0,0:0:0:0:
395,348,272481,6,0,P|402:294|392:249,1,100,4|0,0:0|0:0,0:0:0:0:
134,106,272781,2,0,P|127:160|137:205,1,100,8|0,0:0|0:0,0:0:0:0:
257,152,273081,1,0,0:0:0:0:
258,302,273231,1,0,0:0:0:0:
385,223,273381,1,8,0:0:0:0:
250,156,273531,1,0,0:0:0:0:
368,317,273681,6,0,L|481:332,1,100
296,226,273981,1,8,0:0:0:0:
374,98,274131,1,0,0:0:0:0:
448,228,274281,1,0,0:0:0:0:
348,116,274431,1,0,0:0:0:0:
205,162,274581,1,8,0:0:0:0:
178,309,274731,1,0,0:0:0:0:
317,363,274881,6,0,L|445:357,1,100
283,200,275181,2,0,L|172:193,1,100,8|0,0:0|0:0,0:0:0:0:
371,260,275481,1,0,0:0:0:0:
227,302,275631,1,0,0:0:0:0:
39,151,275781,1,8,0:0:0:0:
182,190,275931,1,8,0:0:0:0:
324,140,276081,6,0,P|334:79|319:16,1,100
187,92,276381,2,0,P|177:153|191:215,1,100,8|0,0:0|0:0,0:0:0:0:
132,331,276681,1,0,0:0:0:0:
36,215,276831,1,0,0:0:0:0:
293,146,276981,1,8,0:0:0:0:
268,294,277131,1,0,0:0:0:0:
129,237,277281,6,0,P|123:177|129:117,1,100,4|0,0:0|0:0,0:0:0:0:
362,250,277581,2,0,P|368:310|362:370,1,100,8|0,0:0|0:0,0:0:0:0:
221,209,277881,1,0,0:0:0:0:
172,350,278031,1,0,0:0:0:0:
28,305,278181,1,8,0:0:0:0:
77,163,278331,1,0,0:0:0:0:
56,324,278481,6,0,B|114:315|114:315|183:329,1,100
271,228,278781,2,0,B|213:237|213:237|144:223,1,100,8|0,0:0|0:0,0:0:0:0:
215,146,279081,1,0,0:0:0:0:
82,234,279231,1,0,0:0:0:0:
212,327,279381,1,8,0:0:0:0:
67,238,279531,1,0,0:0:0:0:
225,323,279681,6,0,P|230:268|223:204,1,100
126,50,279981,2,0,P|121:105|128:169,1,100,8|0,0:0|0:0,0:0:0:0:
325,225,280281,1,0,0:0:0:0:
231,107,280431,1,0,0:0:0:0:
205,305,280581,1,8,0:0:0:0:
251,110,280731,1,0,0:0:0:0:
341,321,280881,6,0,P|324:273|331:201,1,100,4|0,0:0|0:0,0:0:0:0:
460,156,281181,2,0,P|460:206|444:253,1,100,8|0,0:0|0:0,0:0:0:0:
351,135,281481,1,0,0:0:0:0:
469,43,281631,1,0,0:0:0:0:
444,253,281781,1,8,0:0:0:0:
326,159,281931,1,0,0:0:0:0:
195,232,282081,6,0,B|183:293|183:293|198:350,1,100
109,215,282381,2,0,B|121:154|121:154|106:97,1,100,8|0,0:0|0:0,0:0:0:0:
275,273,282681,1,0,0:0:0:0:
216,134,282831,1,0,0:0:0:0:
371,342,282981,1,8,0:0:0:0:
396,194,283131,1,0,0:0:0:0:
178,274,283281,6,0,P|236:262|305:293,1,100
408,184,283581,2,0,P|350:196|281:165,1,100,8|0,0:0|0:0,0:0:0:0:
176,118,283881,1,0,0:0:0:0:
48,197,284031,1,0,0:0:0:0:
301,174,284181,1,8,0:0:0:0:
173,253,284331,1,0,0:0:0:0:
92,35,284481,6,0,P|85:84|97:133,1,100
178,284,284781,2,0,P|189:235|182:186,1,100,8|0,0:0|0:0,0:0:0:0:
73,229,285081,1,0,0:0:0:0:
110,374,285231,1,0,0:0:0:0:
325,247,285381,1,8,0:0:0:0:
180,286,285531,1,0,0:0:0:0:
306,367,285681,6,0,P|356:354|436:375,1,100
512,259,285981,2,0,P|462:272|382:251,1,100,8|0,0:0|0:0,0:0:0:0:
236,145,286281,1,0,0:0:0:0:
379,83,286431,1,0,0:0:0:0:
299,219,286581,1,8,0:0:0:0:
285,62,286731,1,0,0:0:0:0:
405,277,286881,6,0,L|387:179,1,100
205,238,287181,2,0,L|223:139,1,100,8|0,0:0|0:0,0:0:0:0:
241,338,287481,1,0,0:0:0:0:
127,173,287631,1,0,0:0:0:0:
39,352,287781,1,8,0:0:0:0:
135,165,287931,1,0,0:0:0:0:
136,352,288081,6,0,L|134:235,1,100
228,59,288381,2,0,L|230:176,1,100,8|0,0:0|0:0,0:0:0:0:
333,329,288681,1,0,0:0:0:0:
386,136,288831,1,0,0:0:0:0:
233,257,288981,1,8,0:0:0:0:
432,238,289131,1,0,0:0:0:0:
263,131,289281,5,0,0:0:0:0:
354,348,289431,1,0,0:0:0:0:
381,110,289581,1,8,0:0:0:0:
222,282,289731,1,0,0:0:0:0:
454,222,289881,1,0,0:0:0:0:
234,127,290031,1,0,0:0:0:0:
461,231,290181,1,0,0:0:0:0:
229,112,290331,1,0,0:0:0:0:
136,345,290481,6,0,B|158:321|199:342|199:342|217:325|266:299,1,100,4|0,0:0|0:0,0:0:0:0:
