osu file format v14

[General]
AudioFilename: audio.mp3
AudioLeadIn: 0
PreviewTime: 211968
Countdown: 0
SampleSet: Normal
StackLeniency: 0.7
Mode: 3
LetterboxInBreaks: 0
SpecialStyle: 0
WidescreenStoryboard: 0

[Editor]
DistanceSpacing: 1
BeatDivisor: 4
GridSize: 4
TimelineZoom: 1.9

[Metadata]
Title:Pretty Girls with Mental Disorders
TitleUnicode:Pretty Girls with Mental Disorders
Artist:Helblinde
ArtistUnicode:Helblinde
Creator:- Theya -
Version:MX
Source:デート・ア・ライブ
Tags:Date A Live
BeatmapID:2100831
BeatmapSetID:1003765

[Difficulty]
HPDrainRate:8
CircleSize:4
OverallDifficulty:8
ApproachRate:5
SliderMultiplier:1.4
SliderTickRate:1

[Events]
//Background and Video events
0,0,"date_a_live_itsuka_kotori_by_akw_art_design-d6biist.jpg",0,0
//Break Periods
2,194168,199368
//Storyboard Layer 0 (Background)
//Storyboard Layer 1 (Fail)
//Storyboard Layer 2 (Pass)
//Storyboard Layer 3 (Foreground)
//Storyboard Sound Samples

[TimingPoints]
5866,300,4,1,0,0,1,0
6166,300,4,1,0,0,1,0
73966,-100,4,1,0,0,0,1
94366,-100,4,1,0,0,0,0
132768,315.789473684211,4,1,0,0,1,0
142368,300,4,1,0,0,1,0
212568,-100,4,1,0,0,0,1
232968,-100,4,1,0,0,0,0

[HitObjects]
192,192,5866,5,0,0:0:0:0:
320,192,5866,1,0,0:0:0:0:
448,192,5866,1,0,0:0:0:0:
192,192,6166,1,0,0:0:0:0:
64,192,6166,1,0,0:0:0:0:
448,192,6166,1,0,0:0:0:0:
192,192,6316,1,0,0:0:0:0:
320,192,6466,1,0,0:0:0:0:
64,192,6466,1,0,0:0:0:0:
192,192,6466,1,0,0:0:0:0:
448,192,6466,1,0,0:0:0:0:
320,192,6616,1,0,0:0:0:0:
192,192,6766,1,0,0:0:0:0:
64,192,6766,1,0,0:0:0:0:
448,192,6766,1,0,0:0:0:0:
448,192,6916,1,0,0:0:0:0:
64,192,7066,1,0,0:0:0:0:
192,192,7066,1,0,0:0:0:0:
320,192,7066,1,0,0:0:0:0:
448,192,7066,1,0,0:0:0:0:
192,192,7216,1,0,0:0:0:0:
64,192,7366,1,0,0:0:0:0:
320,192,7366,1,0,0:0:0:0:
448,192,7366,1,0,0:0:0:0:
320,192,7516,1,0,0:0:0:0:
192,192,7666,1,0,0:0:0:0:
64,192,7666,1,0,0:0:0:0:
320,192,7666,1,0,0:0:0:0:
448,192,7666,1,0,0:0:0:0:
448,192,7816,1,0,0:0:0:0:
192,192,7966,1,0,0:0:0:0:
64,192,7966,1,0,0:0:0:0:
448,192,7966,1,0,0:0:0:0:
192,192,8116,1,0,0:0:0:0:
320,192,8266,1,0,0:0:0:0:
64,192,8266,1,0,0:0:0:0:
192,192,8266,1,0,0:0:0:0:
448,192,8266,1,0,0:0:0:0:
320,192,8416,1,0,0:0:0:0:
192,192,8566,1,0,0:0:0:0:
64,192,8566,1,0,0:0:0:0:
448,192,8566,1,0,0:0:0:0:
448,192,8716,1,0,0:0:0:0:
64,192,8866,1,0,0:0:0:0:
192,192,8866,1,0,0:0:0:0:
320,192,8866,1,0,0:0:0:0:
448,192,8866,1,0,0:0:0:0:
192,192,9016,1,0,0:0:0:0:
64,192,9166,1,0,0:0:0:0:
320,192,9166,1,0,0:0:0:0:
448,192,9166,1,0,0:0:0:0:
320,192,9316,1,0,0:0:0:0:
192,192,9466,1,0,0:0:0:0:
64,192,9466,1,0,0:0:0:0:
320,192,9466,1,0,0:0:0:0:
448,192,9466,1,0,0:0:0:0:
64,192,9616,1,0,0:0:0:0:
320,192,9766,1,0,0:0:0:0:
64,192,9766,1,0,0:0:0:0:
192,192,9766,1,0,0:0:0:0:
192,192,9916,1,0,0:0:0:0:
192,192,10066,1,0,0:0:0:0:
448,192,10066,1,0,0:0:0:0:
320,192,10066,1,0,0:0:0:0:
64,192,10066,1,0,0:0:0:0:
320,192,10216,1,0,0:0:0:0:
448,192,10366,1,0,0:0:0:0:
64,192,10366,1,0,0:0:0:0:
192,192,10366,1,0,0:0:0:0:
320,192,10516,1,0,0:0:0:0:
320,192,10666,1,0,0:0:0:0:
448,192,10666,1,0,0:0:0:0:
64,192,10666,1,0,0:0:0:0:
192,192,10666,1,0,0:0:0:0:
192,192,10816,1,0,0:0:0:0:
64,192,10816,1,0,0:0:0:0:
448,192,10966,1,0,0:0:0:0:
320,192,10966,1,0,0:0:0:0:
192,192,10966,1,0,0:0:0:0:
320,192,11116,1,0,0:0:0:0:
320,192,11266,1,0,0:0:0:0:
448,192,11266,1,0,0:0:0:0:
192,192,11266,1,0,0:0:0:0:
64,192,11266,1,0,0:0:0:0:
192,192,11416,1,0,0:0:0:0:
64,192,11566,1,0,0:0:0:0:
192,192,11566,1,0,0:0:0:0:
320,192,11566,1,0,0:0:0:0:
320,192,11716,1,0,0:0:0:0:
64,192,11866,1,0,0:0:0:0:
320,192,11866,1,0,0:0:0:0:
448,192,11866,1,0,0:0:0:0:
192,192,11866,1,0,0:0:0:0:
192,192,12016,1,0,0:0:0:0:
64,192,12166,1,0,0:0:0:0:
320,192,12166,1,0,0:0:0:0:
448,192,12166,1,0,0:0:0:0:
320,192,12316,1,0,0:0:0:0:
192,192,12466,1,0,0:0:0:0:
64,192,12466,1,0,0:0:0:0:
448,192,12466,1,0,0:0:0:0:
320,192,12466,1,0,0:0:0:0:
64,192,12616,1,0,0:0:0:0:
192,192,12766,1,0,0:0:0:0:
320,192,12766,1,0,0:0:0:0:
448,192,12766,1,0,0:0:0:0:
192,192,12916,1,0,0:0:0:0:
64,192,13066,1,0,0:0:0:0:
320,192,13066,1,0,0:0:0:0:
448,192,13066,1,0,0:0:0:0:
192,192,13066,1,0,0:0:0:0:
448,192,13216,1,0,0:0:0:0:
320,192,13366,1,0,0:0:0:0:
192,192,13366,1,0,0:0:0:0:
64,192,13366,1,0,0:0:0:0:
192,192,13516,1,0,0:0:0:0:
64,192,13666,1,0,0:0:0:0:
320,192,13666,1,0,0:0:0:0:
448,192,13666,1,0,0:0:0:0:
192,192,13666,1,0,0:0:0:0:
320,192,13816,1,0,0:0:0:0:
192,192,13966,1,0,0:0:0:0:
448,192,13966,1,0,0:0:0:0:
64,192,13966,1,0,0:0:0:0:
192,192,14116,1,0,0:0:0:0:
192,192,14266,1,0,0:0:0:0:
448,192,14266,1,0,0:0:0:0:
320,192,14266,1,0,0:0:0:0:
64,192,14266,1,0,0:0:0:0:
320,192,14416,1,0,0:0:0:0:
448,192,14566,1,0,0:0:0:0:
64,192,14566,1,0,0:0:0:0:
192,192,14566,1,0,0:0:0:0:
320,192,14716,1,0,0:0:0:0:
320,192,14866,1,0,0:0:0:0:
448,192,14866,1,0,0:0:0:0:
64,192,14866,1,0,0:0:0:0:
192,192,14866,1,0,0:0:0:0:
64,192,15016,1,0,0:0:0:0:
448,192,15166,1,0,0:0:0:0:
320,192,15166,1,0,0:0:0:0:
192,192,15166,1,0,0:0:0:0:
320,192,15316,1,0,0:0:0:0:
192,192,15466,1,0,0:0:0:0:
448,192,15616,1,0,0:0:0:0:
64,192,15766,1,0,0:0:0:0:
192,192,15766,1,0,0:0:0:0:
320,192,15766,1,0,0:0:0:0:
320,192,15916,1,0,0:0:0:0:
64,192,16066,1,0,0:0:0:0:
320,192,16066,1,0,0:0:0:0:
448,192,16066,1,0,0:0:0:0:
192,192,16066,1,0,0:0:0:0:
192,192,16216,1,0,0:0:0:0:
64,192,16366,1,0,0:0:0:0:
320,192,16366,1,0,0:0:0:0:
448,192,16366,1,0,0:0:0:0:
320,192,16516,1,0,0:0:0:0:
192,192,16666,1,0,0:0:0:0:
64,192,16666,1,0,0:0:0:0:
448,192,16666,1,0,0:0:0:0:
320,192,16666,1,0,0:0:0:0:
64,192,16816,1,0,0:0:0:0:
192,192,16966,1,0,0:0:0:0:
320,192,16966,1,0,0:0:0:0:
448,192,16966,1,0,0:0:0:0:
192,192,17116,1,0,0:0:0:0:
64,192,17266,1,0,0:0:0:0:
320,192,17266,1,0,0:0:0:0:
448,192,17266,1,0,0:0:0:0:
192,192,17266,1,0,0:0:0:0:
448,192,17416,1,0,0:0:0:0:
320,192,17566,1,0,0:0:0:0:
448,192,17566,1,0,0:0:0:0:
64,192,17566,1,0,0:0:0:0:
192,192,17716,1,0,0:0:0:0:
64,192,17866,1,0,0:0:0:0:
320,192,17866,1,0,0:0:0:0:
448,192,17866,1,0,0:0:0:0:
192,192,17866,1,0,0:0:0:0:
320,192,18016,1,0,0:0:0:0:
192,192,18166,1,0,0:0:0:0:
64,192,18166,1,0,0:0:0:0:
448,192,18166,1,0,0:0:0:0:
192,192,18316,1,0,0:0:0:0:
64,192,18466,1,0,0:0:0:0:
192,192,18466,1,0,0:0:0:0:
320,192,18466,1,0,0:0:0:0:
448,192,18466,1,0,0:0:0:0:
320,192,18616,1,0,0:0:0:0:
192,192,18766,1,0,0:0:0:0:
320,192,18766,1,0,0:0:0:0:
448,192,18766,1,0,0:0:0:0:
192,192,18916,1,0,0:0:0:0:
64,192,19066,1,0,0:0:0:0:
320,192,19066,1,0,0:0:0:0:
448,192,19066,1,0,0:0:0:0:
192,192,19066,1,0,0:0:0:0:
320,192,19216,1,0,0:0:0:0:
192,192,19366,1,0,0:0:0:0:
64,192,19366,1,0,0:0:0:0:
448,192,19366,1,0,0:0:0:0:
192,192,19516,1,0,0:0:0:0:
320,192,19666,1,0,0:0:0:0:
64,192,19666,1,0,0:0:0:0:
192,192,19666,1,0,0:0:0:0:
448,192,19666,1,0,0:0:0:0:
320,192,19816,1,0,0:0:0:0:
192,192,19966,1,0,0:0:0:0:
64,192,19966,1,0,0:0:0:0:
448,192,19966,1,0,0:0:0:0:
320,192,20116,1,0,0:0:0:0:
64,192,20266,1,0,0:0:0:0:
192,192,20266,1,0,0:0:0:0:
320,192,20266,1,0,0:0:0:0:
448,192,20266,1,0,0:0:0:0:
64,192,20416,1,0,0:0:0:0:
192,192,20566,1,0,0:0:0:0:
320,192,20566,1,0,0:0:0:0:
448,192,20566,1,0,0:0:0:0:
320,192,20716,1,0,0:0:0:0:
192,192,20866,1,0,0:0:0:0:
64,192,20866,1,0,0:0:0:0:
320,192,20866,1,0,0:0:0:0:
448,192,20866,1,0,0:0:0:0:
192,192,21016,1,0,0:0:0:0:
320,192,21166,1,0,0:0:0:0:
448,192,21166,1,0,0:0:0:0:
64,192,21166,1,0,0:0:0:0:
320,192,21316,1,0,0:0:0:0:
448,192,21466,1,0,0:0:0:0:
192,192,21466,1,0,0:0:0:0:
64,192,21466,1,0,0:0:0:0:
320,192,21466,1,0,0:0:0:0:
192,192,21616,1,0,0:0:0:0:
448,192,21766,1,0,0:0:0:0:
320,192,21766,1,0,0:0:0:0:
64,192,21766,1,0,0:0:0:0:
320,192,21916,1,0,0:0:0:0:
448,192,22066,1,0,0:0:0:0:
320,192,22066,1,0,0:0:0:0:
192,192,22066,1,0,0:0:0:0:
64,192,22066,1,0,0:0:0:0:
64,192,22216,1,0,0:0:0:0:
448,192,22366,1,0,0:0:0:0:
320,192,22366,1,0,0:0:0:0:
192,192,22366,1,0,0:0:0:0:
192,192,22516,1,0,0:0:0:0:
448,192,22666,1,0,0:0:0:0:
192,192,22666,1,0,0:0:0:0:
64,192,22666,1,0,0:0:0:0:
320,192,22666,1,0,0:0:0:0:
448,192,22816,1,0,0:0:0:0:
64,192,22966,1,0,0:0:0:0:
192,192,22966,1,0,0:0:0:0:
320,192,22966,1,0,0:0:0:0:
192,192,23116,1,0,0:0:0:0:
448,192,23266,1,0,0:0:0:0:
192,192,23266,1,0,0:0:0:0:
64,192,23266,1,0,0:0:0:0:
320,192,23266,1,0,0:0:0:0:
320,192,23416,1,0,0:0:0:0:
192,192,23566,1,0,0:0:0:0:
64,192,23566,1,0,0:0:0:0:
448,192,23566,1,0,0:0:0:0:
192,192,23716,1,0,0:0:0:0:
64,192,23866,1,0,0:0:0:0:
192,192,23866,1,0,0:0:0:0:
320,192,23866,1,0,0:0:0:0:
448,192,23866,1,0,0:0:0:0:
320,192,24016,1,0,0:0:0:0:
192,192,24166,1,0,0:0:0:0:
64,192,24166,1,0,0:0:0:0:
448,192,24166,1,0,0:0:0:0:
320,192,24316,1,0,0:0:0:0:
448,192,24466,1,0,0:0:0:0:
192,192,24616,1,0,0:0:0:0:
64,192,24766,1,0,0:0:0:0:
448,192,24916,1,0,0:0:0:0:
192,192,25066,1,0,0:0:0:0:
320,192,25216,1,0,0:0:0:0:
320,192,25366,1,0,0:0:0:0:
448,192,25366,1,0,0:0:0:0:
64,192,25366,1,0,0:0:0:0:
192,192,25516,1,0,0:0:0:0:
192,192,25666,1,0,0:0:0:0:
448,192,25666,1,0,0:0:0:0:
320,192,25666,1,0,0:0:0:0:
64,192,25666,1,0,0:0:0:0:
192,192,25816,1,0,0:0:0:0:
320,192,25966,1,0,0:0:0:0:
448,192,25966,1,0,0:0:0:0:
64,192,25966,1,0,0:0:0:0:
64,192,26116,1,0,0:0:0:0:
448,192,26266,1,0,0:0:0:0:
320,192,26266,1,0,0:0:0:0:
192,192,26266,1,0,0:0:0:0:
64,192,26266,1,0,0:0:0:0:
320,192,26416,1,0,0:0:0:0:
448,192,26566,1,0,0:0:0:0:
192,192,26566,1,0,0:0:0:0:
64,192,26566,1,0,0:0:0:0:
192,192,26716,1,0,0:0:0:0:
320,192,26866,1,0,0:0:0:0:
448,192,26866,1,0,0:0:0:0:
192,192,26866,1,0,0:0:0:0:
64,192,26866,1,0,0:0:0:0:
64,192,27016,1,0,0:0:0:0:
320,192,27166,1,0,0:0:0:0:
448,192,27166,1,0,0:0:0:0:
64,192,27166,1,0,0:0:0:0:
320,192,27316,1,0,0:0:0:0:
192,192,27466,1,0,0:0:0:0:
448,192,27466,1,0,0:0:0:0:
320,192,27466,1,0,0:0:0:0:
64,192,27466,1,0,0:0:0:0:
192,192,27616,1,0,0:0:0:0:
320,192,27766,1,0,0:0:0:0:
448,192,27766,1,0,0:0:0:0:
64,192,27766,1,0,0:0:0:0:
64,192,27916,1,0,0:0:0:0:
448,192,28066,1,0,0:0:0:0:
320,192,28066,1,0,0:0:0:0:
192,192,28066,1,0,0:0:0:0:
64,192,28066,1,0,0:0:0:0:
320,192,28216,1,0,0:0:0:0:
448,192,28366,1,0,0:0:0:0:
192,192,28366,1,0,0:0:0:0:
64,192,28366,1,0,0:0:0:0:
192,192,28516,1,0,0:0:0:0:
320,192,28666,1,0,0:0:0:0:
448,192,28666,1,0,0:0:0:0:
192,192,28666,1,0,0:0:0:0:
64,192,28666,1,0,0:0:0:0:
448,192,28816,1,0,0:0:0:0:
192,192,28966,1,0,0:0:0:0:
448,192,28966,1,0,0:0:0:0:
320,192,28966,1,0,0:0:0:0:
320,192,29116,1,0,0:0:0:0:
320,192,29266,1,0,0:0:0:0:
64,192,29266,1,0,0:0:0:0:
192,192,29266,1,0,0:0:0:0:
448,192,29266,1,0,0:0:0:0:
192,192,29416,1,0,0:0:0:0:
64,192,29566,1,0,0:0:0:0:
448,192,29566,1,0,0:0:0:0:
320,192,29566,1,0,0:0:0:0:
192,192,29716,1,0,0:0:0:0:
192,192,29866,1,0,0:0:0:0:
64,192,29866,1,0,0:0:0:0:
448,192,29866,1,0,0:0:0:0:
320,192,29866,1,0,0:0:0:0:
448,192,30016,1,0,0:0:0:0:
64,192,30166,1,0,0:0:0:0:
192,192,30166,1,0,0:0:0:0:
320,192,30166,1,0,0:0:0:0:
192,192,30316,1,0,0:0:0:0:
192,192,30466,1,0,0:0:0:0:
64,192,30466,1,0,0:0:0:0:
320,192,30466,1,0,0:0:0:0:
448,192,30466,1,0,0:0:0:0:
320,192,30616,1,0,0:0:0:0:
448,192,30766,1,0,0:0:0:0:
320,192,30766,1,0,0:0:0:0:
192,192,30766,1,0,0:0:0:0:
192,192,30916,1,0,0:0:0:0:
448,192,31066,1,0,0:0:0:0:
192,192,31066,1,0,0:0:0:0:
64,192,31066,1,0,0:0:0:0:
320,192,31066,1,0,0:0:0:0:
320,192,31216,1,0,0:0:0:0:
448,192,31366,1,0,0:0:0:0:
192,192,31366,1,0,0:0:0:0:
64,192,31366,1,0,0:0:0:0:
192,192,31516,1,0,0:0:0:0:
320,192,31666,1,0,0:0:0:0:
448,192,31666,1,0,0:0:0:0:
64,192,31666,1,0,0:0:0:0:
192,192,31666,1,0,0:0:0:0:
448,192,31816,1,0,0:0:0:0:
320,192,31966,1,0,0:0:0:0:
192,192,31966,1,0,0:0:0:0:
64,192,31966,1,0,0:0:0:0:
320,192,32116,1,0,0:0:0:0:
448,192,32266,1,0,0:0:0:0:
192,192,32266,1,0,0:0:0:0:
64,192,32266,1,0,0:0:0:0:
320,192,32266,1,0,0:0:0:0:
64,192,32416,1,0,0:0:0:0:
192,192,32566,1,0,0:0:0:0:
320,192,32566,1,0,0:0:0:0:
448,192,32566,1,0,0:0:0:0:
320,192,32716,1,0,0:0:0:0:
448,192,32866,1,0,0:0:0:0:
192,192,32866,1,0,0:0:0:0:
64,192,32866,1,0,0:0:0:0:
320,192,32866,1,0,0:0:0:0:
192,192,33016,1,0,0:0:0:0:
320,192,33166,1,0,0:0:0:0:
64,192,33166,1,0,0:0:0:0:
448,192,33166,1,0,0:0:0:0:
320,192,33316,1,0,0:0:0:0:
320,192,33466,1,0,0:0:0:0:
64,192,33466,1,0,0:0:0:0:
192,192,33466,1,0,0:0:0:0:
448,192,33466,1,0,0:0:0:0:
192,192,33616,1,0,0:0:0:0:
320,192,33766,1,0,0:0:0:0:
448,192,33766,1,0,0:0:0:0:
192,192,33841,1,0,0:0:0:0:
64,192,33916,1,0,0:0:0:0:
448,192,33991,1,0,0:0:0:0:
320,192,34066,1,0,0:0:0:0:
448,192,34066,1,0,0:0:0:0:
64,192,34066,1,0,0:0:0:0:
192,192,34141,1,0,0:0:0:0:
64,192,34216,1,0,0:0:0:0:
320,192,34291,1,0,0:0:0:0:
448,192,34366,1,0,0:0:0:0:
192,192,34366,1,0,0:0:0:0:
64,192,34441,1,0,0:0:0:0:
320,192,34516,1,0,0:0:0:0:
192,192,34591,1,0,0:0:0:0:
192,192,34666,1,0,0:0:0:0:
64,192,34666,1,0,0:0:0:0:
448,192,34666,1,0,0:0:0:0:
320,192,34741,1,0,0:0:0:0:
192,192,34816,1,0,0:0:0:0:
64,192,34891,1,0,0:0:0:0:
320,192,34966,1,0,0:0:0:0:
448,192,34966,1,0,0:0:0:0:
192,192,35041,1,0,0:0:0:0:
64,192,35116,1,0,0:0:0:0:
320,192,35191,1,0,0:0:0:0:
448,192,35266,1,0,0:0:0:0:
192,192,35266,1,0,0:0:0:0:
64,192,35266,1,0,0:0:0:0:
320,192,35341,1,0,0:0:0:0:
192,192,35416,1,0,0:0:0:0:
320,192,35491,1,0,0:0:0:0:
448,192,35566,1,0,0:0:0:0:
64,192,35566,1,0,0:0:0:0:
192,192,35641,1,0,0:0:0:0:
320,192,35716,1,0,0:0:0:0:
448,192,35791,1,0,0:0:0:0:
192,192,35866,1,0,0:0:0:0:
64,192,35866,1,0,0:0:0:0:
320,192,35866,1,0,0:0:0:0:
192,192,35941,1,0,0:0:0:0:
320,192,36016,1,0,0:0:0:0:
448,192,36091,1,0,0:0:0:0:
192,192,36166,1,0,0:0:0:0:
64,192,36166,1,0,0:0:0:0:
320,192,36241,1,0,0:0:0:0:
192,192,36316,1,0,0:0:0:0:
320,192,36391,1,0,0:0:0:0:
448,192,36466,1,0,0:0:0:0:
192,192,36466,1,0,0:0:0:0:
64,192,36466,1,0,0:0:0:0:
192,192,36541,1,0,0:0:0:0:
320,192,36616,1,0,0:0:0:0:
448,192,36691,1,0,0:0:0:0:
320,192,36766,1,0,0:0:0:0:
192,192,36766,1,0,0:0:0:0:
64,192,36841,1,0,0:0:0:0:
320,192,36916,1,0,0:0:0:0:
448,192,36991,1,0,0:0:0:0:
320,192,37066,1,0,0:0:0:0:
192,192,37066,1,0,0:0:0:0:
64,192,37066,1,0,0:0:0:0:
192,192,37141,1,0,0:0:0:0:
320,192,37216,1,0,0:0:0:0:
448,192,37291,1,0,0:0:0:0:
64,192,37366,1,0,0:0:0:0:
192,192,37366,1,0,0:0:0:0:
448,192,37441,1,0,0:0:0:0:
320,192,37516,1,0,0:0:0:0:
192,192,37591,1,0,0:0:0:0:
320,192,37666,1,0,0:0:0:0:
448,192,37666,1,0,0:0:0:0:
64,192,37666,1,0,0:0:0:0:
320,192,37741,1,0,0:0:0:0:
192,192,37816,1,0,0:0:0:0:
320,192,37891,1,0,0:0:0:0:
448,192,37966,1,0,0:0:0:0:
64,192,37966,1,0,0:0:0:0:
192,192,38041,1,0,0:0:0:0:
320,192,38116,1,0,0:0:0:0:
448,192,38191,1,0,0:0:0:0:
320,192,38266,1,0,0:0:0:0:
192,192,38266,1,0,0:0:0:0:
64,192,38266,1,0,0:0:0:0:
192,192,38341,1,0,0:0:0:0:
320,192,38416,1,0,0:0:0:0:
448,192,38491,1,0,0:0:0:0:
64,192,38566,1,0,0:0:0:0:
320,192,38566,1,0,0:0:0:0:
192,192,38641,1,0,0:0:0:0:
320,192,38716,1,0,0:0:0:0:
448,192,38791,1,0,0:0:0:0:
192,192,38866,1,0,0:0:0:0:
320,192,38866,1,0,0:0:0:0:
448,192,38866,1,0,0:0:0:0:
64,192,38941,1,0,0:0:0:0:
320,192,39016,1,0,0:0:0:0:
192,192,39091,1,0,0:0:0:0:
320,192,39166,1,0,0:0:0:0:
448,192,39166,1,0,0:0:0:0:
64,192,39241,1,0,0:0:0:0:
192,192,39316,1,0,0:0:0:0:
448,192,39391,1,0,0:0:0:0:
320,192,39466,1,0,0:0:0:0:
192,192,39466,1,0,0:0:0:0:
64,192,39466,1,0,0:0:0:0:
320,192,39541,1,0,0:0:0:0:
448,192,39616,1,0,0:0:0:0:
192,192,39691,1,0,0:0:0:0:
64,192,39766,1,0,0:0:0:0:
448,192,39766,1,0,0:0:0:0:
320,192,39841,1,0,0:0:0:0:
192,192,39916,1,0,0:0:0:0:
320,192,39991,1,0,0:0:0:0:
448,192,40066,1,0,0:0:0:0:
64,192,40066,1,0,0:0:0:0:
192,192,40066,1,0,0:0:0:0:
192,192,40141,1,0,0:0:0:0:
320,192,40216,1,0,0:0:0:0:
448,192,40291,1,0,0:0:0:0:
320,192,40366,1,0,0:0:0:0:
192,192,40366,1,0,0:0:0:0:
64,192,40441,1,0,0:0:0:0:
320,192,40516,1,0,0:0:0:0:
448,192,40591,1,0,0:0:0:0:
320,192,40666,1,0,0:0:0:0:
192,192,40666,1,0,0:0:0:0:
64,192,40666,1,0,0:0:0:0:
192,192,40741,1,0,0:0:0:0:
320,192,40816,1,0,0:0:0:0:
448,192,40891,1,0,0:0:0:0:
192,192,40966,1,0,0:0:0:0:
64,192,40966,1,0,0:0:0:0:
448,192,41041,1,0,0:0:0:0:
320,192,41116,1,0,0:0:0:0:
192,192,41191,1,0,0:0:0:0:
320,192,41266,1,0,0:0:0:0:
448,192,41266,1,0,0:0:0:0:
192,192,41266,1,0,0:0:0:0:
64,192,41341,1,0,0:0:0:0:
320,192,41416,1,0,0:0:0:0:
192,192,41491,1,0,0:0:0:0:
64,192,41566,1,0,0:0:0:0:
448,192,41566,1,0,0:0:0:0:
320,192,41641,1,0,0:0:0:0:
192,192,41716,1,0,0:0:0:0:
320,192,41791,1,0,0:0:0:0:
448,192,41866,1,0,0:0:0:0:
192,192,41866,1,0,0:0:0:0:
64,192,41866,1,0,0:0:0:0:
192,192,41941,1,0,0:0:0:0:
64,192,42016,1,0,0:0:0:0:
320,192,42091,1,0,0:0:0:0:
448,192,42166,1,0,0:0:0:0:
64,192,42166,1,0,0:0:0:0:
192,192,42241,1,0,0:0:0:0:
320,192,42316,1,0,0:0:0:0:
192,192,42391,1,0,0:0:0:0:
64,192,42466,1,0,0:0:0:0:
320,192,42466,1,0,0:0:0:0:
448,192,42466,1,0,0:0:0:0:
320,192,42616,1,0,0:0:0:0:
192,192,42766,1,0,0:0:0:0:
64,192,42766,1,0,0:0:0:0:
320,192,42766,1,0,0:0:0:0:
192,192,42916,1,0,0:0:0:0:
320,192,42916,1,0,0:0:0:0:
448,192,42916,1,0,0:0:0:0:
64,192,43066,1,0,0:0:0:0:
192,192,43066,1,0,0:0:0:0:
448,192,43066,1,0,0:0:0:0:
320,192,43216,1,0,0:0:0:0:
192,192,43366,1,0,0:0:0:0:
64,192,43366,1,0,0:0:0:0:
320,192,43366,1,0,0:0:0:0:
192,192,43516,1,0,0:0:0:0:
320,192,43666,1,0,0:0:0:0:
448,192,43666,1,0,0:0:0:0:
192,192,43816,1,0,0:0:0:0:
320,192,43966,1,0,0:0:0:0:
64,192,44116,1,0,0:0:0:0:
320,192,44266,1,0,0:0:0:0:
448,192,44266,1,0,0:0:0:0:
64,192,44416,1,0,0:0:0:0:
448,192,44566,1,0,0:0:0:0:
320,192,44716,1,0,0:0:0:0:
64,192,44866,1,0,0:0:0:0:
192,192,44866,1,0,0:0:0:0:
448,192,45016,1,0,0:0:0:0:
192,192,45166,1,0,0:0:0:0:
448,192,45316,1,0,0:0:0:0:
192,192,45466,1,0,0:0:0:0:
64,192,45466,1,0,0:0:0:0:
320,192,45616,1,0,0:0:0:0:
448,192,45766,1,0,0:0:0:0:
192,192,45916,1,0,0:0:0:0:
64,192,46066,1,0,0:0:0:0:
448,192,46066,1,0,0:0:0:0:
192,192,46216,1,0,0:0:0:0:
320,192,46366,1,0,0:0:0:0:
192,192,46516,1,0,0:0:0:0:
64,192,46666,1,0,0:0:0:0:
448,192,46666,1,0,0:0:0:0:
320,192,46816,1,0,0:0:0:0:
192,192,46966,1,0,0:0:0:0:
448,192,47116,1,0,0:0:0:0:
192,192,47266,1,0,0:0:0:0:
320,192,47266,1,0,0:0:0:0:
64,192,47416,1,0,0:0:0:0:
320,192,47566,1,0,0:0:0:0:
192,192,47716,1,0,0:0:0:0:
320,192,47866,1,0,0:0:0:0:
448,192,47866,1,0,0:0:0:0:
64,192,48016,1,0,0:0:0:0:
192,192,48166,1,0,0:0:0:0:
320,192,48166,1,0,0:0:0:0:
448,192,48166,1,0,0:0:0:0:
320,192,48316,1,0,0:0:0:0:
192,192,48466,1,0,0:0:0:0:
64,192,48466,1,0,0:0:0:0:
320,192,48616,1,0,0:0:0:0:
448,192,48766,1,0,0:0:0:0:
192,192,48916,1,0,0:0:0:0:
64,192,49066,1,0,0:0:0:0:
448,192,49066,1,0,0:0:0:0:
320,192,49216,1,0,0:0:0:0:
192,192,49366,1,0,0:0:0:0:
320,192,49516,1,0,0:0:0:0:
448,192,49666,1,0,0:0:0:0:
64,192,49666,1,0,0:0:0:0:
320,192,49816,1,0,0:0:0:0:
64,192,49966,1,0,0:0:0:0:
320,192,50116,1,0,0:0:0:0:
192,192,50266,1,0,0:0:0:0:
64,192,50266,1,0,0:0:0:0:
448,192,50416,1,0,0:0:0:0:
320,192,50566,1,0,0:0:0:0:
192,192,50566,1,0,0:0:0:0:
64,192,50566,1,0,0:0:0:0:
192,192,51016,1,0,0:0:0:0:
320,192,51016,1,0,0:0:0:0:
448,192,51016,1,0,0:0:0:0:
192,192,51466,1,0,0:0:0:0:
64,192,51466,1,0,0:0:0:0:
448,192,51466,1,0,0:0:0:0:
320,192,51766,1,0,0:0:0:0:
192,192,51766,1,0,0:0:0:0:
448,192,51766,1,0,0:0:0:0:
64,192,51916,1,0,0:0:0:0:
192,192,51916,1,0,0:0:0:0:
448,192,51916,1,0,0:0:0:0:
192,192,52066,1,0,0:0:0:0:
64,192,52066,1,0,0:0:0:0:
320,192,52066,1,0,0:0:0:0:
64,192,52366,1,0,0:0:0:0:
448,192,52366,1,0,0:0:0:0:
192,192,52366,128,0,52516:0:0:0:0:
320,192,52516,128,0,52666:0:0:0:0:
192,192,52666,128,0,52816:0:0:0:0:
448,192,52816,128,0,53116:0:0:0:0:
64,192,53116,128,0,53266:0:0:0:0:
448,192,53266,128,0,53416:0:0:0:0:
64,192,53416,128,0,53566:0:0:0:0:
448,192,53566,128,0,53716:0:0:0:0:
192,192,53716,128,0,53866:0:0:0:0:
320,192,53866,128,0,54016:0:0:0:0:
64,192,54016,128,0,54316:0:0:0:0:
320,192,54316,128,0,54466:0:0:0:0:
64,192,54466,128,0,54616:0:0:0:0:
320,192,54616,128,0,54766:0:0:0:0:
64,192,54766,128,0,54916:0:0:0:0:
448,192,54916,128,0,55066:0:0:0:0:
192,192,55066,128,0,55216:0:0:0:0:
448,192,55216,128,0,55516:0:0:0:0:
64,192,55516,128,0,55816:0:0:0:0:
320,192,55816,128,0,56116:0:0:0:0:
192,192,56116,128,0,56416:0:0:0:0:
64,192,56416,128,0,56716:0:0:0:0:
448,192,56716,128,0,57016:0:0:0:0:
192,192,57016,128,0,57466:0:0:0:0:
448,192,57466,128,0,57766:0:0:0:0:
64,192,57766,128,0,58066:0:0:0:0:
320,192,58066,1,0,0:0:0:0:
320,192,58216,128,0,58666:0:0:0:0:
192,192,58666,128,0,58966:0:0:0:0:
448,192,58966,128,0,59266:0:0:0:0:
64,192,59266,128,0,59566:0:0:0:0:
320,192,59566,128,0,59866:0:0:0:0:
192,192,59866,128,0,60166:0:0:0:0:
64,192,60166,128,0,60766:0:0:0:0:
320,192,60766,128,0,60916:0:0:0:0:
192,192,60916,128,0,61066:0:0:0:0:
448,192,61066,128,0,61216:0:0:0:0:
64,192,61216,128,0,61966:0:0:0:0:
320,192,61966,128,0,62116:0:0:0:0:
192,192,62116,128,0,62266:0:0:0:0:
320,192,62266,128,0,62416:0:0:0:0:
64,192,62416,128,0,62566:0:0:0:0:
448,192,62566,128,0,62716:0:0:0:0:
192,192,62566,1,0,0:0:0:0:
320,192,62716,128,0,62866:0:0:0:0:
192,192,62866,128,0,63016:0:0:0:0:
64,192,62866,1,0,0:0:0:0:
320,192,63016,128,0,63166:0:0:0:0:
192,192,63166,128,0,63316:0:0:0:0:
64,192,63166,1,0,0:0:0:0:
448,192,63316,128,0,63466:0:0:0:0:
64,192,63466,128,0,63616:0:0:0:0:
192,192,63466,1,0,0:0:0:0:
320,192,63616,128,0,63916:0:0:0:0:
448,192,63766,1,0,0:0:0:0:
192,192,63766,1,0,0:0:0:0:
64,192,63916,128,0,64066:0:0:0:0:
448,192,64066,128,0,64216:0:0:0:0:
192,192,64066,1,0,0:0:0:0:
320,192,64216,128,0,64366:0:0:0:0:
192,192,64366,128,0,64516:0:0:0:0:
64,192,64366,1,0,0:0:0:0:
448,192,64516,128,0,64666:0:0:0:0:
64,192,64666,128,0,64816:0:0:0:0:
192,192,64666,1,0,0:0:0:0:
320,192,64816,128,0,65116:0:0:0:0:
448,192,64966,1,0,0:0:0:0:
64,192,64966,1,0,0:0:0:0:
192,192,65116,128,0,65416:0:0:0:0:
320,192,65266,1,0,0:0:0:0:
64,192,65266,1,0,0:0:0:0:
448,192,65416,128,0,65716:0:0:0:0:
320,192,65566,1,0,0:0:0:0:
64,192,65566,1,0,0:0:0:0:
192,192,65716,128,0,66016:0:0:0:0:
448,192,65866,1,0,0:0:0:0:
64,192,65866,1,0,0:0:0:0:
320,192,66016,128,0,66316:0:0:0:0:
192,192,66166,1,0,0:0:0:0:
448,192,66166,1,0,0:0:0:0:
64,192,66316,128,0,66616:0:0:0:0:
320,192,66466,1,0,0:0:0:0:
192,192,66466,1,0,0:0:0:0:
448,192,66616,128,0,67066:0:0:0:0:
192,192,66766,1,0,0:0:0:0:
64,192,66766,1,0,0:0:0:0:
320,192,67066,128,0,67366:0:0:0:0:
192,192,67066,1,0,0:0:0:0:
64,192,67366,128,0,68866:0:0:0:0:
192,192,67366,1,0,0:0:0:0:
320,192,67666,1,0,0:0:0:0:
448,192,67666,1,0,0:0:0:0:
192,192,67966,1,0,0:0:0:0:
448,192,67966,1,0,0:0:0:0:
320,192,68266,1,0,0:0:0:0:
192,192,68266,1,0,0:0:0:0:
320,192,68566,1,0,0:0:0:0:
448,192,68566,1,0,0:0:0:0:
192,192,68866,1,0,0:0:0:0:
320,192,68866,128,0,69166:0:0:0:0:
192,192,69166,128,0,69466:0:0:0:0:
64,192,69166,1,0,0:0:0:0:
448,192,69466,128,0,69766:0:0:0:0:
320,192,69466,1,0,0:0:0:0:
64,192,69766,128,0,69916:0:0:0:0:
192,192,69766,1,0,0:0:0:0:
320,192,69916,128,0,70066:0:0:0:0:
448,192,70066,1,0,0:0:0:0:
64,192,70066,1,0,0:0:0:0:
192,192,70216,128,0,70366:0:0:0:0:
64,192,70366,1,0,0:0:0:0:
320,192,70366,1,0,0:0:0:0:
448,192,70516,128,0,70666:0:0:0:0:
192,192,70666,1,0,0:0:0:0:
320,192,70666,1,0,0:0:0:0:
64,192,70816,128,0,70966:0:0:0:0:
320,192,70966,1,0,0:0:0:0:
192,192,70966,1,0,0:0:0:0:
448,192,70966,1,0,0:0:0:0:
192,192,73066,128,0,73366:0:0:0:0:
448,192,73366,128,0,73516:0:0:0:0:
64,192,73516,128,0,73666:0:0:0:0:
448,192,73666,128,0,73816:0:0:0:0:
192,192,73816,128,0,73966:0:0:0:0:
320,192,73966,1,0,0:0:0:0:
448,192,73966,1,0,0:0:0:0:
192,192,74041,1,0,0:0:0:0:
64,192,74116,1,0,0:0:0:0:
448,192,74191,1,0,0:0:0:0:
192,192,74266,1,0,0:0:0:0:
64,192,74266,1,0,0:0:0:0:
448,192,74266,1,0,0:0:0:0:
320,192,74341,1,0,0:0:0:0:
448,192,74416,1,0,0:0:0:0:
192,192,74491,1,0,0:0:0:0:
64,192,74566,1,0,0:0:0:0:
320,192,74566,1,0,0:0:0:0:
448,192,74641,1,0,0:0:0:0:
192,192,74716,1,0,0:0:0:0:
320,192,74791,1,0,0:0:0:0:
320,192,74866,1,0,0:0:0:0:
448,192,74866,1,0,0:0:0:0:
64,192,74866,1,0,0:0:0:0:
192,192,74941,1,0,0:0:0:0:
320,192,75016,1,0,0:0:0:0:
448,192,75091,1,0,0:0:0:0:
192,192,75166,1,0,0:0:0:0:
64,192,75166,1,0,0:0:0:0:
320,192,75241,1,0,0:0:0:0:
448,192,75316,1,0,0:0:0:0:
192,192,75391,1,0,0:0:0:0:
64,192,75466,1,0,0:0:0:0:
320,192,75466,1,0,0:0:0:0:
448,192,75466,1,0,0:0:0:0:
192,192,75541,1,0,0:0:0:0:
320,192,75616,1,0,0:0:0:0:
192,192,75691,1,0,0:0:0:0:
64,192,75766,1,0,0:0:0:0:
448,192,75766,1,0,0:0:0:0:
320,192,75841,1,0,0:0:0:0:
192,192,75916,1,0,0:0:0:0:
64,192,75991,1,0,0:0:0:0:
320,192,76066,1,0,0:0:0:0:
448,192,76066,1,0,0:0:0:0:
192,192,76066,1,0,0:0:0:0:
320,192,76141,1,0,0:0:0:0:
192,192,76216,1,0,0:0:0:0:
64,192,76291,1,0,0:0:0:0:
320,192,76366,1,0,0:0:0:0:
448,192,76366,1,0,0:0:0:0:
192,192,76441,1,0,0:0:0:0:
320,192,76516,1,0,0:0:0:0:
192,192,76591,1,0,0:0:0:0:
64,192,76666,1,0,0:0:0:0:
320,192,76666,1,0,0:0:0:0:
448,192,76666,1,0,0:0:0:0:
320,192,76741,1,0,0:0:0:0:
192,192,76816,1,0,0:0:0:0:
64,192,76891,1,0,0:0:0:0:
192,192,76966,1,0,0:0:0:0:
320,192,76966,1,0,0:0:0:0:
448,192,77041,1,0,0:0:0:0:
192,192,77116,1,0,0:0:0:0:
64,192,77191,1,0,0:0:0:0:
192,192,77266,1,0,0:0:0:0:
320,192,77266,1,0,0:0:0:0:
448,192,77266,1,0,0:0:0:0:
320,192,77341,1,0,0:0:0:0:
192,192,77416,1,0,0:0:0:0:
64,192,77491,1,0,0:0:0:0:
448,192,77566,1,0,0:0:0:0:
320,192,77566,1,0,0:0:0:0:
64,192,77641,1,0,0:0:0:0:
192,192,77716,1,0,0:0:0:0:
320,192,77791,1,0,0:0:0:0:
192,192,77866,1,0,0:0:0:0:
64,192,77866,1,0,0:0:0:0:
448,192,77866,1,0,0:0:0:0:
192,192,77941,1,0,0:0:0:0:
320,192,78016,1,0,0:0:0:0:
192,192,78091,1,0,0:0:0:0:
64,192,78166,1,0,0:0:0:0:
448,192,78166,1,0,0:0:0:0:
320,192,78241,1,0,0:0:0:0:
192,192,78316,1,0,0:0:0:0:
64,192,78391,1,0,0:0:0:0:
192,192,78466,1,0,0:0:0:0:
320,192,78466,1,0,0:0:0:0:
448,192,78466,1,0,0:0:0:0:
320,192,78541,1,0,0:0:0:0:
192,192,78616,1,0,0:0:0:0:
64,192,78691,1,0,0:0:0:0:
448,192,78766,1,0,0:0:0:0:
192,192,78766,1,0,0:0:0:0:
320,192,78841,1,0,0:0:0:0:
192,192,78916,1,0,0:0:0:0:
64,192,78991,1,0,0:0:0:0:
320,192,79066,1,0,0:0:0:0:
192,192,79066,1,0,0:0:0:0:
64,192,79066,1,0,0:0:0:0:
448,192,79141,1,0,0:0:0:0:
192,192,79216,1,0,0:0:0:0:
320,192,79291,1,0,0:0:0:0:
192,192,79366,1,0,0:0:0:0:
64,192,79366,1,0,0:0:0:0:
448,192,79441,1,0,0:0:0:0:
320,192,79516,1,0,0:0:0:0:
64,192,79591,1,0,0:0:0:0:
192,192,79666,1,0,0:0:0:0:
320,192,79666,1,0,0:0:0:0:
448,192,79666,1,0,0:0:0:0:
192,192,79741,1,0,0:0:0:0:
64,192,79816,1,0,0:0:0:0:
320,192,79891,1,0,0:0:0:0:
448,192,79966,1,0,0:0:0:0:
64,192,79966,1,0,0:0:0:0:
192,192,80041,1,0,0:0:0:0:
320,192,80116,1,0,0:0:0:0:
192,192,80191,1,0,0:0:0:0:
64,192,80266,1,0,0:0:0:0:
448,192,80266,1,0,0:0:0:0:
320,192,80266,1,0,0:0:0:0:
320,192,80341,1,0,0:0:0:0:
192,192,80416,1,0,0:0:0:0:
64,192,80491,1,0,0:0:0:0:
192,192,80566,1,0,0:0:0:0:
320,192,80566,1,0,0:0:0:0:
448,192,80641,1,0,0:0:0:0:
192,192,80716,1,0,0:0:0:0:
64,192,80791,1,0,0:0:0:0:
192,192,80866,1,0,0:0:0:0:
320,192,80866,1,0,0:0:0:0:
448,192,80866,1,0,0:0:0:0:
320,192,80941,1,0,0:0:0:0:
192,192,81016,1,0,0:0:0:0:
64,192,81091,1,0,0:0:0:0:
320,192,81166,1,0,0:0:0:0:
448,192,81166,1,0,0:0:0:0:
64,192,81241,1,0,0:0:0:0:
192,192,81316,1,0,0:0:0:0:
320,192,81391,1,0,0:0:0:0:
192,192,81466,1,0,0:0:0:0:
64,192,81466,1,0,0:0:0:0:
320,192,81466,1,0,0:0:0:0:
448,192,81541,1,0,0:0:0:0:
192,192,81616,1,0,0:0:0:0:
320,192,81691,1,0,0:0:0:0:
448,192,81766,1,0,0:0:0:0:
64,192,81766,1,0,0:0:0:0:
192,192,81841,1,0,0:0:0:0:
320,192,81916,1,0,0:0:0:0:
192,192,81991,1,0,0:0:0:0:
64,192,82066,1,0,0:0:0:0:
320,192,82066,1,0,0:0:0:0:
448,192,82066,1,0,0:0:0:0:
320,192,82141,1,0,0:0:0:0:
448,192,82216,1,0,0:0:0:0:
192,192,82291,1,0,0:0:0:0:
64,192,82366,1,0,0:0:0:0:
448,192,82366,1,0,0:0:0:0:
320,192,82441,1,0,0:0:0:0:
192,192,82516,1,0,0:0:0:0:
320,192,82591,1,0,0:0:0:0:
448,192,82666,1,0,0:0:0:0:
192,192,82666,1,0,0:0:0:0:
64,192,82666,1,0,0:0:0:0:
192,192,82741,1,0,0:0:0:0:
320,192,82816,1,0,0:0:0:0:
448,192,82891,1,0,0:0:0:0:
448,192,82966,1,0,0:0:0:0:
320,192,82966,1,0,0:0:0:0:
192,192,83041,1,0,0:0:0:0:
64,192,83116,1,0,0:0:0:0:
448,192,83191,1,0,0:0:0:0:
64,192,83266,1,0,0:0:0:0:
448,192,83266,1,0,0:0:0:0:
320,192,83266,1,0,0:0:0:0:
192,192,83341,1,0,0:0:0:0:
64,192,83416,1,0,0:0:0:0:
320,192,83491,1,0,0:0:0:0:
192,192,83566,1,0,0:0:0:0:
448,192,83566,1,0,0:0:0:0:
64,192,83641,1,0,0:0:0:0:
320,192,83716,1,0,0:0:0:0:
192,192,83791,1,0,0:0:0:0:
448,192,83866,1,0,0:0:0:0:
64,192,83866,1,0,0:0:0:0:
192,192,83866,1,0,0:0:0:0:
320,192,83941,1,0,0:0:0:0:
192,192,84016,1,0,0:0:0:0:
64,192,84091,1,0,0:0:0:0:
448,192,84166,1,0,0:0:0:0:
320,192,84166,1,0,0:0:0:0:
192,192,84241,1,0,0:0:0:0:
64,192,84316,1,0,0:0:0:0:
320,192,84391,1,0,0:0:0:0:
64,192,84466,1,0,0:0:0:0:
192,192,84466,1,0,0:0:0:0:
448,192,84466,1,0,0:0:0:0:
320,192,84541,1,0,0:0:0:0:
192,192,84616,1,0,0:0:0:0:
320,192,84691,1,0,0:0:0:0:
64,192,84766,1,0,0:0:0:0:
448,192,84766,1,0,0:0:0:0:
192,192,84841,1,0,0:0:0:0:
320,192,84916,1,0,0:0:0:0:
448,192,84991,1,0,0:0:0:0:
320,192,85066,1,0,0:0:0:0:
64,192,85066,1,0,0:0:0:0:
192,192,85066,1,0,0:0:0:0:
192,192,85141,1,0,0:0:0:0:
320,192,85216,1,0,0:0:0:0:
448,192,85291,1,0,0:0:0:0:
64,192,85366,1,0,0:0:0:0:
192,192,85366,1,0,0:0:0:0:
320,192,85441,1,0,0:0:0:0:
192,192,85516,1,0,0:0:0:0:
320,192,85591,1,0,0:0:0:0:
64,192,85666,1,0,0:0:0:0:
192,192,85666,1,0,0:0:0:0:
448,192,85666,1,0,0:0:0:0:
192,192,85741,1,0,0:0:0:0:
320,192,85816,1,0,0:0:0:0:
448,192,85891,1,0,0:0:0:0:
192,192,85966,1,0,0:0:0:0:
320,192,85966,1,0,0:0:0:0:
64,192,86041,1,0,0:0:0:0:
320,192,86116,1,0,0:0:0:0:
448,192,86191,1,0,0:0:0:0:
64,192,86266,1,0,0:0:0:0:
192,192,86266,1,0,0:0:0:0:
320,192,86266,1,0,0:0:0:0:
192,192,86341,1,0,0:0:0:0:
320,192,86416,1,0,0:0:0:0:
448,192,86491,1,0,0:0:0:0:
192,192,86566,1,0,0:0:0:0:
64,192,86566,1,0,0:0:0:0:
448,192,86641,1,0,0:0:0:0:
320,192,86716,1,0,0:0:0:0:
192,192,86791,1,0,0:0:0:0:
64,192,86866,1,0,0:0:0:0:
448,192,86866,1,0,0:0:0:0:
320,192,86866,1,0,0:0:0:0:
320,192,86941,1,0,0:0:0:0:
192,192,87016,1,0,0:0:0:0:
320,192,87091,1,0,0:0:0:0:
64,192,87166,1,0,0:0:0:0:
448,192,87166,1,0,0:0:0:0:
192,192,87241,1,0,0:0:0:0:
320,192,87316,1,0,0:0:0:0:
448,192,87391,1,0,0:0:0:0:
64,192,87466,1,0,0:0:0:0:
192,192,87466,1,0,0:0:0:0:
320,192,87466,1,0,0:0:0:0:
192,192,87541,1,0,0:0:0:0:
320,192,87616,1,0,0:0:0:0:
448,192,87691,1,0,0:0:0:0:
320,192,87766,1,0,0:0:0:0:
64,192,87766,1,0,0:0:0:0:
192,192,87841,1,0,0:0:0:0:
320,192,87916,1,0,0:0:0:0:
448,192,87991,1,0,0:0:0:0:
448,192,88066,1,0,0:0:0:0:
320,192,88066,1,0,0:0:0:0:
192,192,88066,1,0,0:0:0:0:
64,192,88141,1,0,0:0:0:0:
320,192,88216,1,0,0:0:0:0:
192,192,88291,1,0,0:0:0:0:
448,192,88366,1,0,0:0:0:0:
320,192,88366,1,0,0:0:0:0:
64,192,88441,1,0,0:0:0:0:
192,192,88516,1,0,0:0:0:0:
448,192,88591,1,0,0:0:0:0:
64,192,88666,1,0,0:0:0:0:
192,192,88666,1,0,0:0:0:0:
320,192,88666,1,0,0:0:0:0:
320,192,88741,1,0,0:0:0:0:
448,192,88816,1,0,0:0:0:0:
192,192,88891,1,0,0:0:0:0:
448,192,88966,1,0,0:0:0:0:
64,192,88966,1,0,0:0:0:0:
320,192,89041,1,0,0:0:0:0:
192,192,89116,1,0,0:0:0:0:
320,192,89191,1,0,0:0:0:0:
192,192,89266,1,0,0:0:0:0:
64,192,89266,1,0,0:0:0:0:
448,192,89266,1,0,0:0:0:0:
192,192,89341,1,0,0:0:0:0:
320,192,89416,1,0,0:0:0:0:
448,192,89491,1,0,0:0:0:0:
192,192,89566,1,0,0:0:0:0:
320,192,89566,1,0,0:0:0:0:
64,192,89641,1,0,0:0:0:0:
320,192,89716,1,0,0:0:0:0:
448,192,89791,1,0,0:0:0:0:
64,192,89866,1,0,0:0:0:0:
192,192,89866,1,0,0:0:0:0:
320,192,89866,1,0,0:0:0:0:
192,192,89941,1,0,0:0:0:0:
320,192,90016,1,0,0:0:0:0:
448,192,90091,1,0,0:0:0:0:
64,192,90166,1,0,0:0:0:0:
192,192,90166,1,0,0:0:0:0:
448,192,90241,1,0,0:0:0:0:
320,192,90316,1,0,0:0:0:0:
192,192,90391,1,0,0:0:0:0:
192,192,90466,1,0,0:0:0:0:
448,192,90466,1,0,0:0:0:0:
320,192,90466,1,0,0:0:0:0:
64,192,90541,1,0,0:0:0:0:
320,192,90616,1,0,0:0:0:0:
192,192,90691,1,0,0:0:0:0:
448,192,90766,1,0,0:0:0:0:
64,192,90766,1,0,0:0:0:0:
320,192,90766,1,0,0:0:0:0:
320,192,90916,1,0,0:0:0:0:
64,192,91066,1,0,0:0:0:0:
448,192,91066,1,0,0:0:0:0:
192,192,91216,1,0,0:0:0:0:
64,192,91366,1,0,0:0:0:0:
320,192,91366,1,0,0:0:0:0:
448,192,91366,1,0,0:0:0:0:
192,192,91516,1,0,0:0:0:0:
320,192,91516,1,0,0:0:0:0:
448,192,91516,1,0,0:0:0:0:
64,192,91666,1,0,0:0:0:0:
320,192,91666,1,0,0:0:0:0:
192,192,91816,1,0,0:0:0:0:
64,192,91966,1,0,0:0:0:0:
192,192,91966,1,0,0:0:0:0:
448,192,92041,1,0,0:0:0:0:
320,192,92116,1,0,0:0:0:0:
192,192,92191,1,0,0:0:0:0:
64,192,92266,1,0,0:0:0:0:
320,192,92266,1,0,0:0:0:0:
448,192,92266,1,0,0:0:0:0:
320,192,92341,1,0,0:0:0:0:
192,192,92416,1,0,0:0:0:0:
320,192,92491,1,0,0:0:0:0:
448,192,92566,1,0,0:0:0:0:
64,192,92566,1,0,0:0:0:0:
192,192,92641,1,0,0:0:0:0:
320,192,92716,1,0,0:0:0:0:
448,192,92791,1,0,0:0:0:0:
320,192,92866,1,0,0:0:0:0:
192,192,92866,1,0,0:0:0:0:
64,192,92866,1,0,0:0:0:0:
192,192,92941,1,0,0:0:0:0:
320,192,93016,1,0,0:0:0:0:
64,192,93091,1,0,0:0:0:0:
320,192,93166,1,0,0:0:0:0:
448,192,93166,1,0,0:0:0:0:
192,192,93166,1,0,0:0:0:0:
192,192,93466,1,0,0:0:0:0:
64,192,93466,1,0,0:0:0:0:
448,192,93466,1,0,0:0:0:0:
192,192,93616,1,0,0:0:0:0:
320,192,93616,1,0,0:0:0:0:
448,192,93616,1,0,0:0:0:0:
448,192,93766,1,0,0:0:0:0:
64,192,93766,1,0,0:0:0:0:
320,192,93766,1,0,0:0:0:0:
320,192,94066,1,0,0:0:0:0:
192,192,94216,1,0,0:0:0:0:
64,192,94216,1,0,0:0:0:0:
448,192,94216,1,0,0:0:0:0:
448,192,94366,128,0,94666:0:0:0:0:
320,192,94366,1,0,0:0:0:0:
192,192,94366,1,0,0:0:0:0:
64,192,94516,1,0,0:0:0:0:
192,192,94666,128,0,94966:0:0:0:0:
320,192,94666,1,0,0:0:0:0:
64,192,94666,1,0,0:0:0:0:
448,192,94816,1,0,0:0:0:0:
320,192,94966,128,0,95266:0:0:0:0:
448,192,94966,1,0,0:0:0:0:
64,192,94966,1,0,0:0:0:0:
192,192,95116,1,0,0:0:0:0:
64,192,95266,128,0,95416:0:0:0:0:
448,192,95266,1,0,0:0:0:0:
192,192,95266,1,0,0:0:0:0:
320,192,95416,128,0,95641:0:0:0:0:
192,192,95566,1,0,0:0:0:0:
64,192,95566,1,0,0:0:0:0:
448,192,95566,1,0,0:0:0:0:
320,192,95716,128,0,95866:0:0:0:0:
64,192,95866,128,0,96166:0:0:0:0:
192,192,95866,1,0,0:0:0:0:
448,192,95866,1,0,0:0:0:0:
320,192,96016,1,0,0:0:0:0:
448,192,96166,128,0,96466:0:0:0:0:
192,192,96166,1,0,0:0:0:0:
320,192,96166,1,0,0:0:0:0:
192,192,96316,1,0,0:0:0:0:
64,192,96466,128,0,96616:0:0:0:0:
192,192,96466,1,0,0:0:0:0:
320,192,96466,1,0,0:0:0:0:
320,192,96616,128,0,96841:0:0:0:0:
192,192,96766,1,0,0:0:0:0:
64,192,96766,1,0,0:0:0:0:
448,192,96766,1,0,0:0:0:0:
320,192,96916,128,0,97066:0:0:0:0:
64,192,97066,128,0,97366:0:0:0:0:
192,192,97066,1,0,0:0:0:0:
448,192,97066,1,0,0:0:0:0:
192,192,97216,1,0,0:0:0:0:
192,192,97366,1,0,0:0:0:0:
448,192,97366,1,0,0:0:0:0:
320,192,97366,128,0,97666:0:0:0:0:
64,192,97516,1,0,0:0:0:0:
192,192,97666,128,0,97816:0:0:0:0:
64,192,97666,1,0,0:0:0:0:
448,192,97666,1,0,0:0:0:0:
448,192,97816,128,0,98041:0:0:0:0:
64,192,97966,1,0,0:0:0:0:
192,192,97966,1,0,0:0:0:0:
320,192,97966,1,0,0:0:0:0:
448,192,98116,128,0,98266:0:0:0:0:
64,192,98116,1,0,0:0:0:0:
192,192,98266,128,0,98566:0:0:0:0:
64,192,98266,1,0,0:0:0:0:
320,192,98266,1,0,0:0:0:0:
448,192,98416,1,0,0:0:0:0:
64,192,98566,128,0,98866:0:0:0:0:
320,192,98566,1,0,0:0:0:0:
448,192,98566,1,0,0:0:0:0:
192,192,98716,1,0,0:0:0:0:
448,192,98866,128,0,99166:0:0:0:0:
192,192,98866,1,0,0:0:0:0:
320,192,98866,1,0,0:0:0:0:
320,192,99016,1,0,0:0:0:0:
192,192,99166,128,0,99466:0:0:0:0:
320,192,99166,1,0,0:0:0:0:
64,192,99166,1,0,0:0:0:0:
448,192,99316,1,0,0:0:0:0:
320,192,99466,128,0,99766:0:0:0:0:
64,192,99466,1,0,0:0:0:0:
448,192,99466,1,0,0:0:0:0:
192,192,99616,1,0,0:0:0:0:
64,192,99766,128,0,100066:0:0:0:0:
192,192,99766,1,0,0:0:0:0:
448,192,99766,1,0,0:0:0:0:
320,192,99916,1,0,0:0:0:0:
192,192,100066,1,0,0:0:0:0:
448,192,100066,128,0,100216:0:0:0:0:
320,192,100066,1,0,0:0:0:0:
192,192,100216,128,0,100441:0:0:0:0:
64,192,100366,1,0,0:0:0:0:
320,192,100366,1,0,0:0:0:0:
448,192,100366,1,0,0:0:0:0:
192,192,100516,128,0,100666:0:0:0:0:
320,192,100666,1,0,0:0:0:0:
64,192,100666,128,0,100966:0:0:0:0:
448,192,100666,1,0,0:0:0:0:
320,192,100816,1,0,0:0:0:0:
448,192,100966,128,0,101266:0:0:0:0:
192,192,100966,1,0,0:0:0:0:
320,192,100966,1,0,0:0:0:0:
192,192,101116,1,0,0:0:0:0:
64,192,101266,128,0,101416:0:0:0:0:
192,192,101266,1,0,0:0:0:0:
320,192,101266,1,0,0:0:0:0:
320,192,101416,128,0,102166:0:0:0:0:
192,192,101566,1,0,0:0:0:0:
64,192,101566,1,0,0:0:0:0:
448,192,101566,1,0,0:0:0:0:
64,192,101716,1,0,0:0:0:0:
64,192,101866,1,0,0:0:0:0:
448,192,101866,1,0,0:0:0:0:
192,192,101866,1,0,0:0:0:0:
192,192,102016,1,0,0:0:0:0:
192,192,102166,1,0,0:0:0:0:
448,192,102166,1,0,0:0:0:0:
64,192,102166,128,0,102766:0:0:0:0:
192,192,102316,1,0,0:0:0:0:
320,192,102466,1,0,0:0:0:0:
448,192,102466,1,0,0:0:0:0:
192,192,102466,1,0,0:0:0:0:
320,192,102616,1,0,0:0:0:0:
192,192,102766,1,0,0:0:0:0:
320,192,102766,1,0,0:0:0:0:
448,192,102766,128,0,103366:0:0:0:0:
64,192,102916,1,0,0:0:0:0:
64,192,103066,1,0,0:0:0:0:
320,192,103066,1,0,0:0:0:0:
192,192,103066,1,0,0:0:0:0:
192,192,103216,1,0,0:0:0:0:
320,192,103366,1,0,0:0:0:0:
192,192,103366,1,0,0:0:0:0:
64,192,103366,128,0,103666:0:0:0:0:
192,192,103516,1,0,0:0:0:0:
448,192,103666,128,0,103966:0:0:0:0:
320,192,103666,1,0,0:0:0:0:
192,192,103816,1,0,0:0:0:0:
192,192,103966,128,0,104266:0:0:0:0:
320,192,103966,1,0,0:0:0:0:
64,192,103966,1,0,0:0:0:0:
448,192,104116,1,0,0:0:0:0:
320,192,104266,128,0,104566:0:0:0:0:
64,192,104266,1,0,0:0:0:0:
448,192,104266,1,0,0:0:0:0:
192,192,104416,1,0,0:0:0:0:
64,192,104566,128,0,104866:0:0:0:0:
192,192,104566,1,0,0:0:0:0:
448,192,104566,1,0,0:0:0:0:
320,192,104716,1,0,0:0:0:0:
192,192,104866,1,0,0:0:0:0:
448,192,104866,128,0,105016:0:0:0:0:
320,192,104866,1,0,0:0:0:0:
192,192,105016,128,0,105241:0:0:0:0:
64,192,105166,1,0,0:0:0:0:
320,192,105166,1,0,0:0:0:0:
448,192,105166,1,0,0:0:0:0:
192,192,105316,128,0,105466:0:0:0:0:
448,192,105466,128,0,105766:0:0:0:0:
64,192,105466,1,0,0:0:0:0:
320,192,105466,1,0,0:0:0:0:
192,192,105616,1,0,0:0:0:0:
192,192,105766,1,0,0:0:0:0:
320,192,105766,1,0,0:0:0:0:
64,192,105766,128,0,106066:0:0:0:0:
320,192,105916,1,0,0:0:0:0:
192,192,106066,1,0,0:0:0:0:
320,192,106066,1,0,0:0:0:0:
448,192,106066,128,0,106216:0:0:0:0:
192,192,106216,128,0,106441:0:0:0:0:
64,192,106366,1,0,0:0:0:0:
448,192,106366,1,0,0:0:0:0:
320,192,106366,1,0,0:0:0:0:
192,192,106516,128,0,106666:0:0:0:0:
64,192,106666,1,0,0:0:0:0:
320,192,106666,1,0,0:0:0:0:
448,192,106666,128,0,106966:0:0:0:0:
320,192,106816,1,0,0:0:0:0:
192,192,106966,128,0,107266:0:0:0:0:
64,192,106966,1,0,0:0:0:0:
320,192,106966,1,0,0:0:0:0:
448,192,107116,1,0,0:0:0:0:
64,192,107266,1,0,0:0:0:0:
448,192,107266,1,0,0:0:0:0:
320,192,107266,128,0,107416:0:0:0:0:
64,192,107416,128,0,107641:0:0:0:0:
192,192,107566,1,0,0:0:0:0:
320,192,107566,1,0,0:0:0:0:
448,192,107566,1,0,0:0:0:0:
448,192,107716,1,0,0:0:0:0:
64,192,107716,128,0,107866:0:0:0:0:
192,192,107866,1,0,0:0:0:0:
448,192,107866,1,0,0:0:0:0:
320,192,107866,128,0,108166:0:0:0:0:
64,192,108016,1,0,0:0:0:0:
64,192,108166,1,0,0:0:0:0:
192,192,108166,1,0,0:0:0:0:
448,192,108166,128,0,108466:0:0:0:0:
320,192,108316,1,0,0:0:0:0:
192,192,108466,1,0,0:0:0:0:
320,192,108466,1,0,0:0:0:0:
64,192,108466,128,0,108766:0:0:0:0:
192,192,108616,1,0,0:0:0:0:
448,192,108766,1,0,0:0:0:0:
192,192,108766,1,0,0:0:0:0:
320,192,108766,128,0,109066:0:0:0:0:
64,192,108916,1,0,0:0:0:0:
64,192,109066,1,0,0:0:0:0:
448,192,109066,1,0,0:0:0:0:
192,192,109066,128,0,109366:0:0:0:0:
320,192,109216,1,0,0:0:0:0:
64,192,109366,1,0,0:0:0:0:
320,192,109366,1,0,0:0:0:0:
448,192,109366,128,0,109666:0:0:0:0:
192,192,109516,1,0,0:0:0:0:
192,192,109666,1,0,0:0:0:0:
64,192,109666,128,0,109816:0:0:0:0:
320,192,109666,1,0,0:0:0:0:
320,192,109816,128,0,110041:0:0:0:0:
64,192,109966,1,0,0:0:0:0:
192,192,109966,1,0,0:0:0:0:
448,192,109966,1,0,0:0:0:0:
320,192,110116,128,0,110266:0:0:0:0:
192,192,110266,1,0,0:0:0:0:
448,192,110266,1,0,0:0:0:0:
64,192,110266,128,0,110566:0:0:0:0:
320,192,110416,1,0,0:0:0:0:
448,192,110566,128,0,110866:0:0:0:0:
192,192,110566,1,0,0:0:0:0:
320,192,110566,1,0,0:0:0:0:
192,192,110716,1,0,0:0:0:0:
64,192,110866,128,0,111166:0:0:0:0:
192,192,110866,1,0,0:0:0:0:
320,192,110866,1,0,0:0:0:0:
448,192,111016,1,0,0:0:0:0:
192,192,111166,1,0,0:0:0:0:
448,192,111166,1,0,0:0:0:0:
320,192,111166,128,0,111766:0:0:0:0:
64,192,111316,1,0,0:0:0:0:
64,192,111466,1,0,0:0:0:0:
192,192,111466,1,0,0:0:0:0:
448,192,111466,1,0,0:0:0:0:
192,192,111616,1,0,0:0:0:0:
64,192,111766,128,0,112366:0:0:0:0:
192,192,111766,1,0,0:0:0:0:
448,192,111766,1,0,0:0:0:0:
320,192,111916,1,0,0:0:0:0:
192,192,112066,1,0,0:0:0:0:
320,192,112066,1,0,0:0:0:0:
448,192,112066,1,0,0:0:0:0:
192,192,112216,1,0,0:0:0:0:
448,192,112366,128,0,112966:0:0:0:0:
192,192,112366,1,0,0:0:0:0:
320,192,112366,1,0,0:0:0:0:
64,192,112516,1,0,0:0:0:0:
64,192,112666,1,0,0:0:0:0:
192,192,112666,1,0,0:0:0:0:
320,192,112666,1,0,0:0:0:0:
64,192,112966,1,0,0:0:0:0:
192,192,112966,1,0,0:0:0:0:
320,192,112966,1,0,0:0:0:0:
192,192,113116,1,0,0:0:0:0:
320,192,113116,1,0,0:0:0:0:
448,192,113116,1,0,0:0:0:0:
64,192,113266,1,0,0:0:0:0:
192,192,113266,1,0,0:0:0:0:
448,192,113266,1,0,0:0:0:0:
64,192,113416,1,0,0:0:0:0:
320,192,113416,1,0,0:0:0:0:
448,192,113416,1,0,0:0:0:0:
64,192,113566,128,0,113866:0:0:0:0:
192,192,113566,1,0,0:0:0:0:
320,192,113566,1,0,0:0:0:0:
448,192,113716,1,0,0:0:0:0:
320,192,113866,128,0,114166:0:0:0:0:
192,192,113866,1,0,0:0:0:0:
448,192,113866,1,0,0:0:0:0:
64,192,114016,1,0,0:0:0:0:
192,192,114166,128,0,114466:0:0:0:0:
64,192,114166,1,0,0:0:0:0:
448,192,114166,1,0,0:0:0:0:
320,192,114316,1,0,0:0:0:0:
448,192,114466,128,0,114616:0:0:0:0:
64,192,114466,1,0,0:0:0:0:
320,192,114466,1,0,0:0:0:0:
192,192,114616,128,0,114841:0:0:0:0:
320,192,114766,1,0,0:0:0:0:
448,192,114766,1,0,0:0:0:0:
64,192,114766,1,0,0:0:0:0:
192,192,114916,128,0,115066:0:0:0:0:
448,192,115066,128,0,115366:0:0:0:0:
320,192,115066,1,0,0:0:0:0:
64,192,115066,1,0,0:0:0:0:
192,192,115216,1,0,0:0:0:0:
64,192,115366,128,0,115666:0:0:0:0:
320,192,115366,1,0,0:0:0:0:
192,192,115366,1,0,0:0:0:0:
320,192,115516,1,0,0:0:0:0:
448,192,115666,128,0,115816:0:0:0:0:
320,192,115666,1,0,0:0:0:0:
192,192,115666,1,0,0:0:0:0:
192,192,115816,128,0,116041:0:0:0:0:
320,192,115966,1,0,0:0:0:0:
448,192,115966,1,0,0:0:0:0:
64,192,115966,1,0,0:0:0:0:
192,192,116116,128,0,116266:0:0:0:0:
448,192,116266,128,0,116566:0:0:0:0:
320,192,116266,1,0,0:0:0:0:
64,192,116266,1,0,0:0:0:0:
320,192,116416,1,0,0:0:0:0:
320,192,116566,1,0,0:0:0:0:
64,192,116566,1,0,0:0:0:0:
192,192,116566,128,0,116866:0:0:0:0:
448,192,116716,1,0,0:0:0:0:
320,192,116866,128,0,117016:0:0:0:0:
448,192,116866,1,0,0:0:0:0:
64,192,116866,1,0,0:0:0:0:
64,192,117016,128,0,117241:0:0:0:0:
448,192,117166,1,0,0:0:0:0:
320,192,117166,1,0,0:0:0:0:
192,192,117166,1,0,0:0:0:0:
64,192,117316,128,0,117466:0:0:0:0:
448,192,117316,1,0,0:0:0:0:
320,192,117466,128,0,117766:0:0:0:0:
448,192,117466,1,0,0:0:0:0:
192,192,117466,1,0,0:0:0:0:
64,192,117616,1,0,0:0:0:0:
448,192,117766,128,0,118066:0:0:0:0:
192,192,117766,1,0,0:0:0:0:
64,192,117766,1,0,0:0:0:0:
320,192,117916,1,0,0:0:0:0:
64,192,118066,128,0,118366:0:0:0:0:
320,192,118066,1,0,0:0:0:0:
192,192,118066,1,0,0:0:0:0:
192,192,118216,1,0,0:0:0:0:
320,192,118366,128,0,118666:0:0:0:0:
192,192,118366,1,0,0:0:0:0:
448,192,118366,1,0,0:0:0:0:
64,192,118516,1,0,0:0:0:0:
192,192,118666,128,0,118966:0:0:0:0:
448,192,118666,1,0,0:0:0:0:
64,192,118666,1,0,0:0:0:0:
320,192,118816,1,0,0:0:0:0:
448,192,118966,128,0,119266:0:0:0:0:
320,192,118966,1,0,0:0:0:0:
64,192,118966,1,0,0:0:0:0:
192,192,119116,1,0,0:0:0:0:
320,192,119266,1,0,0:0:0:0:
64,192,119266,128,0,119416:0:0:0:0:
192,192,119266,1,0,0:0:0:0:
320,192,119416,128,0,119641:0:0:0:0:
448,192,119566,1,0,0:0:0:0:
192,192,119566,1,0,0:0:0:0:
64,192,119566,1,0,0:0:0:0:
320,192,119716,128,0,119866:0:0:0:0:
192,192,119866,1,0,0:0:0:0:
448,192,119866,128,0,120166:0:0:0:0:
64,192,119866,1,0,0:0:0:0:
192,192,120016,1,0,0:0:0:0:
64,192,120166,128,0,120466:0:0:0:0:
320,192,120166,1,0,0:0:0:0:
192,192,120166,1,0,0:0:0:0:
320,192,120316,1,0,0:0:0:0:
448,192,120466,128,0,120766:0:0:0:0:
320,192,120466,1,0,0:0:0:0:
192,192,120466,1,0,0:0:0:0:
64,192,120616,1,0,0:0:0:0:
192,192,120766,128,0,121366:0:0:0:0:
320,192,120766,1,0,0:0:0:0:
64,192,120766,1,0,0:0:0:0:
448,192,120916,1,0,0:0:0:0:
448,192,121066,1,0,0:0:0:0:
64,192,121066,1,0,0:0:0:0:
320,192,121066,1,0,0:0:0:0:
320,192,121216,1,0,0:0:0:0:
320,192,121366,1,0,0:0:0:0:
64,192,121366,1,0,0:0:0:0:
448,192,121366,128,0,121966:0:0:0:0:
64,192,121516,1,0,0:0:0:0:
192,192,121666,1,0,0:0:0:0:
64,192,121666,1,0,0:0:0:0:
320,192,121666,1,0,0:0:0:0:
192,192,121816,1,0,0:0:0:0:
320,192,121966,1,0,0:0:0:0:
192,192,121966,1,0,0:0:0:0:
64,192,121966,128,0,122566:0:0:0:0:
448,192,122116,1,0,0:0:0:0:
448,192,122266,1,0,0:0:0:0:
192,192,122266,1,0,0:0:0:0:
320,192,122266,1,0,0:0:0:0:
320,192,122416,1,0,0:0:0:0:
192,192,122566,1,0,0:0:0:0:
320,192,122566,1,0,0:0:0:0:
448,192,122566,128,0,122866:0:0:0:0:
320,192,122716,1,0,0:0:0:0:
192,192,122866,1,0,0:0:0:0:
64,192,122866,1,0,0:0:0:0:
320,192,123016,1,0,0:0:0:0:
320,192,123166,128,0,123466:0:0:0:0:
192,192,123166,1,0,0:0:0:0:
448,192,123166,1,0,0:0:0:0:
64,192,123316,1,0,0:0:0:0:
192,192,123466,128,0,123766:0:0:0:0:
448,192,123466,1,0,0:0:0:0:
64,192,123466,1,0,0:0:0:0:
320,192,123616,1,0,0:0:0:0:
448,192,123766,128,0,124066:0:0:0:0:
320,192,123766,1,0,0:0:0:0:
64,192,123766,1,0,0:0:0:0:
192,192,123916,1,0,0:0:0:0:
320,192,124066,1,0,0:0:0:0:
64,192,124066,128,0,124216:0:0:0:0:
192,192,124066,1,0,0:0:0:0:
320,192,124216,128,0,124441:0:0:0:0:
448,192,124366,1,0,0:0:0:0:
192,192,124366,1,0,0:0:0:0:
64,192,124366,1,0,0:0:0:0:
320,192,124516,128,0,124666:0:0:0:0:
64,192,124666,128,0,124966:0:0:0:0:
448,192,124666,1,0,0:0:0:0:
192,192,124666,1,0,0:0:0:0:
320,192,124816,1,0,0:0:0:0:
320,192,124966,1,0,0:0:0:0:
192,192,124966,1,0,0:0:0:0:
448,192,124966,128,0,125266:0:0:0:0:
192,192,125116,1,0,0:0:0:0:
320,192,125266,1,0,0:0:0:0:
192,192,125266,1,0,0:0:0:0:
64,192,125266,128,0,125416:0:0:0:0:
320,192,125416,128,0,125641:0:0:0:0:
448,192,125566,1,0,0:0:0:0:
64,192,125566,1,0,0:0:0:0:
192,192,125566,1,0,0:0:0:0:
320,192,125716,128,0,125866:0:0:0:0:
448,192,125866,1,0,0:0:0:0:
192,192,125866,1,0,0:0:0:0:
64,192,125866,128,0,126166:0:0:0:0:
192,192,126016,1,0,0:0:0:0:
320,192,126166,128,0,126466:0:0:0:0:
448,192,126166,1,0,0:0:0:0:
192,192,126166,1,0,0:0:0:0:
64,192,126316,1,0,0:0:0:0:
448,192,126466,1,0,0:0:0:0:
64,192,126466,1,0,0:0:0:0:
192,192,126466,128,0,126616:0:0:0:0:
448,192,126616,128,0,126841:0:0:0:0:
320,192,126766,1,0,0:0:0:0:
192,192,126766,1,0,0:0:0:0:
64,192,126766,1,0,0:0:0:0:
64,192,126916,1,0,0:0:0:0:
448,192,126916,128,0,127066:0:0:0:0:
320,192,127066,1,0,0:0:0:0:
64,192,127066,1,0,0:0:0:0:
192,192,127066,128,0,127366:0:0:0:0:
448,192,127216,1,0,0:0:0:0:
448,192,127366,1,0,0:0:0:0:
320,192,127366,1,0,0:0:0:0:
64,192,127366,128,0,127666:0:0:0:0:
192,192,127516,1,0,0:0:0:0:
320,192,127666,1,0,0:0:0:0:
192,192,127666,1,0,0:0:0:0:
448,192,127666,128,0,127966:0:0:0:0:
320,192,127816,1,0,0:0:0:0:
64,192,127966,1,0,0:0:0:0:
320,192,127966,1,0,0:0:0:0:
192,192,127966,128,0,128266:0:0:0:0:
448,192,128116,1,0,0:0:0:0:
448,192,128266,1,0,0:0:0:0:
64,192,128266,1,0,0:0:0:0:
320,192,128266,128,0,128566:0:0:0:0:
192,192,128416,1,0,0:0:0:0:
448,192,128566,1,0,0:0:0:0:
192,192,128566,1,0,0:0:0:0:
64,192,128566,128,0,128866:0:0:0:0:
320,192,128716,1,0,0:0:0:0:
320,192,128866,1,0,0:0:0:0:
448,192,128866,128,0,129016:0:0:0:0:
192,192,128866,1,0,0:0:0:0:
192,192,129016,128,0,129241:0:0:0:0:
448,192,129166,1,0,0:0:0:0:
320,192,129166,1,0,0:0:0:0:
64,192,129166,1,0,0:0:0:0:
192,192,129316,128,0,129466:0:0:0:0:
320,192,129466,1,0,0:0:0:0:
64,192,129466,1,0,0:0:0:0:
448,192,129466,128,0,129766:0:0:0:0:
192,192,129616,1,0,0:0:0:0:
64,192,129766,128,0,130066:0:0:0:0:
320,192,129766,1,0,0:0:0:0:
192,192,129766,1,0,0:0:0:0:
320,192,129916,1,0,0:0:0:0:
448,192,130066,128,0,130366:0:0:0:0:
320,192,130066,1,0,0:0:0:0:
192,192,130066,1,0,0:0:0:0:
64,192,130216,1,0,0:0:0:0:
320,192,130366,1,0,0:0:0:0:
64,192,130366,1,0,0:0:0:0:
192,192,130366,128,0,130966:0:0:0:0:
320,192,130816,1,0,0:0:0:0:
448,192,130816,1,0,0:0:0:0:
448,192,130966,128,0,131566:0:0:0:0:
320,192,130966,1,0,0:0:0:0:
64,192,130966,1,0,0:0:0:0:
64,192,131566,128,0,132166:0:0:0:0:
320,192,131566,1,0,0:0:0:0:
192,192,131566,1,0,0:0:0:0:
192,192,132016,1,0,0:0:0:0:
320,192,132016,1,0,0:0:0:0:
448,192,132016,1,0,0:0:0:0:
320,192,132166,128,0,132466:0:0:0:0:
192,192,132316,1,0,0:0:0:0:
64,192,132316,1,0,0:0:0:0:
448,192,132316,1,0,0:0:0:0:
192,192,132466,128,0,132766:0:0:0:0:
320,192,132768,1,0,0:0:0:0:
448,192,132768,1,0,0:0:0:0:
192,192,133241,1,0,0:0:0:0:
320,192,133715,1,0,0:0:0:0:
64,192,134189,1,0,0:0:0:0:
448,192,134583,1,0,0:0:0:0:
64,192,134899,1,0,0:0:0:0:
320,192,135136,1,0,0:0:0:0:
192,192,135610,1,0,0:0:0:0:
64,192,136083,1,0,0:0:0:0:
192,192,136083,1,0,0:0:0:0:
320,192,136557,1,0,0:0:0:0:
448,192,136952,1,0,0:0:0:0:
320,192,136952,1,0,0:0:0:0:
192,192,137268,1,0,0:0:0:0:
448,192,137504,1,0,0:0:0:0:
64,192,137504,1,0,0:0:0:0:
64,192,138057,1,0,0:0:0:0:
320,192,138531,1,0,0:0:0:0:
192,192,138925,1,0,0:0:0:0:
448,192,139399,1,0,0:0:0:0:
320,192,139715,1,0,0:0:0:0:
320,192,140031,1,0,0:0:0:0:
64,192,140425,1,0,0:0:0:0:
320,192,140899,1,0,0:0:0:0:
448,192,140899,1,0,0:0:0:0:
192,192,141215,1,0,0:0:0:0:
64,192,141215,1,0,0:0:0:0:
320,192,141294,1,0,0:0:0:0:
448,192,141294,1,0,0:0:0:0:
192,192,141768,1,0,0:0:0:0:
320,192,141768,1,0,0:0:0:0:
64,192,142083,1,0,0:0:0:0:
448,192,142368,1,0,0:0:0:0:
320,192,142368,1,0,0:0:0:0:
320,192,142518,1,0,0:0:0:0:
192,192,142668,1,0,0:0:0:0:
64,192,142668,1,0,0:0:0:0:
448,192,142668,1,0,0:0:0:0:
192,192,142818,1,0,0:0:0:0:
320,192,142968,1,0,0:0:0:0:
448,192,143118,1,0,0:0:0:0:
64,192,143118,1,0,0:0:0:0:
64,192,143268,1,0,0:0:0:0:
192,192,143268,1,0,0:0:0:0:
448,192,143268,1,0,0:0:0:0:
320,192,143418,1,0,0:0:0:0:
192,192,143568,1,0,0:0:0:0:
64,192,143568,1,0,0:0:0:0:
320,192,143718,1,0,0:0:0:0:
448,192,143868,1,0,0:0:0:0:
320,192,143868,1,0,0:0:0:0:
192,192,143868,1,0,0:0:0:0:
64,192,144018,1,0,0:0:0:0:
448,192,144168,1,0,0:0:0:0:
320,192,144243,1,0,0:0:0:0:
192,192,144318,1,0,0:0:0:0:
64,192,144318,1,0,0:0:0:0:
192,192,144468,1,0,0:0:0:0:
320,192,144468,1,0,0:0:0:0:
448,192,144468,1,0,0:0:0:0:
320,192,144618,1,0,0:0:0:0:
192,192,144768,1,0,0:0:0:0:
64,192,144768,1,0,0:0:0:0:
320,192,144918,1,0,0:0:0:0:
192,192,145068,1,0,0:0:0:0:
64,192,145068,1,0,0:0:0:0:
448,192,145068,1,0,0:0:0:0:
320,192,145218,1,0,0:0:0:0:
192,192,145368,1,0,0:0:0:0:
448,192,145518,1,0,0:0:0:0:
320,192,145518,1,0,0:0:0:0:
192,192,145668,1,0,0:0:0:0:
64,192,145668,1,0,0:0:0:0:
320,192,145668,1,0,0:0:0:0:
64,192,145818,1,0,0:0:0:0:
320,192,145968,1,0,0:0:0:0:
448,192,145968,1,0,0:0:0:0:
192,192,146118,1,0,0:0:0:0:
448,192,146268,1,0,0:0:0:0:
320,192,146268,1,0,0:0:0:0:
192,192,146268,1,0,0:0:0:0:
320,192,146418,1,0,0:0:0:0:
320,192,146568,1,0,0:0:0:0:
192,192,146643,1,0,0:0:0:0:
64,192,146718,1,0,0:0:0:0:
448,192,146718,1,0,0:0:0:0:
448,192,146868,1,0,0:0:0:0:
320,192,146868,1,0,0:0:0:0:
192,192,146868,1,0,0:0:0:0:
320,192,147018,1,0,0:0:0:0:
64,192,147168,1,0,0:0:0:0:
192,192,147168,1,0,0:0:0:0:
192,192,147318,1,0,0:0:0:0:
320,192,147468,1,0,0:0:0:0:
448,192,147468,1,0,0:0:0:0:
64,192,147468,1,0,0:0:0:0:
320,192,147618,1,0,0:0:0:0:
192,192,147768,1,0,0:0:0:0:
64,192,147918,1,0,0:0:0:0:
448,192,147918,1,0,0:0:0:0:
448,192,148068,1,0,0:0:0:0:
320,192,148068,1,0,0:0:0:0:
64,192,148068,1,0,0:0:0:0:
64,192,148218,1,0,0:0:0:0:
192,192,148293,1,0,0:0:0:0:
320,192,148368,1,0,0:0:0:0:
448,192,148368,1,0,0:0:0:0:
192,192,148518,1,0,0:0:0:0:
64,192,148668,1,0,0:0:0:0:
192,192,148668,1,0,0:0:0:0:
320,192,148668,1,0,0:0:0:0:
448,192,148818,1,0,0:0:0:0:
320,192,148968,1,0,0:0:0:0:
192,192,149043,1,0,0:0:0:0:
320,192,149118,1,0,0:0:0:0:
448,192,149118,1,0,0:0:0:0:
320,192,149268,1,0,0:0:0:0:
192,192,149268,1,0,0:0:0:0:
64,192,149268,1,0,0:0:0:0:
192,192,149418,1,0,0:0:0:0:
320,192,149568,1,0,0:0:0:0:
448,192,149568,1,0,0:0:0:0:
64,192,149718,1,0,0:0:0:0:
192,192,150018,1,0,0:0:0:0:
320,192,150468,1,0,0:0:0:0:
64,192,150768,1,0,0:0:0:0:
448,192,150918,1,0,0:0:0:0:
192,192,151368,1,0,0:0:0:0:
320,192,151668,1,0,0:0:0:0:
448,192,151668,1,0,0:0:0:0:
64,192,151668,1,0,0:0:0:0:
192,192,151968,1,0,0:0:0:0:
64,192,151968,1,0,0:0:0:0:
320,192,152043,1,0,0:0:0:0:
448,192,152118,1,0,0:0:0:0:
192,192,152193,1,0,0:0:0:0:
64,192,152268,1,0,0:0:0:0:
448,192,152268,1,0,0:0:0:0:
320,192,152343,1,0,0:0:0:0:
192,192,152418,1,0,0:0:0:0:
320,192,152493,1,0,0:0:0:0:
448,192,152568,1,0,0:0:0:0:
64,192,152568,1,0,0:0:0:0:
192,192,152643,1,0,0:0:0:0:
320,192,152718,1,0,0:0:0:0:
448,192,152793,1,0,0:0:0:0:
320,192,152868,1,0,0:0:0:0:
192,192,152868,1,0,0:0:0:0:
64,192,152943,1,0,0:0:0:0:
320,192,153018,1,0,0:0:0:0:
448,192,153093,1,0,0:0:0:0:
64,192,153168,1,0,0:0:0:0:
192,192,153168,1,0,0:0:0:0:
320,192,153243,1,0,0:0:0:0:
192,192,153318,1,0,0:0:0:0:
64,192,153393,1,0,0:0:0:0:
320,192,153468,1,0,0:0:0:0:
448,192,153468,1,0,0:0:0:0:
192,192,153543,1,0,0:0:0:0:
64,192,153618,1,0,0:0:0:0:
320,192,153693,1,0,0:0:0:0:
448,192,153768,1,0,0:0:0:0:
192,192,153768,1,0,0:0:0:0:
64,192,153843,1,0,0:0:0:0:
320,192,153918,1,0,0:0:0:0:
448,192,153993,1,0,0:0:0:0:
64,192,154068,1,0,0:0:0:0:
192,192,154068,1,0,0:0:0:0:
448,192,154143,1,0,0:0:0:0:
320,192,154218,1,0,0:0:0:0:
192,192,154293,1,0,0:0:0:0:
64,192,154368,1,0,0:0:0:0:
448,192,154368,1,0,0:0:0:0:
320,192,154443,1,0,0:0:0:0:
192,192,154518,1,0,0:0:0:0:
320,192,154593,1,0,0:0:0:0:
448,192,154668,1,0,0:0:0:0:
192,192,154668,1,0,0:0:0:0:
64,192,154743,1,0,0:0:0:0:
320,192,154818,1,0,0:0:0:0:
448,192,154893,1,0,0:0:0:0:
320,192,154968,1,0,0:0:0:0:
192,192,154968,1,0,0:0:0:0:
64,192,155043,1,0,0:0:0:0:
320,192,155118,1,0,0:0:0:0:
448,192,155193,1,0,0:0:0:0:
320,192,155268,1,0,0:0:0:0:
192,192,155268,1,0,0:0:0:0:
64,192,155343,1,0,0:0:0:0:
320,192,155418,1,0,0:0:0:0:
448,192,155493,1,0,0:0:0:0:
64,192,155568,1,0,0:0:0:0:
192,192,155568,1,0,0:0:0:0:
320,192,155643,1,0,0:0:0:0:
448,192,155718,1,0,0:0:0:0:
192,192,155793,1,0,0:0:0:0:
64,192,155868,1,0,0:0:0:0:
320,192,155868,1,0,0:0:0:0:
448,192,155943,1,0,0:0:0:0:
192,192,156018,1,0,0:0:0:0:
320,192,156093,1,0,0:0:0:0:
64,192,156168,1,0,0:0:0:0:
192,192,156168,1,0,0:0:0:0:
320,192,156243,1,0,0:0:0:0:
448,192,156318,1,0,0:0:0:0:
192,192,156393,1,0,0:0:0:0:
64,192,156468,1,0,0:0:0:0:
448,192,156468,1,0,0:0:0:0:
320,192,156543,1,0,0:0:0:0:
192,192,156618,1,0,0:0:0:0:
64,192,156618,1,0,0:0:0:0:
320,192,156693,1,0,0:0:0:0:
448,192,156768,1,0,0:0:0:0:
192,192,156768,1,0,0:0:0:0:
64,192,156843,1,0,0:0:0:0:
320,192,156918,1,0,0:0:0:0:
448,192,156993,1,0,0:0:0:0:
192,192,157068,1,0,0:0:0:0:
64,192,157068,1,0,0:0:0:0:
320,192,157143,1,0,0:0:0:0:
192,192,157218,1,0,0:0:0:0:
64,192,157293,1,0,0:0:0:0:
320,192,157368,1,0,0:0:0:0:
448,192,157368,1,0,0:0:0:0:
192,192,157443,1,0,0:0:0:0:
64,192,157518,1,0,0:0:0:0:
320,192,157593,1,0,0:0:0:0:
448,192,157668,1,0,0:0:0:0:
192,192,157668,1,0,0:0:0:0:
64,192,157743,1,0,0:0:0:0:
320,192,157818,1,0,0:0:0:0:
192,192,157893,1,0,0:0:0:0:
64,192,157968,1,0,0:0:0:0:
448,192,157968,1,0,0:0:0:0:
320,192,158043,1,0,0:0:0:0:
64,192,158118,1,0,0:0:0:0:
192,192,158193,1,0,0:0:0:0:
320,192,158268,1,0,0:0:0:0:
448,192,158268,1,0,0:0:0:0:
64,192,158343,1,0,0:0:0:0:
192,192,158418,1,0,0:0:0:0:
320,192,158493,1,0,0:0:0:0:
192,192,158568,1,0,0:0:0:0:
64,192,158568,1,0,0:0:0:0:
448,192,158643,1,0,0:0:0:0:
320,192,158718,1,0,0:0:0:0:
192,192,158793,1,0,0:0:0:0:
64,192,158868,1,0,0:0:0:0:
448,192,158868,1,0,0:0:0:0:
320,192,158943,1,0,0:0:0:0:
192,192,159018,1,0,0:0:0:0:
64,192,159093,1,0,0:0:0:0:
320,192,159168,1,0,0:0:0:0:
448,192,159168,1,0,0:0:0:0:
64,192,159243,1,0,0:0:0:0:
192,192,159318,1,0,0:0:0:0:
320,192,159393,1,0,0:0:0:0:
448,192,159468,1,0,0:0:0:0:
192,192,159468,1,0,0:0:0:0:
64,192,159543,1,0,0:0:0:0:
320,192,159618,1,0,0:0:0:0:
448,192,159693,1,0,0:0:0:0:
320,192,159768,1,0,0:0:0:0:
192,192,159768,1,0,0:0:0:0:
64,192,159843,1,0,0:0:0:0:
320,192,159918,1,0,0:0:0:0:
448,192,159993,1,0,0:0:0:0:
192,192,160068,1,0,0:0:0:0:
64,192,160068,1,0,0:0:0:0:
448,192,160143,1,0,0:0:0:0:
320,192,160218,1,0,0:0:0:0:
192,192,160293,1,0,0:0:0:0:
64,192,160368,1,0,0:0:0:0:
448,192,160368,1,0,0:0:0:0:
320,192,160443,1,0,0:0:0:0:
192,192,160518,1,0,0:0:0:0:
320,192,160593,1,0,0:0:0:0:
448,192,160668,1,0,0:0:0:0:
64,192,160668,1,0,0:0:0:0:
192,192,160743,1,0,0:0:0:0:
448,192,160818,1,0,0:0:0:0:
64,192,160893,1,0,0:0:0:0:
320,192,160968,1,0,0:0:0:0:
192,192,160968,1,0,0:0:0:0:
448,192,161043,1,0,0:0:0:0:
320,192,161118,1,0,0:0:0:0:
192,192,161193,1,0,0:0:0:0:
64,192,161268,1,0,0:0:0:0:
320,192,161568,1,0,0:0:0:0:
448,192,161568,1,0,0:0:0:0:
192,192,161643,1,0,0:0:0:0:
64,192,161718,1,0,0:0:0:0:
320,192,161793,1,0,0:0:0:0:
448,192,161868,1,0,0:0:0:0:
64,192,161868,1,0,0:0:0:0:
192,192,161943,1,0,0:0:0:0:
320,192,162018,1,0,0:0:0:0:
192,192,162093,1,0,0:0:0:0:
64,192,162168,1,0,0:0:0:0:
448,192,162168,1,0,0:0:0:0:
320,192,162243,1,0,0:0:0:0:
192,192,162318,1,0,0:0:0:0:
64,192,162393,1,0,0:0:0:0:
192,192,162468,1,0,0:0:0:0:
320,192,162468,1,0,0:0:0:0:
448,192,162543,1,0,0:0:0:0:
192,192,162618,1,0,0:0:0:0:
64,192,162693,1,0,0:0:0:0:
448,192,162768,1,0,0:0:0:0:
320,192,162768,1,0,0:0:0:0:
192,192,162843,1,0,0:0:0:0:
320,192,162918,1,0,0:0:0:0:
448,192,162993,1,0,0:0:0:0:
192,192,163068,1,0,0:0:0:0:
64,192,163068,1,0,0:0:0:0:
320,192,163143,1,0,0:0:0:0:
448,192,163218,1,0,0:0:0:0:
192,192,163293,1,0,0:0:0:0:
64,192,163368,1,0,0:0:0:0:
320,192,163368,1,0,0:0:0:0:
448,192,163443,1,0,0:0:0:0:
192,192,163518,1,0,0:0:0:0:
64,192,163593,1,0,0:0:0:0:
448,192,163668,1,0,0:0:0:0:
320,192,163668,1,0,0:0:0:0:
64,192,163743,1,0,0:0:0:0:
192,192,163818,1,0,0:0:0:0:
320,192,163893,1,0,0:0:0:0:
448,192,163968,1,0,0:0:0:0:
64,192,163968,1,0,0:0:0:0:
192,192,164043,1,0,0:0:0:0:
320,192,164118,1,0,0:0:0:0:
192,192,164193,1,0,0:0:0:0:
64,192,164268,1,0,0:0:0:0:
320,192,164268,1,0,0:0:0:0:
448,192,164343,1,0,0:0:0:0:
192,192,164418,1,0,0:0:0:0:
64,192,164493,1,0,0:0:0:0:
192,192,164568,1,0,0:0:0:0:
320,192,164568,1,0,0:0:0:0:
448,192,164643,1,0,0:0:0:0:
192,192,164718,1,0,0:0:0:0:
64,192,164793,1,0,0:0:0:0:
192,192,164868,1,0,0:0:0:0:
320,192,164868,1,0,0:0:0:0:
448,192,164943,1,0,0:0:0:0:
192,192,165018,1,0,0:0:0:0:
64,192,165093,1,0,0:0:0:0:
448,192,165168,1,0,0:0:0:0:
320,192,165168,1,0,0:0:0:0:
192,192,165243,1,0,0:0:0:0:
64,192,165318,1,0,0:0:0:0:
320,192,165393,1,0,0:0:0:0:
448,192,165468,1,0,0:0:0:0:
192,192,165468,1,0,0:0:0:0:
64,192,165543,1,0,0:0:0:0:
320,192,165618,1,0,0:0:0:0:
192,192,165693,1,0,0:0:0:0:
448,192,165768,1,0,0:0:0:0:
320,192,165768,1,0,0:0:0:0:
192,192,165843,1,0,0:0:0:0:
64,192,165918,1,0,0:0:0:0:
320,192,165993,1,0,0:0:0:0:
448,192,166068,1,0,0:0:0:0:
64,192,166068,1,0,0:0:0:0:
192,192,166143,1,0,0:0:0:0:
448,192,166218,1,0,0:0:0:0:
192,192,166293,1,0,0:0:0:0:
64,192,166368,1,0,0:0:0:0:
320,192,166368,1,0,0:0:0:0:
448,192,166443,1,0,0:0:0:0:
192,192,166518,1,0,0:0:0:0:
64,192,166593,1,0,0:0:0:0:
320,192,166668,1,0,0:0:0:0:
448,192,166668,1,0,0:0:0:0:
192,192,166743,1,0,0:0:0:0:
320,192,166818,1,0,0:0:0:0:
448,192,166893,1,0,0:0:0:0:
192,192,166968,1,0,0:0:0:0:
64,192,166968,1,0,0:0:0:0:
320,192,167043,1,0,0:0:0:0:
448,192,167118,1,0,0:0:0:0:
192,192,167193,1,0,0:0:0:0:
64,192,167268,1,0,0:0:0:0:
320,192,167268,1,0,0:0:0:0:
448,192,167343,1,0,0:0:0:0:
192,192,167418,1,0,0:0:0:0:
320,192,167493,1,0,0:0:0:0:
448,192,167568,1,0,0:0:0:0:
64,192,167568,1,0,0:0:0:0:
192,192,167643,1,0,0:0:0:0:
448,192,167718,1,0,0:0:0:0:
320,192,167793,1,0,0:0:0:0:
192,192,167868,1,0,0:0:0:0:
64,192,167868,1,0,0:0:0:0:
448,192,167943,1,0,0:0:0:0:
320,192,168018,1,0,0:0:0:0:
192,192,168093,1,0,0:0:0:0:
320,192,168168,1,0,0:0:0:0:
448,192,168168,1,0,0:0:0:0:
64,192,168243,1,0,0:0:0:0:
192,192,168318,1,0,0:0:0:0:
320,192,168393,1,0,0:0:0:0:
448,192,168468,1,0,0:0:0:0:
64,192,168468,1,0,0:0:0:0:
192,192,168543,1,0,0:0:0:0:
320,192,168618,1,0,0:0:0:0:
448,192,168693,1,0,0:0:0:0:
192,192,168768,1,0,0:0:0:0:
64,192,168768,1,0,0:0:0:0:
448,192,168843,1,0,0:0:0:0:
320,192,168918,1,0,0:0:0:0:
192,192,168993,1,0,0:0:0:0:
64,192,169068,1,0,0:0:0:0:
320,192,169068,1,0,0:0:0:0:
448,192,169143,1,0,0:0:0:0:
192,192,169218,1,0,0:0:0:0:
64,192,169293,1,0,0:0:0:0:
192,192,169368,1,0,0:0:0:0:
320,192,169368,1,0,0:0:0:0:
448,192,169443,1,0,0:0:0:0:
192,192,169518,1,0,0:0:0:0:
64,192,169593,1,0,0:0:0:0:
320,192,169668,1,0,0:0:0:0:
448,192,169668,1,0,0:0:0:0:
64,192,169743,1,0,0:0:0:0:
192,192,169818,1,0,0:0:0:0:
320,192,169893,1,0,0:0:0:0:
448,192,169968,1,0,0:0:0:0:
64,192,170118,1,0,0:0:0:0:
192,192,170568,1,0,0:0:0:0:
320,192,170868,1,0,0:0:0:0:
448,192,171168,1,0,0:0:0:0:
320,192,171168,1,0,0:0:0:0:
192,192,171243,1,0,0:0:0:0:
64,192,171318,1,0,0:0:0:0:
320,192,171393,1,0,0:0:0:0:
64,192,171468,1,0,0:0:0:0:
448,192,171468,1,0,0:0:0:0:
192,192,171468,1,0,0:0:0:0:
192,192,171543,1,0,0:0:0:0:
320,192,171618,1,0,0:0:0:0:
192,192,171693,1,0,0:0:0:0:
448,192,171768,1,0,0:0:0:0:
64,192,171768,1,0,0:0:0:0:
320,192,171843,1,0,0:0:0:0:
192,192,171918,1,0,0:0:0:0:
64,192,171993,1,0,0:0:0:0:
320,192,172068,1,0,0:0:0:0:
192,192,172068,1,0,0:0:0:0:
448,192,172068,1,0,0:0:0:0:
448,192,172143,1,0,0:0:0:0:
192,192,172218,1,0,0:0:0:0:
64,192,172293,1,0,0:0:0:0:
320,192,172368,1,0,0:0:0:0:
448,192,172368,1,0,0:0:0:0:
192,192,172443,1,0,0:0:0:0:
320,192,172518,1,0,0:0:0:0:
448,192,172593,1,0,0:0:0:0:
64,192,172668,1,0,0:0:0:0:
192,192,172668,1,0,0:0:0:0:
320,192,172668,1,0,0:0:0:0:
320,192,172743,1,0,0:0:0:0:
448,192,172818,1,0,0:0:0:0:
192,192,172893,1,0,0:0:0:0:
320,192,172968,1,0,0:0:0:0:
64,192,172968,1,0,0:0:0:0:
448,192,173043,1,0,0:0:0:0:
192,192,173118,1,0,0:0:0:0:
64,192,173193,1,0,0:0:0:0:
320,192,173268,1,0,0:0:0:0:
448,192,173268,1,0,0:0:0:0:
192,192,173268,1,0,0:0:0:0:
64,192,173343,1,0,0:0:0:0:
192,192,173418,1,0,0:0:0:0:
320,192,173493,1,0,0:0:0:0:
64,192,173568,1,0,0:0:0:0:
448,192,173568,1,0,0:0:0:0:
192,192,173643,1,0,0:0:0:0:
320,192,173718,1,0,0:0:0:0:
192,192,173793,1,0,0:0:0:0:
320,192,173868,1,0,0:0:0:0:
64,192,173868,1,0,0:0:0:0:
448,192,173868,1,0,0:0:0:0:
448,192,173943,1,0,0:0:0:0:
192,192,174018,1,0,0:0:0:0:
64,192,174093,1,0,0:0:0:0:
320,192,174168,1,0,0:0:0:0:
192,192,174168,1,0,0:0:0:0:
448,192,174243,1,0,0:0:0:0:
192,192,174318,1,0,0:0:0:0:
64,192,174393,1,0,0:0:0:0:
320,192,174468,1,0,0:0:0:0:
192,192,174468,1,0,0:0:0:0:
448,192,174468,1,0,0:0:0:0:
448,192,174543,1,0,0:0:0:0:
192,192,174618,1,0,0:0:0:0:
64,192,174693,1,0,0:0:0:0:
320,192,174768,1,0,0:0:0:0:
448,192,174768,1,0,0:0:0:0:
192,192,174843,1,0,0:0:0:0:
64,192,174918,1,0,0:0:0:0:
320,192,174993,1,0,0:0:0:0:
192,192,175068,1,0,0:0:0:0:
448,192,175068,1,0,0:0:0:0:
64,192,175068,1,0,0:0:0:0:
64,192,175143,1,0,0:0:0:0:
320,192,175218,1,0,0:0:0:0:
192,192,175293,1,0,0:0:0:0:
320,192,175368,1,0,0:0:0:0:
448,192,175368,1,0,0:0:0:0:
192,192,175443,1,0,0:0:0:0:
64,192,175518,1,0,0:0:0:0:
320,192,175593,1,0,0:0:0:0:
64,192,175668,1,0,0:0:0:0:
448,192,175668,1,0,0:0:0:0:
192,192,175668,1,0,0:0:0:0:
192,192,175743,1,0,0:0:0:0:
448,192,175818,1,0,0:0:0:0:
320,192,175893,1,0,0:0:0:0:
192,192,175968,1,0,0:0:0:0:
64,192,175968,1,0,0:0:0:0:
448,192,176043,1,0,0:0:0:0:
192,192,176118,1,0,0:0:0:0:
64,192,176193,1,0,0:0:0:0:
448,192,176268,1,0,0:0:0:0:
320,192,176268,1,0,0:0:0:0:
64,192,176268,1,0,0:0:0:0:
192,192,176343,1,0,0:0:0:0:
320,192,176418,1,0,0:0:0:0:
448,192,176493,1,0,0:0:0:0:
64,192,176568,1,0,0:0:0:0:
192,192,176568,1,0,0:0:0:0:
320,192,176643,1,0,0:0:0:0:
448,192,176718,1,0,0:0:0:0:
192,192,176793,1,0,0:0:0:0:
320,192,176868,1,0,0:0:0:0:
64,192,176868,1,0,0:0:0:0:
448,192,176868,1,0,0:0:0:0:
448,192,176943,1,0,0:0:0:0:
192,192,177018,1,0,0:0:0:0:
320,192,177093,1,0,0:0:0:0:
64,192,177168,1,0,0:0:0:0:
448,192,177168,1,0,0:0:0:0:
192,192,177243,1,0,0:0:0:0:
448,192,177318,1,0,0:0:0:0:
320,192,177393,1,0,0:0:0:0:
64,192,177468,1,0,0:0:0:0:
192,192,177468,1,0,0:0:0:0:
448,192,177468,1,0,0:0:0:0:
448,192,177543,1,0,0:0:0:0:
320,192,177618,1,0,0:0:0:0:
192,192,177693,1,0,0:0:0:0:
448,192,177768,1,0,0:0:0:0:
320,192,177768,1,0,0:0:0:0:
64,192,177843,1,0,0:0:0:0:
192,192,177918,1,0,0:0:0:0:
320,192,177993,1,0,0:0:0:0:
64,192,178068,1,0,0:0:0:0:
448,192,178068,1,0,0:0:0:0:
192,192,178068,1,0,0:0:0:0:
192,192,178143,1,0,0:0:0:0:
320,192,178218,1,0,0:0:0:0:
448,192,178293,1,0,0:0:0:0:
64,192,178368,1,0,0:0:0:0:
192,192,178368,1,0,0:0:0:0:
448,192,178443,1,0,0:0:0:0:
320,192,178518,1,0,0:0:0:0:
192,192,178593,1,0,0:0:0:0:
320,192,178668,1,0,0:0:0:0:
64,192,178668,1,0,0:0:0:0:
448,192,178668,1,0,0:0:0:0:
448,192,178743,1,0,0:0:0:0:
192,192,178818,1,0,0:0:0:0:
64,192,178893,1,0,0:0:0:0:
320,192,178968,1,0,0:0:0:0:
192,192,178968,1,0,0:0:0:0:
448,192,179043,1,0,0:0:0:0:
192,192,179118,1,0,0:0:0:0:
64,192,179193,1,0,0:0:0:0:
448,192,179268,1,0,0:0:0:0:
320,192,179268,1,0,0:0:0:0:
192,192,179268,1,0,0:0:0:0:
64,192,179343,1,0,0:0:0:0:
192,192,179418,1,0,0:0:0:0:
320,192,179493,1,0,0:0:0:0:
64,192,179568,1,0,0:0:0:0:
448,192,179568,1,0,0:0:0:0:
192,192,179643,1,0,0:0:0:0:
320,192,179718,1,0,0:0:0:0:
192,192,179793,1,0,0:0:0:0:
448,192,179868,1,0,0:0:0:0:
64,192,179868,1,0,0:0:0:0:
320,192,179868,1,0,0:0:0:0:
320,192,179943,1,0,0:0:0:0:
64,192,180018,1,0,0:0:0:0:
448,192,180093,1,0,0:0:0:0:
320,192,180168,1,0,0:0:0:0:
192,192,180168,1,0,0:0:0:0:
64,192,180243,1,0,0:0:0:0:
192,192,180318,1,0,0:0:0:0:
320,192,180393,1,0,0:0:0:0:
448,192,180468,1,0,0:0:0:0:
192,192,180468,1,0,0:0:0:0:
64,192,180468,1,0,0:0:0:0:
320,192,180543,1,0,0:0:0:0:
192,192,180618,1,0,0:0:0:0:
320,192,180693,1,0,0:0:0:0:
448,192,180768,1,0,0:0:0:0:
64,192,180768,1,0,0:0:0:0:
192,192,180843,1,0,0:0:0:0:
320,192,180918,1,0,0:0:0:0:
448,192,180993,1,0,0:0:0:0:
320,192,181068,1,0,0:0:0:0:
192,192,181068,1,0,0:0:0:0:
448,192,181068,1,0,0:0:0:0:
64,192,181143,1,0,0:0:0:0:
192,192,181218,1,0,0:0:0:0:
320,192,181293,1,0,0:0:0:0:
448,192,181368,1,0,0:0:0:0:
64,192,181368,1,0,0:0:0:0:
192,192,181443,1,0,0:0:0:0:
320,192,181518,1,0,0:0:0:0:
192,192,181593,1,0,0:0:0:0:
64,192,181668,1,0,0:0:0:0:
320,192,181668,1,0,0:0:0:0:
448,192,181668,1,0,0:0:0:0:
320,192,181743,1,0,0:0:0:0:
192,192,181818,1,0,0:0:0:0:
320,192,181893,1,0,0:0:0:0:
448,192,181968,1,0,0:0:0:0:
64,192,181968,1,0,0:0:0:0:
192,192,182043,1,0,0:0:0:0:
448,192,182118,1,0,0:0:0:0:
320,192,182193,1,0,0:0:0:0:
192,192,182268,1,0,0:0:0:0:
64,192,182268,1,0,0:0:0:0:
448,192,182268,1,0,0:0:0:0:
64,192,182343,1,0,0:0:0:0:
192,192,182418,1,0,0:0:0:0:
320,192,182493,1,0,0:0:0:0:
448,192,182568,1,0,0:0:0:0:
192,192,182568,1,0,0:0:0:0:
64,192,182643,1,0,0:0:0:0:
320,192,182718,1,0,0:0:0:0:
448,192,182793,1,0,0:0:0:0:
192,192,182868,1,0,0:0:0:0:
320,192,182868,1,0,0:0:0:0:
448,192,182868,1,0,0:0:0:0:
64,192,182943,1,0,0:0:0:0:
192,192,183018,1,0,0:0:0:0:
320,192,183093,1,0,0:0:0:0:
192,192,183168,1,0,0:0:0:0:
64,192,183168,1,0,0:0:0:0:
320,192,183243,1,0,0:0:0:0:
448,192,183318,1,0,0:0:0:0:
192,192,183393,1,0,0:0:0:0:
64,192,183468,1,0,0:0:0:0:
448,192,183468,1,0,0:0:0:0:
320,192,183468,1,0,0:0:0:0:
320,192,183543,1,0,0:0:0:0:
192,192,183618,1,0,0:0:0:0:
320,192,183693,1,0,0:0:0:0:
448,192,183768,1,0,0:0:0:0:
64,192,183768,1,0,0:0:0:0:
192,192,183843,1,0,0:0:0:0:
320,192,183918,1,0,0:0:0:0:
64,192,183993,1,0,0:0:0:0:
192,192,184068,1,0,0:0:0:0:
320,192,184068,1,0,0:0:0:0:
448,192,184068,1,0,0:0:0:0:
320,192,184143,1,0,0:0:0:0:
192,192,184218,1,0,0:0:0:0:
320,192,184293,1,0,0:0:0:0:
448,192,184368,1,0,0:0:0:0:
64,192,184368,1,0,0:0:0:0:
192,192,184443,1,0,0:0:0:0:
320,192,184518,1,0,0:0:0:0:
64,192,184593,1,0,0:0:0:0:
64,192,184668,1,0,0:0:0:0:
192,192,184668,1,0,0:0:0:0:
320,192,184668,1,0,0:0:0:0:
448,192,184743,1,0,0:0:0:0:
192,192,184818,1,0,0:0:0:0:
320,192,184893,1,0,0:0:0:0:
64,192,184968,1,0,0:0:0:0:
192,192,184968,1,0,0:0:0:0:
320,192,185043,1,0,0:0:0:0:
448,192,185118,1,0,0:0:0:0:
192,192,185193,1,0,0:0:0:0:
64,192,185268,1,0,0:0:0:0:
320,192,185268,1,0,0:0:0:0:
448,192,185268,1,0,0:0:0:0:
320,192,185343,1,0,0:0:0:0:
192,192,185418,1,0,0:0:0:0:
64,192,185493,1,0,0:0:0:0:
320,192,185568,1,0,0:0:0:0:
448,192,185568,1,0,0:0:0:0:
192,192,185643,1,0,0:0:0:0:
64,192,185718,1,0,0:0:0:0:
320,192,185793,1,0,0:0:0:0:
448,192,185868,1,0,0:0:0:0:
64,192,185868,1,0,0:0:0:0:
192,192,185868,1,0,0:0:0:0:
192,192,185943,1,0,0:0:0:0:
320,192,186018,1,0,0:0:0:0:
192,192,186093,1,0,0:0:0:0:
64,192,186168,1,0,0:0:0:0:
320,192,186168,1,0,0:0:0:0:
448,192,186243,1,0,0:0:0:0:
192,192,186318,1,0,0:0:0:0:
320,192,186393,1,0,0:0:0:0:
64,192,186468,1,0,0:0:0:0:
192,192,186468,1,0,0:0:0:0:
448,192,186468,1,0,0:0:0:0:
192,192,186543,1,0,0:0:0:0:
64,192,186618,1,0,0:0:0:0:
448,192,186693,1,0,0:0:0:0:
320,192,186768,1,0,0:0:0:0:
192,192,186768,1,0,0:0:0:0:
64,192,186843,1,0,0:0:0:0:
320,192,186918,1,0,0:0:0:0:
448,192,186993,1,0,0:0:0:0:
64,192,187068,1,0,0:0:0:0:
192,192,187068,1,0,0:0:0:0:
448,192,187068,1,0,0:0:0:0:
320,192,187143,1,0,0:0:0:0:
192,192,187218,1,0,0:0:0:0:
448,192,187293,1,0,0:0:0:0:
64,192,187368,1,0,0:0:0:0:
192,192,187368,1,0,0:0:0:0:
320,192,187443,1,0,0:0:0:0:
448,192,187518,1,0,0:0:0:0:
192,192,187593,1,0,0:0:0:0:
64,192,187668,1,0,0:0:0:0:
320,192,187668,1,0,0:0:0:0:
192,192,187668,1,0,0:0:0:0:
448,192,187743,1,0,0:0:0:0:
192,192,187818,1,0,0:0:0:0:
320,192,187893,1,0,0:0:0:0:
448,192,187968,1,0,0:0:0:0:
64,192,187968,1,0,0:0:0:0:
192,192,188418,1,0,0:0:0:0:
320,192,188868,1,0,0:0:0:0:
64,192,189168,1,0,0:0:0:0:
320,192,189318,1,0,0:0:0:0:
64,192,189768,1,0,0:0:0:0:
448,192,190068,1,0,0:0:0:0:
64,192,190368,1,0,0:0:0:0:
192,192,190368,128,0,193968:0:0:0:0:
448,192,200568,5,0,0:0:0:0:
320,192,200568,1,0,0:0:0:0:
64,192,200643,1,0,0:0:0:0:
192,192,200718,1,0,0:0:0:0:
320,192,200793,1,0,0:0:0:0:
448,192,200868,1,0,0:0:0:0:
320,192,200868,1,0,0:0:0:0:
64,192,200943,1,0,0:0:0:0:
192,192,201018,1,0,0:0:0:0:
320,192,201093,1,0,0:0:0:0:
448,192,201168,1,0,0:0:0:0:
320,192,201168,1,0,0:0:0:0:
64,192,201243,1,0,0:0:0:0:
192,192,201318,1,0,0:0:0:0:
320,192,201393,1,0,0:0:0:0:
448,192,201468,1,0,0:0:0:0:
320,192,201468,1,0,0:0:0:0:
64,192,201543,1,0,0:0:0:0:
192,192,201618,1,0,0:0:0:0:
320,192,201693,1,0,0:0:0:0:
64,192,201768,1,0,0:0:0:0:
192,192,201768,1,0,0:0:0:0:
448,192,201843,1,0,0:0:0:0:
320,192,201918,1,0,0:0:0:0:
192,192,201993,1,0,0:0:0:0:
64,192,202068,1,0,0:0:0:0:
192,192,202068,1,0,0:0:0:0:
448,192,202143,1,0,0:0:0:0:
320,192,202218,1,0,0:0:0:0:
192,192,202293,1,0,0:0:0:0:
64,192,202368,1,0,0:0:0:0:
192,192,202368,1,0,0:0:0:0:
448,192,202443,1,0,0:0:0:0:
320,192,202518,1,0,0:0:0:0:
192,192,202593,1,0,0:0:0:0:
64,192,202668,1,0,0:0:0:0:
192,192,202668,1,0,0:0:0:0:
448,192,202743,1,0,0:0:0:0:
320,192,202818,1,0,0:0:0:0:
192,192,202893,1,0,0:0:0:0:
448,192,202968,5,0,0:0:0:0:
320,192,202968,1,0,0:0:0:0:
64,192,203043,1,0,0:0:0:0:
192,192,203118,1,0,0:0:0:0:
448,192,203193,1,0,0:0:0:0:
448,192,203268,1,0,0:0:0:0:
320,192,203268,1,0,0:0:0:0:
64,192,203343,1,0,0:0:0:0:
192,192,203418,1,0,0:0:0:0:
448,192,203493,1,0,0:0:0:0:
448,192,203568,1,0,0:0:0:0:
320,192,203568,1,0,0:0:0:0:
64,192,203643,1,0,0:0:0:0:
192,192,203718,1,0,0:0:0:0:
448,192,203793,1,0,0:0:0:0:
448,192,203868,1,0,0:0:0:0:
320,192,203868,1,0,0:0:0:0:
64,192,203943,1,0,0:0:0:0:
192,192,204018,1,0,0:0:0:0:
448,192,204093,1,0,0:0:0:0:
448,192,204168,5,0,0:0:0:0:
320,192,204168,1,0,0:0:0:0:
64,192,204243,1,0,0:0:0:0:
192,192,204318,1,0,0:0:0:0:
448,192,204393,1,0,0:0:0:0:
320,192,204468,1,0,0:0:0:0:
448,192,204468,1,0,0:0:0:0:
64,192,204543,1,0,0:0:0:0:
192,192,204618,1,0,0:0:0:0:
448,192,204693,1,0,0:0:0:0:
320,192,204768,1,0,0:0:0:0:
448,192,204768,1,0,0:0:0:0:
64,192,204843,1,0,0:0:0:0:
192,192,204918,1,0,0:0:0:0:
448,192,204993,1,0,0:0:0:0:
320,192,205068,1,0,0:0:0:0:
448,192,205068,1,0,0:0:0:0:
64,192,205143,1,0,0:0:0:0:
192,192,205218,1,0,0:0:0:0:
448,192,205293,1,0,0:0:0:0:
64,192,205368,1,0,0:0:0:0:
192,192,205368,1,0,0:0:0:0:
448,192,205443,1,0,0:0:0:0:
320,192,205518,1,0,0:0:0:0:
192,192,205593,1,0,0:0:0:0:
64,192,205668,1,0,0:0:0:0:
192,192,205668,1,0,0:0:0:0:
448,192,205743,1,0,0:0:0:0:
320,192,205818,1,0,0:0:0:0:
192,192,205893,1,0,0:0:0:0:
64,192,205968,1,0,0:0:0:0:
192,192,205968,1,0,0:0:0:0:
448,192,206043,1,0,0:0:0:0:
320,192,206118,1,0,0:0:0:0:
192,192,206193,1,0,0:0:0:0:
64,192,206268,1,0,0:0:0:0:
192,192,206268,1,0,0:0:0:0:
448,192,206343,1,0,0:0:0:0:
320,192,206418,1,0,0:0:0:0:
192,192,206493,1,0,0:0:0:0:
64,192,206568,1,0,0:0:0:0:
192,192,206568,1,0,0:0:0:0:
448,192,206643,1,0,0:0:0:0:
320,192,206718,1,0,0:0:0:0:
192,192,206793,1,0,0:0:0:0:
64,192,206868,1,0,0:0:0:0:
192,192,206868,1,0,0:0:0:0:
448,192,206943,1,0,0:0:0:0:
320,192,207018,1,0,0:0:0:0:
192,192,207093,1,0,0:0:0:0:
64,192,207168,1,0,0:0:0:0:
192,192,207168,1,0,0:0:0:0:
448,192,207243,1,0,0:0:0:0:
320,192,207318,1,0,0:0:0:0:
192,192,207393,1,0,0:0:0:0:
64,192,207468,1,0,0:0:0:0:
192,192,207468,1,0,0:0:0:0:
448,192,207543,1,0,0:0:0:0:
320,192,207618,1,0,0:0:0:0:
192,192,207693,1,0,0:0:0:0:
320,192,207768,1,0,0:0:0:0:
448,192,207768,1,0,0:0:0:0:
64,192,207843,1,0,0:0:0:0:
192,192,207918,1,0,0:0:0:0:
320,192,207993,1,0,0:0:0:0:
320,192,208068,1,0,0:0:0:0:
448,192,208068,1,0,0:0:0:0:
64,192,208143,1,0,0:0:0:0:
192,192,208218,1,0,0:0:0:0:
320,192,208293,1,0,0:0:0:0:
320,192,208368,1,0,0:0:0:0:
448,192,208368,1,0,0:0:0:0:
64,192,208443,1,0,0:0:0:0:
192,192,208518,1,0,0:0:0:0:
320,192,208593,1,0,0:0:0:0:
320,192,208668,1,0,0:0:0:0:
448,192,208668,1,0,0:0:0:0:
64,192,208743,1,0,0:0:0:0:
192,192,208818,1,0,0:0:0:0:
320,192,208893,1,0,0:0:0:0:
192,192,208968,1,0,0:0:0:0:
64,192,208968,1,0,0:0:0:0:
448,192,209043,1,0,0:0:0:0:
320,192,209118,1,0,0:0:0:0:
192,192,209193,1,0,0:0:0:0:
192,192,209268,1,0,0:0:0:0:
64,192,209268,1,0,0:0:0:0:
448,192,209343,1,0,0:0:0:0:
320,192,209418,1,0,0:0:0:0:
192,192,209493,1,0,0:0:0:0:
192,192,209568,1,0,0:0:0:0:
64,192,209568,1,0,0:0:0:0:
448,192,209643,1,0,0:0:0:0:
320,192,209718,1,0,0:0:0:0:
192,192,209793,1,0,0:0:0:0:
192,192,209868,1,0,0:0:0:0:
64,192,209868,1,0,0:0:0:0:
448,192,209943,1,0,0:0:0:0:
320,192,210018,1,0,0:0:0:0:
192,192,210093,1,0,0:0:0:0:
64,192,210168,1,0,0:0:0:0:
192,192,210168,1,0,0:0:0:0:
320,192,210168,1,0,0:0:0:0:
64,192,211368,1,0,0:0:0:0:
448,192,211368,1,0,0:0:0:0:
192,192,211368,1,0,0:0:0:0:
64,192,211518,1,0,0:0:0:0:
192,192,211518,1,0,0:0:0:0:
320,192,211518,1,0,0:0:0:0:
64,192,211668,1,0,0:0:0:0:
320,192,211668,1,0,0:0:0:0:
448,192,211668,1,0,0:0:0:0:
192,192,211818,1,0,0:0:0:0:
320,192,211818,1,0,0:0:0:0:
448,192,211818,1,0,0:0:0:0:
448,192,211968,1,0,0:0:0:0:
320,192,211968,1,0,0:0:0:0:
64,192,211968,128,0,212118:0:0:0:0:
448,192,212118,128,0,212268:0:0:0:0:
64,192,212268,128,0,212418:0:0:0:0:
320,192,212418,128,0,212568:0:0:0:0:
448,192,212418,1,0,0:0:0:0:
192,192,212568,1,0,0:0:0:0:
64,192,212568,1,0,0:0:0:0:
320,192,212643,1,0,0:0:0:0:
448,192,212718,1,0,0:0:0:0:
64,192,212793,1,0,0:0:0:0:
320,192,212868,1,0,0:0:0:0:
448,192,212868,1,0,0:0:0:0:
64,192,212868,1,0,0:0:0:0:
192,192,212943,1,0,0:0:0:0:
64,192,213018,1,0,0:0:0:0:
320,192,213093,1,0,0:0:0:0:
448,192,213168,1,0,0:0:0:0:
192,192,213168,1,0,0:0:0:0:
64,192,213243,1,0,0:0:0:0:
320,192,213318,1,0,0:0:0:0:
192,192,213393,1,0,0:0:0:0:
192,192,213468,1,0,0:0:0:0:
64,192,213468,1,0,0:0:0:0:
448,192,213468,1,0,0:0:0:0:
320,192,213543,1,0,0:0:0:0:
192,192,213618,1,0,0:0:0:0:
64,192,213693,1,0,0:0:0:0:
320,192,213768,1,0,0:0:0:0:
448,192,213768,1,0,0:0:0:0:
192,192,213843,1,0,0:0:0:0:
64,192,213918,1,0,0:0:0:0:
320,192,213993,1,0,0:0:0:0:
448,192,214068,1,0,0:0:0:0:
192,192,214068,1,0,0:0:0:0:
64,192,214068,1,0,0:0:0:0:
320,192,214143,1,0,0:0:0:0:
192,192,214218,1,0,0:0:0:0:
320,192,214293,1,0,0:0:0:0:
448,192,214368,1,0,0:0:0:0:
64,192,214368,1,0,0:0:0:0:
192,192,214443,1,0,0:0:0:0:
320,192,214518,1,0,0:0:0:0:
448,192,214593,1,0,0:0:0:0:
192,192,214668,1,0,0:0:0:0:
64,192,214668,1,0,0:0:0:0:
320,192,214668,1,0,0:0:0:0:
192,192,214743,1,0,0:0:0:0:
320,192,214818,1,0,0:0:0:0:
448,192,214893,1,0,0:0:0:0:
192,192,214968,1,0,0:0:0:0:
64,192,214968,1,0,0:0:0:0:
320,192,215043,1,0,0:0:0:0:
192,192,215118,1,0,0:0:0:0:
320,192,215193,1,0,0:0:0:0:
448,192,215268,1,0,0:0:0:0:
192,192,215268,1,0,0:0:0:0:
64,192,215268,1,0,0:0:0:0:
192,192,215343,1,0,0:0:0:0:
320,192,215418,1,0,0:0:0:0:
448,192,215493,1,0,0:0:0:0:
320,192,215568,1,0,0:0:0:0:
192,192,215568,1,0,0:0:0:0:
64,192,215643,1,0,0:0:0:0:
320,192,215718,1,0,0:0:0:0:
448,192,215793,1,0,0:0:0:0:
320,192,215868,1,0,0:0:0:0:
192,192,215868,1,0,0:0:0:0:
64,192,215868,1,0,0:0:0:0:
192,192,215943,1,0,0:0:0:0:
320,192,216018,1,0,0:0:0:0:
448,192,216093,1,0,0:0:0:0:
64,192,216168,1,0,0:0:0:0:
192,192,216168,1,0,0:0:0:0:
448,192,216243,1,0,0:0:0:0:
320,192,216318,1,0,0:0:0:0:
192,192,216393,1,0,0:0:0:0:
320,192,216468,1,0,0:0:0:0:
448,192,216468,1,0,0:0:0:0:
64,192,216468,1,0,0:0:0:0:
320,192,216543,1,0,0:0:0:0:
192,192,216618,1,0,0:0:0:0:
320,192,216693,1,0,0:0:0:0:
448,192,216768,1,0,0:0:0:0:
64,192,216768,1,0,0:0:0:0:
192,192,216843,1,0,0:0:0:0:
320,192,216918,1,0,0:0:0:0:
448,192,216993,1,0,0:0:0:0:
320,192,217068,1,0,0:0:0:0:
192,192,217068,1,0,0:0:0:0:
64,192,217068,1,0,0:0:0:0:
192,192,217143,1,0,0:0:0:0:
320,192,217218,1,0,0:0:0:0:
448,192,217293,1,0,0:0:0:0:
64,192,217368,1,0,0:0:0:0:
320,192,217368,1,0,0:0:0:0:
192,192,217443,1,0,0:0:0:0:
320,192,217518,1,0,0:0:0:0:
448,192,217593,1,0,0:0:0:0:
192,192,217668,1,0,0:0:0:0:
320,192,217668,1,0,0:0:0:0:
448,192,217668,1,0,0:0:0:0:
64,192,217743,1,0,0:0:0:0:
320,192,217818,1,0,0:0:0:0:
192,192,217893,1,0,0:0:0:0:
320,192,217968,1,0,0:0:0:0:
448,192,217968,1,0,0:0:0:0:
64,192,218043,1,0,0:0:0:0:
192,192,218118,1,0,0:0:0:0:
448,192,218193,1,0,0:0:0:0:
320,192,218268,1,0,0:0:0:0:
192,192,218268,1,0,0:0:0:0:
64,192,218268,1,0,0:0:0:0:
320,192,218343,1,0,0:0:0:0:
448,192,218418,1,0,0:0:0:0:
192,192,218493,1,0,0:0:0:0:
64,192,218568,1,0,0:0:0:0:
448,192,218568,1,0,0:0:0:0:
320,192,218643,1,0,0:0:0:0:
192,192,218718,1,0,0:0:0:0:
320,192,218793,1,0,0:0:0:0:
448,192,218868,1,0,0:0:0:0:
64,192,218868,1,0,0:0:0:0:
192,192,218868,1,0,0:0:0:0:
192,192,218943,1,0,0:0:0:0:
320,192,219018,1,0,0:0:0:0:
448,192,219093,1,0,0:0:0:0:
320,192,219168,1,0,0:0:0:0:
192,192,219168,1,0,0:0:0:0:
64,192,219243,1,0,0:0:0:0:
320,192,219318,1,0,0:0:0:0:
448,192,219393,1,0,0:0:0:0:
320,192,219468,1,0,0:0:0:0:
192,192,219468,1,0,0:0:0:0:
64,192,219468,1,0,0:0:0:0:
192,192,219543,1,0,0:0:0:0:
320,192,219618,1,0,0:0:0:0:
448,192,219693,1,0,0:0:0:0:
192,192,219768,1,0,0:0:0:0:
64,192,219768,1,0,0:0:0:0:
448,192,219843,1,0,0:0:0:0:
320,192,219918,1,0,0:0:0:0:
192,192,219993,1,0,0:0:0:0:
320,192,220068,1,0,0:0:0:0:
448,192,220068,1,0,0:0:0:0:
192,192,220068,1,0,0:0:0:0:
64,192,220143,1,0,0:0:0:0:
320,192,220218,1,0,0:0:0:0:
192,192,220293,1,0,0:0:0:0:
64,192,220368,1,0,0:0:0:0:
448,192,220368,1,0,0:0:0:0:
320,192,220443,1,0,0:0:0:0:
192,192,220518,1,0,0:0:0:0:
320,192,220593,1,0,0:0:0:0:
448,192,220668,1,0,0:0:0:0:
192,192,220668,1,0,0:0:0:0:
64,192,220668,1,0,0:0:0:0:
192,192,220743,1,0,0:0:0:0:
64,192,220818,1,0,0:0:0:0:
320,192,220893,1,0,0:0:0:0:
448,192,220968,1,0,0:0:0:0:
64,192,220968,1,0,0:0:0:0:
192,192,221043,1,0,0:0:0:0:
320,192,221118,1,0,0:0:0:0:
192,192,221193,1,0,0:0:0:0:
64,192,221268,1,0,0:0:0:0:
320,192,221268,1,0,0:0:0:0:
448,192,221268,1,0,0:0:0:0:
320,192,221343,1,0,0:0:0:0:
192,192,221418,1,0,0:0:0:0:
64,192,221493,1,0,0:0:0:0:
64,192,221568,1,0,0:0:0:0:
192,192,221568,1,0,0:0:0:0:
320,192,221643,1,0,0:0:0:0:
448,192,221718,1,0,0:0:0:0:
64,192,221793,1,0,0:0:0:0:
448,192,221868,1,0,0:0:0:0:
64,192,221868,1,0,0:0:0:0:
192,192,221868,1,0,0:0:0:0:
320,192,221943,1,0,0:0:0:0:
448,192,222018,1,0,0:0:0:0:
192,192,222093,1,0,0:0:0:0:
320,192,222168,1,0,0:0:0:0:
64,192,222168,1,0,0:0:0:0:
448,192,222243,1,0,0:0:0:0:
192,192,222318,1,0,0:0:0:0:
320,192,222393,1,0,0:0:0:0:
64,192,222468,1,0,0:0:0:0:
448,192,222468,1,0,0:0:0:0:
320,192,222468,1,0,0:0:0:0:
192,192,222543,1,0,0:0:0:0:
320,192,222618,1,0,0:0:0:0:
448,192,222693,1,0,0:0:0:0:
64,192,222768,1,0,0:0:0:0:
192,192,222768,1,0,0:0:0:0:
320,192,222843,1,0,0:0:0:0:
448,192,222918,1,0,0:0:0:0:
192,192,222993,1,0,0:0:0:0:
448,192,223068,1,0,0:0:0:0:
320,192,223068,1,0,0:0:0:0:
64,192,223068,1,0,0:0:0:0:
192,192,223143,1,0,0:0:0:0:
320,192,223218,1,0,0:0:0:0:
192,192,223293,1,0,0:0:0:0:
448,192,223368,1,0,0:0:0:0:
64,192,223368,1,0,0:0:0:0:
320,192,223443,1,0,0:0:0:0:
192,192,223518,1,0,0:0:0:0:
64,192,223593,1,0,0:0:0:0:
192,192,223668,1,0,0:0:0:0:
448,192,223668,1,0,0:0:0:0:
320,192,223668,1,0,0:0:0:0:
320,192,223743,1,0,0:0:0:0:
192,192,223818,1,0,0:0:0:0:
64,192,223893,1,0,0:0:0:0:
448,192,223968,1,0,0:0:0:0:
320,192,223968,1,0,0:0:0:0:
192,192,224043,1,0,0:0:0:0:
320,192,224118,1,0,0:0:0:0:
192,192,224193,1,0,0:0:0:0:
448,192,224268,1,0,0:0:0:0:
320,192,224268,1,0,0:0:0:0:
64,192,224268,1,0,0:0:0:0:
320,192,224343,1,0,0:0:0:0:
192,192,224418,1,0,0:0:0:0:
64,192,224493,1,0,0:0:0:0:
320,192,224568,1,0,0:0:0:0:
192,192,224568,1,0,0:0:0:0:
448,192,224643,1,0,0:0:0:0:
192,192,224718,1,0,0:0:0:0:
64,192,224793,1,0,0:0:0:0:
448,192,224868,1,0,0:0:0:0:
320,192,224868,1,0,0:0:0:0:
192,192,224868,1,0,0:0:0:0:
320,192,224943,1,0,0:0:0:0:
192,192,225018,1,0,0:0:0:0:
64,192,225093,1,0,0:0:0:0:
320,192,225168,1,0,0:0:0:0:
448,192,225168,1,0,0:0:0:0:
64,192,225243,1,0,0:0:0:0:
192,192,225318,1,0,0:0:0:0:
320,192,225393,1,0,0:0:0:0:
448,192,225468,1,0,0:0:0:0:
64,192,225468,1,0,0:0:0:0:
192,192,225468,1,0,0:0:0:0:
192,192,225543,1,0,0:0:0:0:
320,192,225618,1,0,0:0:0:0:
192,192,225693,1,0,0:0:0:0:
448,192,225768,1,0,0:0:0:0:
64,192,225768,1,0,0:0:0:0:
320,192,225843,1,0,0:0:0:0:
192,192,225918,1,0,0:0:0:0:
64,192,225993,1,0,0:0:0:0:
448,192,226068,1,0,0:0:0:0:
320,192,226068,1,0,0:0:0:0:
192,192,226068,1,0,0:0:0:0:
320,192,226143,1,0,0:0:0:0:
192,192,226218,1,0,0:0:0:0:
64,192,226293,1,0,0:0:0:0:
192,192,226368,1,0,0:0:0:0:
448,192,226368,1,0,0:0:0:0:
320,192,226443,1,0,0:0:0:0:
192,192,226518,1,0,0:0:0:0:
64,192,226593,1,0,0:0:0:0:
64,192,226668,1,0,0:0:0:0:
192,192,226668,1,0,0:0:0:0:
320,192,226668,1,0,0:0:0:0:
448,192,226743,1,0,0:0:0:0:
192,192,226818,1,0,0:0:0:0:
320,192,226893,1,0,0:0:0:0:
64,192,226968,1,0,0:0:0:0:
192,192,226968,1,0,0:0:0:0:
448,192,227043,1,0,0:0:0:0:
320,192,227118,1,0,0:0:0:0:
64,192,227193,1,0,0:0:0:0:
448,192,227268,1,0,0:0:0:0:
320,192,227268,1,0,0:0:0:0:
192,192,227268,1,0,0:0:0:0:
192,192,227343,1,0,0:0:0:0:
64,192,227418,1,0,0:0:0:0:
320,192,227493,1,0,0:0:0:0:
64,192,227568,1,0,0:0:0:0:
448,192,227568,1,0,0:0:0:0:
192,192,227643,1,0,0:0:0:0:
320,192,227718,1,0,0:0:0:0:
192,192,227793,1,0,0:0:0:0:
320,192,227868,1,0,0:0:0:0:
448,192,227868,1,0,0:0:0:0:
64,192,227868,1,0,0:0:0:0:
320,192,227943,1,0,0:0:0:0:
192,192,228018,1,0,0:0:0:0:
64,192,228093,1,0,0:0:0:0:
320,192,228168,1,0,0:0:0:0:
192,192,228168,1,0,0:0:0:0:
448,192,228243,1,0,0:0:0:0:
192,192,228318,1,0,0:0:0:0:
64,192,228393,1,0,0:0:0:0:
448,192,228468,1,0,0:0:0:0:
320,192,228468,1,0,0:0:0:0:
192,192,228468,1,0,0:0:0:0:
320,192,228543,1,0,0:0:0:0:
192,192,228618,1,0,0:0:0:0:
64,192,228693,1,0,0:0:0:0:
448,192,228768,1,0,0:0:0:0:
320,192,228768,1,0,0:0:0:0:
64,192,228843,1,0,0:0:0:0:
192,192,228918,1,0,0:0:0:0:
320,192,228993,1,0,0:0:0:0:
320,192,229068,1,0,0:0:0:0:
64,192,229068,1,0,0:0:0:0:
192,192,229068,1,0,0:0:0:0:
448,192,229143,1,0,0:0:0:0:
192,192,229218,1,0,0:0:0:0:
320,192,229293,1,0,0:0:0:0:
64,192,229368,1,0,0:0:0:0:
448,192,229368,1,0,0:0:0:0:
192,192,229368,1,0,0:0:0:0:
192,192,229518,1,0,0:0:0:0:
448,192,229668,1,0,0:0:0:0:
64,192,229668,1,0,0:0:0:0:
320,192,229818,1,0,0:0:0:0:
448,192,229968,1,0,0:0:0:0:
192,192,229968,1,0,0:0:0:0:
64,192,229968,1,0,0:0:0:0:
320,192,230118,1,0,0:0:0:0:
192,192,230118,1,0,0:0:0:0:
64,192,230118,1,0,0:0:0:0:
448,192,230268,1,0,0:0:0:0:
192,192,230268,1,0,0:0:0:0:
320,192,230418,1,0,0:0:0:0:
448,192,230568,1,0,0:0:0:0:
320,192,230568,1,0,0:0:0:0:
64,192,230643,1,0,0:0:0:0:
192,192,230718,1,0,0:0:0:0:
320,192,230793,1,0,0:0:0:0:
448,192,230868,1,0,0:0:0:0:
192,192,230868,1,0,0:0:0:0:
64,192,230868,1,0,0:0:0:0:
192,192,230943,1,0,0:0:0:0:
320,192,231018,1,0,0:0:0:0:
192,192,231093,1,0,0:0:0:0:
64,192,231168,1,0,0:0:0:0:
448,192,231168,1,0,0:0:0:0:
320,192,231243,1,0,0:0:0:0:
192,192,231318,1,0,0:0:0:0:
64,192,231393,1,0,0:0:0:0:
192,192,231468,1,0,0:0:0:0:
320,192,231468,1,0,0:0:0:0:
448,192,231468,1,0,0:0:0:0:
320,192,231543,1,0,0:0:0:0:
192,192,231618,1,0,0:0:0:0:
448,192,231693,1,0,0:0:0:0:
192,192,231768,1,0,0:0:0:0:
64,192,231768,1,0,0:0:0:0:
320,192,231768,1,0,0:0:0:0:
320,192,232068,1,0,0:0:0:0:
448,192,232068,1,0,0:0:0:0:
64,192,232068,1,0,0:0:0:0:
320,192,232218,1,0,0:0:0:0:
192,192,232218,1,0,0:0:0:0:
64,192,232218,1,0,0:0:0:0:
64,192,232368,1,0,0:0:0:0:
448,192,232368,1,0,0:0:0:0:
192,192,232368,1,0,0:0:0:0:
192,192,232668,1,0,0:0:0:0:
320,192,232818,1,0,0:0:0:0:
448,192,232818,1,0,0:0:0:0:
64,192,232818,1,0,0:0:0:0:
64,192,232968,128,0,233268:0:0:0:0:
192,192,232968,1,0,0:0:0:0:
320,192,232968,1,0,0:0:0:0:
448,192,233118,1,0,0:0:0:0:
320,192,233268,128,0,233568:0:0:0:0:
192,192,233268,1,0,0:0:0:0:
448,192,233268,1,0,0:0:0:0:
64,192,233418,1,0,0:0:0:0:
192,192,233568,128,0,233868:0:0:0:0:
64,192,233568,1,0,0:0:0:0:
448,192,233568,1,0,0:0:0:0:
320,192,233718,1,0,0:0:0:0:
448,192,233868,128,0,234018:0:0:0:0:
64,192,233868,1,0,0:0:0:0:
320,192,233868,1,0,0:0:0:0:
192,192,234018,128,0,234243:0:0:0:0:
320,192,234168,1,0,0:0:0:0:
448,192,234168,1,0,0:0:0:0:
64,192,234168,1,0,0:0:0:0:
192,192,234318,128,0,234468:0:0:0:0:
448,192,234468,128,0,234768:0:0:0:0:
320,192,234468,1,0,0:0:0:0:
64,192,234468,1,0,0:0:0:0:
192,192,234618,1,0,0:0:0:0:
64,192,234768,128,0,235068:0:0:0:0:
320,192,234768,1,0,0:0:0:0:
192,192,234768,1,0,0:0:0:0:
320,192,234918,1,0,0:0:0:0:
448,192,235068,128,0,235218:0:0:0:0:
320,192,235068,1,0,0:0:0:0:
192,192,235068,1,0,0:0:0:0:
192,192,235218,128,0,235443:0:0:0:0:
320,192,235368,1,0,0:0:0:0:
448,192,235368,1,0,0:0:0:0:
64,192,235368,1,0,0:0:0:0:
192,192,235518,128,0,235668:0:0:0:0:
448,192,235668,128,0,235968:0:0:0:0:
320,192,235668,1,0,0:0:0:0:
64,192,235668,1,0,0:0:0:0:
320,192,235818,1,0,0:0:0:0:
320,192,235968,1,0,0:0:0:0:
64,192,235968,1,0,0:0:0:0:
192,192,235968,128,0,236268:0:0:0:0:
448,192,236118,1,0,0:0:0:0:
320,192,236268,128,0,236418:0:0:0:0:
448,192,236268,1,0,0:0:0:0:
64,192,236268,1,0,0:0:0:0:
64,192,236418,128,0,236643:0:0:0:0:
448,192,236568,1,0,0:0:0:0:
320,192,236568,1,0,0:0:0:0:
192,192,236568,1,0,0:0:0:0:
64,192,236718,128,0,236868:0:0:0:0:
448,192,236718,1,0,0:0:0:0:
320,192,236868,128,0,237168:0:0:0:0:
448,192,236868,1,0,0:0:0:0:
192,192,236868,1,0,0:0:0:0:
64,192,237018,1,0,0:0:0:0:
448,192,237168,128,0,237468:0:0:0:0:
192,192,237168,1,0,0:0:0:0:
64,192,237168,1,0,0:0:0:0:
320,192,237318,1,0,0:0:0:0:
64,192,237468,128,0,237768:0:0:0:0:
320,192,237468,1,0,0:0:0:0:
192,192,237468,1,0,0:0:0:0:
192,192,237618,1,0,0:0:0:0:
320,192,237768,128,0,238068:0:0:0:0:
192,192,237768,1,0,0:0:0:0:
448,192,237768,1,0,0:0:0:0:
64,192,237918,1,0,0:0:0:0:
192,192,238068,128,0,238368:0:0:0:0:
448,192,238068,1,0,0:0:0:0:
64,192,238068,1,0,0:0:0:0:
320,192,238218,1,0,0:0:0:0:
448,192,238368,128,0,238668:0:0:0:0:
320,192,238368,1,0,0:0:0:0:
64,192,238368,1,0,0:0:0:0:
192,192,238518,1,0,0:0:0:0:
320,192,238668,1,0,0:0:0:0:
64,192,238668,128,0,238818:0:0:0:0:
192,192,238668,1,0,0:0:0:0:
320,192,238818,128,0,239043:0:0:0:0:
448,192,238968,1,0,0:0:0:0:
192,192,238968,1,0,0:0:0:0:
64,192,238968,1,0,0:0:0:0:
320,192,239118,128,0,239268:0:0:0:0:
192,192,239268,1,0,0:0:0:0:
448,192,239268,128,0,239568:0:0:0:0:
64,192,239268,1,0,0:0:0:0:
192,192,239418,1,0,0:0:0:0:
64,192,239568,128,0,239868:0:0:0:0:
320,192,239568,1,0,0:0:0:0:
192,192,239568,1,0,0:0:0:0:
320,192,239718,1,0,0:0:0:0:
448,192,239868,128,0,240018:0:0:0:0:
320,192,239868,1,0,0:0:0:0:
192,192,239868,1,0,0:0:0:0:
192,192,240018,128,0,240768:0:0:0:0:
320,192,240168,1,0,0:0:0:0:
448,192,240168,1,0,0:0:0:0:
64,192,240168,1,0,0:0:0:0:
448,192,240318,1,0,0:0:0:0:
448,192,240468,1,0,0:0:0:0:
64,192,240468,1,0,0:0:0:0:
320,192,240468,1,0,0:0:0:0:
320,192,240618,1,0,0:0:0:0:
320,192,240768,1,0,0:0:0:0:
64,192,240768,1,0,0:0:0:0:
448,192,240768,128,0,241368:0:0:0:0:
320,192,240918,1,0,0:0:0:0:
192,192,241068,1,0,0:0:0:0:
64,192,241068,1,0,0:0:0:0:
320,192,241068,1,0,0:0:0:0:
192,192,241218,1,0,0:0:0:0:
320,192,241368,1,0,0:0:0:0:
192,192,241368,1,0,0:0:0:0:
64,192,241368,128,0,241968:0:0:0:0:
448,192,241518,1,0,0:0:0:0:
448,192,241668,1,0,0:0:0:0:
192,192,241668,1,0,0:0:0:0:
320,192,241668,1,0,0:0:0:0:
320,192,241818,1,0,0:0:0:0:
192,192,241968,1,0,0:0:0:0:
320,192,241968,1,0,0:0:0:0:
448,192,241968,128,0,242268:0:0:0:0:
320,192,242118,1,0,0:0:0:0:
64,192,242268,128,0,242568:0:0:0:0:
192,192,242268,1,0,0:0:0:0:
320,192,242418,1,0,0:0:0:0:
320,192,242568,128,0,242868:0:0:0:0:
192,192,242568,1,0,0:0:0:0:
448,192,242568,1,0,0:0:0:0:
64,192,242718,1,0,0:0:0:0:
192,192,242868,128,0,243168:0:0:0:0:
448,192,242868,1,0,0:0:0:0:
64,192,242868,1,0,0:0:0:0:
320,192,243018,1,0,0:0:0:0:
448,192,243168,128,0,243468:0:0:0:0:
320,192,243168,1,0,0:0:0:0:
64,192,243168,1,0,0:0:0:0:
192,192,243318,1,0,0:0:0:0:
320,192,243468,1,0,0:0:0:0:
64,192,243468,128,0,243618:0:0:0:0:
192,192,243468,1,0,0:0:0:0:
320,192,243618,128,0,243843:0:0:0:0:
448,192,243768,1,0,0:0:0:0:
192,192,243768,1,0,0:0:0:0:
64,192,243768,1,0,0:0:0:0:
320,192,243918,128,0,244068:0:0:0:0:
64,192,244068,128,0,244368:0:0:0:0:
448,192,244068,1,0,0:0:0:0:
192,192,244068,1,0,0:0:0:0:
320,192,244218,1,0,0:0:0:0:
320,192,244368,1,0,0:0:0:0:
192,192,244368,1,0,0:0:0:0:
448,192,244368,128,0,244668:0:0:0:0:
192,192,244518,1,0,0:0:0:0:
320,192,244668,1,0,0:0:0:0:
192,192,244668,1,0,0:0:0:0:
64,192,244668,128,0,244818:0:0:0:0:
320,192,244818,128,0,245043:0:0:0:0:
448,192,244968,1,0,0:0:0:0:
64,192,244968,1,0,0:0:0:0:
192,192,244968,1,0,0:0:0:0:
320,192,245118,128,0,245268:0:0:0:0:
448,192,245268,1,0,0:0:0:0:
192,192,245268,1,0,0:0:0:0:
64,192,245268,128,0,245568:0:0:0:0:
192,192,245418,1,0,0:0:0:0:
320,192,245568,128,0,245868:0:0:0:0:
448,192,245568,1,0,0:0:0:0:
192,192,245568,1,0,0:0:0:0:
64,192,245718,1,0,0:0:0:0:
448,192,245868,1,0,0:0:0:0:
64,192,245868,1,0,0:0:0:0:
192,192,245868,128,0,246018:0:0:0:0:
448,192,246018,128,0,246243:0:0:0:0:
320,192,246168,1,0,0:0:0:0:
192,192,246168,1,0,0:0:0:0:
64,192,246168,1,0,0:0:0:0:
64,192,246318,1,0,0:0:0:0:
448,192,246318,128,0,246468:0:0:0:0:
320,192,246468,1,0,0:0:0:0:
64,192,246468,1,0,0:0:0:0:
192,192,246468,128,0,246768:0:0:0:0:
448,192,246618,1,0,0:0:0:0:
448,192,246768,1,0,0:0:0:0:
320,192,246768,1,0,0:0:0:0:
64,192,246768,128,0,247068:0:0:0:0:
192,192,246918,1,0,0:0:0:0:
320,192,247068,1,0,0:0:0:0:
192,192,247068,1,0,0:0:0:0:
448,192,247068,128,0,247368:0:0:0:0:
320,192,247218,1,0,0:0:0:0:
64,192,247368,1,0,0:0:0:0:
320,192,247368,1,0,0:0:0:0:
192,192,247368,128,0,247668:0:0:0:0:
448,192,247518,1,0,0:0:0:0:
448,192,247668,1,0,0:0:0:0:
64,192,247668,1,0,0:0:0:0:
320,192,247668,128,0,247968:0:0:0:0:
192,192,247818,1,0,0:0:0:0:
448,192,247968,1,0,0:0:0:0:
192,192,247968,1,0,0:0:0:0:
64,192,247968,128,0,248268:0:0:0:0:
320,192,248118,1,0,0:0:0:0:
320,192,248268,1,0,0:0:0:0:
448,192,248268,128,0,248418:0:0:0:0:
192,192,248268,1,0,0:0:0:0:
192,192,248418,128,0,248643:0:0:0:0:
448,192,248568,1,0,0:0:0:0:
320,192,248568,1,0,0:0:0:0:
64,192,248568,1,0,0:0:0:0:
192,192,248718,128,0,248868:0:0:0:0:
320,192,248868,1,0,0:0:0:0:
64,192,248868,1,0,0:0:0:0:
448,192,248868,128,0,249168:0:0:0:0:
192,192,249018,1,0,0:0:0:0:
64,192,249168,128,0,249468:0:0:0:0:
320,192,249168,1,0,0:0:0:0:
192,192,249168,1,0,0:0:0:0:
320,192,249318,1,0,0:0:0:0:
448,192,249468,128,0,249768:0:0:0:0:
320,192,249468,1,0,0:0:0:0:
192,192,249468,1,0,0:0:0:0:
64,192,249618,1,0,0:0:0:0:
320,192,249768,1,0,0:0:0:0:
64,192,249768,1,0,0:0:0:0:
192,192,249768,128,0,250368:0:0:0:0:
448,192,249918,1,0,0:0:0:0:
448,192,250068,1,0,0:0:0:0:
320,192,250068,1,0,0:0:0:0:
64,192,250068,1,0,0:0:0:0:
320,192,250218,1,0,0:0:0:0:
448,192,250368,128,0,250968:0:0:0:0:
320,192,250368,1,0,0:0:0:0:
64,192,250368,1,0,0:0:0:0:
192,192,250518,1,0,0:0:0:0:
320,192,250668,1,0,0:0:0:0:
192,192,250668,1,0,0:0:0:0:
64,192,250668,1,0,0:0:0:0:
320,192,250818,1,0,0:0:0:0:
64,192,250968,128,0,251568:0:0:0:0:
320,192,250968,1,0,0:0:0:0:
192,192,250968,1,0,0:0:0:0:
448,192,251118,1,0,0:0:0:0:
448,192,251268,1,0,0:0:0:0:
320,192,251268,1,0,0:0:0:0:
192,192,251268,1,0,0:0:0:0:
320,192,251418,1,0,0:0:0:0:
448,192,251568,1,0,0:0:0:0:
320,192,251568,1,0,0:0:0:0:
192,192,251568,128,0,251868:0:0:0:0:
64,192,251718,1,0,0:0:0:0:
448,192,251868,1,0,0:0:0:0:
320,192,251868,1,0,0:0:0:0:
64,192,251868,1,0,0:0:0:0:
448,192,252018,1,0,0:0:0:0:
192,192,252018,1,0,0:0:0:0:
64,192,252018,1,0,0:0:0:0:
448,192,252168,128,0,252468:0:0:0:0:
320,192,252168,1,0,0:0:0:0:
192,192,252168,1,0,0:0:0:0:
64,192,252318,1,0,0:0:0:0:
192,192,252468,128,0,252768:0:0:0:0:
320,192,252468,1,0,0:0:0:0:
64,192,252468,1,0,0:0:0:0:
448,192,252618,1,0,0:0:0:0:
320,192,252768,128,0,253068:0:0:0:0:
448,192,252768,1,0,0:0:0:0:
64,192,252768,1,0,0:0:0:0:
192,192,252918,1,0,0:0:0:0:
64,192,253068,128,0,253218:0:0:0:0:
448,192,253068,1,0,0:0:0:0:
192,192,253068,1,0,0:0:0:0:
320,192,253218,128,0,253443:0:0:0:0:
192,192,253368,1,0,0:0:0:0:
64,192,253368,1,0,0:0:0:0:
448,192,253368,1,0,0:0:0:0:
320,192,253518,128,0,253668:0:0:0:0:
64,192,253668,128,0,253968:0:0:0:0:
192,192,253668,1,0,0:0:0:0:
448,192,253668,1,0,0:0:0:0:
320,192,253818,1,0,0:0:0:0:
448,192,253968,128,0,254268:0:0:0:0:
192,192,253968,1,0,0:0:0:0:
320,192,253968,1,0,0:0:0:0:
192,192,254118,1,0,0:0:0:0:
64,192,254268,128,0,254418:0:0:0:0:
192,192,254268,1,0,0:0:0:0:
320,192,254268,1,0,0:0:0:0:
320,192,254418,128,0,254643:0:0:0:0:
192,192,254568,1,0,0:0:0:0:
64,192,254568,1,0,0:0:0:0:
448,192,254568,1,0,0:0:0:0:
320,192,254718,128,0,254868:0:0:0:0:
64,192,254868,128,0,255168:0:0:0:0:
192,192,254868,1,0,0:0:0:0:
448,192,254868,1,0,0:0:0:0:
192,192,255018,1,0,0:0:0:0:
192,192,255168,1,0,0:0:0:0:
448,192,255168,1,0,0:0:0:0:
320,192,255168,128,0,255468:0:0:0:0:
64,192,255318,1,0,0:0:0:0:
192,192,255468,128,0,255618:0:0:0:0:
64,192,255468,1,0,0:0:0:0:
448,192,255468,1,0,0:0:0:0:
448,192,255618,128,0,255843:0:0:0:0:
64,192,255768,1,0,0:0:0:0:
192,192,255768,1,0,0:0:0:0:
320,192,255768,1,0,0:0:0:0:
448,192,255918,128,0,256068:0:0:0:0:
64,192,255918,1,0,0:0:0:0:
192,192,256068,128,0,256368:0:0:0:0:
64,192,256068,1,0,0:0:0:0:
320,192,256068,1,0,0:0:0:0:
448,192,256218,1,0,0:0:0:0:
64,192,256368,128,0,256668:0:0:0:0:
320,192,256368,1,0,0:0:0:0:
448,192,256368,1,0,0:0:0:0:
192,192,256518,1,0,0:0:0:0:
448,192,256668,128,0,256968:0:0:0:0:
192,192,256668,1,0,0:0:0:0:
320,192,256668,1,0,0:0:0:0:
320,192,256818,1,0,0:0:0:0:
192,192,256968,128,0,257268:0:0:0:0:
320,192,256968,1,0,0:0:0:0:
64,192,256968,1,0,0:0:0:0:
448,192,257118,1,0,0:0:0:0:
320,192,257268,128,0,257568:0:0:0:0:
64,192,257268,1,0,0:0:0:0:
448,192,257268,1,0,0:0:0:0:
192,192,257418,1,0,0:0:0:0:
64,192,257568,128,0,257868:0:0:0:0:
192,192,257568,1,0,0:0:0:0:
448,192,257568,1,0,0:0:0:0:
320,192,257718,1,0,0:0:0:0:
192,192,257868,1,0,0:0:0:0:
448,192,257868,128,0,258018:0:0:0:0:
320,192,257868,1,0,0:0:0:0:
192,192,258018,128,0,258243:0:0:0:0:
64,192,258168,1,0,0:0:0:0:
320,192,258168,1,0,0:0:0:0:
448,192,258168,1,0,0:0:0:0:
192,192,258318,128,0,258468:0:0:0:0:
320,192,258468,1,0,0:0:0:0:
64,192,258468,128,0,258768:0:0:0:0:
448,192,258468,1,0,0:0:0:0:
320,192,258618,1,0,0:0:0:0:
448,192,258768,128,0,259068:0:0:0:0:
192,192,258768,1,0,0:0:0:0:
320,192,258768,1,0,0:0:0:0:
192,192,258918,1,0,0:0:0:0:
64,192,259068,128,0,259368:0:0:0:0:
192,192,259068,1,0,0:0:0:0:
320,192,259068,1,0,0:0:0:0:
448,192,259218,1,0,0:0:0:0:
320,192,259368,128,0,259968:0:0:0:0:
192,192,259368,1,0,0:0:0:0:
448,192,259368,1,0,0:0:0:0:
64,192,259518,1,0,0:0:0:0:
64,192,259668,1,0,0:0:0:0:
448,192,259668,1,0,0:0:0:0:
192,192,259668,1,0,0:0:0:0:
192,192,259818,1,0,0:0:0:0:
192,192,259968,1,0,0:0:0:0:
448,192,259968,1,0,0:0:0:0:
64,192,259968,128,0,260568:0:0:0:0:
320,192,260118,1,0,0:0:0:0:
320,192,260268,1,0,0:0:0:0:
448,192,260268,1,0,0:0:0:0:
192,192,260268,1,0,0:0:0:0:
192,192,260418,1,0,0:0:0:0:
192,192,260568,1,0,0:0:0:0:
320,192,260568,1,0,0:0:0:0:
448,192,260568,128,0,261168:0:0:0:0:
64,192,260718,1,0,0:0:0:0:
64,192,260868,1,0,0:0:0:0:
320,192,260868,1,0,0:0:0:0:
192,192,260868,1,0,0:0:0:0:
192,192,261018,1,0,0:0:0:0:
320,192,261168,1,0,0:0:0:0:
192,192,261168,1,0,0:0:0:0:
64,192,261168,128,0,261468:0:0:0:0:
192,192,261318,1,0,0:0:0:0:
320,192,261468,1,0,0:0:0:0:
448,192,261468,1,0,0:0:0:0:
192,192,261468,1,0,0:0:0:0:
192,192,261618,1,0,0:0:0:0:
64,192,261618,1,0,0:0:0:0:
448,192,261618,1,0,0:0:0:0:
192,192,261768,128,0,262068:0:0:0:0:
320,192,261768,1,0,0:0:0:0:
64,192,261768,1,0,0:0:0:0:
448,192,261918,1,0,0:0:0:0:
320,192,262068,128,0,262368:0:0:0:0:
64,192,262068,1,0,0:0:0:0:
448,192,262068,1,0,0:0:0:0:
192,192,262218,1,0,0:0:0:0:
64,192,262368,128,0,262668:0:0:0:0:
192,192,262368,1,0,0:0:0:0:
448,192,262368,1,0,0:0:0:0:
320,192,262518,1,0,0:0:0:0:
192,192,262668,1,0,0:0:0:0:
448,192,262668,128,0,262818:0:0:0:0:
320,192,262668,1,0,0:0:0:0:
192,192,262818,128,0,263043:0:0:0:0:
64,192,262968,1,0,0:0:0:0:
320,192,262968,1,0,0:0:0:0:
448,192,262968,1,0,0:0:0:0:
192,192,263118,128,0,263268:0:0:0:0:
448,192,263268,128,0,263568:0:0:0:0:
64,192,263268,1,0,0:0:0:0:
320,192,263268,1,0,0:0:0:0:
192,192,263418,1,0,0:0:0:0:
192,192,263568,1,0,0:0:0:0:
320,192,263568,1,0,0:0:0:0:
64,192,263568,128,0,263868:0:0:0:0:
320,192,263718,1,0,0:0:0:0:
192,192,263868,1,0,0:0:0:0:
320,192,263868,1,0,0:0:0:0:
448,192,263868,128,0,264018:0:0:0:0:
192,192,264018,128,0,264243:0:0:0:0:
64,192,264168,1,0,0:0:0:0:
448,192,264168,1,0,0:0:0:0:
320,192,264168,1,0,0:0:0:0:
192,192,264318,128,0,264468:0:0:0:0:
64,192,264468,1,0,0:0:0:0:
320,192,264468,1,0,0:0:0:0:
448,192,264468,128,0,264768:0:0:0:0:
320,192,264618,1,0,0:0:0:0:
192,192,264768,128,0,265068:0:0:0:0:
64,192,264768,1,0,0:0:0:0:
320,192,264768,1,0,0:0:0:0:
448,192,264918,1,0,0:0:0:0:
64,192,265068,1,0,0:0:0:0:
448,192,265068,1,0,0:0:0:0:
320,192,265068,128,0,265218:0:0:0:0:
64,192,265218,128,0,265443:0:0:0:0:
192,192,265368,1,0,0:0:0:0:
320,192,265368,1,0,0:0:0:0:
448,192,265368,1,0,0:0:0:0:
448,192,265518,1,0,0:0:0:0:
64,192,265518,128,0,265668:0:0:0:0:
192,192,265668,1,0,0:0:0:0:
448,192,265668,1,0,0:0:0:0:
320,192,265668,128,0,265968:0:0:0:0:
64,192,265818,1,0,0:0:0:0:
64,192,265968,1,0,0:0:0:0:
192,192,265968,1,0,0:0:0:0:
448,192,265968,128,0,266268:0:0:0:0:
320,192,266118,1,0,0:0:0:0:
192,192,266268,1,0,0:0:0:0:
320,192,266268,1,0,0:0:0:0:
64,192,266268,128,0,266568:0:0:0:0:
192,192,266418,1,0,0:0:0:0:
448,192,266568,1,0,0:0:0:0:
192,192,266568,1,0,0:0:0:0:
320,192,266568,128,0,266868:0:0:0:0:
64,192,266718,1,0,0:0:0:0:
64,192,266868,1,0,0:0:0:0:
448,192,266868,1,0,0:0:0:0:
192,192,266868,128,0,267168:0:0:0:0:
320,192,267018,1,0,0:0:0:0:
64,192,267168,1,0,0:0:0:0:
320,192,267168,1,0,0:0:0:0:
448,192,267168,128,0,267468:0:0:0:0:
192,192,267318,1,0,0:0:0:0:
192,192,267468,1,0,0:0:0:0:
64,192,267468,128,0,267618:0:0:0:0:
320,192,267468,1,0,0:0:0:0:
320,192,267618,128,0,267843:0:0:0:0:
64,192,267768,1,0,0:0:0:0:
192,192,267768,1,0,0:0:0:0:
448,192,267768,1,0,0:0:0:0:
320,192,267918,128,0,268068:0:0:0:0:
192,192,268068,1,0,0:0:0:0:
448,192,268068,1,0,0:0:0:0:
64,192,268068,128,0,268368:0:0:0:0:
320,192,268218,1,0,0:0:0:0:
448,192,268368,128,0,268668:0:0:0:0:
192,192,268368,1,0,0:0:0:0:
320,192,268368,1,0,0:0:0:0:
192,192,268518,1,0,0:0:0:0:
64,192,268668,128,0,268968:0:0:0:0:
192,192,268668,1,0,0:0:0:0:
320,192,268668,1,0,0:0:0:0:
448,192,268818,1,0,0:0:0:0:
192,192,268968,1,0,0:0:0:0:
448,192,268968,1,0,0:0:0:0:
320,192,268968,128,0,269568:0:0:0:0:
192,192,269418,1,0,0:0:0:0:
64,192,269418,1,0,0:0:0:0:
64,192,269568,128,0,270168:0:0:0:0:
192,192,269568,1,0,0:0:0:0:
448,192,269568,1,0,0:0:0:0:
448,192,270168,128,0,270768:0:0:0:0:
192,192,270168,1,0,0:0:0:0:
320,192,270168,1,0,0:0:0:0:
320,192,270618,1,0,0:0:0:0:
192,192,270618,1,0,0:0:0:0:
64,192,270618,1,0,0:0:0:0:
192,192,270768,128,0,271068:0:0:0:0:
320,192,270918,1,0,0:0:0:0:
448,192,270918,1,0,0:0:0:0:
64,192,270918,1,0,0:0:0:0:
320,192,271068,128,0,271368:0:0:0:0:
448,192,271368,1,0,0:0:0:0:
64,192,271368,1,0,0:0:0:0:
192,192,271368,1,0,0:0:0:0:
320,192,271518,1,0,0:0:0:0:
192,192,271668,1,0,0:0:0:0:
448,192,271668,1,0,0:0:0:0:
320,192,271668,1,0,0:0:0:0:
64,192,271668,1,0,0:0:0:0:
192,192,271818,1,0,0:0:0:0:
320,192,271968,1,0,0:0:0:0:
448,192,271968,1,0,0:0:0:0:
64,192,271968,1,0,0:0:0:0:
64,192,272118,1,0,0:0:0:0:
448,192,272268,1,0,0:0:0:0:
320,192,272268,1,0,0:0:0:0:
192,192,272268,1,0,0:0:0:0:
64,192,272268,1,0,0:0:0:0:
320,192,272418,1,0,0:0:0:0:
448,192,272568,1,0,0:0:0:0:
192,192,272568,1,0,0:0:0:0:
64,192,272568,1,0,0:0:0:0:
192,192,272718,1,0,0:0:0:0:
320,192,272868,1,0,0:0:0:0:
448,192,272868,1,0,0:0:0:0:
192,192,272868,1,0,0:0:0:0:
64,192,272868,1,0,0:0:0:0:
64,192,273018,1,0,0:0:0:0:
320,192,273168,1,0,0:0:0:0:
448,192,273168,1,0,0:0:0:0:
64,192,273168,1,0,0:0:0:0:
320,192,273318,1,0,0:0:0:0:
192,192,273468,1,0,0:0:0:0:
448,192,273468,1,0,0:0:0:0:
320,192,273468,1,0,0:0:0:0:
64,192,273468,1,0,0:0:0:0:
192,192,273618,1,0,0:0:0:0:
320,192,273768,1,0,0:0:0:0:
448,192,273768,1,0,0:0:0:0:
64,192,273768,1,0,0:0:0:0:
64,192,273918,1,0,0:0:0:0:
448,192,274068,1,0,0:0:0:0:
320,192,274068,1,0,0:0:0:0:
192,192,274068,1,0,0:0:0:0:
64,192,274068,1,0,0:0:0:0:
320,192,274218,1,0,0:0:0:0:
448,192,274368,1,0,0:0:0:0:
192,192,274368,1,0,0:0:0:0:
64,192,274368,1,0,0:0:0:0:
192,192,274518,1,0,0:0:0:0:
320,192,274668,1,0,0:0:0:0:
448,192,274668,1,0,0:0:0:0:
192,192,274668,1,0,0:0:0:0:
64,192,274668,1,0,0:0:0:0:
448,192,274818,1,0,0:0:0:0:
192,192,274968,1,0,0:0:0:0:
448,192,274968,1,0,0:0:0:0:
320,192,274968,1,0,0:0:0:0:
320,192,275118,1,0,0:0:0:0:
320,192,275268,1,0,0:0:0:0:
64,192,275268,1,0,0:0:0:0:
192,192,275268,1,0,0:0:0:0:
448,192,275268,1,0,0:0:0:0:
192,192,275418,1,0,0:0:0:0:
64,192,275568,1,0,0:0:0:0:
448,192,275568,1,0,0:0:0:0:
320,192,275568,1,0,0:0:0:0:
192,192,275718,1,0,0:0:0:0:
192,192,275868,1,0,0:0:0:0:
64,192,275868,1,0,0:0:0:0:
448,192,275868,1,0,0:0:0:0:
320,192,275868,1,0,0:0:0:0:
320,192,276018,1,0,0:0:0:0:
448,192,276018,1,0,0:0:0:0:
64,192,276168,1,0,0:0:0:0:
192,192,276168,1,0,0:0:0:0:
320,192,276168,1,0,0:0:0:0:
192,192,276318,1,0,0:0:0:0:
192,192,276468,1,0,0:0:0:0:
64,192,276468,1,0,0:0:0:0:
320,192,276468,1,0,0:0:0:0:
448,192,276468,1,0,0:0:0:0:
320,192,276618,1,0,0:0:0:0:
448,192,276768,1,0,0:0:0:0:
320,192,276768,1,0,0:0:0:0:
192,192,276768,1,0,0:0:0:0:
192,192,276918,1,0,0:0:0:0:
448,192,277068,1,0,0:0:0:0:
192,192,277068,1,0,0:0:0:0:
64,192,277068,1,0,0:0:0:0:
320,192,277068,1,0,0:0:0:0:
320,192,277218,1,0,0:0:0:0:
448,192,277368,1,0,0:0:0:0:
192,192,277368,1,0,0:0:0:0:
64,192,277368,1,0,0:0:0:0:
192,192,277518,1,0,0:0:0:0:
320,192,277668,1,0,0:0:0:0:
448,192,277668,1,0,0:0:0:0:
64,192,277668,1,0,0:0:0:0:
192,192,277668,1,0,0:0:0:0:
448,192,277818,1,0,0:0:0:0:
320,192,277968,1,0,0:0:0:0:
192,192,277968,1,0,0:0:0:0:
64,192,277968,1,0,0:0:0:0:
320,192,278118,1,0,0:0:0:0:
448,192,278268,1,0,0:0:0:0:
192,192,278268,1,0,0:0:0:0:
64,192,278268,1,0,0:0:0:0:
320,192,278268,1,0,0:0:0:0:
64,192,278418,1,0,0:0:0:0:
192,192,278568,1,0,0:0:0:0:
320,192,278568,1,0,0:0:0:0:
448,192,278568,1,0,0:0:0:0:
320,192,278718,1,0,0:0:0:0:
448,192,278868,1,0,0:0:0:0:
192,192,278868,1,0,0:0:0:0:
64,192,278868,1,0,0:0:0:0:
320,192,278868,1,0,0:0:0:0:
192,192,279018,1,0,0:0:0:0:
320,192,279168,1,0,0:0:0:0:
64,192,279168,1,0,0:0:0:0:
448,192,279168,1,0,0:0:0:0:
320,192,279318,1,0,0:0:0:0:
320,192,279468,1,0,0:0:0:0:
64,192,279468,1,0,0:0:0:0:
192,192,279468,1,0,0:0:0:0:
448,192,279468,1,0,0:0:0:0:
192,192,279618,1,0,0:0:0:0:
64,192,279768,1,0,0:0:0:0:
448,192,279768,1,0,0:0:0:0:
320,192,279768,1,0,0:0:0:0:
192,192,279918,1,0,0:0:0:0:
192,192,280068,1,0,0:0:0:0:
64,192,280068,1,0,0:0:0:0:
448,192,280068,1,0,0:0:0:0:
320,192,280068,1,0,0:0:0:0:
448,192,280218,1,0,0:0:0:0:
64,192,280368,1,0,0:0:0:0:
192,192,280368,1,0,0:0:0:0:
320,192,280368,1,0,0:0:0:0:
192,192,280518,1,0,0:0:0:0:
320,192,280668,1,0,0:0:0:0:
64,192,280818,1,0,0:0:0:0:
448,192,280968,1,0,0:0:0:0:
320,192,280968,1,0,0:0:0:0:
192,192,280968,1,0,0:0:0:0:
192,192,281118,1,0,0:0:0:0:
448,192,281268,1,0,0:0:0:0:
192,192,281268,1,0,0:0:0:0:
64,192,281268,1,0,0:0:0:0:
320,192,281268,1,0,0:0:0:0:
320,192,281418,1,0,0:0:0:0:
448,192,281568,1,0,0:0:0:0:
192,192,281568,1,0,0:0:0:0:
64,192,281568,1,0,0:0:0:0:
192,192,281718,1,0,0:0:0:0:
320,192,281868,1,0,0:0:0:0:
448,192,281868,1,0,0:0:0:0:
64,192,281868,1,0,0:0:0:0:
192,192,281868,1,0,0:0:0:0:
448,192,282018,1,0,0:0:0:0:
320,192,282168,1,0,0:0:0:0:
192,192,282168,1,0,0:0:0:0:
64,192,282168,1,0,0:0:0:0:
320,192,282318,1,0,0:0:0:0:
448,192,282468,1,0,0:0:0:0:
192,192,282468,1,0,0:0:0:0:
64,192,282468,1,0,0:0:0:0:
320,192,282468,1,0,0:0:0:0:
64,192,282618,1,0,0:0:0:0:
192,192,282768,1,0,0:0:0:0:
64,192,282768,1,0,0:0:0:0:
448,192,282768,1,0,0:0:0:0:
320,192,282918,1,0,0:0:0:0:
448,192,283068,1,0,0:0:0:0:
192,192,283068,1,0,0:0:0:0:
64,192,283068,1,0,0:0:0:0:
320,192,283068,1,0,0:0:0:0:
192,192,283218,1,0,0:0:0:0:
320,192,283368,1,0,0:0:0:0:
448,192,283368,1,0,0:0:0:0:
64,192,283368,1,0,0:0:0:0:
320,192,283518,1,0,0:0:0:0:
448,192,283668,1,0,0:0:0:0:
320,192,283668,1,0,0:0:0:0:
192,192,283668,1,0,0:0:0:0:
64,192,283668,1,0,0:0:0:0:
192,192,283818,1,0,0:0:0:0:
320,192,283968,1,0,0:0:0:0:
192,192,283968,1,0,0:0:0:0:
64,192,283968,1,0,0:0:0:0:
320,192,284118,1,0,0:0:0:0:
448,192,284268,1,0,0:0:0:0:
192,192,284268,1,0,0:0:0:0:
64,192,284268,1,0,0:0:0:0:
320,192,284268,1,0,0:0:0:0:
192,192,284418,1,0,0:0:0:0:
320,192,284568,1,0,0:0:0:0:
448,192,284568,1,0,0:0:0:0:
64,192,284568,1,0,0:0:0:0:
320,192,284718,1,0,0:0:0:0:
192,192,284868,1,0,0:0:0:0:
448,192,284868,1,0,0:0:0:0:
320,192,284868,1,0,0:0:0:0:
64,192,284868,1,0,0:0:0:0:
192,192,285018,1,0,0:0:0:0:
320,192,285168,1,0,0:0:0:0:
448,192,285168,1,0,0:0:0:0:
64,192,285168,1,0,0:0:0:0:
192,192,285318,1,0,0:0:0:0:
448,192,285468,1,0,0:0:0:0:
320,192,285468,1,0,0:0:0:0:
192,192,285468,1,0,0:0:0:0:
64,192,285468,1,0,0:0:0:0:
448,192,285618,1,0,0:0:0:0:
320,192,285618,1,0,0:0:0:0:
320,192,285768,1,0,0:0:0:0:
192,192,285768,1,0,0:0:0:0:
64,192,285768,1,0,0:0:0:0:
192,192,285918,1,0,0:0:0:0:
320,192,286068,1,0,0:0:0:0:
448,192,286068,1,0,0:0:0:0:
192,192,286068,1,0,0:0:0:0:
64,192,286068,1,0,0:0:0:0:
320,192,286218,1,0,0:0:0:0:
192,192,286368,1,0,0:0:0:0:
64,192,286368,1,0,0:0:0:0:
448,192,286368,1,0,0:0:0:0:
192,192,286518,1,0,0:0:0:0:
64,192,286668,1,0,0:0:0:0:
320,192,286668,1,0,0:0:0:0:
448,192,286668,1,0,0:0:0:0:
192,192,286668,1,0,0:0:0:0:
320,192,286818,1,0,0:0:0:0:
64,192,286968,1,0,0:0:0:0:
192,192,286968,1,0,0:0:0:0:
448,192,286968,1,0,0:0:0:0:
192,192,287118,1,0,0:0:0:0:
64,192,287268,1,0,0:0:0:0:
192,192,287268,1,0,0:0:0:0:
320,192,287268,1,0,0:0:0:0:
448,192,287268,1,0,0:0:0:0:
448,192,287418,1,0,0:0:0:0:
64,192,287568,1,0,0:0:0:0:
192,192,287568,1,0,0:0:0:0:
320,192,287568,1,0,0:0:0:0:
320,192,287718,1,0,0:0:0:0:
64,192,287868,1,0,0:0:0:0:
320,192,287868,1,0,0:0:0:0:
448,192,287868,1,0,0:0:0:0:
192,192,287868,1,0,0:0:0:0:
64,192,288018,1,0,0:0:0:0:
448,192,288168,1,0,0:0:0:0:
320,192,288168,1,0,0:0:0:0:
192,192,288168,1,0,0:0:0:0:
320,192,288318,1,0,0:0:0:0:
64,192,288468,1,0,0:0:0:0:
320,192,288468,1,0,0:0:0:0:
448,192,288468,1,0,0:0:0:0:
192,192,288468,1,0,0:0:0:0:
192,192,288618,1,0,0:0:0:0:
320,192,288768,1,0,0:0:0:0:
448,192,288768,1,0,0:0:0:0:
64,192,288768,1,0,0:0:0:0:
320,192,288918,1,0,0:0:0:0:
448,192,289068,1,0,0:0:0:0:
320,192,289068,1,0,0:0:0:0:
192,192,289068,1,0,0:0:0:0:
64,192,289068,1,0,0:0:0:0:
192,192,289218,1,0,0:0:0:0:
320,192,289368,1,0,0:0:0:0:
448,192,289368,1,0,0:0:0:0:
64,192,289368,1,0,0:0:0:0:
64,192,289518,1,0,0:0:0:0:
192,192,289668,1,0,0:0:0:0:
64,192,289668,1,0,0:0:0:0:
320,192,289668,1,0,0:0:0:0:
448,192,289668,1,0,0:0:0:0:
320,192,289818,1,0,0:0:0:0:
192,192,289968,1,0,0:0:0:0:
320,192,289968,1,0,0:0:0:0:
448,192,289968,1,0,0:0:0:0:
192,192,290118,1,0,0:0:0:0:
64,192,290268,1,0,0:0:0:0:
448,192,290568,1,0,0:0:0:0:
320,192,290568,1,0,0:0:0:0:
192,192,290568,1,0,0:0:0:0:
64,192,290568,1,0,0:0:0:0:
