osu file format v14

[General]
AudioFilename: audio.mp3
AudioLeadIn: 0
PreviewTime: -1
Countdown: 1
SampleSet: Soft
StackLeniency: 0.7
Mode: 0
LetterboxInBreaks: 0
WidescreenStoryboard: 1

[Editor]
Bookmarks: 41142,43885,45257,68571,89142,135771,162857,167314
DistanceSpacing: 1.7
BeatDivisor: 4
GridSize: 16
TimelineZoom: 2.1

[Metadata]
Title:Our Everlasting Dream
TitleUnicode:Our Everlasting Dream
Artist:Helblinde
ArtistUnicode:Helblinde
Creator:RealXantoo
Version:Dream.
Source:
Tags:
BeatmapID:1490794
BeatmapSetID:624562

[Difficulty]
HPDrainRate:5
CircleSize:2
OverallDifficulty:6
ApproachRate:9.6
SliderMultiplier:1.4
SliderTickRate:1

[Events]
//Background and Video events
0,0,"our everlasting dream pic.png",0,0
//Break Periods
2,123457,124291
2,126371,135262
2,157571,162348
//Storyboard Layer 0 (Background)
//Storyboard Layer 1 (Fail)
//Storyboard Layer 2 (Pass)
//Storyboard Layer 3 (Foreground)
//Storyboard Sound Samples

[TimingPoints]
0,342.857142857143,4,2,0,100,1,0
24600,-66.6666666666667,4,2,0,100,0,0
68400,-58.8235294117647,4,2,0,100,0,0
102857,-133.333333333333,4,2,0,100,0,0
135742,-200,4,2,0,100,0,0
162857,-50,4,2,0,100,0,0

[Colours]
Combo1 : 0,187,187
Combo2 : 111,32,240
Combo3 : 36,27,209

[HitObjects]
256,192,0,12,0,2742,0:0:0:0:
189,339,3085,5,0,0:0:0:0:
107,125,3428,5,0,0:0:0:0:
321,43,3771,5,0,0:0:0:0:
403,257,4114,5,0,0:0:0:0:
112,267,4457,5,0,0:0:0:0:
179,48,4800,5,0,0:0:0:0:
398,115,5143,5,0,0:0:0:0:
331,334,5486,5,0,0:0:0:0:
107,125,5828,5,0,0:0:0:0:
321,43,6171,5,0,0:0:0:0:
403,257,6514,5,0,0:0:0:0:
81,244,6857,2,0,P|81:174|208:320,1,525
203,209,8228,5,0,0:0:0:0:
336,208,8571,2,0,P|384:272|368:352,1,140
256,240,9257,2,0,P|192:288|112:272,1,140
256,160,9942,2,0,P|208:96|224:16,1,140
336,176,10628,2,0,P|400:128|480:144,1,140
203,209,11314,6,0,P|116:244|64:209,1,140
256,157,12000,2,0,P|269:63|324:36,1,140
273,226,12685,2,0,P|346:284|343:346,1,140
64,244,13371,1,0,0:0:0:0:
308,261,13714,5,0,0:0:0:0:
414,69,14057,1,0,0:0:0:0:
215,162,14400,1,0,0:0:0:0:
430,203,14742,1,0,0:0:0:0:
281,43,15085,1,0,0:0:0:0:
378,226,16114,5,0,0:0:0:0:
203,122,16457,5,0,0:0:0:0:
97,314,16800,1,0,0:0:0:0:
296,221,17143,1,0,0:0:0:0:
81,180,17485,1,0,0:0:0:0:
230,340,17828,1,0,0:0:0:0:
116,174,18857,5,0,0:0:0:0:
308,35,19200,5,0,0:0:0:0:
252,275,19543,1,0,0:0:0:0:
439,113,19886,1,0,0:0:0:0:
192,135,20228,1,0,0:0:0:0:
405,262,20571,1,0,0:0:0:0:
203,209,21942,6,0,L|133:174,1,70
116,104,22285,1,0,0:0:0:0:
273,87,22457,2,0,L|360:122,1,70
378,174,22800,1,0,0:0:0:0:
308,279,22971,5,0,0:0:0:0:
263,305,23056,1,0,0:0:0:0:
211,306,23142,1,0,0:0:0:0:
165,281,23228,1,0,0:0:0:0:
137,238,23313,1,0,0:0:0:0:
256,192,23400,12,0,24514,0:0:0:0:
343,69,24685,5,0,0:0:0:0:
378,104,24771,1,0,0:0:0:0:
378,157,24857,1,0,0:0:0:0:
320,304,25028,1,0,0:0:0:0:
144,304,25200,2,0,P|92:269|92:200,1,105.000004005432
288,80,25542,2,0,P|340:115|340:167,1,105.000004005432
290,314,25885,1,0,0:0:0:0:
112,80,26057,1,0,0:0:0:0:
378,52,26400,5,0,0:0:0:0:
412,69,26485,1,0,0:0:0:0:
430,104,26571,1,0,0:0:0:0:
430,139,26657,1,0,0:0:0:0:
412,174,26742,1,0,0:0:0:0:
273,87,26914,1,0,0:0:0:0:
203,244,27085,2,0,P|140:236|100:202,2,105.000004005432
360,157,27600,1,0,0:0:0:0:
378,296,27771,6,0,P|325:331|256:331,1,105.000004005432
133,296,28114,1,0,0:0:0:0:
273,209,28285,1,0,0:0:0:0:
273,209,28371,1,0,0:0:0:0:
273,209,28457,1,0,0:0:0:0:
412,122,28628,2,0,P|360:87|273:69,1,105.000004005432
133,69,28971,6,0,B|81:104|81:104|64:157,1,105.000004005432
204,292,29314,2,0,B|257:257|257:257|274:205,1,105.000004005432
203,104,29657,6,0,B|144:128|144:128|64:174,2,105.000004005432
395,52,30171,5,0,0:0:0:0:
430,87,30342,1,0,0:0:0:0:
238,157,30514,1,0,0:0:0:0:
430,261,30685,1,0,0:0:0:0:
288,320,30857,6,0,B|219:320|219:320|160:256,1,105.000004005432
99,192,31200,1,0,0:0:0:0:
273,226,31371,6,0,B|343:226|343:226|384:176,1,105.000004005432
430,69,31714,1,0,0:0:0:0:
412,52,31800,1,0,0:0:0:0:
395,35,31885,1,0,0:0:0:0:
221,17,32057,1,0,0:0:0:0:
400,128,32228,2,0,P|384:192|320:240,2,105.000004005432
221,192,32742,1,0,0:0:0:0:
378,296,32914,5,0,0:0:0:0:
325,331,33000,1,0,0:0:0:0:
273,314,33085,1,0,0:0:0:0:
116,122,33257,1,0,0:0:0:0:
325,209,33428,1,0,0:0:0:0:
203,35,33600,1,0,0:0:0:0:
168,261,33771,1,0,0:0:0:0:
308,52,33942,6,0,P|395:69|430:122,1,105.000004005432
482,209,34285,1,0,0:0:0:0:
482,209,34371,1,0,0:0:0:0:
482,209,34457,1,0,0:0:0:0:
360,314,34628,2,0,P|288:320|221:279,1,105.000004005432
221,122,34971,1,0,0:0:0:0:
133,279,35142,1,0,0:0:0:0:
256,104,35314,1,0,0:0:0:0:
168,296,35485,1,0,0:0:0:0:
360,192,35657,5,0,0:0:0:0:
360,122,35828,1,0,0:0:0:0:
203,17,36000,1,0,0:0:0:0:
99,139,36171,2,0,P|151:192|221:209,1,105.000004005432
343,17,36514,1,0,0:0:0:0:
447,157,36685,5,0,0:0:0:0:
395,209,36857,1,0,0:0:0:0:
238,87,37028,5,0,0:0:0:0:
186,139,37200,1,0,0:0:0:0:
273,296,37371,5,0,0:0:0:0:
221,348,37543,1,0,0:0:0:0:
99,279,37714,5,0,0:0:0:0:
67,232,37799,1,0,0:0:0:0:
56,176,37885,1,0,0:0:0:0:
70,122,37971,1,0,0:0:0:0:
104,77,38056,1,0,0:0:0:0:
151,52,38142,2,0,P|186:35|221:35,1,52.5000020027161
378,87,38400,5,0,0:0:0:0:
378,87,38485,1,0,0:0:0:0:
378,87,38571,1,0,0:0:0:0:
304,288,38742,1,0,0:0:0:0:
304,288,38827,1,0,0:0:0:0:
304,288,38913,1,0,0:0:0:0:
482,139,39085,1,0,0:0:0:0:
482,139,39171,1,0,0:0:0:0:
482,139,39257,1,0,0:0:0:0:
256,52,39428,5,0,0:0:0:0:
230,76,39513,1,0,0:0:0:0:
205,101,39599,1,0,0:0:0:0:
186,122,39685,2,0,L|133:174,1,52.5000020027161
221,296,39942,5,0,0:0:0:0:
258,290,40027,1,0,0:0:0:0:
294,277,40113,1,0,0:0:0:0:
326,257,40200,2,0,L|378:209,1,52.5000020027161
325,87,40457,6,0,P|273:52|203:52,2,105.000004005432
412,226,40971,1,0,0:0:0:0:
256,192,41142,12,0,43200,0:0:0:0:
325,35,43285,5,0,0:0:0:0:
341,62,43370,1,0,0:0:0:0:
351,90,43456,1,0,0:0:0:0:
359,121,43542,1,0,0:0:0:0:
363,152,43627,1,0,0:0:0:0:
362,184,43713,1,0,0:0:0:0:
334,241,43799,1,0,0:0:0:0:
288,272,43885,1,0,0:0:0:0:
232,279,43971,1,0,0:0:0:0:
180,257,44056,1,0,0:0:0:0:
144,213,44142,1,0,0:0:0:0:
135,159,44228,1,0,0:0:0:0:
151,105,44313,1,0,0:0:0:0:
191,66,44399,1,0,0:0:0:0:
248,69,44485,1,0,0:0:0:0:
299,94,44571,1,0,0:0:0:0:
335,138,44657,1,0,0:0:0:0:
336,192,44742,1,0,0:0:0:0:
312,252,44827,1,0,0:0:0:0:
263,285,44913,1,0,0:0:0:0:
207,299,44999,1,0,0:0:0:0:
149,293,45084,1,0,0:0:0:0:
97,266,45170,1,0,0:0:0:0:
57,223,45256,1,0,0:0:0:0:
221,261,46628,6,0,B|116:261|116:261|151:226,1,105.000004005432
221,69,46971,1,0,0:0:0:0:
256,87,47142,1,0,0:0:0:0:
343,279,47314,1,0,0:0:0:0:
360,261,47400,1,0,0:0:0:0:
378,244,47485,1,0,0:0:0:0:
378,52,47657,1,0,0:0:0:0:
151,226,47828,1,0,0:0:0:0:
360,261,48000,5,0,0:0:0:0:
360,261,48086,1,0,0:0:0:0:
360,261,48171,1,0,0:0:0:0:
465,35,48342,1,0,0:0:0:0:
238,87,48514,2,0,P|168:139|128:192,2,105.000004005432
447,192,49028,1,0,0:0:0:0:
273,35,49200,1,0,0:0:0:0:
430,226,49371,1,0,0:0:0:0:
412,244,49457,1,0,0:0:0:0:
395,226,49542,1,0,0:0:0:0:
308,35,49714,6,0,P|240:48|176:96,2,105.000004005432
447,157,50228,1,0,0:0:0:0:
343,279,50400,2,0,P|272:288|192:272,1,105.000004005432
46,174,50742,1,0,0:0:0:0:
273,226,50914,1,0,0:0:0:0:
64,104,51085,1,0,0:0:0:0:
308,174,51257,1,0,0:0:0:0:
81,35,51428,1,0,0:0:0:0:
343,122,51600,1,0,0:0:0:0:
116,261,51771,5,0,0:0:0:0:
99,226,51857,1,0,0:0:0:0:
116,192,51942,1,0,0:0:0:0:
290,52,52114,1,0,0:0:0:0:
343,279,52285,2,0,P|272:272|221:226,1,105.000004005432
186,35,52628,1,0,0:0:0:0:
412,174,52800,2,0,P|343:244|290:261,1,105.000004005432
151,35,53142,1,0,0:0:0:0:
46,261,53314,5,0,0:0:0:0:
151,331,53485,1,0,0:0:0:0:
273,296,53657,1,0,0:0:0:0:
412,52,53828,1,0,0:0:0:0:
308,17,53999,1,0,0:0:0:0:
186,87,54171,1,0,0:0:0:0:
360,331,54342,1,0,0:0:0:0:
447,209,54513,1,0,0:0:0:0:
378,87,54685,1,0,0:0:0:0:
240,32,54857,1,0,0:0:0:0:
64,209,55028,6,0,P|133:296|168:296,2,105.000004005432
221,104,55542,1,0,0:0:0:0:
133,314,55714,1,0,0:0:0:0:
116,69,55885,2,0,P|203:87|256:104,1,105.000004005432
308,296,56228,1,0,0:0:0:0:
308,35,56400,5,0,0:0:0:0:
447,35,56571,1,0,0:0:0:0:
500,157,56742,1,0,0:0:0:0:
395,261,56914,1,0,0:0:0:0:
273,174,57085,1,0,0:0:0:0:
325,35,57257,1,0,0:0:0:0:
430,139,57428,1,0,0:0:0:0:
343,261,57600,2,0,P|256:296|221:296,1,105.000004005432
64,192,57942,5,0,0:0:0:0:
238,87,58114,2,0,P|308:104|360:139,2,105.000004005432
116,261,58628,1,0,0:0:0:0:
343,104,58800,1,0,0:0:0:0:
64,69,58971,1,0,0:0:0:0:
256,261,59142,1,0,0:0:0:0:
273,17,59314,1,0,0:0:0:0:
112,224,59485,2,0,L|32:320,1,105.000004005432
360,226,59828,1,0,0:0:0:0:
144,96,60000,2,0,L|40:44,2,105.000004005432
378,192,60514,5,0,0:0:0:0:
238,296,60685,2,0,P|186:261|168:174,1,105.000004005432
290,87,61028,2,0,P|343:122|360:209,1,105.000004005432
151,104,61371,1,0,0:0:0:0:
395,261,61542,1,0,0:0:0:0:
116,244,61714,1,0,0:0:0:0:
395,104,61885,1,0,0:0:0:0:
46,174,62057,1,0,0:0:0:0:
465,244,62228,1,0,0:0:0:0:
64,48,62400,1,0,0:0:0:0:
360,69,62571,6,0,P|412:139|412:192,1,105.000004005432
256,296,62914,1,0,0:0:0:0:
151,122,63085,1,0,0:0:0:0:
168,104,63171,1,0,0:0:0:0:
203,104,63257,1,0,0:0:0:0:
395,226,63428,1,0,0:0:0:0:
133,209,63600,2,0,P|160:160|224:112,1,105.000004005432
412,87,63942,1,0,0:0:0:0:
221,314,64114,5,0,0:0:0:0:
290,87,64285,1,0,0:0:0:0:
273,331,64457,1,0,0:0:0:0:
325,52,64628,1,0,0:0:0:0:
325,348,64800,1,0,0:0:0:0:
378,17,64971,1,0,0:0:0:0:
378,366,65142,2,0,P|430:296|432:240,1,105.000004005432
343,87,65485,1,0,0:0:0:0:
151,261,65657,1,0,0:0:0:0:
133,279,65742,1,0,0:0:0:0:
116,296,65828,1,0,0:0:0:0:
273,52,68571,6,0,B|430:52|430:52|395:122,1,178.500003404617
395,122,68914,1,0,0:0:0:0:
290,331,69085,1,0,0:0:0:0:
168,104,69257,1,0,0:0:0:0:
194,59,69342,1,0,0:0:0:0:
240,33,69428,1,0,0:0:0:0:
430,69,69600,5,0,0:0:0:0:
221,279,69771,1,0,0:0:0:0:
176,32,69942,1,0,0:0:0:0:
447,122,70114,1,0,0:0:0:0:
168,244,70285,1,0,0:0:0:0:
151,209,70371,1,0,0:0:0:0:
168,174,70457,1,0,0:0:0:0:
343,35,70628,6,0,P|395:104|395:192,1,119.000002269745
343,348,70971,1,0,0:0:0:0:
186,157,71142,1,0,0:0:0:0:
46,348,71314,1,0,0:0:0:0:
325,261,71485,1,0,0:0:0:0:
99,139,71657,2,0,P|168:87|256:87,1,119.000002269745
430,69,72000,1,0,0:0:0:0:
447,87,72085,1,0,0:0:0:0:
465,104,72171,1,0,0:0:0:0:
360,296,72342,5,0,0:0:0:0:
238,104,72514,2,0,P|308:69|395:87,2,119.000002269745
395,296,73028,1,0,0:0:0:0:
136,63,73200,1,0,0:0:0:0:
427,224,73371,1,0,0:0:0:0:
96,265,73542,1,0,0:0:0:0:
339,38,73714,1,0,0:0:0:0:
276,365,73885,1,0,0:0:0:0:
133,87,74057,5,0,0:0:0:0:
151,69,74142,1,0,0:0:0:0:
168,52,74228,1,0,0:0:0:0:
430,122,74400,1,0,0:0:0:0:
168,226,74571,2,0,P|151:139|186:87,1,119.000002269745
430,69,74914,1,0,0:0:0:0:
360,314,75085,2,0,P|256:314|168:244,1,178.500003404617
168,244,75428,1,0,0:0:0:0:
378,122,75600,5,0,0:0:0:0:
99,226,75771,1,0,0:0:0:0:
81,192,75857,1,0,0:0:0:0:
99,157,75942,1,0,0:0:0:0:
290,35,76114,2,0,L|416:128,1,119.000002269745
360,331,76457,1,0,0:0:0:0:
116,87,76628,1,0,0:0:0:0:
465,209,76800,1,0,0:0:0:0:
186,279,76971,6,0,P|133:226|133:174,1,119.000002269745
325,52,77314,1,0,0:0:0:0:
325,52,77400,1,0,0:0:0:0:
325,52,77485,1,0,0:0:0:0:
290,331,77657,1,0,0:0:0:0:
99,139,77828,1,0,0:0:0:0:
99,139,77914,1,0,0:0:0:0:
99,139,78000,1,0,0:0:0:0:
395,52,78171,5,0,0:0:0:0:
151,261,78342,1,0,0:0:0:0:
465,279,78514,1,0,0:0:0:0:
325,17,78685,1,0,0:0:0:0:
186,314,78857,2,0,P|273:331|343:296,1,119.000002269745
482,192,79200,1,0,0:0:0:0:
221,17,79371,1,0,0:0:0:0:
128,288,79542,5,0,0:0:0:0:
163,312,79627,1,0,0:0:0:0:
206,320,79713,1,0,0:0:0:0:
432,160,79885,1,0,0:0:0:0:
144,48,80057,2,0,P|96:112|64:176,1,119.000002269745
368,336,80400,2,0,P|416:272|448:208,1,119.000002269745
176,48,80742,1,0,0:0:0:0:
112,320,80914,5,0,0:0:0:0:
160,336,81000,1,0,0:0:0:0:
208,320,81085,1,0,0:0:0:0:
400,192,81257,1,0,0:0:0:0:
192,64,81428,1,0,0:0:0:0:
144,48,81514,1,0,0:0:0:0:
96,64,81600,1,0,0:0:0:0:
128,288,81771,1,0,0:0:0:0:
384,176,81942,2,0,P|432:112|416:32,2,119.000002269745
112,80,82457,5,0,0:0:0:0:
400,176,82628,1,0,0:0:0:0:
400,176,82714,1,0,0:0:0:0:
400,176,82800,1,0,0:0:0:0:
48,256,82971,2,0,P|48:160|80:128,1,119.000002269745
384,64,83314,1,0,0:0:0:0:
192,320,83485,1,0,0:0:0:0:
96,32,83657,1,0,0:0:0:0:
432,112,83828,1,0,0:0:0:0:
128,304,84000,1,0,0:0:0:0:
160,16,84171,1,0,0:0:0:0:
448,176,84342,1,0,0:0:0:0:
80,256,84514,1,0,0:0:0:0:
336,16,84685,1,0,0:0:0:0:
384,304,84857,1,0,0:0:0:0:
128,96,85028,5,0,0:0:0:0:
128,96,85114,1,0,0:0:0:0:
128,96,85200,1,0,0:0:0:0:
416,64,85371,2,0,P|448:144|416:208,1,119.000002269745
176,304,85714,1,0,0:0:0:0:
384,48,85885,1,0,0:0:0:0:
64,224,86057,1,0,0:0:0:0:
432,64,86228,2,0,P|464:128|448:192,1,119.000002269745
80,128,86571,1,0,0:0:0:0:
464,192,86742,1,0,0:0:0:0:
64,256,86914,1,0,0:0:0:0:
480,64,87085,1,0,0:0:0:0:
64,64,87257,1,0,0:0:0:0:
416,288,87428,1,0,0:0:0:0:
32,48,87600,1,0,0:0:0:0:
320,272,87771,5,0,0:0:0:0:
365,219,87856,1,0,0:0:0:0:
369,150,87942,1,0,0:0:0:0:
332,92,88028,1,0,0:0:0:0:
268,68,88113,1,0,0:0:0:0:
201,88,88199,1,0,0:0:0:0:
160,143,88285,1,0,0:0:0:0:
160,212,88371,1,0,0:0:0:0:
208,272,88457,5,0,0:0:0:0:
297,286,88542,1,0,0:0:0:0:
374,238,88628,1,0,0:0:0:0:
400,151,88714,1,0,0:0:0:0:
362,69,88799,1,0,0:0:0:0:
279,32,88885,1,0,0:0:0:0:
192,60,88971,1,0,0:0:0:0:
80,272,89142,1,0,0:0:0:0:
416,288,89485,6,0,B|416:240|416:240|416:160,1,119.000002269745
144,96,90171,1,0,0:0:0:0:
256,192,90514,12,0,93257,0:0:0:0:
400,64,94628,5,0,0:0:0:0:
384,320,96000,5,0,0:0:0:0:
80,80,97371,5,0,0:0:0:0:
368,80,98400,5,0,0:0:0:0:
432,192,98571,1,0,0:0:0:0:
368,304,98742,1,0,0:0:0:0:
80,80,100114,5,0,0:0:0:0:
208,320,101142,5,0,0:0:0:0:
112,240,101314,1,0,0:0:0:0:
112,128,101485,1,0,0:0:0:0:
384,96,102857,6,0,L|384:240,1,131.25000500679
384,256,103371,1,0,0:0:0:0:
160,112,103885,2,0,P|240:80|272:80,1,105.000004005432
160,304,104742,1,0,0:0:0:0:
160,320,105257,1,0,0:0:0:0:
160,336,105771,1,0,0:0:0:0:
160,352,106285,1,0,0:0:0:0:
368,64,106628,5,0,0:0:0:0:
368,240,106800,1,0,0:0:0:0:
352,272,106885,1,0,0:0:0:0:
320,256,106971,1,0,0:0:0:0:
368,64,107142,1,0,0:0:0:0:
448,192,107314,1,0,0:0:0:0:
368,320,107485,1,0,0:0:0:0:
144,64,107828,5,0,0:0:0:0:
144,112,108000,1,0,0:0:0:0:
144,160,108171,1,0,0:0:0:0:
448,304,108514,5,0,0:0:0:0:
64,176,109371,5,0,0:0:0:0:
176,112,109542,1,0,0:0:0:0:
304,48,109714,1,0,0:0:0:0:
208,320,110742,5,0,0:0:0:0:
128,208,110914,1,0,0:0:0:0:
128,80,111085,1,0,0:0:0:0:
368,64,112457,6,0,L|368:192,1,105.000004005432
208,336,113828,1,0,0:0:0:0:
48,48,114342,1,0,0:0:0:0:
336,288,114857,1,0,0:0:0:0:
144,304,116057,5,0,0:0:0:0:
144,64,116228,1,0,0:0:0:0:
352,192,116400,1,0,0:0:0:0:
112,144,117257,6,0,P|128:96|160:80,1,78.7500030040742
208,64,117600,1,0,0:0:0:0:
304,192,117771,1,0,0:0:0:0:
112,192,117942,1,0,0:0:0:0:
256,48,118114,5,0,0:0:0:0:
368,112,118285,2,0,P|400:144|400:160,1,52.5000020027161
320,256,118628,1,0,0:0:0:0:
208,160,118800,2,0,P|176:192|176:208,1,52.5000020027161
320,256,119142,1,0,0:0:0:0:
400,144,119314,1,0,0:0:0:0:
272,96,119485,1,0,0:0:0:0:
272,96,119657,1,0,0:0:0:0:
320,208,119828,5,0,0:0:0:0:
384,80,120000,1,0,0:0:0:0:
240,96,120171,1,0,0:0:0:0:
384,192,120342,1,0,0:0:0:0:
352,32,120514,1,0,0:0:0:0:
224,160,120685,1,0,0:0:0:0:
272,192,120857,5,0,0:0:0:0:
226,56,121029,1,0,0:0:0:0:
136,169,121200,1,0,0:0:0:0:
305,135,121371,1,0,0:0:0:0:
170,44,121543,1,0,0:0:0:0:
170,225,121714,1,0,0:0:0:0:
256,208,121885,5,0,0:0:0:0:
113,222,122057,1,0,0:0:0:0:
202,335,122228,1,0,0:0:0:0:
207,163,122399,1,0,0:0:0:0:
88,274,122571,1,0,0:0:0:0:
265,314,122742,1,0,0:0:0:0:
144,160,122914,1,0,0:0:0:0:
352,48,123085,5,0,0:0:0:0:
448,320,123257,1,0,0:0:0:0:
256,192,124800,5,0,0:0:0:0:
256,192,125314,1,0,0:0:0:0:
256,192,125828,1,0,0:0:0:0:
256,192,126000,1,0,0:0:0:0:
256,192,126171,1,0,0:0:0:0:
224,128,135771,6,0,B|176:96|128:112|128:112|144:224|224:256,1,280
288,128,138514,2,0,B|336:96|384:112|384:112|368:224|288:256,1,280
256,288,141257,2,0,L|256:64,1,210
256,320,142628,1,0,0:0:0:0:
256,48,142800,5,0,0:0:0:0:
256,192,142971,1,0,0:0:0:0:
256,336,143142,1,0,0:0:0:0:
288,80,143485,6,0,L|256:112,1,35
112,240,143828,1,0,0:0:0:0:
368,112,144000,2,0,L|416:320,1,210
192,64,145200,1,0,0:0:0:0:
272,320,145371,1,0,0:0:0:0:
80,128,145714,6,0,L|80:80,1,35
256,320,146228,1,0,0:0:0:0:
256,64,146400,1,0,0:0:0:0:
400,320,146742,2,0,L|400:96,1,210
112,320,148114,1,0,0:0:0:0:
352,80,149485,6,0,L|128:80,1,210
384,288,150857,1,0,0:0:0:0:
128,304,152228,6,0,L|128:80,1,210
432,240,153600,1,0,0:0:0:0:
304,320,153771,1,0,0:0:0:0:
432,240,153942,1,0,0:0:0:0:
432,96,154114,1,0,0:0:0:0:
384,224,154971,6,0,L|160:224,1,210
384,48,156342,5,0,0:0:0:0:
224,288,156685,1,0,0:0:0:0:
224,288,156857,1,0,0:0:0:0:
64,64,157371,1,0,0:0:0:0:
256,192,162857,5,0,0:0:0:0:
400,64,163200,5,0,0:0:0:0:
432,96,163285,1,0,0:0:0:0:
432,144,163371,1,0,0:0:0:0:
256,336,163542,1,0,0:0:0:0:
112,48,163714,1,0,0:0:0:0:
464,80,163885,1,0,0:0:0:0:
96,160,164057,1,0,0:0:0:0:
432,48,164228,1,0,0:0:0:0:
352,320,164400,5,0,0:0:0:0:
80,128,164571,2,0,P|192:64|240:64,1,140
384,304,164914,1,0,0:0:0:0:
32,128,165085,2,0,P|112:48|176:32,1,140
432,288,165428,1,0,0:0:0:0:
64,320,165600,1,0,0:0:0:0:
448,160,165771,1,0,0:0:0:0:
48,336,165942,1,0,0:0:0:0:
48,336,166028,5,0,0:0:0:0:
48,336,166114,1,0,0:0:0:0:
416,272,166285,1,0,0:0:0:0:
416,272,166370,1,0,0:0:0:0:
416,272,166456,1,0,0:0:0:0:
112,64,166628,5,0,0:0:0:0:
192,352,166800,1,0,0:0:0:0:
384,48,166971,1,0,0:0:0:0:
320,352,167142,1,0,0:0:0:0:
64,96,167314,6,0,L|128:32,1,70
64,96,167485,1,0,0:0:0:0:
288,304,167657,6,0,L|208:336,1,70
288,304,167828,1,0,0:0:0:0:
416,64,168000,1,0,0:0:0:0:
192,336,168171,1,0,0:0:0:0:
128,48,168342,1,0,0:0:0:0:
464,144,168514,1,0,0:0:0:0:
160,336,168685,1,0,0:0:0:0:
160,336,168771,1,0,0:0:0:0:
160,336,168857,1,0,0:0:0:0:
432,48,169028,5,0,0:0:0:0:
432,48,169114,1,0,0:0:0:0:
432,48,169200,1,0,0:0:0:0:
160,336,169371,2,0,P|64:288|48:240,1,140
400,64,169714,1,0,0:0:0:0:
256,352,169885,1,0,0:0:0:0:
80,96,170057,5,0,0:0:0:0:
112,48,170142,1,0,0:0:0:0:
160,64,170228,1,0,0:0:0:0:
432,288,170400,5,0,0:0:0:0:
400,336,170485,1,0,0:0:0:0:
352,320,170571,1,0,0:0:0:0:
416,64,170742,1,0,0:0:0:0:
304,336,170914,1,0,0:0:0:0:
96,48,171085,1,0,0:0:0:0:
224,336,171257,1,0,0:0:0:0:
464,112,171428,6,0,P|400:48|336:48,1,140
371,208,171771,2,0,P|451:144|467:64,1,140
128,48,172114,1,0,0:0:0:0:
448,176,172285,1,0,0:0:0:0:
80,224,172457,1,0,0:0:0:0:
480,304,172628,1,0,0:0:0:0:
192,48,172800,5,0,0:0:0:0:
192,48,172885,1,0,0:0:0:0:
192,48,172971,1,0,0:0:0:0:
304,320,173142,1,0,0:0:0:0:
464,48,173314,1,0,0:0:0:0:
96,224,173485,1,0,0:0:0:0:
96,224,173571,1,0,0:0:0:0:
96,224,173657,1,0,0:0:0:0:
448,272,173828,2,0,P|448:192|416:112,1,140
64,48,174171,1,0,0:0:0:0:
464,112,174342,5,0,0:0:0:0:
64,144,174514,1,0,0:0:0:0:
480,208,174685,1,0,0:0:0:0:
32,240,174857,1,0,0:0:0:0:
32,240,174942,1,0,0:0:0:0:
32,240,175028,1,0,0:0:0:0:
496,304,175200,1,0,0:0:0:0:
496,304,175285,1,0,0:0:0:0:
496,304,175371,1,0,0:0:0:0:
192,48,175542,6,0,P|96:96|48:160,1,140
416,320,175885,1,0,0:0:0:0:
48,208,176228,6,0,P|96:288|160:336,1,140
448,48,176571,1,0,0:0:0:0:
48,128,176742,1,0,0:0:0:0:
416,320,176914,1,0,0:0:0:0:
448,256,177000,1,0,0:0:0:0:
416,192,177085,1,0,0:0:0:0:
80,48,177257,1,0,0:0:0:0:
48,112,177343,1,0,0:0:0:0:
80,176,177428,1,0,0:0:0:0:
464,64,177600,6,0,P|368:48|320:48,1,140
448,336,177942,1,0,0:0:0:0:
432,48,178114,1,0,0:0:0:0:
160,320,178285,1,0,0:0:0:0:
256,320,178371,1,0,0:0:0:0:
352,288,178457,1,0,0:0:0:0:
192,48,178628,1,0,0:0:0:0:
64,288,178800,1,0,0:0:0:0:
448,256,178971,2,0,P|448:144|416:112,1,140
96,64,179314,1,0,0:0:0:0:
288,336,179485,1,0,0:0:0:0:
464,48,179657,5,0,0:0:0:0:
368,48,179742,1,0,0:0:0:0:
272,48,179828,1,0,0:0:0:0:
80,304,180000,1,0,0:0:0:0:
176,304,180085,1,0,0:0:0:0:
272,304,180171,1,0,0:0:0:0:
416,48,180342,5,0,0:0:0:0:
48,208,180514,2,0,P|128:272|176:288,1,140
464,112,180857,1,0,0:0:0:0:
112,48,181028,1,0,0:0:0:0:
112,48,181114,1,0,0:0:0:0:
112,48,181200,1,0,0:0:0:0:
336,320,181371,1,0,0:0:0:0:
336,320,181457,1,0,0:0:0:0:
336,320,181542,1,0,0:0:0:0:
144,32,181714,5,0,0:0:0:0:
464,112,181885,1,0,0:0:0:0:
64,288,182057,1,0,0:0:0:0:
464,208,182228,1,0,0:0:0:0:
112,64,182400,5,0,0:0:0:0:
64,112,182485,2,0,P|64:128|96:192,1,70
400,96,182742,1,0,0:0:0:0:
448,144,182827,2,0,P|448:160|416:224,1,70
64,288,183085,1,0,0:0:0:0:
320,48,183257,1,0,0:0:0:0:
336,336,183428,2,0,P|224:320|176:272,1,140
48,48,183771,1,0,0:0:0:0:
256,192,183857,12,0,185057,0:0:0:0:
400,288,185142,5,0,0:0:0:0:
352,320,185228,1,0,0:0:0:0:
304,304,185314,1,0,0:0:0:0:
160,128,185485,1,0,0:0:0:0:
352,112,185657,1,0,0:0:0:0:
144,320,185828,1,0,0:0:0:0:
160,48,186000,2,0,P|272:80|304:96,1,140
320,336,186342,5,0,0:0:0:0:
80,128,186514,1,0,0:0:0:0:
432,80,186685,1,0,0:0:0:0:
128,256,186857,2,0,P|80:176|96:112,1,140
416,64,187200,1,0,0:0:0:0:
256,320,187371,2,0,P|160:288|128:240,1,140
416,64,187714,1,0,0:0:0:0:
416,64,187800,1,0,0:0:0:0:
416,64,187885,1,0,0:0:0:0:
272,320,188057,5,0,0:0:0:0:
160,176,188228,1,0,0:0:0:0:
448,96,188400,1,0,0:0:0:0:
368,256,188571,1,0,0:0:0:0:
96,80,188742,2,0,P|160:48|256:48,1,140
336,336,189085,1,0,0:0:0:0:
80,80,189257,1,0,0:0:0:0:
272,176,189428,1,0,0:0:0:0:
80,80,189600,1,0,0:0:0:0:
416,288,189771,1,0,0:0:0:0:
80,80,189942,5,0,0:0:0:0:
80,80,190028,1,0,0:0:0:0:
80,80,190114,1,0,0:0:0:0:
336,64,190285,2,0,P|400:144|400:208,1,140
224,48,190628,1,0,0:0:0:0:
368,144,190800,1,0,0:0:0:0:
64,288,190971,1,0,0:0:0:0:
224,48,191142,1,0,0:0:0:0:
352,320,191314,1,0,0:0:0:0:
48,96,191485,6,0,P|160:64|224:64,1,140
400,256,191828,1,0,0:0:0:0:
368,320,191914,1,0,0:0:0:0:
304,304,192000,1,0,0:0:0:0:
432,96,192171,1,0,0:0:0:0:
224,320,192342,1,0,0:0:0:0:
128,48,192514,1,0,0:0:0:0:
464,208,192685,1,0,0:0:0:0:
80,272,192857,1,0,0:0:0:0:
272,96,193028,6,0,P|320:176|336:256,1,140
112,128,193371,1,0,0:0:0:0:
384,192,193542,1,0,0:0:0:0:
64,224,193714,1,0,0:0:0:0:
432,96,193885,1,0,0:0:0:0:
48,336,194057,1,0,0:0:0:0:
352,224,194228,5,0,0:0:0:0:
192,112,194400,1,0,0:0:0:0:
432,208,194571,1,0,0:0:0:0:
112,128,194742,1,0,0:0:0:0:
464,288,194914,1,0,0:0:0:0:
80,64,195085,1,0,0:0:0:0:
400,304,195257,5,0,0:0:0:0:
304,336,195342,1,0,0:0:0:0:
208,304,195428,1,0,0:0:0:0:
80,48,195600,1,0,0:0:0:0:
448,112,195771,1,0,0:0:0:0:
448,112,195942,1,0,0:0:0:0:
128,320,196114,2,0,P|48:160|64:96,1,210
64,80,196457,1,0,0:0:0:0:
400,80,196628,5,0,0:0:0:0:
304,336,196800,1,0,0:0:0:0:
144,48,196971,1,0,0:0:0:0:
240,336,197142,1,0,0:0:0:0:
432,96,197314,2,0,P|400:48|368:48,1,70
368,48,197485,1,0,0:0:0:0:
96,208,197657,1,0,0:0:0:0:
256,272,197828,1,0,0:0:0:0:
96,32,198000,1,0,0:0:0:0:
224,320,198171,1,0,0:0:0:0:
448,80,198342,6,0,P|368:48|272:64,1,140
256,336,198685,1,0,0:0:0:0:
448,80,198857,1,0,0:0:0:0:
96,176,199028,1,0,0:0:0:0:
448,288,199200,1,0,0:0:0:0:
176,32,199371,1,0,0:0:0:0:
448,288,199542,1,0,0:0:0:0:
176,32,199714,1,0,0:0:0:0:
128,304,199885,5,0,0:0:0:0:
368,64,200057,1,0,0:0:0:0:
128,304,200228,1,0,0:0:0:0:
368,64,200400,1,0,0:0:0:0:
272,320,200571,5,0,0:0:0:0:
208,336,200657,1,0,0:0:0:0:
144,320,200742,1,0,0:0:0:0:
48,64,200914,1,0,0:0:0:0:
336,112,201085,2,0,L|464:256,2,140
80,48,201600,1,0,0:0:0:0:
336,288,201771,1,0,0:0:0:0:
400,80,201942,1,0,0:0:0:0:
80,240,202114,1,0,0:0:0:0:
480,192,202285,6,0,P|464:96|416:64,1,140
288,320,202628,1,0,0:0:0:0:
208,48,202800,1,0,0:0:0:0:
192,336,202971,1,0,0:0:0:0:
96,48,203142,2,0,P|64:160|112:176,1,140
320,272,203485,1,0,0:0:0:0:
368,288,203657,1,0,0:0:0:0:
400,80,203828,5,0,0:0:0:0:
416,304,204000,1,0,0:0:0:0:
464,320,204171,1,0,0:0:0:0:
320,96,204342,2,0,B|256:48|256:48|160:96,1,140
80,224,204685,1,0,0:0:0:0:
256,112,204857,1,0,0:0:0:0:
48,160,205028,1,0,0:0:0:0:
384,304,205200,1,0,0:0:0:0:
112,224,205371,5,0,0:0:0:0:
416,64,205542,1,0,0:0:0:0:
32,336,205714,1,0,0:0:0:0:
256,192,207085,5,0,0:0:0:0:
