osu file format v14

[General]
AudioFilename: audio.mp3
AudioLeadIn: 0
PreviewTime: -1
Countdown: 1
SampleSet: Soft
StackLeniency: 0.7
Mode: 0
LetterboxInBreaks: 0
WidescreenStoryboard: 0

[Editor]
Bookmarks: 41142,43885,45257,68571,89142
DistanceSpacing: 1.7
BeatDivisor: 4
GridSize: 16
TimelineZoom: 2.1

[Metadata]
Title:Our Everlasting Dream
TitleUnicode:Our Everlasting Dream
Artist:Helblinde
ArtistUnicode:Helblinde
Creator:RealXantoo
Version:Dream. [Short ver.]
Source:
Tags:
BeatmapID:1316337
BeatmapSetID:624562

[Difficulty]
HPDrainRate:5
CircleSize:2
OverallDifficulty:6
ApproachRate:9.6
SliderMultiplier:1.4
SliderTickRate:1

[Events]
//Background and Video events
0,0,"our everlasting dream pic.png",0,0
//Break Periods
2,66028,67971
//Storyboard Layer 0 (Background)
//Storyboard Layer 1 (Fail)
//Storyboard Layer 2 (Pass)
//Storyboard Layer 3 (Foreground)
//Storyboard Sound Samples

[TimingPoints]
0,342.857142857143,4,2,0,100,1,0
24600,-66.6666666666667,4,2,0,100,0,0
68400,-58.8235294117647,4,2,0,100,0,0

[Colours]
Combo1 : 0,187,187
Combo2 : 111,32,240
Combo3 : 36,27,209

[HitObjects]
256,192,0,12,0,2742,0:0:0:0:
189,339,3085,5,0,0:0:0:0:
107,125,3428,5,0,0:0:0:0:
321,43,3771,5,0,0:0:0:0:
403,257,4114,5,0,0:0:0:0:
112,267,4457,5,0,0:0:0:0:
179,48,4800,5,0,0:0:0:0:
398,115,5143,5,0,0:0:0:0:
331,334,5486,5,0,0:0:0:0:
107,125,5828,5,0,0:0:0:0:
321,43,6171,5,0,0:0:0:0:
403,257,6514,5,0,0:0:0:0:
81,244,6857,2,0,P|81:174|208:320,1,525
203,209,8228,5,0,0:0:0:0:
336,208,8571,2,0,P|384:272|368:352,1,140
256,240,9257,2,0,P|192:288|112:272,1,140
256,160,9942,2,0,P|208:96|224:16,1,140
336,176,10628,2,0,P|400:128|480:144,1,140
203,209,11314,6,0,P|116:244|64:209,1,140
256,157,12000,2,0,P|269:63|324:36,1,140
273,226,12685,2,0,P|346:284|343:346,1,140
64,244,13371,1,0,0:0:0:0:
308,261,13714,5,0,0:0:0:0:
414,69,14057,1,0,0:0:0:0:
215,162,14400,1,0,0:0:0:0:
430,203,14742,1,0,0:0:0:0:
281,43,15085,1,0,0:0:0:0:
378,226,16114,5,0,0:0:0:0:
203,122,16457,5,0,0:0:0:0:
97,314,16800,1,0,0:0:0:0:
296,221,17143,1,0,0:0:0:0:
81,180,17485,1,0,0:0:0:0:
230,340,17828,1,0,0:0:0:0:
116,174,18857,5,0,0:0:0:0:
308,35,19200,5,0,0:0:0:0:
252,275,19543,1,0,0:0:0:0:
439,113,19886,1,0,0:0:0:0:
192,135,20228,1,0,0:0:0:0:
405,262,20571,1,0,0:0:0:0:
203,209,21942,6,0,L|133:174,1,70
116,104,22285,1,0,0:0:0:0:
273,87,22457,2,0,L|360:122,1,70
378,174,22800,1,0,0:0:0:0:
308,279,22971,5,0,0:0:0:0:
263,305,23056,1,0,0:0:0:0:
211,306,23142,1,0,0:0:0:0:
165,281,23228,1,0,0:0:0:0:
137,238,23313,1,0,0:0:0:0:
256,192,23400,12,0,24514,0:0:0:0:
343,69,24685,5,0,0:0:0:0:
378,104,24771,1,0,0:0:0:0:
378,157,24857,1,0,0:0:0:0:
320,304,25028,1,0,0:0:0:0:
144,304,25200,2,0,P|92:269|92:200,1,105.000004005432
288,80,25542,2,0,P|340:115|340:167,1,105.000004005432
290,314,25885,1,0,0:0:0:0:
112,80,26057,1,0,0:0:0:0:
378,52,26400,5,0,0:0:0:0:
412,69,26485,1,0,0:0:0:0:
430,104,26571,1,0,0:0:0:0:
430,139,26657,1,0,0:0:0:0:
412,174,26742,1,0,0:0:0:0:
273,87,26914,1,0,0:0:0:0:
203,244,27085,2,0,P|140:236|100:202,2,105.000004005432
360,157,27600,1,0,0:0:0:0:
378,296,27771,6,0,P|325:331|256:331,1,105.000004005432
133,296,28114,1,0,0:0:0:0:
273,209,28285,1,0,0:0:0:0:
273,209,28371,1,0,0:0:0:0:
273,209,28457,1,0,0:0:0:0:
412,122,28628,2,0,P|360:87|273:69,1,105.000004005432
133,69,28971,6,0,B|81:104|81:104|64:157,1,105.000004005432
204,292,29314,2,0,B|257:257|257:257|274:205,1,105.000004005432
203,104,29657,6,0,B|144:128|144:128|64:174,2,105.000004005432
395,52,30171,5,0,0:0:0:0:
430,87,30342,1,0,0:0:0:0:
238,157,30514,1,0,0:0:0:0:
430,261,30685,1,0,0:0:0:0:
288,320,30857,6,0,B|219:320|219:320|160:256,1,105.000004005432
99,192,31200,1,0,0:0:0:0:
273,226,31371,6,0,B|343:226|343:226|384:176,1,105.000004005432
430,69,31714,1,0,0:0:0:0:
412,52,31800,1,0,0:0:0:0:
395,35,31885,1,0,0:0:0:0:
221,17,32057,1,0,0:0:0:0:
400,128,32228,2,0,P|384:192|320:240,2,105.000004005432
221,192,32742,1,0,0:0:0:0:
378,296,32914,5,0,0:0:0:0:
325,331,33000,1,0,0:0:0:0:
273,314,33085,1,0,0:0:0:0:
116,122,33257,1,0,0:0:0:0:
325,209,33428,1,0,0:0:0:0:
203,35,33600,1,0,0:0:0:0:
168,261,33771,1,0,0:0:0:0:
308,52,33942,6,0,P|395:69|430:122,1,105.000004005432
482,209,34285,1,0,0:0:0:0:
482,209,34371,1,0,0:0:0:0:
482,209,34457,1,0,0:0:0:0:
360,314,34628,2,0,P|288:320|221:279,1,105.000004005432
221,122,34971,1,0,0:0:0:0:
133,279,35142,1,0,0:0:0:0:
256,104,35314,1,0,0:0:0:0:
168,296,35485,1,0,0:0:0:0:
360,192,35657,5,0,0:0:0:0:
360,122,35828,1,0,0:0:0:0:
203,17,36000,1,0,0:0:0:0:
99,139,36171,2,0,P|151:192|221:209,1,105.000004005432
343,17,36514,1,0,0:0:0:0:
447,157,36685,5,0,0:0:0:0:
395,209,36857,1,0,0:0:0:0:
238,87,37028,5,0,0:0:0:0:
186,139,37200,1,0,0:0:0:0:
273,296,37371,5,0,0:0:0:0:
221,348,37543,1,0,0:0:0:0:
99,279,37714,5,0,0:0:0:0:
67,232,37799,1,0,0:0:0:0:
56,176,37885,1,0,0:0:0:0:
70,122,37971,1,0,0:0:0:0:
104,77,38056,1,0,0:0:0:0:
151,52,38142,2,0,P|186:35|221:35,1,52.5000020027161
378,87,38400,5,0,0:0:0:0:
378,87,38485,1,0,0:0:0:0:
378,87,38571,1,0,0:0:0:0:
304,288,38742,1,0,0:0:0:0:
304,288,38827,1,0,0:0:0:0:
304,288,38913,1,0,0:0:0:0:
482,139,39085,1,0,0:0:0:0:
482,139,39171,1,0,0:0:0:0:
482,139,39257,1,0,0:0:0:0:
256,52,39428,5,0,0:0:0:0:
230,76,39513,1,0,0:0:0:0:
205,101,39599,1,0,0:0:0:0:
186,122,39685,2,0,L|133:174,1,52.5000020027161
221,296,39942,5,0,0:0:0:0:
258,290,40027,1,0,0:0:0:0:
294,277,40113,1,0,0:0:0:0:
326,257,40200,2,0,L|378:209,1,52.5000020027161
325,87,40457,6,0,P|273:52|203:52,2,105.000004005432
412,226,40971,1,0,0:0:0:0:
256,192,41142,12,0,43200,0:0:0:0:
325,35,43285,5,0,0:0:0:0:
341,62,43370,1,0,0:0:0:0:
351,90,43456,1,0,0:0:0:0:
359,121,43542,1,0,0:0:0:0:
363,152,43627,1,0,0:0:0:0:
362,184,43713,1,0,0:0:0:0:
334,241,43799,1,0,0:0:0:0:
288,272,43885,1,0,0:0:0:0:
232,279,43971,1,0,0:0:0:0:
180,257,44056,1,0,0:0:0:0:
144,213,44142,1,0,0:0:0:0:
135,159,44228,1,0,0:0:0:0:
151,105,44313,1,0,0:0:0:0:
191,66,44399,1,0,0:0:0:0:
248,69,44485,1,0,0:0:0:0:
299,94,44571,1,0,0:0:0:0:
335,138,44657,1,0,0:0:0:0:
336,192,44742,1,0,0:0:0:0:
312,252,44827,1,0,0:0:0:0:
263,285,44913,1,0,0:0:0:0:
207,299,44999,1,0,0:0:0:0:
149,293,45084,1,0,0:0:0:0:
97,266,45170,1,0,0:0:0:0:
57,223,45256,1,0,0:0:0:0:
221,261,46628,6,0,B|116:261|116:261|151:226,1,105.000004005432
221,69,46971,1,0,0:0:0:0:
256,87,47142,1,0,0:0:0:0:
343,279,47314,1,0,0:0:0:0:
360,261,47400,1,0,0:0:0:0:
378,244,47485,1,0,0:0:0:0:
378,52,47657,1,0,0:0:0:0:
151,226,47828,1,0,0:0:0:0:
360,261,48000,5,0,0:0:0:0:
360,261,48086,1,0,0:0:0:0:
360,261,48171,1,0,0:0:0:0:
465,35,48342,1,0,0:0:0:0:
238,87,48514,2,0,P|168:139|128:192,2,105.000004005432
447,192,49028,1,0,0:0:0:0:
273,35,49200,1,0,0:0:0:0:
430,226,49371,1,0,0:0:0:0:
412,244,49457,1,0,0:0:0:0:
395,226,49542,1,0,0:0:0:0:
308,35,49714,6,0,P|240:48|176:96,2,105.000004005432
447,157,50228,1,0,0:0:0:0:
343,279,50400,2,0,P|272:288|192:272,1,105.000004005432
46,174,50742,1,0,0:0:0:0:
273,226,50914,1,0,0:0:0:0:
64,104,51085,1,0,0:0:0:0:
308,174,51257,1,0,0:0:0:0:
81,35,51428,1,0,0:0:0:0:
343,122,51600,1,0,0:0:0:0:
116,261,51771,5,0,0:0:0:0:
99,226,51857,1,0,0:0:0:0:
116,192,51942,1,0,0:0:0:0:
290,52,52114,1,0,0:0:0:0:
343,279,52285,2,0,P|272:272|221:226,1,105.000004005432
186,35,52628,1,0,0:0:0:0:
412,174,52800,2,0,P|343:244|290:261,1,105.000004005432
151,35,53142,1,0,0:0:0:0:
46,261,53314,5,0,0:0:0:0:
151,331,53485,1,0,0:0:0:0:
273,296,53657,1,0,0:0:0:0:
412,52,53828,1,0,0:0:0:0:
308,17,53999,1,0,0:0:0:0:
186,87,54171,1,0,0:0:0:0:
360,331,54342,1,0,0:0:0:0:
447,209,54513,1,0,0:0:0:0:
378,87,54685,1,0,0:0:0:0:
240,32,54857,1,0,0:0:0:0:
64,209,55028,6,0,P|133:296|168:296,2,105.000004005432
221,104,55542,1,0,0:0:0:0:
133,314,55714,1,0,0:0:0:0:
116,69,55885,2,0,P|203:87|256:104,1,105.000004005432
308,296,56228,1,0,0:0:0:0:
308,35,56400,5,0,0:0:0:0:
447,35,56571,1,0,0:0:0:0:
500,157,56742,1,0,0:0:0:0:
395,261,56914,1,0,0:0:0:0:
273,174,57085,1,0,0:0:0:0:
325,35,57257,1,0,0:0:0:0:
430,139,57428,1,0,0:0:0:0:
343,261,57600,2,0,P|256:296|221:296,1,105.000004005432
64,192,57942,5,0,0:0:0:0:
238,87,58114,2,0,P|308:104|360:139,2,105.000004005432
116,261,58628,1,0,0:0:0:0:
343,104,58800,1,0,0:0:0:0:
64,69,58971,1,0,0:0:0:0:
256,261,59142,1,0,0:0:0:0:
273,17,59314,1,0,0:0:0:0:
112,224,59485,2,0,L|32:320,1,105.000004005432
360,226,59828,1,0,0:0:0:0:
144,96,60000,2,0,L|40:44,2,105.000004005432
378,192,60514,5,0,0:0:0:0:
238,296,60685,2,0,P|186:261|168:174,1,105.000004005432
290,87,61028,2,0,P|343:122|360:209,1,105.000004005432
151,104,61371,1,0,0:0:0:0:
395,261,61542,1,0,0:0:0:0:
116,244,61714,1,0,0:0:0:0:
395,104,61885,1,0,0:0:0:0:
46,174,62057,1,0,0:0:0:0:
465,244,62228,1,0,0:0:0:0:
64,48,62400,1,0,0:0:0:0:
360,69,62571,6,0,P|412:139|412:192,1,105.000004005432
256,296,62914,1,0,0:0:0:0:
151,122,63085,1,0,0:0:0:0:
168,104,63171,1,0,0:0:0:0:
203,104,63257,1,0,0:0:0:0:
395,226,63428,1,0,0:0:0:0:
133,209,63600,2,0,P|160:160|224:112,1,105.000004005432
412,87,63942,1,0,0:0:0:0:
221,314,64114,5,0,0:0:0:0:
290,87,64285,1,0,0:0:0:0:
273,331,64457,1,0,0:0:0:0:
325,52,64628,1,0,0:0:0:0:
325,348,64800,1,0,0:0:0:0:
378,17,64971,1,0,0:0:0:0:
378,366,65142,2,0,P|430:296|432:240,1,105.000004005432
343,87,65485,1,0,0:0:0:0:
151,261,65657,1,0,0:0:0:0:
133,279,65742,1,0,0:0:0:0:
116,296,65828,1,0,0:0:0:0:
273,52,68571,6,0,B|430:52|430:52|395:122,1,178.500003404617
395,122,68914,1,0,0:0:0:0:
290,331,69085,1,0,0:0:0:0:
168,104,69257,1,0,0:0:0:0:
194,59,69342,1,0,0:0:0:0:
240,33,69428,1,0,0:0:0:0:
430,69,69600,5,0,0:0:0:0:
221,279,69771,1,0,0:0:0:0:
176,32,69942,1,0,0:0:0:0:
447,122,70114,1,0,0:0:0:0:
168,244,70285,1,0,0:0:0:0:
151,209,70371,1,0,0:0:0:0:
168,174,70457,1,0,0:0:0:0:
343,35,70628,6,0,P|395:104|395:192,1,119.000002269745
343,348,70971,1,0,0:0:0:0:
186,157,71142,1,0,0:0:0:0:
46,348,71314,1,0,0:0:0:0:
325,261,71485,1,0,0:0:0:0:
99,139,71657,2,0,P|168:87|256:87,1,119.000002269745
430,69,72000,1,0,0:0:0:0:
447,87,72085,1,0,0:0:0:0:
465,104,72171,1,0,0:0:0:0:
360,296,72342,5,0,0:0:0:0:
238,104,72514,2,0,P|308:69|395:87,2,119.000002269745
395,296,73028,1,0,0:0:0:0:
136,63,73200,1,0,0:0:0:0:
427,224,73371,1,0,0:0:0:0:
96,265,73542,1,0,0:0:0:0:
339,38,73714,1,0,0:0:0:0:
276,365,73885,1,0,0:0:0:0:
133,87,74057,5,0,0:0:0:0:
151,69,74142,1,0,0:0:0:0:
168,52,74228,1,0,0:0:0:0:
430,122,74400,1,0,0:0:0:0:
168,226,74571,2,0,P|151:139|186:87,1,119.000002269745
430,69,74914,1,0,0:0:0:0:
360,314,75085,2,0,P|256:314|168:244,1,178.500003404617
168,244,75428,1,0,0:0:0:0:
378,122,75600,5,0,0:0:0:0:
99,226,75771,1,0,0:0:0:0:
81,192,75857,1,0,0:0:0:0:
99,157,75942,1,0,0:0:0:0:
290,35,76114,2,0,L|416:128,1,119.000002269745
360,331,76457,1,0,0:0:0:0:
116,87,76628,1,0,0:0:0:0:
465,209,76800,1,0,0:0:0:0:
186,279,76971,6,0,P|133:226|133:174,1,119.000002269745
325,52,77314,1,0,0:0:0:0:
325,52,77400,1,0,0:0:0:0:
325,52,77485,1,0,0:0:0:0:
290,331,77657,1,0,0:0:0:0:
99,139,77828,1,0,0:0:0:0:
99,139,77914,1,0,0:0:0:0:
99,139,78000,1,0,0:0:0:0:
395,52,78171,5,0,0:0:0:0:
151,261,78342,1,0,0:0:0:0:
465,279,78514,1,0,0:0:0:0:
325,17,78685,1,0,0:0:0:0:
186,314,78857,2,0,P|273:331|343:296,1,119.000002269745
482,192,79200,1,0,0:0:0:0:
221,17,79371,1,0,0:0:0:0:
128,288,79542,5,0,0:0:0:0:
163,312,79627,1,0,0:0:0:0:
206,320,79713,1,0,0:0:0:0:
432,160,79885,1,0,0:0:0:0:
144,48,80057,2,0,P|96:112|64:176,1,119.000002269745
368,336,80400,2,0,P|416:272|448:208,1,119.000002269745
176,48,80742,1,0,0:0:0:0:
112,320,80914,5,0,0:0:0:0:
160,336,81000,1,0,0:0:0:0:
208,320,81085,1,0,0:0:0:0:
400,192,81257,1,0,0:0:0:0:
192,64,81428,1,0,0:0:0:0:
144,48,81514,1,0,0:0:0:0:
96,64,81600,1,0,0:0:0:0:
128,288,81771,1,0,0:0:0:0:
384,176,81942,2,0,P|432:112|416:32,2,119.000002269745
112,80,82457,5,0,0:0:0:0:
400,176,82628,1,0,0:0:0:0:
400,176,82714,1,0,0:0:0:0:
400,176,82800,1,0,0:0:0:0:
48,256,82971,2,0,P|48:160|80:128,1,119.000002269745
384,64,83314,1,0,0:0:0:0:
192,320,83485,1,0,0:0:0:0:
96,32,83657,1,0,0:0:0:0:
432,112,83828,1,0,0:0:0:0:
128,304,84000,1,0,0:0:0:0:
160,16,84171,1,0,0:0:0:0:
448,176,84342,1,0,0:0:0:0:
80,256,84514,1,0,0:0:0:0:
336,16,84685,1,0,0:0:0:0:
384,304,84857,1,0,0:0:0:0:
128,96,85028,5,0,0:0:0:0:
128,96,85114,1,0,0:0:0:0:
128,96,85200,1,0,0:0:0:0:
416,64,85371,2,0,P|448:144|416:208,1,119.000002269745
176,304,85714,1,0,0:0:0:0:
384,48,85885,1,0,0:0:0:0:
64,224,86057,1,0,0:0:0:0:
432,64,86228,2,0,P|464:128|448:192,1,119.000002269745
80,128,86571,1,0,0:0:0:0:
464,192,86742,1,0,0:0:0:0:
64,256,86914,1,0,0:0:0:0:
480,64,87085,1,0,0:0:0:0:
64,64,87257,1,0,0:0:0:0:
416,288,87428,1,0,0:0:0:0:
32,48,87600,1,0,0:0:0:0:
320,272,87771,5,0,0:0:0:0:
365,219,87856,1,0,0:0:0:0:
369,150,87942,1,0,0:0:0:0:
332,92,88028,1,0,0:0:0:0:
268,68,88113,1,0,0:0:0:0:
201,88,88199,1,0,0:0:0:0:
160,143,88285,1,0,0:0:0:0:
160,212,88371,1,0,0:0:0:0:
192,272,88457,5,0,0:0:0:0:
285,285,88542,1,0,0:0:0:0:
363,231,88628,1,0,0:0:0:0:
383,138,88714,1,0,0:0:0:0:
334,57,88799,1,0,0:0:0:0:
243,31,88885,1,0,0:0:0:0:
159,75,88971,1,0,0:0:0:0:
96,288,89142,1,0,0:0:0:0:
416,288,89485,6,0,B|416:240|416:240|416:160,1,119.000002269745
144,96,90171,1,0,0:0:0:0:
256,192,90514,12,0,93257,0:0:0:0:
