osu file format v14

[General]
AudioFilename: audio.mp3
AudioLeadIn: 0
PreviewTime: -1
Countdown: 0
SampleSet: Normal
StackLeniency: 0.7
Mode: 0
LetterboxInBreaks: 0
WidescreenStoryboard: 0

[Editor]
Bookmarks: 69418
DistanceSpacing: 2.1
BeatDivisor: 4
GridSize: 8
TimelineZoom: 1.8

[Metadata]
Title:Omnia Vanitas
TitleUnicode:Omnia Vanitas
Artist:Helblinde
ArtistUnicode:Helblinde
Creator:OskaRRRitoS
Version:Sinful Waste
Source:Helblinde
Tags:vanity
BeatmapID:1548276
BeatmapSetID:733652

[Difficulty]
HPDrainRate:6
CircleSize:4
OverallDifficulty:8.5
ApproachRate:9.3
SliderMultiplier:1.4
SliderTickRate:1

[Events]
//Background and Video events
0,0,"omniavanitas.jpg",0,0
//Break Periods
2,36243,47489
//Storyboard Layer 0 (Background)
//Storyboard Layer 1 (Fail)
//Storyboard Layer 2 (Pass)
//Storyboard Layer 3 (Foreground)
//Storyboard Sound Samples

[TimingPoints]
12043.3313982202,375,4,2,0,50,1,0
13168,-166.666666666667,4,2,0,50,0,0
13543,-100,4,2,0,50,0,0
19168,-166.666666666667,4,2,0,50,0,0
19543,-100,4,2,0,50,0,0
24043,-83.3333333333333,4,2,0,60,0,0
25168,-117.647058823529,4,2,0,60,0,0
25543,-83.3333333333333,4,2,0,60,0,0
31168,-125,4,2,0,60,0,0
31543,-83.3333333333333,4,2,0,60,0,0
34543,-83.3333333333333,4,2,0,70,0,0
51043,-117.647058823529,4,2,0,45,0,0
62949,-50,4,2,0,45,0,0
63230,-117.647058823529,4,2,0,45,0,0
65949,-86.9565217391304,4,2,0,45,0,0
66230,-117.647058823529,4,2,0,45,0,0
75043,-80,4,1,0,55,0,0
81043,-55.5555555555556,4,1,0,70,0,0
93043,-66.6666666666667,4,1,0,70,0,0
98105,-55.5555555555556,4,1,0,70,0,0
99043,-66.6666666666667,4,1,0,70,0,0
233191,300,4,1,0,100,1,0
518871,428.571428571429,4,1,0,100,1,0
647492,500,4,1,0,100,1,0

[HitObjects]
91,263,12043,6,0,B|135:267|135:267|149:256|149:256|154:269|154:269|168:258|168:258|212:262,1,140
290,322,12605,1,0,0:0:0:0:
349,174,12793,2,0,L|358:253,1,70
456,226,13168,2,0,B|449:236|449:236|452:254|452:254|445:271|445:271|449:283,1,62.9999980773926
466,315,13543,6,0,P|426:325|391:358,1,70
302,333,13918,2,0,L|312:374,4,35
336,234,14480,1,0,0:0:0:0:
212,262,14668,2,0,B|179:259|179:259|168:268|168:268|164:257|164:257|154:266|154:266|120:262,1,105
104,284,15043,6,0,L|110:329,1,35
17,232,15230,2,0,L|11:277,1,35
99,171,15418,6,0,L|144:165,4,35
128,79,15980,1,0,0:0:0:0:
213,201,16168,1,0,0:0:0:0:
250,108,16355,1,0,0:0:0:0:
330,243,16543,6,0,B|363:245|363:245|372:255|372:255|378:246|378:246|387:256|387:256|420:259,1,105
452,287,16918,2,0,L|461:324,1,35
129,272,17293,1,0,0:0:0:0:
228,250,17480,1,0,0:0:0:0:
250,349,17668,1,0,0:0:0:0:
151,371,17855,1,0,0:0:0:0:
174,181,18043,6,0,B|191:139|191:139|208:133|208:133|198:122|198:122|215:115|215:115|233:74,1,140
324,37,18605,1,0,0:0:0:0:
379,182,18793,2,0,L|389:112,1,70
483,115,19168,2,0,B|486:102|486:102|477:86|477:86|479:68|479:68|471:58,1,62.9999980773926
452,27,19543,6,0,P|414:37|358:29,1,70
275,35,19918,2,0,L|281:79,4,35
346,131,20480,1,0,0:0:0:0:
194,102,20668,2,0,B|160:98|160:98|149:107|149:107|145:96|145:96|135:105|135:105|101:102,1,105
71,73,21043,1,0,0:0:0:0:
101,195,21230,6,0,B|110:229|110:229|125:237|125:237|117:251|117:251|127:286,1,105
153,313,21605,1,0,0:0:0:0:
247,232,21793,2,0,L|251:197,2,35
281,365,22168,1,0,0:0:0:0:
281,365,22355,1,0,0:0:0:0:
375,282,22543,6,0,B|406:269|406:269|412:257|412:257|420:264|420:264|425:252|425:252|457:240,1,105
256,192,22918,12,0,23855,0:0:0:0:
184,225,24043,6,0,B|130:230|130:230|113:216|113:216|107:233|107:233|91:219|91:219|37:224,1,167.999994873047
169,134,24605,1,0,0:0:0:0:
271,251,24793,2,0,L|262:342,1,83.9999974365235
450,262,25168,2,0,B|434:272|434:272|409:267|409:267|385:279|385:279|368:273,1,89.2500017023087
382,116,25543,6,0,P|375:155|358:209,1,83.9999974365235
304,327,25918,2,0,L|249:337,4,41.9999987182618
227,207,26480,1,0,0:0:0:0:
117,280,26668,2,0,B|125:312|125:312|136:319|136:319|128:326|128:326|140:333|140:333|148:366,1,105
181,373,27043,6,0,P|223:357|290:372,1,83.9999974365235
424,154,27605,2,0,P|401:165|365:171,1,41.9999987182618
289,93,27793,1,0,0:0:0:0:
230,199,27980,6,0,L|238:261,1,41.9999987182618
111,217,28168,2,0,L|103:279,1,41.9999987182618
193,112,28355,1,0,0:0:0:0:
335,263,28543,6,0,B|374:265|374:265|385:277|385:277|392:266|392:266|403:278|403:278|443:282,1,125.999996154785
474,269,28918,2,0,L|486:223,1,41.9999987182618
431,141,29105,1,0,0:0:0:0:
339,338,29293,1,0,0:0:0:0:
154,279,29480,6,0,L|146:217,1,41.9999987182618
273,261,29668,2,0,L|281:199,1,41.9999987182618
200,370,29855,1,0,0:0:0:0:
180,167,30043,6,0,B|176:112|176:112|160:98|160:98|175:89|175:89|159:76|159:76|156:21,1,167.999994873047
100,155,30605,1,0,0:0:0:0:
291,63,30793,2,0,L|282:154,1,83.9999974365235
480,126,31168,2,0,B|465:116|465:116|441:121|441:121|419:110|419:110|403:115,1,84
360,278,31543,6,0,P|375:229|380:180,1,83.9999974365235
332,58,31918,2,0,L|273:65,4,41.9999987182618
254,189,32480,1,0,0:0:0:0:
152,117,32668,2,0,B|160:85|160:85|171:78|171:78|163:71|163:71|175:64|175:64|183:31,1,105
256,192,33043,12,0,36043,0:0:0:0:
256,192,48043,12,0,50668,0:0:0:0:
297,171,51043,6,0,B|344:195|346:247|346:247|474:252|481:106|342:127|346:247|346:247|401:249|422:305,1,476.00000907898
172,349,53105,5,0,0:0:0:0:
115,253,53293,2,0,L|121:207,3,29.7500005674362
209,221,53668,2,0,L|203:175,3,29.7500005674362
153,102,54043,6,0,L|193:96,2,29.7500005674362
258,74,54324,2,0,L|262:103,2,29.7500005674362
286,179,54605,2,0,L|246:185,2,29.7500005674362
181,207,54886,2,0,L|176:177,2,29.7500005674362
153,102,55168,6,0,L|193:96,1,29.7500005674362
258,74,55355,2,0,L|298:80,1,29.7500005674362
391,151,55543,6,0,L|397:191,2,29.7500005674362
286,179,55824,2,0,L|316:174,2,29.7500005674362
314,284,56105,2,0,L|308:244,2,29.7500005674362
419,256,56387,2,0,L|390:260,2,29.7500005674362
391,151,56668,6,0,L|395:180,1,29.7500005674362
474,89,56855,2,0,L|469:118,1,29.7500005674362
379,35,57043,1,0,0:0:0:0:
341,34,57137,1,0,0:0:0:0:
309,54,57230,1,0,0:0:0:0:
203,145,57418,6,0,L|207:188,1,29.7500005674362
130,68,57605,2,0,L|126:111,1,29.7500005674362
95,211,57793,1,0,0:0:0:0:
309,240,57980,6,0,L|305:283,1,29.7500005674362
382,163,58167,2,0,L|386:206,1,29.7500005674362
417,306,58355,1,0,0:0:0:0:
415,320,58448,1,0,0:0:0:0:
414,335,58543,6,0,L|371:339,2,29.7500005674362
276,266,58824,2,0,L|305:268,2,29.7500005674362
379,231,59105,2,0,L|376:261,2,29.7500005674362
310,369,59387,2,0,L|306:326,2,29.7500005674362
275,265,59668,6,0,L|273:236,1,29.7500005674362
240,161,59855,2,0,L|237:131,1,29.7500005674362
204,56,60043,2,0,L|201:26,1,29.7500005674362
99,62,60230,6,0,L|142:58,2,29.7500005674362
237,131,60511,2,0,L|207:128,2,29.7500005674362
133,165,60792,2,0,L|135:135,2,29.7500005674362
202,27,61074,2,0,L|206:70,2,29.7500005674362
370,93,61355,2,0,L|327:89,2,29.7500005674362
306,269,61637,6,0,L|310:226,2,29.7500005674362
237,131,61918,2,0,L|239:160,2,29.7500005674362
203,235,62199,2,0,L|232:232,2,29.7500005674362
341,166,62481,2,0,L|298:162,2,29.7500005674362
167,162,62762,2,0,L|138:165,1,29.7500005674362
320,94,62949,6,0,P|319:128|311:163,1,70
239,110,63137,1,0,0:0:0:0:
266,33,63230,6,0,L|237:36,2,29.7500005674362
106,78,63512,2,0,L|135:81,2,29.7500005674362
237,212,63793,6,0,L|240:241,2,29.7500005674362
321,248,64074,2,0,L|316:276,2,29.7500005674362
392,304,64355,2,0,L|380:330,2,29.7500005674362
462,241,64637,6,0,L|491:238,2,29.7500005674362
391,181,64918,2,0,L|362:178,2,29.7500005674362
472,135,65199,2,0,L|501:132,2,29.7500005674362
401,75,65480,2,0,L|372:72,2,29.7500005674362
482,29,65762,2,0,L|511:26,1,29.7500005674362
501,131,65949,5,0,0:0:0:0:
499,151,66042,1,0,0:0:0:0:
497,171,66136,1,0,0:0:0:0:
495,191,66230,2,0,L|466:194,2,29.7500005674362
412,246,66512,2,0,L|383:243,2,29.7500005674362
329,191,66793,2,0,L|300:194,2,29.7500005674362
246,246,67074,2,0,L|217:243,2,29.7500005674362
163,191,67355,2,0,L|134:194,2,29.7500005674362
282,80,67637,6,0,L|285:51,2,29.7500005674362
216,134,67918,2,0,L|213:105,2,29.7500005674362
282,188,68199,2,0,L|285:159,2,29.7500005674362
216,242,68480,2,0,L|213:213,2,29.7500005674362
282,296,68761,2,0,L|285:267,2,29.7500005674362
167,346,69043,5,0,0:0:0:0:
149,334,69137,2,0,L|101:331,2,29.7500005674362
53,266,69418,2,0,L|82:264,2,29.7500005674362
149,198,69699,2,0,L|101:195,2,29.7500005674362
53,130,69980,2,0,L|82:128,2,29.7500005674362
173,71,70262,6,0,L|174:41,2,29.7500005674362
225,146,70543,2,0,L|226:175,2,29.7500005674362
277,71,70824,2,0,L|278:41,2,29.7500005674362
329,146,71105,2,0,L|330:175,2,29.7500005674362
381,71,71387,2,0,L|382:41,2,29.7500005674362
256,192,71668,12,0,74855,0:0:0:0:
177,113,75043,6,0,B|135:195|218:195|177:278,1,175
335,113,75605,2,0,B|376:195|293:195|335:278,2,175
164,85,76543,6,0,B|112:62|45:70|59:169|59:169|109:280|216:196|145:99|59:169|59:169|20:233|54:275|54:275|132:319|205:276|223:219|223:219|265:271|241:334,1,875
256,192,78793,12,0,80855,0:0:0:0:
108,169,81043,5,0,0:0:0:0:
106,184,81136,1,0,0:0:0:0:
105,200,81230,2,0,P|138:221|178:230,1,62.9999980773926
293,152,81418,2,0,P|277:179|255:201,1,62.9999980773926
119,296,81605,2,0,P|157:304|197:299,1,62.9999980773926
403,169,81793,5,0,0:0:0:0:
405,184,81886,1,0,0:0:0:0:
406,200,81980,2,0,P|373:221|333:230,1,62.9999980773926
218,152,82168,2,0,P|233:179|255:201,1,62.9999980773926
392,296,82355,2,0,P|353:304|313:299,1,62.9999980773926
289,70,82543,6,0,L|302:151,1,62.9999980773926
149,23,82730,1,0,0:0:0:0:
149,23,82824,2,0,L|230:10,1,62.9999980773926
102,163,83012,1,0,0:0:0:0:
102,163,83106,2,0,L|89:82,1,62.9999980773926
242,210,83293,6,0,P|211:197|189:175,1,62.9999980773926
289,70,83480,2,0,P|276:101|254:123,1,62.9999980773926
149,23,83668,2,0,P|180:36|202:58,1,62.9999980773926
102,163,83855,2,0,P|115:132|137:110,1,62.9999980773926
323,181,84043,5,0,0:0:0:0:
325,196,84136,1,0,0:0:0:0:
328,211,84230,2,0,P|322:241|301:274,1,62.9999980773926
392,150,84418,2,0,P|408:175|417:213,1,62.9999980773926
415,291,84605,2,0,P|409:321|388:354,1,62.9999980773926
227,253,84793,5,0,0:0:0:0:
225,238,84886,1,0,0:0:0:0:
222,223,84980,2,0,P|228:193|249:160,1,62.9999980773926
158,284,85168,2,0,P|141:258|132:220,1,62.9999980773926
135,143,85355,2,0,P|141:113|162:80,1,62.9999980773926
379,109,85543,6,0,L|289:124,1,62.9999980773926
223,35,85730,1,0,0:0:0:0:
223,35,85824,2,0,L|313:50,1,62.9999980773926
379,109,86012,1,0,0:0:0:0:
379,109,86105,6,0,P|382:145|372:177,1,62.9999980773926
307,342,86293,2,0,P|283:314|272:282,1,62.9999980773926
228,111,86480,2,0,P|263:119|290:138,1,62.9999980773926
428,252,86668,2,0,P|394:265|361:266,1,62.9999980773926
183,255,86855,2,0,P|201:224|228:204,1,62.9999980773926
504,252,87043,5,0,0:0:0:0:
504,266,87136,1,0,0:0:0:0:
506,281,87230,2,0,P|486:314|455:328,1,62.9999980773926
367,238,87418,2,0,P|397:249|435:251,1,62.9999980773926
478,159,87605,2,0,P|448:170|410:172,1,62.9999980773926
194,176,87793,5,0,0:0:0:0:
194,190,87886,1,0,0:0:0:0:
191,204,87980,2,0,P|205:231|231:248,1,62.9999980773926
331,161,88168,2,0,P|301:171|270:174,1,62.9999980773926
219,82,88355,2,0,P|248:92|279:95,1,62.9999980773926
424,19,88543,6,0,L|362:29,1,62.9999980773926
511,138,88730,1,0,0:0:0:0:
511,138,88824,2,0,L|502:76,1,62.9999980773926
392,225,89012,1,0,0:0:0:0:
392,225,89106,2,0,L|455:216,1,62.9999980773926
305,106,89293,6,0,P|316:135|338:157,1,62.9999980773926
424,19,89480,2,0,P|394:30|372:52,1,62.9999980773926
511,138,89668,2,0,P|499:108|477:86,1,62.9999980773926
392,225,89855,2,0,P|421:213|443:191,1,62.9999980773926
288,30,90043,5,0,0:0:0:0:
273,35,90136,1,0,0:0:0:0:
258,40,90230,2,0,L|187:31,1,62.9999980773926
151,127,90418,2,0,L|222:118,1,62.9999980773926
258,214,90605,2,0,L|187:205,1,62.9999980773926
349,141,90793,5,0,0:0:0:0:
364,146,90886,1,0,0:0:0:0:
379,151,90980,2,0,L|450:142,1,62.9999980773926
486,238,91168,2,0,L|415:229,1,62.9999980773926
379,325,91355,2,0,L|450:316,1,62.9999980773926
256,192,91543,12,0,92855,0:0:0:0:
332,192,93043,5,0,0:0:0:0:
340,167,93136,1,0,0:0:0:0:
342,141,93230,1,0,0:0:0:0:
338,115,93324,1,0,0:0:0:0:
328,91,93418,2,0,L|268:96,1,52.5000020027161
138,185,93605,1,0,0:0:0:0:
138,185,93699,2,0,L|198:190,1,52.5000020027161
388,218,93887,5,0,0:0:0:0:
388,218,93980,2,0,P|395:251|390:289,1,52.5000020027161
390,348,94168,2,0,P|357:337|327:314,1,52.5000020027161,0|0,0:0|0:0,0:0:0:0:
276,284,94355,2,0,P|301:261|336:246,1,52.5000020027161,0|0,0:0|0:0,0:0:0:0:
466,164,94543,5,0,0:0:0:0:
466,164,94637,2,0,P|443:142|401:127,1,52.5000020027161
201,213,94824,1,0,0:0:0:0:
201,213,94918,2,0,P|224:191|266:176,1,52.5000020027161
429,249,95105,1,0,0:0:0:0:
429,249,95199,1,0,0:0:0:0:
429,249,95293,2,0,P|406:227|364:212,1,52.5000020027161
194,291,95480,6,0,P|162:280|132:256,1,52.5000020027161
81,225,95668,2,0,P|107:202|142:188,1,52.5000020027161,0|0,0:0|0:0,0:0:0:0:
195,161,95855,2,0,P|201:194|196:232,1,52.5000020027161
61,139,96043,5,0,0:0:0:0:
54,113,96136,1,0,0:0:0:0:
52,87,96230,1,0,0:0:0:0:
53,61,96324,1,0,0:0:0:0:
59,35,96418,2,0,L|119:40,1,52.5000020027161
301,99,96605,1,0,0:0:0:0:
301,99,96699,2,0,L|241:104,1,52.5000020027161
52,205,96887,5,0,0:0:0:0:
52,205,96980,2,0,P|75:229|109:247,1,52.5000020027161
157,281,97168,2,0,P|166:247|165:209,1,52.5000020027161,0|0,0:0|0:0,0:0:0:0:
170,151,97355,2,0,P|136:158|104:178,1,52.5000020027161,0|0,0:0|0:0,0:0:0:0:
122,363,97543,5,0,0:0:0:0:
122,363,97637,2,0,P|150:368|181:363,1,52.5000020027161
367,265,97824,1,0,0:0:0:0:
367,265,97918,2,0,P|339:270|308:265,1,52.5000020027161
166,281,98105,6,0,P|178:246|180:194,1,62.9999980773926
100,13,98293,2,0,P|110:48|139:91,1,62.9999980773926
311,191,98480,2,0,P|281:168|232:150,1,62.9999980773926
35,171,98668,2,0,P|71:171|122:157,1,62.9999980773926
270,25,98855,2,0,P|239:46|207:87,1,62.9999980773926
341,292,99043,5,0,0:0:0:0:
363,278,99136,1,0,0:0:0:0:
383,261,99230,1,0,0:0:0:0:
401,242,99324,1,0,0:0:0:0:
417,221,99418,2,0,L|422:160,1,52.5000020027161
375,22,99605,1,0,0:0:0:0:
375,22,99699,2,0,L|380:83,1,52.5000020027161
306,217,99887,5,0,0:0:0:0:
306,217,99980,2,0,P|272:208|240:186,1,52.5000020027161
185,156,100168,2,0,P|209:131|243:114,1,52.5000020027161
297,81,100355,2,0,P|306:114|303:152,1,52.5000020027161
374,267,100543,5,0,0:0:0:0:
374,267,100636,2,0,P|346:288|309:301,1,52.5000020027161
119,206,100824,1,0,0:0:0:0:
119,206,100917,2,0,P|146:227|183:240,1,52.5000020027161
341,174,101105,1,0,0:0:0:0:
341,174,101199,1,0,0:0:0:0:
341,174,101293,2,0,P|313:195|276:208,1,52.5000020027161
167,23,101480,6,0,P|201:32|233:54,1,52.5000020027161
288,84,101668,2,0,P|264:109|230:126,1,52.5000020027161
176,159,101855,2,0,P|167:126|170:88,1,52.5000020027161
423,80,102043,6,0,P|395:96|370:102,2,52.5000020027161
441,167,102512,2,0,P|466:174|488:188,2,52.5000020027161
344,317,102980,5,0,0:0:0:0:
261,327,103167,1,0,0:0:0:0:
178,337,103355,1,0,0:0:0:0:
248,77,103543,5,0,0:0:0:0:
268,93,103636,1,0,0:0:0:0:
283,114,103730,1,0,0:0:0:0:
185,205,103918,5,0,0:0:0:0:
190,179,104011,1,0,0:0:0:0:
201,155,104105,1,0,0:0:0:0:
328,195,104293,5,0,0:0:0:0:
304,204,104386,1,0,0:0:0:0:
278,206,104480,1,0,0:0:0:0:
385,17,104668,5,0,0:0:0:0:
