osu file format v14

[General]
AudioFilename: audio.mp3
AudioLeadIn: 0
PreviewTime: 32064
Countdown: 0
SampleSet: None
StackLeniency: 0.7
Mode: 0
LetterboxInBreaks: 0
WidescreenStoryboard: 1

[Editor]
DistanceSpacing: 1.3
BeatDivisor: 4
GridSize: 4
TimelineZoom: 6.131996

[Metadata]
Title:Monophobia (Insanity Verse)
TitleUnicode:Monophobia (Insanity Verse)
Artist:Helblinde
ArtistUnicode:Helblinde
Creator:HappyHorse191
Version:Alone [w/ Break] AR 9.5
Source:
Tags:Helblinde Monophobia Insanity Verse InsanityVerse
BeatmapID:1041182
BeatmapSetID:484223

[Difficulty]
HPDrainRate:7
CircleSize:4.4
OverallDifficulty:7
ApproachRate:9.5
SliderMultiplier:2
SliderTickRate:2

[Events]
//Background and Video events
0,0,"monophobia.jpg",0,0
//Break Periods
2,67057,84854
//Storyboard Layer 0 (Background)
//Storyboard Layer 1 (Fail)
//Storyboard Layer 2 (Pass)
//Storyboard Layer 3 (Foreground)
//Storyboard Sound Samples
Sample,15727,0,"soft-hitclap20.wav",25
Sample,15988,0,"soft-hitclap21.wav",25
Sample,16248,0,"soft-hitclap22.wav",25
Sample,16509,0,"soft-hitclap21.wav",25
Sample,53944,0,"soft-hitwhistle.wav",80
Sample,54205,0,"soft-hitwhistle.wav",80
Sample,62292,0,"soft-hitwhistle.wav",80
Sample,62553,0,"soft-hitwhistle.wav",80

[TimingPoints]
75,260.869565217391,4,2,1,5,1,0
75,-200,4,2,0,5,0,0
1118,-200,4,2,0,7,0,0
2161,-200,4,2,0,9,0,0
3205,-200,4,2,0,11,0,0
4248,-200,4,2,0,13,0,0
5292,-200,4,2,0,15,0,0
6335,-200,4,2,0,17,0,0
7379,-200,4,2,0,19,0,0
8422,-200,4,2,0,21,0,0
9466,-200,4,2,0,23,0,0
10509,-200,4,2,2,25,0,0
11553,-200,4,2,0,27,0,0
12596,-200,4,2,0,29,0,0
13640,-200,4,2,0,31,0,0
14683,-200,4,2,0,33,0,0
15727,-200,4,2,0,35,0,0
16770,-200,4,2,1,70,0,0
16835,-200,4,2,0,25,0,0
17814,-181.818181818182,4,2,1,30,0,0
17879,-181.818181818182,4,2,1,10,0,0
18140,-181.818181818182,4,2,1,30,0,0
18401,-181.818181818182,4,2,1,15,0,0
18661,-181.818181818182,4,2,1,30,0,0
18857,-166.666666666667,4,2,1,35,0,0
18922,-166.666666666667,4,2,1,15,0,0
19183,-166.666666666667,4,2,1,35,0,0
19444,-166.666666666667,4,2,1,20,0,0
19705,-166.666666666667,4,2,1,35,0,0
19901,-153.846153846154,4,2,1,40,0,0
19966,-153.846153846154,4,2,1,35,0,0
20227,-153.846153846154,4,2,1,40,0,0
20944,-142.857142857143,4,2,1,45,0,0
21988,-133.333333333333,4,2,1,50,0,0
23031,-125,4,2,1,55,0,0
29292,-166.666666666667,4,2,3,40,0,0
32096,-200,4,2,6,35,0,0
33466,-100,4,2,6,50,0,1
41292,-200,4,2,6,50,0,0
41814,-100,4,2,6,50,0,1
44944,-125,4,2,6,50,0,1
45205,-166.666666666667,4,2,6,50,0,1
45466,-133.333333333333,4,2,6,50,0,1
45596,-117.647058823529,4,2,6,50,0,1
45727,-105.263157894737,4,2,6,50,0,1
45857,-95.2380952380954,4,2,6,50,0,1
45988,-100,4,2,6,50,0,1
50159,-100,4,2,6,50,0,0
50161,-100,4,2,6,60,0,1
50227,-100,4,2,1,60,0,1
50488,-100,4,2,5,60,0,1
50748,-100,4,2,1,60,0,1
50977,-100,4,2,5,60,0,1
51270,-100,4,2,1,60,0,1
51531,-100,4,2,6,60,0,1
51824,-100,4,2,1,60,0,1
52053,-100,4,2,5,60,0,1
52314,-100,4,2,1,60,0,1
52574,-100,4,2,6,60,0,1
52835,-100,4,2,1,60,0,1
53096,-100,4,2,5,60,0,1
53357,-100,4,2,1,60,0,1
53618,-100,4,2,5,60,0,1
54401,-100,4,2,1,60,0,1
54661,-100,4,2,5,60,0,1
54922,-100,4,2,1,60,0,1
55183,-100,4,2,5,60,0,1
55444,-100,4,2,1,60,0,1
55705,-100,4,2,5,60,0,1
55966,-100,4,2,1,60,0,1
56227,-100,4,2,5,60,0,1
56488,-100,4,2,1,60,0,1
56748,-100,4,2,5,60,0,1
57009,-100,4,2,1,60,0,1
57270,-100,4,2,5,60,0,1
57531,-100,4,2,1,60,0,1
57792,-100,4,2,5,60,0,1
58053,-100,4,2,1,60,0,1
58314,-100,4,2,5,60,0,1
58574,-100,4,2,1,60,0,1
58835,-100,4,2,5,60,0,1
59096,-100,4,2,1,60,0,1
59357,-100,4,2,5,60,0,1
59748,-100,4,2,1,60,0,1
59879,-100,4,2,5,60,0,1
60140,-100,4,2,1,60,0,1
60401,-100,4,2,5,60,0,1
60661,-100,4,2,1,60,0,1
60922,-100,4,2,5,60,0,1
61183,-100,4,2,1,60,0,1
61444,-100,4,2,5,60,0,1
61705,-100,4,2,1,60,0,1
61966,-100,4,2,5,60,0,1
62879,-100,4,2,1,60,0,1
63009,-100,4,2,5,60,0,1
63401,-100,4,2,1,60,0,1
63531,-100,4,2,5,60,0,1
63922,-100,4,2,1,60,0,1
64053,-100,4,2,5,60,0,1
64314,-100,4,2,1,60,0,1
64574,-100,4,2,5,60,0,1
66857,-200,4,2,4,80,0,0
88770,-181.818181818182,4,2,1,80,0,0
89814,-166.666666666667,4,2,1,80,0,0
90857,-153.846153846154,4,2,1,80,0,0
91901,-142.857142857143,4,2,1,80,0,0
92944,-133.333333333333,4,2,1,80,0,0
93988,-125,4,2,1,80,0,0
95031,-166.666666666667,4,2,1,80,0,0
95096,-166.666666666667,4,2,0,80,0,0
95553,-142.857142857143,4,2,1,80,0,0
95748,-142.857142857143,4,2,0,80,0,0
96074,-125,4,2,1,80,0,0
96270,-125,4,2,0,80,0,0
96580,-125,4,2,1,80,0,0
97118,-90.9090909090909,4,2,5,50,0,1
104944,-71.4285714285714,4,2,5,50,0,1
105205,-90.9090909090909,4,2,5,50,0,1
109640,-133.333333333333,4,2,5,80,0,0
113520,-133.333333333333,4,2,99,90,0,0
113814,-76.9230769230769,4,2,5,50,0,1
117466,-100,4,2,5,80,0,0
117988,-71.4285714285714,4,2,5,55,0,1
121118,-90.9090909090909,4,2,2,50,0,1
122161,-71.4285714285714,4,2,2,55,0,1
126335,-71.4285714285714,4,2,2,45,0,1
127379,-71.4285714285714,4,2,2,35,0,1
128422,-71.4285714285714,4,2,2,25,0,1
129466,-71.4285714285714,4,2,2,20,0,1
129988,-71.4285714285714,4,2,2,30,0,1
130248,-71.4285714285714,4,2,2,40,0,1
130509,-71.4285714285714,4,2,2,50,0,1
131031,-100,4,2,1,80,0,0
132596,-100,4,2,2,50,0,1
133118,-100,4,2,1,80,0,0
134683,-100,4,2,2,50,0,1
135205,-100,4,2,1,80,0,0
136770,-100,4,2,2,50,0,1
137292,-100,4,2,1,80,0,0
138466,-100,4,2,0,80,0,0
138857,-66.6666666666667,4,2,20,50,0,1
139118,-66.6666666666667,4,2,21,50,0,1
139379,-66.6666666666667,4,2,22,50,0,1
139640,-66.6666666666667,4,2,21,50,0,1
139901,-66.6666666666667,4,2,24,50,0,1
140161,-66.6666666666667,4,2,27,50,0,1
140422,-66.6666666666667,4,2,26,50,0,1
140683,-66.6666666666667,4,2,27,50,0,1
141205,-66.6666666666667,4,2,31,50,0,1
141466,-66.6666666666667,4,2,30,50,0,1
141727,-66.6666666666667,4,2,31,50,0,1
142248,-66.6666666666667,4,2,35,50,0,1
142509,-66.6666666666667,4,2,34,50,0,1
142770,-66.6666666666667,4,2,35,50,0,1
143031,-66.6666666666667,4,2,21,50,0,1
147203,-66.6666666666667,4,2,5,50,0,0
147205,-66.6666666666667,4,2,20,50,0,1
147466,-66.6666666666667,4,2,21,50,0,1
147727,-66.6666666666667,4,2,22,50,0,1
147988,-66.6666666666667,4,2,21,50,0,1
148249,-66.6666666666667,4,2,24,50,0,1
148509,-66.6666666666667,4,2,27,50,0,1
148770,-66.6666666666667,4,2,26,50,0,1
149031,-66.6666666666667,4,2,27,50,0,1
149292,-66.6666666666667,4,2,31,50,0,1
149553,-66.6666666666667,4,2,29,50,0,1
149814,-66.6666666666667,4,2,30,50,0,1
150075,-66.6666666666667,4,2,31,50,0,1
150336,-66.6666666666667,4,2,35,50,0,1
150596,-66.6666666666667,4,2,33,50,0,1
150857,-66.6666666666667,4,2,34,50,0,1
151379,-66.6666666666667,4,2,21,50,0,1
154509,-100,4,2,4,90,0,0
154770,-100,4,2,5,90,0,0
154901,-100,4,2,4,90,0,0
155553,-66.6666666666667,4,2,20,50,0,1
155814,-66.6666666666667,4,2,21,50,0,1
156075,-66.6666666666667,4,2,22,50,0,1
156336,-66.6666666666667,4,2,21,50,0,1
156597,-66.6666666666667,4,2,24,50,0,1
156857,-66.6666666666667,4,2,27,50,0,1
157118,-66.6666666666667,4,2,26,50,0,1
157379,-66.6666666666667,4,2,27,50,0,1
157901,-66.6666666666667,4,2,31,50,0,1
158162,-66.6666666666667,4,2,30,50,0,1
158423,-66.6666666666667,4,2,31,50,0,1
158683,-111.111111111111,4,2,32,50,0,1
158911,-66.6666666666667,4,2,50,50,0,1
158977,-66.6666666666667,4,2,5,50,0,1
159172,-66.6666666666667,4,2,51,50,0,1
159238,-66.6666666666667,4,2,5,50,0,1
159433,-66.6666666666667,4,2,52,50,0,1
159498,-66.6666666666667,4,2,5,50,0,1
159727,-66.6666666666667,4,2,5,50,0,1
162857,-58.8235294117647,4,2,5,50,0,1
163899,-66.6666666666667,4,2,5,50,0,0
163901,-66.6666666666667,4,2,20,50,0,1
164162,-66.6666666666667,4,2,21,50,0,1
164423,-66.6666666666667,4,2,22,50,0,1
164684,-66.6666666666667,4,2,21,50,0,1
164945,-66.6666666666667,4,2,24,50,0,1
165205,-66.6666666666667,4,2,27,50,0,1
165466,-66.6666666666667,4,2,26,50,0,1
165727,-66.6666666666667,4,2,27,50,0,1
166249,-66.6666666666667,4,2,31,50,0,1
166510,-66.6666666666667,4,2,30,50,0,1
166771,-66.6666666666667,4,2,31,50,0,1
167031,-100,4,2,32,50,0,1
167259,-100,4,2,50,50,0,1
167325,-100,4,2,5,50,0,1
167488,-80,4,2,34,50,0,1
167586,-80,4,2,5,50,0,1
167781,-80,4,2,52,50,0,1
167846,-80,4,2,5,50,0,1
168074,-66.6666666666667,4,2,5,50,0,1
172248,-100,4,2,2,80,0,0
172379,-100,4,2,2,60,0,0

[Colours]
Combo1 : 74,45,77
Combo2 : 143,71,71
Combo3 : 215,170,214
Combo4 : 190,41,41
Combo5 : 165,88,171
Combo6 : 233,10,10
Combo7 : 124,81,140
Combo8 : 159,0,0

[HitObjects]
264,100,75,22,0,P|324:64|312:144,1,150
48,292,1118,22,0,P|84:328|108:256,1,150
192,68,2161,22,0,P|244:20|240:92,1,150
472,320,3205,22,0,P|408:328|460:264,1,150
92,40,4248,22,0,B|100:132|100:132|56:212,1,150
424,320,5292,22,0,B|408:252|408:252|420:148,1,150
52,264,6335,22,0,B|100:320|100:320|208:352,1,150
492,88,7379,22,0,B|475:64|475:64|444:72|444:72|431:40|431:40|411:48|411:48|400:16|400:16|368:8,1,150
400,17,7901,1,0,0:0:0:0:
143,214,8422,22,0,B|139:236|139:236|158:251|158:251|143:274|143:274|162:296|162:296|151:319|151:319|169:334|169:334|143:371,1,150
168,332,8944,1,0,0:0:0:0:
252,70,9466,22,0,B|218:85|218:85|199:70|199:70|176:89|176:89|157:78|157:78|142:93|142:93|115:85|115:85|85:100,1,150
127,89,9988,1,0,0:0:0:0:
344,232,10509,22,0,B|320:200|320:172|320:172|316:224|244:304,1,200,10|0,0:0|0:0,0:0:0:0:
28,96,11553,22,0,B|72:96|104:156|104:156|96:72|120:24,1,200
200,300,12596,22,0,B|152:292|104:312|104:312|152:272|176:192,1,200
304,24,13640,22,0,B|336:68|336:128|336:128|364:72|440:44,1,200
152,184,14683,22,0,B|128:160|124:100|124:100|116:168|80:236,1,200
384,212,15727,22,0,B|424:208|464:168|464:168|428:224|436:304,1,200
180,300,16770,22,0,B|168:272|172:240|172:240|188:240|188:240|188:228|188:228|184:220|184:220|192:216|192:216|200:212|200:212|192:200|192:200|184:204|184:204|192:192|192:192|184:180|184:180|152:184|148:160|148:160|132:152|132:152|140:136|140:136|136:120|136:120|120:136|120:136|112:128|112:128|128:100|128:100|112:92|112:92|120:84|120:84|112:68|112:68|124:64,1,350,8|0,0:0|0:0,0:0:0:0:
172,52,17814,2,0,P|240:16|304:96,1,165.000005035401,14|2,0:0|0:0,0:0:0:0:
300,136,18335,2,0,B|296:204|296:204|336:304,1,165.000005035401,14|2,0:0|0:0,0:0:0:0:
252,300,18857,22,0,P|200:276|112:360,1,179.999994506836,14|2,0:0|0:0,0:0:0:0:
192,352,19379,2,0,L|236:152,1,179.999994506836,14|2,0:0|0:0,0:0:0:0:
184,104,19901,22,0,B|144:80|140:32|140:32|100:76|16:92,1,194.999991073609,14|2,0:0|0:0,0:0:0:0:
68,168,20422,1,14,0:0:0:0:
72,176,20553,1,14,0:0:0:0:
76,184,20683,1,14,0:0:0:0:
80,192,20814,1,14,0:0:0:0:
84,200,20944,22,0,P|156:256|256:168,1,209.999993591309,14|2,0:0|0:0,0:0:0:0:
164,172,21466,2,0,B|200:104|200:104|248:68|248:68|368:52,1,209.999993591309,14|2,0:0|0:0,0:0:0:0:
392,128,21988,22,0,P|432:168|424:76,1,225.000008583069,14|2,0:0|0:0,0:0:0:0:
320,160,22509,2,0,P|424:240|524:208,1,225.000008583069,14|2,0:0|0:0,0:0:0:0:
472,320,23031,22,0,B|388:320|388:320|340:352|340:352|232:352,1,240,14|2,0:0|0:0,0:0:0:0:
204,256,23553,2,0,B|196:176|272:112|272:112|328:16,1,240,14|2,0:0|0:0,0:0:0:0:
216,92,24074,21,14,0:0:0:0:
169,184,24205,1,14,0:0:0:0:
75,136,24335,1,14,0:0:0:0:
122,44,24466,1,14,0:0:0:0:
216,148,24596,1,14,0:0:0:0:
120,185,24727,1,14,0:0:0:0:
82,86,24857,1,14,0:0:0:0:
179,49,24988,1,14,0:0:0:0:
179,49,25118,22,0,P|264:8|288:144,1,240,14|2,0:0|0:0,0:0:0:0:
260,220,25640,2,0,B|216:164|216:164|280:-28,1,240,14|2,0:0|0:0,0:0:0:0:
340,80,26161,22,0,B|364:128|364:128|408:140|408:140|416:184|416:184|456:204|456:204|460:264,1,240,14|2,0:0|0:0,0:0:0:0:
368,308,26683,2,0,B|344:260|344:260|300:248|300:248|292:204|292:204|252:184|252:184|248:124,1,240,14|2,0:0|0:0,0:0:0:0:
220,32,27205,22,0,B|260:4|260:4|288:44|288:44|320:24|320:24|360:56|360:56|384:28|384:28|416:48|416:48|452:8,1,240,14|2,0:0|0:0,0:0:0:0:
416,140,27727,2,0,B|412:188|412:188|432:216|432:216|404:288|404:288|368:240|368:240|300:272,1,240,14|2,0:0|0:0,0:0:0:0:
252,216,28248,22,0,B|240:180|240:180|248:148|248:148|240:100|240:100|212:124|212:124|180:160|180:160|100:192,1,240,14|2,0:0|0:0,0:0:0:0:
56,120,28770,1,14,0:0:0:0:
16,216,28901,1,14,0:0:0:0:
36,116,29031,1,14,0:0:0:0:
36,220,29161,1,14,0:0:0:0:
36,220,29292,22,0,B|84:232|120:220|144:172|144:172|160:164|160:164|184:252|244:248|288:236|296:196|296:196|272:136|272:136|292:72|292:72|340:96|340:96|344:132|344:132|384:196|384:260|312:328|216:320|176:296|148:272|148:272|108:296|48:292,1,959.999970703126,12|0,0:0|0:0,0:0:0:0:
96,291,32096,22,0,L|131:159,1,100
122,195,32422,1,0,0:0:0:0:
122,195,32553,1,2,0:0:0:0:
122,195,32683,2,0,L|204:152,1,50,2|0,0:0|0:0,0:0:0:0:
208,120,32944,21,0,0:0:0:0:
268,144,33074,1,2,0:0:0:0:
360,108,33205,1,2,0:0:0:0:
416,140,33335,1,2,0:0:0:0:
416,140,33466,6,0,P|432:252|408:320,1,100,12|2,0:0|0:0,0:0:0:0:
308,276,33727,2,0,L|160:260,1,100,14|0,0:0|0:0,0:0:0:0:
188,136,33988,2,0,B|184:108|196:76|196:76|168:96|132:104,1,100,12|2,0:0|0:0,0:0:0:0:
96,208,34248,2,0,B|104:252|104:252|80:324,1,100,14|2,0:0|0:0,0:0:0:0:
20,192,34509,2,0,P|40:152|120:132,1,100,12|0,0:0|0:0,0:0:0:0:
176,224,34770,2,0,B|196:292|196:292|228:192,1,100,12|0,0:0|0:0,0:0:0:0:
328,308,35031,2,0,P|364:308|428:332,1,100,12|0,0:0|0:0,0:0:0:0:
432,200,35292,2,0,B|452:36,1,100,12|0,0:0|0:0,0:0:0:0:
316,80,35553,22,0,P|272:64|276:8,1,100,12|0,0:0|0:0,0:0:0:0:
176,108,35814,2,0,B|184:148|184:148|244:220,1,100,12|0,0:0|0:0,0:0:0:0:
308,292,36074,1,12,0:0:0:0:
436,280,36205,1,12,0:0:0:0:
308,268,36335,1,12,0:0:0:0:
436,296,36466,1,12,0:0:0:0:
436,296,36596,22,0,P|448:228|432:144,1,100,12|0,0:0|0:0,0:0:0:0:
384,84,36857,2,0,B|340:48|340:48|284:72,1,100,12|0,0:0|0:0,0:0:0:0:
192,140,37118,1,12,0:0:0:0:
140,260,37248,1,12,0:0:0:0:
172,132,37379,1,12,0:0:0:0:
160,260,37509,1,12,0:0:0:0:
160,260,37640,22,0,P|164:324|216:332,1,100,12|0,0:0|0:0,0:0:0:0:
312,296,37901,2,0,B|312:248|356:220|356:220|328:136|376:40,1,200,12|0,0:0|0:0,0:0:0:0:
224,72,38292,2,0,B|200:96|200:96|92:96|40:160,1,200,12|0,0:0|0:0,0:0:0:0:
76,280,38683,1,12,0:0:0:0:
76,280,38814,2,0,P|120:348|156:240,1,200,12|0,0:0|0:0,0:0:0:0:
276,188,39205,1,12,0:0:0:0:
276,188,39336,2,0,P|320:120|376:208,1,200,12|0,0:0|0:0,0:0:0:0:
296,280,39727,2,0,P|220:248|216:152,1,100,12|0,0:0|0:0,0:0:0:0:
96,180,39988,2,0,B|84:224|84:224|112:328,1,100,12|0,0:0|0:0,0:0:0:0:
216,332,40248,21,12,0:0:0:0:
216,332,40379,1,12,0:0:0:0:
216,332,40509,2,0,L|368:304,1,100,12|0,0:0|0:0,0:0:0:0:
360,192,40770,2,0,B|368:164|388:132|388:132|312:152,1,100,12|0,0:0|0:0,0:0:0:0:
228,168,41031,2,0,P|220:144|272:100,1,100,12|0,0:0|0:0,0:0:0:0:
268,99,41292,6,0,L|300:172,1,50,2|2,0:0|0:0,0:0:0:0:
270,208,41553,2,0,L|301:280,1,50,2|2,0:0|0:0,0:0:0:0:
290,253,41814,6,0,L|144:328,1,100,12|2,0:0|0:0,0:0:0:0:
92,372,42074,2,0,P|32:332|108:308,1,100,14|2,0:0|0:0,0:0:0:0:
96,204,42335,2,0,B|104:140|104:140|136:200,1,100,12|0,0:0|0:0,0:0:0:0:
244,132,42596,2,0,L|288:20,1,100,14|0,0:0|0:0,0:0:0:0:
328,160,42857,2,0,P|296:192|224:208,1,100,12|2,0:0|0:0,0:0:0:0:
200,332,43118,2,0,L|168:200,1,100,14|2,0:0|0:0,0:0:0:0:
220,112,43379,2,0,P|192:80|260:32,1,100,12|0,0:0|0:0,0:0:0:0:
328,92,43640,2,0,B|376:116|376:116|448:96,1,100,12|0,0:0|0:0,0:0:0:0:
396,232,43901,22,0,L|328:336,1,100,12|0,0:0|0:0,0:0:0:0:
212,312,44161,2,0,L|88:352,1,100,12|0,0:0|0:0,0:0:0:0:
56,228,44422,1,12,0:0:0:0:
24,100,44553,1,12,0:0:0:0:
28,228,44683,1,12,0:0:0:0:
52,100,44814,1,12,0:0:0:0:
52,100,44944,22,0,P|84:104|132:96,1,80,4|0,0:0|0:0,0:0:0:0:
195,140,45205,2,0,P|226:132|263:112,1,59.9999981689454,4|0,0:0|0:0,0:0:0:0:
332,68,45466,22,0,L|352:128,1,37.5000014305115,14|0,0:0|0:0,0:0:0:0:
382,142,45596,2,0,L|408:72,1,42.5000008106232,14|0,0:0|0:0,0:0:0:0:
440,57,45727,2,0,L|468:132,1,47.4999987316132,14|0,0:0|0:0,0:0:0:0:
504,149,45857,2,0,L|524:96,1,52.4999983978272,14|0,0:0|0:0,0:0:0:0:
488,36,45988,22,0,L|332:20,1,100,12|2,0:0|0:0,0:0:0:0:
348,144,46248,2,0,P|344:216|472:224,1,200,14|0,0:0|0:0,0:0:0:0:
420,116,46640,2,0,P|376:76|308:88,1,100,14|2,0:0|0:0,0:0:0:0:
337,74,46901,1,12,0:0:0:0:
220,132,47031,1,12,0:0:0:0:
220,132,47161,22,0,B|176:108|124:124|124:124|92:112|92:112|12:120,1,200,14|2,0:0|0:0,0:0:0:0:
83,236,47553,1,12,0:0:0:0:
83,236,47683,2,0,B|127:212|179:228|179:228|211:216|211:216|291:224,1,200,12|0,0:0|0:0,0:0:0:0:
364,124,48074,2,0,P|412:72|412:156,1,200,12|0,0:0|0:0,0:0:0:0:
415,155,48596,1,12,0:0:0:0:
415,155,48727,2,0,L|331:247,1,100,12|0,0:0|0:0,0:0:0:0:
108,128,49118,22,0,P|96:84|168:24,1,100,12|0,0:0|0:0,0:0:0:0:
188,148,49379,2,0,L|176:280,1,100,12|0,0:0|0:0,0:0:0:0:
92,344,49640,2,0,B|80:304|80:304|100:192,1,100,12|0,0:0|0:0,0:0:0:0:
90,246,49901,1,12,0:0:0:0:
90,246,50161,22,0,B|120:188|116:56|116:56|88:92|76:172,1,300,8|0,0:0|0:0,0:0:0:0:
208,144,50683,2,0,B|276:148|372:112|372:112|348:168|260:216,1,300,10|2,0:0|0:0,0:0:0:0:
172,276,51205,2,0,B|136:292|136:292|128:344|128:344|68:356|68:356|48:284|48:284|96:232|96:232|148:188|136:88|232:96|232:96|276:92|296:72|296:72|292:148|320:224,1,700,8|2,0:0|0:0,0:0:0:0:
240,300,52248,2,0,B|164:268|164:268|120:260|120:260|84:228|84:228|60:168|60:168|120:196,1,300,8|0,0:0|0:0,0:0:0:0:
204,96,52770,2,0,B|240:68|240:68|304:88|304:88|348:124|376:180|376:180|428:60,1,300,8|2,0:0|0:0,0:0:0:0:
308,28,53292,2,0,B|284:72|284:72|300:132|300:172|300:172|272:200|272:200|236:180|236:180|224:208|224:208|128:272,1,300,8|0,0:0|0:0,0:0:0:0:
184,236,53814,1,8,0:0:0:0:
168,248,54074,1,10,0:0:0:0:
156,256,54335,22,0,P|56:192|188:128,1,300,8|0,0:0|0:0,0:0:0:0:
292,144,54857,2,0,B|352:148|352:148|368:104|368:104|420:80|420:80|448:136|448:136|420:224,1,300,8|2,0:0|0:0,0:0:0:0:
296,232,55379,2,0,B|224:208|200:144|240:80|240:80|188:96|188:96|40:76,1,300,8|0,0:0|0:0,0:0:0:0:
132,220,55901,2,0,B|152:252|152:252|200:272|200:272|256:268|256:268|236:344|236:344|304:344|356:372,1,300,8|2,0:0|0:0,0:0:0:0:
316,224,56422,22,0,B|288:196|288:196|212:204|212:204|196:196|196:196|180:168|136:112|48:168|60:240,1,300,8|0,0:0|0:0,0:0:0:0:
128,84,56944,2,0,B|188:84|236:132|236:132|312:124|312:124|428:240,1,300,8|2,0:0|0:0,0:0:0:0:
360,68,57466,2,0,B|328:48|328:48|256:56|256:56|176:-8|88:4|60:52,1,300,8|0,0:0|0:0,0:0:0:0:
60,160,57988,2,0,P|120:92|184:248,1,300,8|2,0:0|0:0,0:0:0:0:
128,316,58509,22,0,B|108:280|108:280|124:252|124:252|112:212|112:212|128:180|128:180|116:148|116:148|136:104|136:104|128:60|128:60|164:8,1,300,8|0,0:0|0:0,0:0:0:0:
264,80,59031,2,0,B|300:120|300:120|344:112|344:112|372:144|372:144|408:136|408:136|428:168|428:168|468:168|468:168|500:232,1,300,8|2,0:0|0:0,0:0:0:0:
384,288,59553,2,0,B|352:304|352:304|340:332|340:332|316:324|316:324|292:340|292:340|264:312|264:312|232:308|232:308|240:264|240:264|200:240|200:240|228:200,1,300,8|0,0:0|0:0,0:0:0:0:
128,124,60074,2,0,B|84:100|84:100|92:120|92:120|56:120|56:120|68:144|68:144|52:160|52:160|68:176|68:176|52:216|52:216|72:232|72:232|76:260|76:260|108:256|108:256|120:280,1,300,8|2,0:0|0:0,0:0:0:0:
208,184,60596,2,0,B|248:164|320:184|320:184|336:128|420:120|420:120|448:216,1,300,8|0,0:0|0:0,0:0:0:0:
348,272,61118,2,0,B|288:252|288:252|216:272|216:272|120:224|48:276,1,300,8|2,0:0|0:0,0:0:0:0:
100,144,61640,2,0,B|144:132|144:132|176:88|176:88|232:112|232:112|272:52|380:72,1,300,8|0,0:0|0:0,0:0:0:0:
408,188,62161,1,8,0:0:0:0:
396,208,62422,1,10,0:0:0:0:
384,228,62683,22,0,P|320:280|292:112,1,300,8|0,0:0|0:0,0:0:0:0:
132,204,63205,2,0,B|108:164|108:164|96:228|96:228|64:264|64:264|88:296|88:296|144:252|220:264,1,300,8|2,0:0|0:0,0:0:0:0:
260,156,63727,2,0,B|288:108|288:108|336:80|336:80|336:160|372:196|372:196|496:208,1,300,8|0,0:0|0:0,0:0:0:0:
364,308,64248,2,0,B|324:300|324:300|308:248|308:248|268:212|192:208|192:208|208:160|204:96,1,300,8|2,0:0|0:0,0:0:0:0:
76,120,64770,2,0,B|72:140|72:140|88:156|88:156|80:180|80:180|88:196|88:196|76:220|76:220|88:232|88:232|80:252|80:252|96:268|96:268|88:292|88:292|100:308|100:308|100:324|100:324|120:340|120:340|104:348|104:348|128:368|128:368|152:384,1,300,8|0,0:0|0:0,0:0:0:0:
232,296,65292,2,0,B|240:260|240:260|232:248|232:248|244:232|244:232|236:220|236:220|248:200|248:200|240:176|240:176|256:160|256:160|240:144|240:144|256:128|256:128|248:100|248:100|264:80|264:80|256:56|256:56|272:32,1,300,8|0,0:0|0:0,0:0:0:0:
144,88,65814,2,0,B|164:108|164:108|156:116|156:116|176:136|176:136|168:164|168:164|172:192|172:192|152:196|152:196|136:212|136:212|116:196|116:196|104:208|104:208|92:192|92:192|96:172|96:172|84:152|84:152|44:136,1,300,8|0,0:0|0:0,0:0:0:0:
28,268,66335,2,0,B|68:292|108:272|108:272|120:292|120:292|140:280|140:280|152:296|152:296|172:288|172:288|196:280|240:272|272:292|272:292|328:252,1,300,8|0,0:0|0:0,0:0:0:0:
352,256,66857,5,8,0:0:0:0:
256,192,85379,12,0,88640,0:0:0:0:
424,320,88770,22,0,P|388:312|352:320,1,55.0000016784668,12|4,0:0|0:0,0:0:0:0:
332,252,89031,1,12,0:0:0:0:
344,180,89161,1,12,0:0:0:0:
284,139,89292,2,0,P|248:131|212:139,1,55.0000016784668,12|4,0:0|0:0,0:0:0:0:
192,71,89553,1,12,0:0:0:0:
204,0,89683,1,12,0:0:0:0:
184,76,89814,22,0,L|156:180,1,59.9999981689454,12|4,0:0|0:0,0:0:0:0:
216,196,90074,1,12,0:0:0:0:
180,264,90205,1,12,0:0:0:0:
116,308,90335,2,0,L|88:204,1,59.9999981689454,12|4,0:0|0:0,0:0:0:0:
148,188,90595,1,12,0:0:0:0:
112,120,90726,1,12,0:0:0:0:
112,120,90857,22,0,L|192:104,1,64.9999970245363,12|4,0:0|0:0,0:0:0:0:
235,167,91118,2,0,L|311:137,1,64.9999970245363,12|4,0:0|0:0,0:0:0:0:
355,203,91379,2,0,L|424:160,1,64.9999970245363,12|4,0:0|0:0,0:0:0:0:
459,238,91640,2,0,L|520:184,1,64.9999970245363,12|4,0:0|0:0,0:0:0:0:
464,116,91901,22,0,P|408:100|368:112,1,69.9999978637696,12|4,0:0|0:0,0:0:0:0:
333,165,92161,2,0,P|275:158|237:177,1,69.9999978637696,12|4,0:0|0:0,0:0:0:0:
200,226,92422,2,0,P|141:230|108:255,1,69.9999978637696,12|4,0:0|0:0,0:0:0:0:
67,299,92683,2,0,P|10:313|-18:343,1,69.9999978637696,12|4,0:0|0:0,0:0:0:0:
44,232,92944,21,12,0:0:0:0:
12,139,93074,1,12,0:0:0:0:
104,107,93205,1,12,0:0:0:0:
135,199,93335,1,12,0:0:0:0:
204,268,93466,1,12,0:0:0:0:
297,300,93596,1,12,0:0:0:0:
329,208,93727,1,12,0:0:0:0:
237,177,93857,1,12,0:0:0:0:
162,205,93988,22,0,L|237:177,1,80,12|4,0:0|0:0,0:0:0:0:
265,251,94248,2,0,L|237:177,1,80,12|4,0:0|0:0,0:0:0:0:
311,148,94509,2,0,L|237:177,1,80,12|4,0:0|0:0,0:0:0:0:
208,102,94770,2,0,L|237:177,1,80,12|4,0:0|0:0,0:0:0:0:
196,244,95031,22,0,P|104:280|88:176,1,224.999993133545,12|0,0:0|0:0,0:0:0:0:
156,132,95651,2,0,B|184:100|252:100|252:100|276:52|312:32,1,192.499994125366,12|0,0:0|0:0,0:0:0:0:
412,112,96172,2,0,P|372:148|496:200,1,260,12|12,0:0|0:0,0:0:0:0:
491,209,96988,1,12,0:0:0:0:
491,209,97118,6,0,P|443:253|379:277,1,110.000003356934,12|0,0:0|0:0,0:0:0:0:
272,212,97379,2,0,B|224:176|224:176|104:192,1,110.000003356934,14|0,0:0|0:0,0:0:0:0:
96,60,97640,2,0,L|4:-4,1,110.000003356934,12|2,0:0|0:0,0:0:0:0:
28,140,97901,2,0,B|36:172|60:184|60:184|52:212|72:304,1,110.000003356934,14|2,0:0|0:0,0:0:0:0:
184,308,98161,2,0,B|248:288|248:288|208:248,1,110.000003356934,12|0,0:0|0:0,0:0:0:0:
284,132,98422,2,0,P|312:104|380:84,1,110.000003356934,14|0,0:0|0:0,0:0:0:0:
456,204,98683,2,0,L|552:128,1,110.000003356934,12|2,0:0|0:0,0:0:0:0:
452,24,98944,2,0,B|396:32|396:32|308:12,1,110.000003356934,14|0,0:0|0:0,0:0:0:0:
312,160,99205,22,0,L|320:320,1,110.000003356934,12|0,0:0|0:0,0:0:0:0:
176,288,99466,2,0,P|128:264|60:288,1,110.000003356934,14|0,0:0|0:0,0:0:0:0:
80,132,99727,1,12,0:0:0:0:
164,16,99857,1,14,0:0:0:0:
64,116,99988,1,14,0:0:0:0:
180,36,100118,1,14,0:0:0:0:
180,36,100248,22,0,P|232:60|288:64,1,110.000003356934,12|0,0:0|0:0,0:0:0:0:
385,165,100509,2,0,P|442:159|492:135,1,110.000003356934,14|0,0:0|0:0,0:0:0:0:
392,32,100770,1,12,0:0:0:0:
384,48,100901,1,14,0:0:0:0:
376,64,101031,1,14,0:0:0:0:
368,80,101161,1,14,0:0:0:0:
360,96,101292,22,0,B|288:96|288:96|232:128,1,110.000003356934,12|0,0:0|0:0,0:0:0:0:
136,196,101553,2,0,P|104:136|168:76,1,110.000003356934,14|0,0:0|0:0,0:0:0:0:
44,224,101814,2,0,B|48:256|28:300|28:300|56:360,1,110.000003356934,12|2,0:0|0:0,0:0:0:0:
168,264,102074,2,0,P|208:216|184:136,1,110.000003356934,14|2,0:0|0:0,0:0:0:0:
84,96,102335,2,0,P|100:152|156:208,1,110.000003356934,12|0,0:0|0:0,0:0:0:0:
240,96,102596,2,0,B|280:92|304:64|304:64|344:48,1,110.000003356934,14|0,0:0|0:0,0:0:0:0:
308,192,102857,2,0,L|132:232,1,110.000003356934,12|2,0:0|0:0,0:0:0:0:
128,340,103118,2,0,B|188:336|188:336|260:360,1,110.000003356934,14|2,0:0|0:0,0:0:0:0:
344,260,103379,22,0,B|360:224|360:224|368:160|400:116,1,110.000003356934,12|0,0:0|0:0,0:0:0:0:
236,168,103640,2,0,P|172:168|104:108,1,110.000003356934,14|0,0:0|0:0,0:0:0:0:
52,264,103901,1,12,0:0:0:0:
168,348,104031,1,14,0:0:0:0:
68,244,104161,1,14,0:0:0:0:
144,368,104292,1,14,0:0:0:0:
144,368,104422,22,0,B|140:308|140:308|168:200,1,110.000003356934,12|0,0:0|0:0,0:0:0:0:
268,176,104683,2,0,B|284:164|308:156|308:156|168:140,1,110.000003356934,14|0,0:0|0:0,0:0:0:0:
96,40,104944,2,0,P|56:31|105:70,1,139.999995727539,12|2,0:0|0:0,0:0:0:0:
80,108,105205,1,14,0:0:0:0:
92,112,105335,1,14,0:0:0:0:
104,120,105466,22,0,L|260:40,1,110.000003356934,12|0,0:0|0:0,0:0:0:0:
260,200,105727,2,0,B|304:236|304:236|392:232,1,110.000003356934,14|0,0:0|0:0,0:0:0:0:
244,324,105988,2,0,B|204:312|164:320|164:320|124:312,1,110.000003356934,12|2,0:0|0:0,0:0:0:0:
180,180,106248,2,0,P|184:144|136:188,1,110.000003356934,14|2,0:0|0:0,0:0:0:0:
40,256,106509,2,0,P|16:196|72:104,1,110.000003356934,12|0,0:0|0:0,0:0:0:0:
148,84,106770,2,0,B|216:76|216:76|280:112,1,110.000003356934,14|0,0:0|0:0,0:0:0:0:
272,240,107031,2,0,B|268:292|248:320|248:320|336:340,1,110.000003356934,12|2,0:0|0:0,0:0:0:0:
368,220,107292,2,0,P|320:164|240:184,1,110.000003356934,14|2,0:0|0:0,0:0:0:0:
152,208,107553,22,0,B|128:232|128:232|140:92,1,110.000003356934,12|0,0:0|0:0,0:0:0:0:
264,96,107814,2,0,B|300:84|300:84|192:76,1,110.000003356934,14|0,0:0|0:0,0:0:0:0:
244,220,108074,1,12,0:0:0:0:
168,340,108205,1,14,0:0:0:0:
264,236,108335,1,14,0:0:0:0:
148,320,108466,1,14,0:0:0:0:
148,320,108596,22,0,P|120:288|40:312,1,110.000003356934,12|0,0:0|0:0,0:0:0:0:
76,152,108857,2,0,B|92:76|92:76|48:100,1,110.000003356934,14|0,0:0|0:0,0:0:0:0:
200,132,109118,2,0,P|231:188|201:114,1,330.000010070801,12|0,0:0|0:0,0:0:0:0:
128,128,109640,6,0,P|352:252|284:-20,1,675.000025749208,8|0,0:0|0:0,0:0:0:0:
256,192,110944,12,4,113520,0:0:0:0:
344,260,113814,5,12,0:0:0:0:
344,260,113944,1,12,0:0:0:0:
344,260,114074,2,0,P|392:292|504:228,1,129.999994049073,14|0,0:0|0:0,0:0:0:0:
356,148,114335,2,0,B|328:104|328:104|228:68,1,129.999994049073,12|2,0:0|0:0,0:0:0:0:
152,212,114596,2,0,B|120:240|88:252|88:252|68:288|40:304,1,129.999994049073,14|2,0:0|0:0,0:0:0:0:
16,128,114857,1,12,0:0:0:0:
16,128,114988,1,12,0:0:0:0:
16,128,115118,2,0,B|64:128|92:76|92:76|164:88,1,129.999994049073,14|0,0:0|0:0,0:0:0:0:
164,248,115379,2,0,B|188:292|188:292|320:340,1,129.999994049073,12|2,0:0|0:0,0:0:0:0:
96,288,115640,2,0,P|92:200|204:184,1,129.999994049073,14|2,0:0|0:0,0:0:0:0:
236,56,115901,21,12,0:0:0:0:
236,56,116031,1,12,0:0:0:0:
236,56,116161,2,0,P|284:120|256:196,1,129.999994049073,14|0,0:0|0:0,0:0:0:0:
432,96,116422,2,0,B|448:112|488:120|488:120|440:140|360:232,1,129.999994049073,12|2,0:0|0:0,0:0:0:0:
328,292,116683,2,0,B|316:328|316:328|300:196,1,129.999994049073,14|2,0:0|0:0,0:0:0:0:
188,112,116944,1,12,0:0:0:0:
188,112,117074,1,12,0:0:0:0:
188,112,117205,2,0,B|144:68|132:32|132:32|32:40,1,129.999994049073,14|0,0:0|0:0,0:0:0:0:
44,152,117466,5,0,0:0:0:0:
44,152,117596,2,0,B|64:200|56:272|56:272|72:236|120:228,1,200,2|2,0:0|0:0,0:0:0:0:
244,96,117988,5,12,0:0:0:0:
416,44,118118,1,12,0:0:0:0:
496,208,118248,2,0,B|472:252|472:252|364:304,1,139.999995727539,14|0,0:0|0:0,0:0:0:0:
224,360,118509,2,0,P|220:300|108:248,1,139.999995727539,12|2,0:0|0:0,0:0:0:0:
64,96,118770,2,0,B|80:140|36:180|36:180|60:204|60:276,1,139.999995727539,14|2,0:0|0:0,0:0:0:0:
180,356,119031,1,12,0:0:0:0:
308,228,119161,1,12,0:0:0:0:
304,44,119292,2,0,B|236:60|236:60|212:48|92:32,1,139.999995727539,14|0,0:0|0:0,0:0:0:0:
48,180,119553,2,0,B|68:88|68:88|100:164,1,139.999995727539,12|2,0:0|0:0,0:0:0:0:
252,52,119814,2,0,P|200:56|108:16,1,139.999995727539,14|2,0:0|0:0,0:0:0:0:
228,172,120074,21,12,0:0:0:0:
104,308,120205,1,12,0:0:0:0:
284,292,120335,2,0,P|312:244|444:252,1,139.999995727539,14|0,0:0|0:0,0:0:0:0:
300,60,120596,2,0,B|256:76|240:108|240:108|228:116|228:116|152:92|76:140,1,139.999995727539,12|2,0:0|0:0,0:0:0:0:
60,244,120857,2,0,B|52:180|52:180|92:4,1,139.999995727539,14|2,0:0|0:0,0:0:0:0:
188,188,121118,6,0,B|228:208|288:196|288:196|272:132|312:72|416:80|448:176|384:240|384:240|336:268|340:340|340:340|296:296|228:316|228:316|172:332|132:292|132:292|64:240,1,770.000023498536
136,96,122161,6,0,P|180:80|120:36,1,139.999995727539,12|0,0:0|0:0,0:0:0:0:
52,188,122422,2,0,B|92:184|92:184|224:220,1,139.999995727539,12|0,0:0|0:0,0:0:0:0:
320,340,122683,1,12,0:0:0:0:
449,211,122814,1,12,0:0:0:0:
320,82,122944,1,12,0:0:0:0:
192,211,123074,1,12,0:0:0:0:
192,211,123205,22,0,B|148:208|136:252|136:252|112:256|112:256|-4:248,1,139.999995727539,12|0,0:0|0:0,0:0:0:0:
140,84,123466,2,0,L|276:16,1,139.999995727539,12|0,0:0|0:0,0:0:0:0:
404,144,123727,1,12,0:0:0:0:
372,323,123858,1,12,0:0:0:0:
192,291,123988,1,12,0:0:0:0:
224,113,124118,1,12,0:0:0:0:
224,113,124248,22,0,B|152:64|152:64|104:132,1,139.999995727539,12|0,0:0|0:0,0:0:0:0:
240,244,124509,2,0,P|276:176|400:192,1,139.999995727539,14|0,0:0|0:0,0:0:0:0:
196,36,124770,2,0,L|48:104,1,139.999995727539,12|2,0:0|0:0,0:0:0:0:
100,276,125031,2,0,B|128:296|144:352|144:352|144:300|164:240,1,139.999995727539,12|0,0:0|0:0,0:0:0:0:
240,144,125292,2,0,B|248:100|268:48|268:48|268:140,1,139.999995727539,14|0,0:0|0:0,0:0:0:0:
344,256,125553,2,0,P|308:272|388:312,1,139.999995727539,12|2,0:0|0:0,0:0:0:0:
404,180,125814,2,0,B|392:108|392:108|280:20,1,139.999995727539,12|0,0:0|0:0,0:0:0:0:
252,224,126074,2,0,B|216:256|208:296|208:296|188:324|100:352,1,139.999995727539,14|0,0:0|0:0,0:0:0:0:
88,160,126335,21,12,0:0:0:0:
260,100,126466,1,12,0:0:0:0:
100,184,126596,1,14,0:0:0:0:
276,132,126727,1,12,0:0:0:0:
92,132,126857,1,12,0:0:0:0:
272,168,126988,1,14,0:0:0:0:
100,112,127118,1,12,0:0:0:0:
264,192,127248,1,12,0:0:0:0:
400,68,127379,21,12,0:0:0:0:
376,248,127509,1,12,0:0:0:0:
372,64,127640,1,14,0:0:0:0:
408,240,127770,1,12,0:0:0:0:
408,56,127901,1,12,0:0:0:0:
396,236,128031,1,14,0:0:0:0:
360,56,128161,1,12,0:0:0:0:
84,48,128422,22,0,P|92:96|-16:108,1,139.999995727539,12|0,0:0|0:0,0:0:0:0:
120,292,128683,2,0,B|188:264|188:264|368:304,1,139.999995727539,14|0,0:0|0:0,0:0:0:0:
396,164,128944,2,0,B|368:164|344:128|344:128|300:128|200:108,1,139.999995727539,12|2,0:0|0:0,0:0:0:0:
270,120,129205,1,0,0:0:0:0:
270,120,129466,21,0,0:0:0:0:
192,284,129596,1,0,0:0:0:0:
364,224,129727,1,2,0:0:0:0:
176,176,129857,1,0,0:0:0:0:
308,312,129988,1,12,0:0:0:0:
280,96,130118,1,14,0:0:0:0:
172,308,130248,1,12,0:0:0:0:
400,232,130379,1,12,0:0:0:0:
256,192,130509,21,12,0:0:0:0:
256,192,130901,1,4,0:0:0:0:
256,192,131031,12,0,132335,0:0:0:0:
256,192,132596,21,12,0:0:0:0:
256,192,132988,1,4,0:0:0:0:
256,192,133118,12,0,134422,0:0:0:0:
256,192,134683,21,12,0:0:0:0:
256,192,135074,1,4,0:0:0:0:
256,192,135205,12,0,136509,0:0:0:0:
256,192,136770,21,12,0:0:0:0:
256,192,137161,1,4,0:0:0:0:
256,192,137292,12,0,138205,0:0:0:0:
132,284,138466,6,0,B|145:271|145:271|143:254|143:254|156:242|156:242|154:224|154:224|168:212|168:212|166:194|166:194|179:182|179:182|177:164|177:164|191:152|191:152|189:134|189:134|202:122|202:122|200:104|200:104|214:92|214:92|212:74|212:74|225:62|225:62|223:45|223:45|234:40,1,250
308,80,138857,6,0,P|296:136|396:132,1,150.000005722046,12|0,0:0|0:0,0:0:0:0:
272,332,139118,2,0,B|244:352|200:380|200:380|224:328|224:192,1,150.000005722046,14|0,0:0|0:0,0:0:0:0:
180,132,139379,1,12,0:0:0:0:
72,292,139509,1,2,0:0:0:0:
216,160,139640,1,14,0:0:0:0:
48,264,139770,1,2,0:0:0:0:
48,264,139901,22,0,P|40:208|96:100,1,150.000005722046,12|0,0:0|0:0,0:0:0:0:
248,208,140161,2,0,B|300:212|332:160|332:160|408:176,1,150.000005722046,14|0,0:0|0:0,0:0:0:0:
228,48,140422,1,12,0:0:0:0:
36,12,140553,1,6,0:0:0:0:
232,8,140683,1,14,0:0:0:0:
40,44,140814,1,6,0:0:0:0:
40,44,140944,22,0,B|76:72|128:60|128:60|128:88|128:88|172:140,1,150.000005722046,12|0,0:0|0:0,0:0:0:0:
342,110,141205,2,0,B|360:87|360:87|360:59|360:59|412:71|448:43,1,150.000005722046,14|0,0:0|0:0,0:0:0:0:
416,236,141466,1,12,0:0:0:0:
248,332,141596,1,6,0:0:0:0:
380,188,141727,1,14,0:0:0:0:
292,360,141857,1,6,0:0:0:0:
292,360,141988,22,0,B|276:332|260:268|260:268|232:312|160:296,1,150.000005722046,12|0,0:0|0:0,0:0:0:0:
132,124,142248,2,0,B|120:176|120:176|48:272,1,150.000005722046,14|0,0:0|0:0,0:0:0:0:
36,60,142509,1,12,0:0:0:0:
232,48,142640,1,6,0:0:0:0:
40,12,142770,1,14,0:0:0:0:
224,80,142901,1,6,0:0:0:0:
224,80,143031,22,0,P|168:108|196:176,1,150.000005722046,4|0,0:0|0:0,0:0:0:0:
371,263,143292,2,0,P|427:235|399:167,1,150.000005722046,6|0,0:0|0:0,0:0:0:0:
204,176,143553,1,4,0:0:0:0:
120,352,143683,1,6,0:0:0:0:
164,160,143814,1,6,0:0:0:0:
168,356,143944,1,6,0:0:0:0:
168,356,144074,22,0,B|112:304|112:304|28:352,1,150.000005722046,4|0,0:0|0:0,0:0:0:0:
116,156,144335,2,4,P|124:88|56:36,1,150.000005722046,2|0,0:0|0:0,0:0:0:0:
56,232,144596,1,4,0:0:0:0:
252,240,144727,1,6,0:0:0:0:
60,280,144857,1,6,0:0:0:0:
240,204,144988,1,6,0:0:0:0:
240,204,145118,22,0,B|264:184|288:120|288:120|240:144,1,150.000005722046,4|0,0:0|0:0,0:0:0:0:
96,276,145379,2,0,B|80:236|80:236|104:56,1,150.000005722046,6|0,0:0|0:0,0:0:0:0:
284,76,145640,1,4,0:0:0:0:
432,200,145770,1,6,0:0:0:0:
308,48,145901,1,6,0:0:0:0:
408,216,146031,1,6,0:0:0:0:
408,216,146161,22,0,P|340:248|296:328,1,150.000005722046,4|0,0:0|0:0,0:0:0:0:
164,168,146422,2,0,B|152:88|152:88|112:172,1,150.000005722046,6|0,0:0|0:0,0:0:0:0:
76,340,146683,1,4,0:0:0:0:
224,212,146814,1,6,0:0:0:0:
56,308,146944,1,6,0:0:0:0:
240,244,147074,1,6,0:0:0:0:
240,244,147205,22,8,P|272:288|296:188,1,150.000005722046,12|0,0:0|0:0,0:0:0:0:
212,104,147466,2,0,P|160:120|80:48,1,150.000005722046,14|0,0:0|0:0,0:0:0:0:
92,264,147727,2,0,B|140:236|148:200|148:200|192:164|264:184,1,150.000005722046,12|2,0:0|0:0,0:0:0:0:
120,356,147988,2,0,P|32:320|28:176,1,150.000005722046,12|2,0:0|0:0,0:0:0:0:
104,104,148248,2,0,B|144:144|144:144|192:144|192:144|240:192,1,150.000005722046,12|0,0:0|0:0,0:0:0:0:
362,314,148509,2,0,B|394:281|394:281|442:281|442:281|482:241,1,150.000005722046,14|0,0:0|0:0,0:0:0:0:
352,96,148770,2,0,B|288:40|288:40|192:80,1,150.000005722046,12|2,0:0|0:0,0:0:0:0:
96,208,149031,2,0,B|148:200|180:248|180:248|208:220|288:216,1,150.000005722046,14|2,0:0|0:0,0:0:0:0:
56,124,149292,22,0,P|12:184|48:284,1,150.000005722046,12|0,0:0|0:0,0:0:0:0:
184,140,149553,2,8,B|236:132|264:88|264:88|264:160,1,150.000005722046,14|8,0:0|0:0,0:0:0:0:
384,296,149814,1,12,0:0:0:0:
428,108,149944,1,6,0:0:0:0:
428,304,150074,1,14,0:0:0:0:
392,112,150205,1,6,0:0:0:0:
392,112,150335,22,0,P|300:176|72:116,1,300.000011444092,4|6,0:0|0:0,0:0:0:0:
488,28,150857,1,12,0:0:0:0:
452,220,150988,1,6,0:0:0:0:
448,24,151118,1,6,0:0:0:0:
496,212,151248,1,6,0:0:0:0:
496,212,151379,22,0,B|444:164|444:164|332:212,1,150.000005722046,4|0,0:0|0:0,0:0:0:0:
232,333,151640,2,0,B|180:381|180:381|68:333,1,150.000005722046,6|0,0:0|0:0,0:0:0:0:
176,168,151901,2,0,P|232:184|224:80,1,150.000005722046,4|2,0:0|0:0,0:0:0:0:
92,24,152161,2,0,B|84:60|84:60|112:212,1,150.000005722046,6|2,0:0|0:0,0:0:0:0:
12,344,152422,2,0,B|52:316|92:324|92:324|88:304|136:216,1,150.000005722046,4|0,0:0|0:0,0:0:0:0:
292,188,152683,2,0,B|324:172|324:172|144:112,1,150.000005722046,6|0,0:0|0:0,0:0:0:0:
408,100,152944,2,0,P|408:204|284:256,1,150.000005722046,4|2,0:0|0:0,0:0:0:0:
188,212,153205,2,0,B|120:144|120:144|128:24,1,150.000005722046,6|2,0:0|0:0,0:0:0:0:
100,284,153466,22,0,P|60:252|-8:340,1,150.000005722046,4|0,0:0|0:0,0:0:0:0:
168,368,153727,2,0,B|176:344|224:328|224:328|220:296|220:296|264:204,1,150.000005722046,6|0,0:0|0:0,0:0:0:0:
320,76,153988,1,4,0:0:0:0:
392,256,154118,1,6,0:0:0:0:
444,104,154248,1,6,0:0:0:0:
256,164,154379,1,6,0:0:0:0:
256,164,154509,6,0,P|184:184|100:96,1,200,4|2,0:0|0:0,0:0:0:0:
116,364,155031,1,2,0:0:0:0:
372,324,155292,1,8,0:0:0:0:
372,324,155553,6,0,P|368:236|440:240,1,150.000005722046,12|0,0:0|0:0,0:0:0:0:
216,236,155814,2,0,L|24:272,1,150.000005722046,14|0,0:0|0:0,0:0:0:0:
256,316,156074,2,0,B|268:232|268:232|360:88,1,150.000005722046,12|2,0:0|0:0,0:0:0:0:
172,32,156335,2,0,B|160:48|124:52|124:52|160:88|164:144,1,150.000005722046,14|2,0:0|0:0,0:0:0:0:
360,120,156596,2,0,B|408:64|408:64|328:92,1,150.000005722046,12|0,0:0|0:0,0:0:0:0:
196,228,156857,2,0,P|144:272|128:168,1,150.000005722046,14|0,0:0|0:0,0:0:0:0:
240,96,157118,2,0,B|244:136|244:136|292:176|292:176|304:252,1,150.000005722046,12|2,0:0|0:0,0:0:0:0:
120,148,157379,2,0,B|100:92|128:44|128:44|32:56,1,150.000005722046,14|2,0:0|0:0,0:0:0:0:
44,240,157640,22,0,B|52:272|52:272|48:300|48:300|60:328|60:328|156:328,1,150.000005722046,12|0,0:0|0:0,0:0:0:0:
256,189,157901,2,0,B|248:157|248:157|252:129|252:129|240:101|240:101|144:101,1,150.000005722046,14|0,0:0|0:0,0:0:0:0:
352,4,158161,1,12,0:0:0:0:
476,164,158292,1,14,0:0:0:0:
408,16,158422,1,14,0:0:0:0:
444,196,158553,1,14,0:0:0:0:
456,188,158683,22,0,B|388:164|316:204|316:204|300:184|300:184|304:204|304:204|300:216|300:216|292:216|292:216|284:200|284:200|280:184|280:184|268:192|268:192|260:200|260:200|260:216|260:216|252:208|252:208|252:196|252:196|236:192|236:192|236:205|236:205|228:216|228:216|228:204|228:204|216:192|216:192|208:208|208:208|196:196|196:196|188:208|188:208|184:216|184:216|176:192|176:192|164:204|164:204|164:216|164:216|152:224|152:224|132:208|132:208|72:236|4:208,1,629.999980773926,12|2,0:0|0:0,0:0:0:0:
120,44,159727,22,0,P|128:88|224:48,1,150.000005722046,12|0,0:0|0:0,0:0:0:0:
140,268,159988,2,0,B|136:336|136:336|24:348,1,150.000005722046,14|0,0:0|0:0,0:0:0:0:
80,152,160248,2,0,B|104:112|96:64|96:64|196:12,1,150.000005722046,12|2,0:0|0:0,0:0:0:0:
320,128,160509,2,0,B|336:80|356:32|356:32|300:72,1,150.000005722046,14|2,0:0|0:0,0:0:0:0:
200,216,160770,2,0,B|224:252|220:304|220:304|232:264|296:224,1,150.000005722046,12|0,0:0|0:0,0:0:0:0:
112,120,161031,2,0,B|64:176|64:176|96:272,1,150.000005722046,14|0,0:0|0:0,0:0:0:0:
260,344,161292,2,0,B|296:344|324:328|324:328|352:344|444:356,1,150.000005722046,12|2,0:0|0:0,0:0:0:0:
440,156,161553,2,0,P|444:216|368:176,1,150.000005722046,14|2,0:0|0:0,0:0:0:0:
268,44,161814,22,0,B|268:80|236:128|236:128|240:196,1,150.000005722046,12|0,0:0|0:0,0:0:0:0:
80,296,162074,2,0,B|48:256|12:240|12:240|52:232|136:140,1,150.000005722046,14|0,0:0|0:0,0:0:0:0:
208,76,162335,1,12,0:0:0:0:
380,172,162466,1,14,0:0:0:0:
192,120,162596,1,14,0:0:0:0:
388,124,162727,1,14,0:0:0:0:
388,124,162857,22,0,P|420:116|336:40,1,170.000003242493,12|0,0:0|0:0,0:0:0:0:
260,172,163118,2,0,L|164:324,1,170.000003242493,14|0,0:0|0:0,0:0:0:0:
88,108,163379,2,0,B|68:144|24:156|24:156|52:104|40:24,1,170.000003242493,12|2,0:0|0:0,0:0:0:0:
264,84,163640,2,0,P|328:124|296:252,1,170.000003242493,14|2,0:0|0:0,0:0:0:0:
140,248,163901,22,0,B|156:200|156:200|140:136|156:72,1,150.000005722046,12|0,0:0|0:0,0:0:0:0:
268,256,164161,2,0,B|324:280|324:280|352:312|352:312|408:240,1,150.000005722046,14|0,0:0|0:0,0:0:0:0:
460,96,164422,2,0,B|440:112|416:136|416:136|424:96|400:40,1,150.000005722046,12|2,0:0|0:0,0:0:0:0:
244,160,164683,2,0,P|204:144|140:248,1,150.000005722046,14|2,0:0|0:0,0:0:0:0:
12,364,164944,2,0,B|40:376|40:376|16:316|32:196,1,150.000005722046,12|0,0:0|0:0,0:0:0:0:
140,100,165205,2,0,B|152:144|112:184|112:184|168:168|256:232,1,150.000005722046,14|0,0:0|0:0,0:0:0:0:
336,284,165466,2,0,P|340:240|424:300,1,150.000005722046,12|2,0:0|0:0,0:0:0:0:
264,348,165727,2,0,B|224:324|168:340|168:340|136:248,1,150.000005722046,14|0,0:0|0:0,0:0:0:0:
276,140,165988,22,0,B|284:96|312:60|312:60|248:96,1,150.000005722046,12|0,0:0|0:0,0:0:0:0:
108,212,166248,2,0,B|80:260|68:308|68:308|100:280|136:264,1,150.000005722046,14|0,0:0|0:0,0:0:0:0:
296,240,166509,1,12,0:0:0:0:
408,80,166640,1,14,0:0:0:0:
340,264,166770,1,14,0:0:0:0:
360,68,166901,1,14,0:0:0:0:
360,68,167031,22,0,P|240:144|276:60,1,300,12|0,0:0|0:0,0:0:0:0:
95,203,167553,2,0,B|119:271|119:271|171:283|171:283|195:319|195:319|239:303|239:303|299:331|299:331|339:299|339:299|403:335,1,375,12|2,0:0|0:0,0:0:0:0:
376,320,168074,22,0,P|444:280|472:196,1,150.000005722046,12|0,0:0|0:0,0:0:0:0:
308,108,168335,2,0,B|308:176|308:176|240:76,1,150.000005722046,14|0,0:0|0:0,0:0:0:0:
160,276,168596,2,0,P|148:240|28:328,1,150.000005722046,12|2,0:0|0:0,0:0:0:0:
192,352,168857,2,0,B|240:308|240:308|396:236,1,150.000005722046,14|2,0:0|0:0,0:0:0:0:
208,112,169118,2,0,B|204:156|212:212|212:212|184:184|104:140,1,150.000005722046,12|0,0:0|0:0,0:0:0:0:
276,16,169379,2,0,B|320:60|320:60|356:64|356:64|472:152,1,150.000005722046,14|0,0:0|0:0,0:0:0:0:
252,224,169640,2,0,P|204:288|272:256,1,150.000005722046,12|2,0:0|0:0,0:0:0:0:
60,208,169901,2,0,L|80:24,1,150.000005722046,14|2,0:0|0:0,0:0:0:0:
264,112,170161,21,12,0:0:0:0:
276,124,170292,1,12,0:0:0:0:
144,264,170422,1,14,0:0:0:0:
132,276,170553,1,12,0:0:0:0:
132,80,170683,1,12,0:0:0:0:
144,68,170814,1,14,0:0:0:0:
252,228,170944,1,14,0:0:0:0:
264,240,171075,1,14,0:0:0:0:
440,159,171205,22,0,L|512:127,3,75.0000028610231,12|0|0|0,0:0|0:0|0:0|0:0,0:0:0:0:
438,58,171466,2,0,L|503:13,3,75.0000028610231,14|0|0|0,0:0|0:0|0:0|0:0,0:0:0:0:
512,140,171727,1,12,0:0:0:0:
374,277,171857,1,14,0:0:0:0:
236,140,171988,1,14,0:0:0:0:
374,2,172118,1,14,0:0:0:0:
374,131,172248,5,12,0:0:0:0:
256,192,172379,12,0,173553,0:0:0:0:
