osu file format v14

[General]
AudioFilename: audio.mp3
AudioLeadIn: 0
PreviewTime: -1
Countdown: 1
SampleSet: Normal
StackLeniency: 0.2
Mode: 0
LetterboxInBreaks: 0
WidescreenStoryboard: 0

[Editor]
Bookmarks: 21748,82614
DistanceSpacing: 0.8
BeatDivisor: 4
GridSize: 8
TimelineZoom: 1.5

[Metadata]
Title:Love is War
TitleUnicode:Love is War
Artist:Helblinde
ArtistUnicode:Helblinde
Creator:Mathrael
Version:
Source:
Tags:
BeatmapID:1539630
BeatmapSetID:729374

[Difficulty]
HPDrainRate:6
CircleSize:4.2
OverallDifficulty:9
ApproachRate:9.5
SliderMultiplier:1.4
SliderTickRate:1

[Events]
//Background and Video events
0,0,"200789.jpg",0,0
//Break Periods
//Storyboard Layer 0 (Background)
//Storyboard Layer 1 (Fail)
//Storyboard Layer 2 (Pass)
//Storyboard Layer 3 (Foreground)
//Storyboard Sound Samples

[TimingPoints]
1014.13536572944,300,4,1,0,100,1,0
47526,-71.4285714285714,4,1,0,100,0,0
69114,-83.3333333333333,4,1,0,100,0,0
71514,-76.9230769230769,4,1,0,100,0,0
90714,-188.679245283019,4,1,0,100,0,0
93114,-66.6666666666667,4,1,0,100,0,0
108114,-71.4285714285714,4,1,0,90,0,0
108714,-76.9230769230769,4,1,0,80,0,0
109314,-83.3333333333333,4,1,0,70,0,0
110514,-100,4,1,0,50,0,0
112314,-50,4,1,0,100,0,1

[HitObjects]
225,244,114,5,0,0:0:0:0:
225,139,414,1,0,0:0:0:0:
316,192,714,1,0,0:0:0:0:
225,244,1016,2,0,P|192:256|136:240,1,70
200,144,1314,2,0,P|288:160|288:320,1,210
160,248,1914,5,0,0:0:0:0:
274,167,2214,1,0,0:0:0:0:
286,307,2514,2,0,L|368:272,1,70
312,256,2814,2,0,L|377:195,1,70
328,200,3114,2,0,L|368:120,1,70
336,144,3414,2,0,L|346:55,1,70
328,88,3714,2,0,P|256:40|160:144,1,210
256,160,4314,5,0,0:0:0:0:
260,299,4464,1,0,0:0:0:0:
379,225,4614,2,0,L|400:152,1,70
312,104,4914,2,0,P|376:48|488:96,1,210
408,168,5514,2,0,P|352:216|224:176,1,210
312,104,6114,2,0,P|376:48|512:144,1,280
104,112,7014,5,0,0:0:0:0:
8,232,7314,2,0,P|80:288|208:200,1,210
104,168,7914,2,0,P|184:128|288:208,1,210
184,252,8514,2,0,P|90:289|0:160,1,280
16,40,9414,1,0,0:0:0:0:
104,112,9714,1,0,0:0:0:0:
256,192,9864,12,0,11814,0:0:0:0:
234,273,12114,5,0,0:0:0:0:
174,170,12264,1,0,0:0:0:0:
277,110,12414,1,0,0:0:0:0:
337,213,12564,1,0,0:0:0:0:
234,273,12714,1,0,0:0:0:0:
321,299,12864,1,0,0:0:0:0:
347,212,13014,1,0,0:0:0:0:
260,185,13164,1,0,0:0:0:0:
321,299,13314,5,0,0:0:0:0:
200,208,13464,1,0,0:0:0:0:
328,136,13614,1,0,0:0:0:0:
304,288,13764,1,0,0:0:0:0:
400,246,13914,1,0,0:0:0:0:
316,183,14064,1,0,0:0:0:0:
96,304,14214,5,0,0:0:0:0:
316,183,14364,1,0,0:0:0:0:
205,259,14514,5,0,0:0:0:0:
323,243,14664,1,0,0:0:0:0:
307,124,14814,1,0,0:0:0:0:
189,141,14964,1,0,0:0:0:0:
205,259,15114,1,0,0:0:0:0:
131,206,15264,1,0,0:0:0:0:
184,132,15414,1,0,0:0:0:0:
259,184,15564,1,0,0:0:0:0:
131,206,15714,5,0,0:0:0:0:
277,245,15864,1,0,0:0:0:0:
255,100,16014,1,0,0:0:0:0:
150,213,16164,1,0,0:0:0:0:
124,111,16314,1,0,0:0:0:0:
370,258,16464,1,0,0:0:0:0:
173,307,16614,1,0,0:0:0:0:
320,61,16764,1,0,0:0:0:0:
344,152,16914,5,0,0:0:0:0:
284,255,17064,1,0,0:0:0:0:
387,315,17214,1,0,0:0:0:0:
447,212,17364,1,0,0:0:0:0:
344,152,17514,1,0,0:0:0:0:
431,126,17664,1,0,0:0:0:0:
457,213,17814,1,0,0:0:0:0:
370,240,17964,1,0,0:0:0:0:
431,126,18114,5,0,0:0:0:0:
310,217,18264,1,0,0:0:0:0:
438,289,18414,1,0,0:0:0:0:
414,137,18564,1,0,0:0:0:0:
510,179,18714,1,0,0:0:0:0:
426,242,18864,1,0,0:0:0:0:
206,121,19014,5,0,0:0:0:0:
426,242,19164,1,0,0:0:0:0:
315,165,19314,5,0,0:0:0:0:
433,181,19464,1,0,0:0:0:0:
417,300,19614,1,0,0:0:0:0:
299,283,19764,1,0,0:0:0:0:
315,165,19914,1,0,0:0:0:0:
241,218,20064,1,0,0:0:0:0:
294,292,20214,1,0,0:0:0:0:
369,240,20364,1,0,0:0:0:0:
241,218,20514,5,0,0:0:0:0:
387,179,20664,1,0,0:0:0:0:
365,324,20814,1,0,0:0:0:0:
260,211,20964,1,0,0:0:0:0:
234,314,21114,1,0,0:0:0:0:
199,313,21189,1,0,0:0:0:0:
164,313,21264,1,0,0:0:0:0:
129,313,21339,1,0,0:0:0:0:
94,312,21414,1,0,0:0:0:0:
59,312,21489,1,0,0:0:0:0:
24,312,21564,1,0,0:0:0:0:
48,152,21714,5,0,0:0:0:0:
43,32,21864,1,0,0:0:0:0:
162,28,22014,1,0,0:0:0:0:
167,147,22164,1,0,0:0:0:0:
48,152,22314,1,0,0:0:0:0:
112,215,22464,1,0,0:0:0:0:
176,151,22614,1,0,0:0:0:0:
112,86,22764,1,0,0:0:0:0:
112,215,22914,5,0,0:0:0:0:
48,78,23064,1,0,0:0:0:0:
195,75,23214,1,0,0:0:0:0:
102,198,23364,1,0,0:0:0:0:
207,206,23514,1,0,0:0:0:0:
162,111,23664,1,0,0:0:0:0:
64,192,23814,5,0,0:0:0:0:
315,188,23964,1,0,0:0:0:0:
112,184,24114,5,0,0:0:0:0:
148,297,24264,1,0,0:0:0:0:
262,261,24414,1,0,0:0:0:0:
225,147,24564,1,0,0:0:0:0:
112,184,24714,1,0,0:0:0:0:
151,101,24864,1,0,0:0:0:0:
233,141,25014,1,0,0:0:0:0:
195,224,25164,1,0,0:0:0:0:
151,101,25314,5,0,0:0:0:0:
138,252,25464,1,0,0:0:0:0:
277,205,25614,1,0,0:0:0:0:
147,121,25764,1,0,0:0:0:0:
243,78,25914,1,0,0:0:0:0:
141,346,26064,1,0,0:0:0:0:
59,160,26214,1,0,0:0:0:0:
326,262,26364,1,0,0:0:0:0:
216,112,26514,5,0,0:0:0:0:
219,231,26664,1,0,0:0:0:0:
338,227,26814,1,0,0:0:0:0:
335,108,26964,1,0,0:0:0:0:
216,112,27114,1,0,0:0:0:0:
276,43,27264,1,0,0:0:0:0:
344,103,27414,1,0,0:0:0:0:
284,172,27564,1,0,0:0:0:0:
276,43,27714,5,0,0:0:0:0:
262,125,27864,1,0,0:0:0:0:
341,95,28014,1,0,0:0:0:0:
327,206,28164,1,0,0:0:0:0:
341,95,28314,1,0,0:0:0:0:
431,163,28464,1,0,0:0:0:0:
152,80,28614,5,0,0:0:0:0:
289,290,28764,1,0,0:0:0:0:
320,195,28914,5,0,0:0:0:0:
384,248,29064,1,0,0:0:0:0:
328,304,29214,1,0,0:0:0:0:
272,256,29364,1,0,0:0:0:0:
320,195,29514,1,0,0:0:0:0:
248,200,29664,1,0,0:0:0:0:
256,272,29814,1,0,0:0:0:0:
328,264,29964,1,0,0:0:0:0:
256,16,30114,5,0,0:0:0:0:
184,272,31314,6,0,P|176:216|128:168,1,70
328,272,31614,2,0,P|336:216|384:168,1,70
171,85,31914,2,0,P|139:149|187:213,1,140
256,200,32364,1,0,0:0:0:0:
256,8,32514,2,0,L|256:144,1,70
114,244,32814,2,0,P|178:188|186:156,1,70
341,85,33114,2,0,P|373:149|325:213,1,140
208,272,33564,1,0,0:0:0:0:
304,144,33714,2,0,L|216:144,1,70
184,312,34014,2,0,L|88:312,1,70
336,312,34314,6,0,B|368:280|424:272|424:272|456:296|496:296,1,140
496,192,34764,1,0,0:0:0:0:
312,40,34914,2,0,P|320:88|344:120,1,70
352,240,35214,2,0,B|320:216|320:216|264:216,1,70
184,296,35514,2,0,B|256:320|256:320|328:296,1,140
256,240,35964,1,0,0:0:0:0:
200,40,36114,2,0,P|192:88|168:120,1,70
160,240,36414,2,0,B|192:216|192:216|248:216,1,70
352,152,36714,5,0,0:0:0:0:
160,232,36864,1,0,0:0:0:0:
320,192,37014,1,0,0:0:0:0:
192,192,37164,1,0,0:0:0:0:
488,280,37314,2,0,P|440:304|384:304,1,70
336,128,37614,2,0,B|352:168|352:168|312:248,1,70
152,160,37914,2,0,B|184:144|184:144|216:160,1,70
24,280,38214,2,0,P|72:304|128:304,1,70
176,128,38514,2,0,B|160:168|160:168|200:248,1,70
360,160,38814,2,0,B|328:144|328:144|296:160,1,70
256,320,39114,5,0,0:0:0:0:
256,320,39564,5,0,0:0:0:0:
168,136,39864,1,0,0:0:0:0:
88,256,40014,1,0,0:0:0:0:
344,136,40164,1,0,0:0:0:0:
424,256,40314,2,0,P|448:216|456:176,1,70
368,320,40614,2,0,P|344:280|336:240,1,70
96,136,40914,2,0,P|72:96|64:56,1,70
152,200,41214,2,0,P|176:160|184:120,1,70
64,216,41514,5,0,0:0:0:0:
112,280,41664,1,0,0:0:0:0:
192,48,41814,1,0,0:0:0:0:
144,112,41964,1,0,0:0:0:0:
320,176,42114,5,0,0:0:0:0:
272,112,42264,1,0,0:0:0:0:
352,344,42414,1,0,0:0:0:0:
400,280,42564,1,0,0:0:0:0:
192,240,42714,2,0,P|176:176|184:128,1,70
88,288,43014,2,0,B|48:272|48:272|0:272,1,70
216,336,43314,2,0,L|304:336,1,70
256,120,43614,2,0,L|256:208,1,70
194,242,43914,2,0,P|283:267|336:200,1,140
256,32,44364,5,0,0:0:0:0:
320,240,44514,2,0,P|336:176|328:128,1,70
424,288,44814,2,0,B|464:272|464:272|512:272,1,70
256,240,45114,2,0,B|192:208|192:208|144:232|88:216,1,140
144,136,45564,1,0,0:0:0:0:
256,344,45714,1,0,0:0:0:0:
368,136,45864,1,0,0:0:0:0:
178,77,46014,2,0,B|150:110|150:110|138:157,1,70
256,240,46314,2,0,B|320:208|320:208|368:232|424:216,1,140
368,136,46764,5,0,0:0:0:0:
144,136,46914,1,0,0:0:0:0:
256,248,47064,5,0,0:0:0:0:
256,24,47214,1,0,0:0:0:0:
256,144,47364,1,0,0:0:0:0:
160,112,47514,5,0,0:0:0:0:
296,224,47964,1,0,0:0:0:0:
160,112,48114,1,0,0:0:0:0:
224,232,48564,1,0,0:0:0:0:
376,48,48714,2,0,P|416:104|416:160,1,97.9999970092774
136,336,49014,2,0,P|96:280|96:224,1,97.9999970092774
416,128,49314,1,0,0:0:0:0:
96,256,49464,1,0,0:0:0:0:
448,192,49614,1,0,0:0:0:0:
200,80,49914,5,0,0:0:0:0:
200,304,50064,1,0,0:0:0:0:
312,192,50214,1,0,0:0:0:0:
88,192,50364,1,0,0:0:0:0:
200,256,50514,1,0,0:0:0:0:
312,136,50664,1,0,0:0:0:0:
400,312,50814,1,0,0:0:0:0:
374,216,50964,1,0,0:0:0:0:
469,191,51114,1,0,0:0:0:0:
494,285,51264,1,0,0:0:0:0:
400,156,51414,1,0,0:0:0:0:
400,312,51564,1,0,0:0:0:0:
264,234,51714,1,0,0:0:0:0:
264,10,51864,1,0,0:0:0:0:
376,122,52014,1,0,0:0:0:0:
152,122,52164,1,0,0:0:0:0:
408,48,52314,5,0,0:0:0:0:
336,192,52464,1,0,0:0:0:0:
416,144,52614,1,0,0:0:0:0:
296,194,52764,5,0,0:0:0:0:
152,122,52914,1,0,0:0:0:0:
200,202,53064,1,0,0:0:0:0:
184,340,53214,5,0,0:0:0:0:
256,196,53364,1,0,0:0:0:0:
176,244,53514,1,0,0:0:0:0:
296,194,53664,5,0,0:0:0:0:
440,266,53814,1,0,0:0:0:0:
392,186,53964,1,0,0:0:0:0:
176,244,54114,1,0,0:0:0:0:
201,99,54264,1,0,0:0:0:0:
313,193,54414,1,0,0:0:0:0:
96,192,54564,1,0,0:0:0:0:
312,304,54714,5,0,0:0:0:0:
312,80,54864,1,0,0:0:0:0:
200,192,55014,1,0,0:0:0:0:
424,192,55164,1,0,0:0:0:0:
312,128,55314,1,0,0:0:0:0:
200,248,55464,1,0,0:0:0:0:
112,72,55614,1,0,0:0:0:0:
138,168,55764,1,0,0:0:0:0:
43,193,55914,1,0,0:0:0:0:
18,99,56064,1,0,0:0:0:0:
112,228,56214,1,0,0:0:0:0:
112,72,56364,1,0,0:0:0:0:
248,150,56514,1,0,0:0:0:0:
248,374,56664,1,0,0:0:0:0:
136,262,56814,1,0,0:0:0:0:
360,262,56964,1,0,0:0:0:0:
104,336,57114,5,0,0:0:0:0:
176,192,57264,1,0,0:0:0:0:
96,240,57414,1,0,0:0:0:0:
216,190,57564,5,0,0:0:0:0:
360,262,57714,1,0,0:0:0:0:
312,182,57864,1,0,0:0:0:0:
328,44,58014,5,0,0:0:0:0:
256,188,58164,1,0,0:0:0:0:
336,140,58314,1,0,0:0:0:0:
216,190,58464,5,0,0:0:0:0:
72,118,58614,1,0,0:0:0:0:
120,198,58764,1,0,0:0:0:0:
336,140,58914,1,0,0:0:0:0:
311,285,59064,1,0,0:0:0:0:
199,191,59214,1,0,0:0:0:0:
416,192,59364,1,0,0:0:0:0:
288,56,59514,5,0,0:0:0:0:
288,272,59664,1,0,0:0:0:0:
381,70,59814,1,0,0:0:0:0:
194,257,59964,1,0,0:0:0:0:
120,120,60114,1,0,0:0:0:0:
0,192,60264,1,0,0:0:0:0:
248,192,60414,1,0,0:0:0:0:
124,68,60564,1,0,0:0:0:0:
124,316,60714,5,0,0:0:0:0:
168,192,60864,1,0,0:0:0:0:
96,240,61014,1,0,0:0:0:0:
264,216,61164,5,0,0:0:0:0:
220,92,61314,1,0,0:0:0:0:
292,140,61464,1,0,0:0:0:0:
236,340,61614,5,0,0:0:0:0:
192,216,61764,1,0,0:0:0:0:
264,264,61914,1,0,0:0:0:0:
338,137,62064,5,0,0:0:0:0:
191,137,62214,1,0,0:0:0:0:
264,264,62364,1,0,0:0:0:0:
336,248,62514,1,0,0:0:0:0:
264,48,62664,1,0,0:0:0:0:
192,248,62814,1,0,0:0:0:0:
40,160,62964,5,0,0:0:0:0:
187,160,63114,1,0,0:0:0:0:
114,33,63264,1,0,0:0:0:0:
42,49,63414,1,0,0:0:0:0:
114,249,63564,1,0,0:0:0:0:
186,49,63714,1,0,0:0:0:0:
112,312,63864,5,0,0:0:0:0:
112,72,64014,1,0,0:0:0:0:
0,192,64164,1,0,0:0:0:0:
224,328,64314,5,0,0:0:0:0:
224,112,64464,1,0,0:0:0:0:
130,313,64614,1,0,0:0:0:0:
317,126,64764,1,0,0:0:0:0:
392,264,64914,1,0,0:0:0:0:
512,192,65064,1,0,0:0:0:0:
264,192,65214,1,0,0:0:0:0:
388,316,65364,1,0,0:0:0:0:
388,68,65514,5,0,0:0:0:0:
344,192,65664,1,0,0:0:0:0:
416,144,65814,1,0,0:0:0:0:
248,168,65964,5,0,0:0:0:0:
292,292,66114,1,0,0:0:0:0:
220,244,66264,1,0,0:0:0:0:
276,44,66414,5,0,0:0:0:0:
320,168,66564,1,0,0:0:0:0:
248,120,66714,1,0,0:0:0:0:
264,264,66864,1,0,0:0:0:0:
288,40,67014,1,0,0:0:0:0:
224,344,67164,1,0,0:0:0:0:
278,217,67314,2,0,P|270:161|262:225,1,195.999994018555
88,192,68664,5,0,0:0:0:0:
424,192,68814,1,0,0:0:0:0:
256,96,68964,1,0,0:0:0:0:
256,344,69114,2,0,B|272:304|256:280|240:256|256:168,1,167.999994873047
184,312,70014,1,0,0:0:0:0:
328,224,70314,2,0,B|336:160|280:128|280:128|312:80|352:80|392:88|424:136,1,251.999992309571
184,224,70914,2,0,B|176:160|232:128|232:128|200:80|160:80|120:88|88:136,1,251.999992309571
120,344,71514,6,0,B|104:296|144:240|192:200|136:128|80:104|48:88,1,272.999987503052
232,240,72114,2,0,B|248:192|213:165|208:136|160:96|216:24|272:0|304:-16,1,272.999987503052
296,104,72714,2,0,P|360:96|408:64,1,90.9999958343508
224,168,73014,2,0,P|283:193|340:189,1,90.9999958343508
128,176,73314,2,0,P|166:227|218:252,1,90.9999958343508
40,136,73614,2,0,P|48:200|80:248,1,90.9999958343508
192,304,73914,2,0,B|232:312|280:304|312:264|320:208|360:176|448:192,1,272.999987503052
400,280,74814,6,0,P|432:288|480:352,1,90.9999958343508
320,304,75114,2,0,P|344:216|416:192,1,90.9999958343508
219,131,75414,2,0,P|240:170|240:216,1,90.9999958343508
87,239,75715,2,0,P|117:206|160:192,1,90.9999958343508
160,280,76014,2,0,P|159:325|180:364,1,90.9999958343508
240,304,76314,2,0,B|288:272|304:224|304:168|248:136|224:104|264:16,1,272.999987503052
339,151,77214,6,0,P|371:159|459:135,1,90.9999958343508
243,231,77514,2,0,P|211:239|123:215,1,90.9999958343508
250,55,77814,2,0,P|242:99|250:143,1,90.9999958343508
330,327,78113,2,0,P|322:282|330:238,1,90.9999958343508
392,144,78414,2,0,P|399:99|391:55,1,90.9999958343508
296,32,78714,6,0,B|288:112|256:112|208:160|224:240|288:272|304:272,1,272.999987503052
128,144,79314,2,0,B|136:224|168:224|216:272|200:352|136:384|120:384,1,272.999987503052
88,288,79914,2,0,P|72:248|8:208,1,90.9999958343508
152,192,80214,2,0,P|168:152|232:112,1,90.9999958343508
224,312,80514,1,0,0:0:0:0:
288,72,80664,1,0,0:0:0:0:
328,320,80964,5,0,0:0:0:0:
184,64,81114,1,0,0:0:0:0:
200,240,81714,6,0,P|216:184|192:120,1,90.9999958343508
312,240,82014,2,0,P|296:184|320:120,1,90.9999958343508
128,328,82314,2,0,P|112:256|136:224,1,90.9999958343508
184,272,82614,2,0,P|200:176|176:128,1,90.9999958343508
280,168,82914,2,0,P|296:96|272:64,1,90.9999958343508
224,112,83214,2,0,P|208:16|232:-32,1,90.9999958343508
368,256,83514,2,0,B|336:216|336:176|416:152|392:72|336:24|280:32,1,272.999987503052
280,184,84114,6,0,P|280:256|328:312,1,90.9999958343508
436,183,84414,2,0,P|442:78|424:40,1,90.9999958343508
304,120,84714,2,0,P|305:74|293:30,1,90.9999958343508
208,120,85014,2,0,P|206:74|218:30,1,90.9999958343508
232,184,85314,2,0,P|232:256|184:312,1,90.9999958343508
76,183,85614,2,0,P|70:78|88:40,1,90.9999958343508
216,31,85914,2,0,B|176:24|120:72|96:152|176:176|176:216|146:253,1,272.999987503052
296,112,86814,6,0,P|256:136|208:96,1,90.9999958343508
336,232,87114,2,0,P|312:191|352:144,1,90.9999958343508
216,272,87414,2,0,P|256:248|304:288,1,90.9999958343508
176,152,87714,2,0,P|200:192|160:240,1,90.9999958343508
299,67,88014,6,0,P|232:81|200:49,1,90.9999958343508
376,231,88314,2,0,P|362:189|381:149,1,90.9999958343508
213,317,88614,2,0,P|280:303|312:335,1,90.9999958343508
135,152,88914,2,0,P|149:194|130:235,1,90.9999958343508
303,30,89214,6,0,P|253:41|199:22,1,90.9999958343508
418,239,89514,2,0,P|407:189|426:135,1,90.9999958343508
209,354,89814,2,0,P|259:343|313:362,1,90.9999958343508
94,145,90114,2,0,P|105:195|86:249,1,90.9999958343508
256,288,90414,6,0,L|256:176,1,90.9999958343508
337,191,90714,2,0,P|256:104|179:205,1,259.700000396271
256,176,91914,2,0,B|272:232|256:256|240:280|256:376|256:376|272:328|256:296,1,259.700000396271
176,216,93114,6,0,B|128:192|128:192|72:192,1,105.000004005432
435,192,93414,2,0,B|384:192|384:192|336:216,1,105.000004005432
107,264,93714,2,0,B|56:264|56:264|8:240,1,105.000004005432
404,264,94014,2,0,B|456:264|456:264|504:240,1,105.000004005432
160,56,94314,2,0,P|120:96|96:192,1,105.000004005432
421,176,94614,2,0,P|407:122|336:53,1,105.000004005432
186,343,94914,2,0,P|240:357|336:330,1,105.000004005432
96,136,95214,2,0,L|168:136,1,52.5000020027161
376,80,95364,2,0,L|312:80,1,52.5000020027161
288,352,95514,6,0,B|256:304|256:304|256:224,1,105.000004005432
224,32,95814,2,0,B|256:80|256:80|256:160,1,105.000004005432
191,192,96114,6,0,B|144:192|144:192|96:224,1,105.000004005432
320,192,96414,2,0,B|368:192|368:192|416:160,1,105.000004005432
144,192,96714,1,0,0:0:0:0:
368,192,97014,1,0,0:0:0:0:
256,72,97314,6,0,L|256:136,1,52.5000020027161
256,312,97464,2,0,L|256:248,1,52.5000020027161
328,67,97614,2,0,L|296:122,1,52.5000020027161,0|0,2:0|2:0,2:0:0:0:
183,316,97764,2,0,L|224:247,1,52.5000020027161,0|0,2:0|2:0,2:0:0:0:
352,56,97914,6,0,P|392:96|416:192,1,105.000004005432
90,176,98214,2,0,P|104:122|176:53,1,105.000004005432
325,343,98514,2,0,P|271:357|176:330,1,105.000004005432
256,32,98814,2,0,L|256:168,1,105.000004005432
96,280,99114,2,0,B|152:240|152:240|224:240,1,105.000004005432
323,240,99414,2,0,B|360:240|360:240|416:280,1,105.000004005432
200,336,99714,2,0,B|256:352|256:352|304:336,1,105.000004005432
128,272,100014,2,0,L|128:344,1,52.5000020027161
368,328,100164,2,0,L|368:256,1,52.5000020027161
256,280,100314,6,0,P|216:224|216:152,1,105.000004005432
40,192,100614,2,0,B|40:120|40:120|16:80,1,105.000004005432
256,104,100914,2,0,P|296:160|296:232,1,105.000004005432
472,192,101214,2,0,B|472:264|472:264|496:304,1,105.000004005432
360,56,101514,5,0,0:0:0:0:
312,152,101664,1,0,0:0:0:0:
240,336,101814,1,0,0:0:0:0:
192,240,101964,1,0,0:0:0:0:
208,0,102114,5,0,0:0:0:0:
256,96,102264,1,0,0:0:0:0:
328,280,102414,1,0,0:0:0:0:
376,184,102564,1,0,0:0:0:0:
96,64,102714,2,0,B|96:97|96:97|105:127,2,52.5000020027161
168,304,103014,1,0,0:0:0:0:
256,64,103164,1,0,0:0:0:0:
416,64,103314,6,0,B|416:97|416:97|407:127,2,52.5000020027161
344,304,103614,1,0,0:0:0:0:
256,192,103764,1,0,0:0:0:0:
168,304,103914,2,0,B|144:328|144:328|96:336,2,52.5000020027161
168,104,104214,5,0,0:0:0:0:
344,104,104364,1,0,0:0:0:0:
64,200,104514,1,0,0:0:0:0:
256,24,104664,1,0,0:0:0:0:
256,288,104814,1,0,0:0:0:0:
448,200,104964,1,0,0:0:0:0:
344,304,105114,6,0,B|368:328|368:328|416:336,2,52.5000020027161
216,144,105414,1,0,0:0:0:0:
216,336,105564,1,0,0:0:0:0:
256,96,105714,1,0,0:0:0:0:
176,384,105864,1,0,0:0:0:0:
72,200,106014,2,0,P|56:160|72:88,1,105.000004005432
112,368,106314,2,0,P|144:304|144:248,1,105.000004005432
65,100,106614,1,0,0:0:0:0:
296,88,106914,5,0,0:0:0:0:
216,288,107064,1,0,0:0:0:0:
272,16,107214,1,0,0:0:0:0:
240,368,107364,1,0,0:0:0:0:
429,198,107514,5,0,0:0:0:0:
393,159,107589,1,0,0:0:0:0:
344,144,107664,1,0,0:0:0:0:
293,156,107739,1,0,0:0:0:0:
256,192,107814,1,0,0:0:0:0:
217,227,107889,1,0,0:0:0:0:
167,239,107964,1,0,0:0:0:0:
117,224,108039,1,0,0:0:0:0:
80,184,108114,5,0,0:0:0:0:
120,156,108189,1,0,0:0:0:0:
168,155,108264,1,0,0:0:0:0:
208,182,108339,1,0,0:0:0:0:
223,228,108414,1,0,0:0:0:0:
239,272,108489,1,0,0:0:0:0:
278,300,108564,1,0,0:0:0:0:
327,298,108639,1,0,0:0:0:0:
364,269,108714,5,0,0:0:0:0:
327,244,108789,1,0,0:0:0:0:
282,238,108864,1,0,0:0:0:0:
239,253,108939,1,0,0:0:0:0:
208,286,109014,1,0,0:0:0:0:
176,318,109089,1,0,0:0:0:0:
134,333,109164,1,0,0:0:0:0:
89,327,109239,1,0,0:0:0:0:
51,302,109314,5,0,0:0:0:0:
89,286,109389,1,0,0:0:0:0:
113,251,109464,1,0,0:0:0:0:
116,210,109539,1,0,0:0:0:0:
96,173,109614,1,0,0:0:0:0:
76,136,109689,1,0,0:0:0:0:
79,95,109764,1,0,0:0:0:0:
103,61,109839,1,0,0:0:0:0:
140,44,109914,5,0,0:0:0:0:
152,120,110064,1,0,0:0:0:0:
216,48,110214,2,0,L|216:96,1,41.9999987182618
216,208,110364,2,0,L|216:152,1,41.9999987182618
296,48,110514,6,0,L|264:48,1,17.5
315,76,110589,2,0,L|283:78,1,17.5
324,110,110664,2,0,L|295:111,1,17.5
319,145,110739,2,0,L|293:145,1,17.5
304,175,110814,2,0,L|280:176,1,17.5
288,205,110889,2,0,L|320:206,1,17.5
283,240,110964,2,0,L|314:241,1,17.5
292,274,111039,2,0,L|323:274,1,17.5
311,302,111114,6,0,L|345:303,1,17.5
376,240,111264,1,0,0:0:0:0:
232,112,111414,1,0,0:0:0:0:
304,176,111564,1,0,0:0:0:0:
232,112,111714,1,0,0:0:0:0:
376,240,111864,1,0,0:0:0:0:
144,264,112314,6,0,P|136:192|56:120,1,140
256,24,112614,1,0,0:0:0:0:
256,320,112764,1,0,0:0:0:0:
416,140,112914,2,0,P|374:195|368:264,1,140
472,224,113214,1,0,0:0:0:0:
40,224,113364,1,0,0:0:0:0:
256,352,113514,2,0,B|272:304|256:272|240:240|256:136,1,210
256,56,113814,5,0,0:0:0:0:
112,304,113964,1,0,0:0:0:0:
400,304,114114,1,0,0:0:0:0:
256,192,114264,1,0,0:0:0:0:
80,192,114414,1,0,0:0:0:0:
432,192,114564,1,0,0:0:0:0:
176,80,114714,2,0,B|104:80|104:80|32:112,1,140
136,360,115014,5,0,0:0:0:0:
256,32,115164,1,0,0:0:0:0:
470,107,115314,2,0,B|408:80|408:80|336:80,1,140
376,360,115614,1,0,0:0:0:0:
108,144,115764,1,0,0:0:0:0:
165,317,115914,1,0,0:0:0:0:
403,144,116064,1,0,0:0:0:0:
256,37,116214,1,0,0:0:0:0:
346,317,116364,1,0,0:0:0:0:
64,216,116514,6,0,P|32:128|72:64,1,140
256,328,116814,1,0,0:0:0:0:
256,37,116964,1,0,0:0:0:0:
448,216,117114,2,0,P|480:128|392:48,1,210
400,144,117414,5,0,0:0:0:0:
112,144,117564,1,0,0:0:0:0:
96,24,117714,1,0,0:0:0:0:
32,112,117864,1,0,0:0:0:0:
272,272,118014,1,0,0:0:0:0:
208,184,118164,1,0,0:0:0:0:
448,24,118314,1,0,0:0:0:0:
512,112,118464,1,0,0:0:0:0:
272,272,118614,1,0,0:0:0:0:
336,184,118764,1,0,0:0:0:0:
96,24,118914,6,0,B|64:88|64:88|64:168,1,140
224,192,119214,2,0,B|208:264|208:264|208:344,1,140
360,24,119514,2,0,B|392:88|392:88|392:136|392:136|360:192|360:192|360:272,1,210
440,272,119814,1,0,0:0:0:0:
320,112,119964,1,0,0:0:0:0:
256,360,120114,1,0,0:0:0:0:
192,112,120264,1,0,0:0:0:0:
72,272,120414,1,0,0:0:0:0:
424,112,120564,5,0,0:0:0:0:
152,24,120714,2,0,B|120:88|120:88|120:136|120:136|152:192|152:192|152:272,1,210
72,272,121014,1,0,0:0:0:0:
408,32,121164,1,0,0:0:0:0:
408,264,121314,1,0,0:0:0:0:
344,80,121464,1,0,0:0:0:0:
208,315,121614,1,0,0:0:0:0:
280,32,121764,1,0,0:0:0:0:
2,192,121914,6,0,B|40:216|88:192|136:168|216:192,1,210
152,256,122214,1,0,0:0:0:0:
256,0,122364,1,0,0:0:0:0:
296,360,122514,2,0,P|320:280|288:192,1,140
80,192,122814,1,0,0:0:0:0:
432,192,122964,1,0,0:0:0:0:
216,24,123114,2,0,P|192:104|224:192,1,140
392,64,123414,5,0,0:0:0:0:
112,88,123564,1,0,0:0:0:0:
320,152,123714,1,0,0:0:0:0:
56,152,123864,1,0,0:0:0:0:
432,208,124014,1,0,0:0:0:0:
136,224,124164,1,0,0:0:0:0:
256,304,124314,2,0,P|296:248|256:192,1,140
120,344,124614,1,0,0:0:0:0:
392,40,124764,1,0,0:0:0:0:
256,80,124914,2,0,P|216:136|256:192,1,140
464,192,125214,5,0,0:0:0:0:
48,192,125364,1,0,0:0:0:0:
464,104,125514,1,0,0:0:0:0:
48,104,125664,1,0,0:0:0:0:
464,280,125814,1,0,0:0:0:0:
48,280,125964,1,0,0:0:0:0:
296,64,126114,2,0,B|312:56|336:56|352:80|360:88|384:120|320:144|344:176|296:176|320:232,1,210
216,64,126414,2,0,B|200:56|176:56|160:80|152:88|128:120|192:144|168:176|216:176|192:232,1,210
256,128,126714,5,0,0:0:0:0:
256,336,126864,1,0,0:0:0:0:
256,24,127014,1,0,0:0:0:0:
256,232,127164,1,0,0:0:0:0:
488,64,127314,2,0,B|432:40|392:64|352:88|264:64,1,210
256,136,127614,5,0,0:0:0:0:
448,192,127764,1,0,0:0:0:0:
352,40,127914,1,0,0:0:0:0:
352,328,128064,1,0,0:0:0:0:
256,136,128214,1,0,0:0:0:0:
208,272,128364,1,0,0:0:0:0:
24,64,128514,2,0,B|80:40|120:64|160:88|248:64,1,210
256,136,128814,5,0,0:0:0:0:
64,192,128964,1,0,0:0:0:0:
160,40,129114,1,0,0:0:0:0:
160,328,129264,1,0,0:0:0:0:
256,136,129414,1,0,0:0:0:0:
304,272,129564,1,0,0:0:0:0:
136,184,129714,2,0,P|88:160|0:192,1,140
376,184,130014,2,0,P|424:160|512:192,1,140
440,360,130314,5,0,0:0:0:0:
256,8,130464,1,0,0:0:0:0:
72,360,130614,1,0,0:0:0:0:
432,144,130764,1,0,0:0:0:0:
256,384,130914,1,0,0:0:0:0:
80,144,131064,1,0,0:0:0:0:
256,192,131214,1,0,0:0:0:0:
256,32,131364,1,0,0:0:0:0:
176,80,131514,6,0,L|192:160,1,70
336,80,131739,1,0,0:0:0:0:
322,148,131814,1,0,0:0:0:0:
112,120,131964,1,0,0:0:0:0:
400,120,132114,1,0,0:0:0:0:
248,328,132264,1,0,0:0:0:0:
264,56,132414,1,0,0:0:0:0:
384,192,132564,1,0,0:0:0:0:
272,152,132714,6,0,L|352:128,1,70
240,232,132939,1,0,0:0:0:0:
172,250,133014,1,0,0:0:0:0:
192,160,133164,1,0,0:0:0:0:
456,80,133314,1,0,0:0:0:0:
320,160,133464,1,0,0:0:0:0:
56,80,133614,1,0,0:0:0:0:
256,384,133764,1,0,0:0:0:0:
184,40,133914,6,0,L|120:80,1,70
328,40,134139,1,0,0:0:0:0:
387,77,134214,1,0,0:0:0:0:
256,192,134364,1,0,0:0:0:0:
143,150,134514,1,0,0:0:0:0:
368,233,134664,1,0,0:0:0:0:
72,37,134814,1,0,0:0:0:0:
439,346,134964,1,0,0:0:0:0:
304,288,135114,6,0,L|312:208,1,70
208,152,135339,1,0,0:0:0:0:
201,82,135414,1,0,0:0:0:0:
256,192,135564,1,0,0:0:0:0:
368,150,135714,1,0,0:0:0:0:
143,233,135864,1,0,0:0:0:0:
439,37,136014,1,0,0:0:0:0:
72,346,136164,1,0,0:0:0:0:
64,224,136314,6,0,L|48:152,1,70
184,232,136539,1,0,0:0:0:0:
199,300,136614,1,0,0:0:0:0:
360,216,136764,1,0,0:0:0:0:
48,152,136914,1,0,0:0:0:0:
172,340,137064,1,0,0:0:0:0:
236,28,137214,1,0,0:0:0:0:
360,216,137364,1,0,0:0:0:0:
128,104,137514,6,0,L|168:200,1,70
384,104,137739,1,0,0:0:0:0:
357,168,137814,1,0,0:0:0:0:
56,88,137964,1,0,0:0:0:0:
456,88,138114,1,0,0:0:0:0:
128,192,138264,1,0,0:0:0:0:
384,192,138414,1,0,0:0:0:0:
256,0,138564,1,0,0:0:0:0:
144,344,138714,6,0,L|120:264,1,70
368,344,138939,1,0,0:0:0:0:
388,276,139014,1,0,0:0:0:0:
160,48,139164,1,0,0:0:0:0:
200,352,139314,1,0,0:0:0:0:
256,192,139464,1,0,0:0:0:0:
312,352,139614,1,0,0:0:0:0:
352,48,139764,1,0,0:0:0:0:
152,112,139914,6,0,L|64:72,1,70
360,112,140139,1,0,0:0:0:0:
423,83,140214,1,0,0:0:0:0:
176,192,140364,1,0,0:0:0:0:
16,352,140514,1,0,0:0:0:0:
256,16,140664,1,0,0:0:0:0:
496,352,140814,1,0,0:0:0:0:
336,192,140964,1,0,0:0:0:0:
