osu file format v14

[General]
AudioFilename: audio.mp3
AudioLeadIn: 0
PreviewTime: 70019
Countdown: 0
SampleSet: Soft
StackLeniency: 0.7
Mode: 3
LetterboxInBreaks: 0
SpecialStyle: 0
WidescreenStoryboard: 0

[Editor]
DistanceSpacing: 1
BeatDivisor: 8
GridSize: 8
TimelineZoom: 1.9

[Metadata]
Title:Love is War
TitleUnicode:Love is War
Artist:Helblinde
ArtistUnicode:Helblinde
Creator:Kernaus
Version::D?
Source:
Tags:
BeatmapID:975130
BeatmapSetID:454878

[Difficulty]
HPDrainRate:8
CircleSize:4
OverallDifficulty:8
ApproachRate:5
SliderMultiplier:1.4
SliderTickRate:1

[Events]
//Background and Video events
0,0,"Love.is.War.full.903564.jpg",0,0
//Break Periods
//Storyboard Layer 0 (Background)
//Storyboard Layer 1 (Fail)
//Storyboard Layer 2 (Pass)
//Storyboard Layer 3 (Foreground)
//Storyboard Sound Samples

[TimingPoints]
12155,300,4,2,0,45,1,0
30719,300,4,2,0,45,1,0
70019,-100,4,2,0,45,0,0
112319,-100,4,2,0,45,0,1
135119,-100,4,2,0,45,0,0

[HitObjects]
320,192,12155,5,0,0:0:0:0:
192,192,12155,1,0,0:0:0:0:
320,192,12305,1,0,0:0:0:0:
64,192,12455,1,0,0:0:0:0:
192,192,12455,1,0,0:0:0:0:
64,192,12605,1,0,0:0:0:0:
448,192,12755,1,0,0:0:0:0:
320,192,12755,1,0,0:0:0:0:
448,192,12905,1,0,0:0:0:0:
64,192,13055,1,0,0:0:0:0:
320,192,13055,1,0,0:0:0:0:
320,192,13205,1,0,0:0:0:0:
64,192,13355,1,0,0:0:0:0:
448,192,13355,1,0,0:0:0:0:
64,192,13505,1,0,0:0:0:0:
192,192,13655,1,0,0:0:0:0:
448,192,13655,1,0,0:0:0:0:
192,192,13805,1,0,0:0:0:0:
448,192,13955,1,0,0:0:0:0:
320,192,13955,1,0,0:0:0:0:
320,192,14105,1,0,0:0:0:0:
64,192,14255,1,0,0:0:0:0:
448,192,14255,1,0,0:0:0:0:
64,192,14405,1,0,0:0:0:0:
320,192,14555,1,0,0:0:0:0:
192,192,14555,1,0,0:0:0:0:
320,192,14705,1,0,0:0:0:0:
64,192,14855,1,0,0:0:0:0:
192,192,14855,1,0,0:0:0:0:
64,192,15005,1,0,0:0:0:0:
448,192,15155,1,0,0:0:0:0:
320,192,15155,1,0,0:0:0:0:
448,192,15305,1,0,0:0:0:0:
64,192,15455,1,0,0:0:0:0:
320,192,15455,1,0,0:0:0:0:
320,192,15605,1,0,0:0:0:0:
64,192,15755,1,0,0:0:0:0:
448,192,15755,1,0,0:0:0:0:
64,192,15905,1,0,0:0:0:0:
192,192,16055,1,0,0:0:0:0:
448,192,16055,1,0,0:0:0:0:
192,192,16205,1,0,0:0:0:0:
64,192,16355,1,0,0:0:0:0:
320,192,16355,1,0,0:0:0:0:
448,192,16355,1,0,0:0:0:0:
192,192,16505,1,0,0:0:0:0:
320,192,16505,1,0,0:0:0:0:
64,192,16505,1,0,0:0:0:0:
448,192,16655,1,0,0:0:0:0:
320,192,16655,1,0,0:0:0:0:
192,192,16655,1,0,0:0:0:0:
64,192,16805,1,0,0:0:0:0:
192,192,16805,1,0,0:0:0:0:
448,192,16805,1,0,0:0:0:0:
320,192,16955,1,0,0:0:0:0:
192,192,16955,1,0,0:0:0:0:
320,192,17105,1,0,0:0:0:0:
192,192,17255,1,0,0:0:0:0:
64,192,17255,1,0,0:0:0:0:
64,192,17405,1,0,0:0:0:0:
320,192,17555,1,0,0:0:0:0:
448,192,17555,1,0,0:0:0:0:
448,192,17705,1,0,0:0:0:0:
320,192,17855,1,0,0:0:0:0:
64,192,17855,1,0,0:0:0:0:
320,192,18005,1,0,0:0:0:0:
448,192,18155,1,0,0:0:0:0:
64,192,18155,1,0,0:0:0:0:
64,192,18305,1,0,0:0:0:0:
448,192,18455,1,0,0:0:0:0:
192,192,18455,1,0,0:0:0:0:
192,192,18605,1,0,0:0:0:0:
320,192,18755,1,0,0:0:0:0:
448,192,18755,1,0,0:0:0:0:
320,192,18905,1,0,0:0:0:0:
448,192,19055,1,0,0:0:0:0:
64,192,19055,1,0,0:0:0:0:
64,192,19205,1,0,0:0:0:0:
192,192,19355,1,0,0:0:0:0:
320,192,19355,1,0,0:0:0:0:
320,192,19505,1,0,0:0:0:0:
64,192,19655,1,0,0:0:0:0:
192,192,19655,1,0,0:0:0:0:
64,192,19805,1,0,0:0:0:0:
448,192,19955,1,0,0:0:0:0:
320,192,19955,1,0,0:0:0:0:
448,192,20105,1,0,0:0:0:0:
64,192,20255,1,0,0:0:0:0:
320,192,20255,1,0,0:0:0:0:
320,192,20405,1,0,0:0:0:0:
64,192,20555,1,0,0:0:0:0:
448,192,20555,1,0,0:0:0:0:
64,192,20705,1,0,0:0:0:0:
192,192,20855,1,0,0:0:0:0:
448,192,20855,1,0,0:0:0:0:
192,192,21005,1,0,0:0:0:0:
448,192,21155,1,0,0:0:0:0:
320,192,21155,1,0,0:0:0:0:
64,192,21230,1,0,0:0:0:0:
192,192,21267,1,0,0:0:0:0:
320,192,21305,1,0,0:0:0:0:
320,192,21455,1,0,0:0:0:0:
64,192,21455,1,0,0:0:0:0:
192,192,21530,1,0,0:0:0:0:
448,192,21567,1,0,0:0:0:0:
320,192,21605,1,0,0:0:0:0:
64,192,21605,1,0,0:0:0:0:
64,192,21755,1,0,0:0:0:0:
448,192,21755,1,0,0:0:0:0:
320,192,21755,1,0,0:0:0:0:
192,192,21830,1,0,0:0:0:0:
320,192,21905,1,0,0:0:0:0:
448,192,21980,1,0,0:0:0:0:
64,192,22055,1,0,0:0:0:0:
192,192,22055,1,0,0:0:0:0:
320,192,22130,1,0,0:0:0:0:
192,192,22205,1,0,0:0:0:0:
64,192,22280,1,0,0:0:0:0:
192,192,22355,1,0,0:0:0:0:
448,192,22355,1,0,0:0:0:0:
320,192,22430,1,0,0:0:0:0:
448,192,22505,1,0,0:0:0:0:
192,192,22580,1,0,0:0:0:0:
64,192,22655,1,0,0:0:0:0:
448,192,22655,1,0,0:0:0:0:
320,192,22730,1,0,0:0:0:0:
192,192,22805,1,0,0:0:0:0:
448,192,22880,1,0,0:0:0:0:
320,192,22955,1,0,0:0:0:0:
192,192,22955,1,0,0:0:0:0:
64,192,23030,1,0,0:0:0:0:
320,192,23105,1,0,0:0:0:0:
448,192,23180,1,0,0:0:0:0:
320,192,23255,1,0,0:0:0:0:
64,192,23255,1,0,0:0:0:0:
192,192,23330,1,0,0:0:0:0:
64,192,23405,1,0,0:0:0:0:
320,192,23480,1,0,0:0:0:0:
192,192,23555,1,0,0:0:0:0:
448,192,23555,1,0,0:0:0:0:
320,192,23630,1,0,0:0:0:0:
448,192,23705,1,0,0:0:0:0:
192,192,23780,1,0,0:0:0:0:
64,192,23855,1,0,0:0:0:0:
448,192,23855,1,0,0:0:0:0:
320,192,23930,1,0,0:0:0:0:
192,192,24005,1,0,0:0:0:0:
64,192,24080,1,0,0:0:0:0:
320,192,24155,1,0,0:0:0:0:
192,192,24155,1,0,0:0:0:0:
448,192,24230,1,0,0:0:0:0:
320,192,24305,1,0,0:0:0:0:
192,192,24380,1,0,0:0:0:0:
64,192,24455,1,0,0:0:0:0:
448,192,24455,1,0,0:0:0:0:
320,192,24530,1,0,0:0:0:0:
64,192,24605,1,0,0:0:0:0:
192,192,24680,1,0,0:0:0:0:
320,192,24755,1,0,0:0:0:0:
448,192,24755,1,0,0:0:0:0:
192,192,24830,1,0,0:0:0:0:
64,192,24905,1,0,0:0:0:0:
192,192,24980,1,0,0:0:0:0:
448,192,25055,1,0,0:0:0:0:
64,192,25055,1,0,0:0:0:0:
320,192,25130,1,0,0:0:0:0:
192,192,25205,1,0,0:0:0:0:
64,192,25280,1,0,0:0:0:0:
320,192,25355,1,0,0:0:0:0:
448,192,25355,1,0,0:0:0:0:
64,192,25430,1,0,0:0:0:0:
320,192,25505,1,0,0:0:0:0:
192,192,25580,1,0,0:0:0:0:
448,192,25655,1,0,0:0:0:0:
64,192,25655,1,0,0:0:0:0:
320,192,25730,1,0,0:0:0:0:
192,192,25805,1,0,0:0:0:0:
320,192,25880,1,0,0:0:0:0:
192,192,25955,1,0,0:0:0:0:
64,192,25955,1,0,0:0:0:0:
320,192,26030,1,0,0:0:0:0:
64,192,26105,1,0,0:0:0:0:
448,192,26105,1,0,0:0:0:0:
192,192,26180,1,0,0:0:0:0:
320,192,26255,1,0,0:0:0:0:
448,192,26255,1,0,0:0:0:0:
64,192,26330,1,0,0:0:0:0:
320,192,26405,1,0,0:0:0:0:
192,192,26405,1,0,0:0:0:0:
448,192,26480,1,0,0:0:0:0:
320,192,26555,1,0,0:0:0:0:
64,192,26555,1,0,0:0:0:0:
192,192,26630,1,0,0:0:0:0:
448,192,26705,1,0,0:0:0:0:
192,192,26780,1,0,0:0:0:0:
320,192,26855,1,0,0:0:0:0:
448,192,26855,1,0,0:0:0:0:
64,192,26930,1,0,0:0:0:0:
192,192,27005,1,0,0:0:0:0:
320,192,27080,1,0,0:0:0:0:
448,192,27155,1,0,0:0:0:0:
192,192,27155,1,0,0:0:0:0:
320,192,27230,1,0,0:0:0:0:
64,192,27305,1,0,0:0:0:0:
192,192,27380,1,0,0:0:0:0:
320,192,27455,1,0,0:0:0:0:
448,192,27455,1,0,0:0:0:0:
64,192,27530,1,0,0:0:0:0:
448,192,27605,1,0,0:0:0:0:
320,192,27680,1,0,0:0:0:0:
192,192,27755,1,0,0:0:0:0:
64,192,27755,1,0,0:0:0:0:
320,192,27830,1,0,0:0:0:0:
64,192,27905,1,0,0:0:0:0:
192,192,27980,1,0,0:0:0:0:
320,192,28055,1,0,0:0:0:0:
448,192,28055,1,0,0:0:0:0:
64,192,28130,1,0,0:0:0:0:
192,192,28205,1,0,0:0:0:0:
320,192,28280,1,0,0:0:0:0:
448,192,28355,1,0,0:0:0:0:
192,192,28355,1,0,0:0:0:0:
320,192,28430,1,0,0:0:0:0:
64,192,28505,1,0,0:0:0:0:
192,192,28580,1,0,0:0:0:0:
320,192,28655,1,0,0:0:0:0:
448,192,28655,1,0,0:0:0:0:
192,192,28730,1,0,0:0:0:0:
320,192,28805,1,0,0:0:0:0:
448,192,28880,1,0,0:0:0:0:
192,192,28955,1,0,0:0:0:0:
64,192,28955,1,0,0:0:0:0:
448,192,29030,1,0,0:0:0:0:
192,192,29105,1,0,0:0:0:0:
64,192,29180,1,0,0:0:0:0:
448,192,29255,1,0,0:0:0:0:
320,192,29255,1,0,0:0:0:0:
192,192,29330,1,0,0:0:0:0:
320,192,29405,1,0,0:0:0:0:
64,192,29480,1,0,0:0:0:0:
320,192,29555,1,0,0:0:0:0:
192,192,29555,1,0,0:0:0:0:
448,192,29630,1,0,0:0:0:0:
192,192,29705,1,0,0:0:0:0:
64,192,29780,1,0,0:0:0:0:
320,192,29855,1,0,0:0:0:0:
448,192,29855,1,0,0:0:0:0:
192,192,29930,1,0,0:0:0:0:
320,192,30005,1,0,0:0:0:0:
448,192,30080,1,0,0:0:0:0:
192,192,30155,1,0,0:0:0:0:
320,192,30155,1,0,0:0:0:0:
64,192,30155,1,0,0:0:0:0:
64,192,31319,1,0,0:0:0:0:
320,192,31319,1,0,0:0:0:0:
448,192,31319,1,0,0:0:0:0:
192,192,31394,1,0,0:0:0:0:
320,192,31469,1,0,0:0:0:0:
448,192,31544,1,0,0:0:0:0:
192,192,31619,1,0,0:0:0:0:
320,192,31619,1,0,0:0:0:0:
64,192,31694,1,0,0:0:0:0:
448,192,31769,1,0,0:0:0:0:
192,192,31844,1,0,0:0:0:0:
64,192,31919,1,0,0:0:0:0:
320,192,31919,1,0,0:0:0:0:
448,192,31919,1,0,0:0:0:0:
192,192,31994,1,0,0:0:0:0:
320,192,32069,1,0,0:0:0:0:
64,192,32144,1,0,0:0:0:0:
448,192,32219,1,0,0:0:0:0:
192,192,32219,1,0,0:0:0:0:
320,192,32294,1,0,0:0:0:0:
192,192,32369,1,0,0:0:0:0:
64,192,32444,1,0,0:0:0:0:
320,192,32519,1,0,0:0:0:0:
448,192,32519,1,0,0:0:0:0:
192,192,32519,1,0,0:0:0:0:
64,192,32594,1,0,0:0:0:0:
192,192,32669,1,0,0:0:0:0:
320,192,32744,1,0,0:0:0:0:
192,192,32819,1,0,0:0:0:0:
64,192,32819,1,0,0:0:0:0:
448,192,32819,1,0,0:0:0:0:
320,192,32894,1,0,0:0:0:0:
64,192,32969,1,0,0:0:0:0:
320,192,33044,1,0,0:0:0:0:
448,192,33119,1,0,0:0:0:0:
192,192,33119,1,0,0:0:0:0:
64,192,33119,1,0,0:0:0:0:
320,192,33194,1,0,0:0:0:0:
192,192,33269,1,0,0:0:0:0:
448,192,33344,1,0,0:0:0:0:
192,192,33419,1,0,0:0:0:0:
64,192,33419,1,0,0:0:0:0:
320,192,33494,1,0,0:0:0:0:
448,192,33569,1,0,0:0:0:0:
192,192,33644,1,0,0:0:0:0:
320,192,33719,1,0,0:0:0:0:
448,192,33719,1,0,0:0:0:0:
64,192,33794,1,0,0:0:0:0:
192,192,33869,1,0,0:0:0:0:
320,192,33944,1,0,0:0:0:0:
448,192,34019,1,0,0:0:0:0:
192,192,34019,1,0,0:0:0:0:
64,192,34094,1,0,0:0:0:0:
448,192,34169,1,0,0:0:0:0:
320,192,34244,1,0,0:0:0:0:
192,192,34319,1,0,0:0:0:0:
64,192,34319,1,0,0:0:0:0:
320,192,34394,1,0,0:0:0:0:
448,192,34469,1,0,0:0:0:0:
192,192,34544,1,0,0:0:0:0:
64,192,34619,1,0,0:0:0:0:
320,192,34619,1,0,0:0:0:0:
192,192,34694,1,0,0:0:0:0:
448,192,34769,1,0,0:0:0:0:
64,192,34844,1,0,0:0:0:0:
192,192,34919,1,0,0:0:0:0:
320,192,34919,1,0,0:0:0:0:
448,192,34919,1,0,0:0:0:0:
64,192,34994,1,0,0:0:0:0:
320,192,35069,1,0,0:0:0:0:
192,192,35144,1,0,0:0:0:0:
64,192,35219,1,0,0:0:0:0:
320,192,35219,1,0,0:0:0:0:
448,192,35219,1,0,0:0:0:0:
192,192,35294,1,0,0:0:0:0:
320,192,35369,1,0,0:0:0:0:
448,192,35444,1,0,0:0:0:0:
192,192,35519,1,0,0:0:0:0:
64,192,35519,1,0,0:0:0:0:
320,192,35519,1,0,0:0:0:0:
448,192,35594,1,0,0:0:0:0:
320,192,35669,1,0,0:0:0:0:
192,192,35744,1,0,0:0:0:0:
64,192,35819,1,0,0:0:0:0:
320,192,35819,1,0,0:0:0:0:
448,192,35894,1,0,0:0:0:0:
64,192,35969,1,0,0:0:0:0:
192,192,36044,1,0,0:0:0:0:
64,192,36119,1,0,0:0:0:0:
320,192,36119,1,0,0:0:0:0:
448,192,36119,1,0,0:0:0:0:
192,192,36194,1,0,0:0:0:0:
448,192,36269,1,0,0:0:0:0:
320,192,36344,1,0,0:0:0:0:
192,192,36419,1,0,0:0:0:0:
64,192,36419,1,0,0:0:0:0:
320,192,36494,1,0,0:0:0:0:
448,192,36569,1,0,0:0:0:0:
192,192,36644,1,0,0:0:0:0:
64,192,36719,1,0,0:0:0:0:
320,192,36719,1,0,0:0:0:0:
448,192,36719,1,0,0:0:0:0:
192,192,36794,1,0,0:0:0:0:
448,192,36869,1,0,0:0:0:0:
64,192,36944,1,0,0:0:0:0:
320,192,37019,1,0,0:0:0:0:
448,192,37019,1,0,0:0:0:0:
192,192,37094,1,0,0:0:0:0:
320,192,37169,1,0,0:0:0:0:
448,192,37244,1,0,0:0:0:0:
192,192,37319,1,0,0:0:0:0:
320,192,37319,1,0,0:0:0:0:
64,192,37394,1,0,0:0:0:0:
448,192,37469,1,0,0:0:0:0:
192,192,37544,1,0,0:0:0:0:
320,192,37619,1,0,0:0:0:0:
448,192,37619,1,0,0:0:0:0:
64,192,37694,1,0,0:0:0:0:
192,192,37769,1,0,0:0:0:0:
448,192,37844,1,0,0:0:0:0:
192,192,37919,1,0,0:0:0:0:
64,192,37919,1,0,0:0:0:0:
320,192,37919,1,0,0:0:0:0:
448,192,37994,1,0,0:0:0:0:
64,192,38069,1,0,0:0:0:0:
192,192,38144,1,0,0:0:0:0:
320,192,38219,1,0,0:0:0:0:
448,192,38219,1,0,0:0:0:0:
64,192,38294,1,0,0:0:0:0:
320,192,38369,1,0,0:0:0:0:
192,192,38444,1,0,0:0:0:0:
64,192,38519,1,0,0:0:0:0:
448,192,38519,1,0,0:0:0:0:
192,192,38594,1,0,0:0:0:0:
320,192,38669,1,0,0:0:0:0:
448,192,38744,1,0,0:0:0:0:
320,192,38819,1,0,0:0:0:0:
192,192,38819,1,0,0:0:0:0:
64,192,38894,1,0,0:0:0:0:
320,192,38969,1,0,0:0:0:0:
448,192,39044,1,0,0:0:0:0:
64,192,39119,1,0,0:0:0:0:
192,192,39119,1,0,0:0:0:0:
320,192,39119,1,0,0:0:0:0:
192,192,39419,1,0,0:0:0:0:
64,192,39419,1,0,0:0:0:0:
320,192,39569,1,0,0:0:0:0:
448,192,39569,1,0,0:0:0:0:
320,192,39719,1,0,0:0:0:0:
448,192,39719,1,0,0:0:0:0:
192,192,39719,1,0,0:0:0:0:
64,192,39869,1,0,0:0:0:0:
192,192,39869,1,0,0:0:0:0:
192,192,40019,1,0,0:0:0:0:
320,192,40019,1,0,0:0:0:0:
64,192,40169,1,0,0:0:0:0:
448,192,40169,1,0,0:0:0:0:
64,192,40319,1,0,0:0:0:0:
192,192,40319,1,0,0:0:0:0:
320,192,40319,1,0,0:0:0:0:
448,192,40394,1,0,0:0:0:0:
192,192,40469,1,0,0:0:0:0:
320,192,40544,1,0,0:0:0:0:
64,192,40619,1,0,0:0:0:0:
192,192,40619,1,0,0:0:0:0:
448,192,40694,1,0,0:0:0:0:
320,192,40769,1,0,0:0:0:0:
192,192,40844,1,0,0:0:0:0:
64,192,40919,1,0,0:0:0:0:
320,192,40919,1,0,0:0:0:0:
448,192,40919,1,0,0:0:0:0:
192,192,40994,1,0,0:0:0:0:
448,192,41069,1,0,0:0:0:0:
320,192,41144,1,0,0:0:0:0:
192,192,41219,1,0,0:0:0:0:
64,192,41219,1,0,0:0:0:0:
320,192,41294,1,0,0:0:0:0:
448,192,41369,1,0,0:0:0:0:
320,192,41444,1,0,0:0:0:0:
64,192,41519,1,0,0:0:0:0:
192,192,41519,1,0,0:0:0:0:
448,192,41519,1,0,0:0:0:0:
320,192,41594,1,0,0:0:0:0:
192,192,41669,1,0,0:0:0:0:
64,192,41744,1,0,0:0:0:0:
192,192,41819,1,0,0:0:0:0:
320,192,41819,1,0,0:0:0:0:
448,192,41819,1,0,0:0:0:0:
64,192,41894,1,0,0:0:0:0:
320,192,41969,1,0,0:0:0:0:
448,192,42044,1,0,0:0:0:0:
192,192,42119,1,0,0:0:0:0:
64,192,42119,1,0,0:0:0:0:
320,192,42119,1,0,0:0:0:0:
448,192,42194,1,0,0:0:0:0:
64,192,42269,1,0,0:0:0:0:
192,192,42344,1,0,0:0:0:0:
64,192,42419,1,0,0:0:0:0:
320,192,42419,1,0,0:0:0:0:
448,192,42419,1,0,0:0:0:0:
192,192,42494,1,0,0:0:0:0:
448,192,42569,1,0,0:0:0:0:
320,192,42644,1,0,0:0:0:0:
192,192,42719,1,0,0:0:0:0:
64,192,42719,1,0,0:0:0:0:
448,192,42719,1,0,0:0:0:0:
320,192,42794,1,0,0:0:0:0:
192,192,42869,1,0,0:0:0:0:
64,192,42944,1,0,0:0:0:0:
192,192,43019,1,0,0:0:0:0:
320,192,43019,1,0,0:0:0:0:
448,192,43094,1,0,0:0:0:0:
64,192,43169,1,0,0:0:0:0:
192,192,43244,1,0,0:0:0:0:
320,192,43319,1,0,0:0:0:0:
448,192,43319,1,0,0:0:0:0:
64,192,43394,1,0,0:0:0:0:
192,192,43469,1,0,0:0:0:0:
320,192,43544,1,0,0:0:0:0:
448,192,43619,1,0,0:0:0:0:
64,192,43619,1,0,0:0:0:0:
320,192,43694,1,0,0:0:0:0:
192,192,43769,1,0,0:0:0:0:
64,192,43844,1,0,0:0:0:0:
320,192,43919,1,0,0:0:0:0:
192,192,43919,1,0,0:0:0:0:
448,192,43919,1,0,0:0:0:0:
64,192,43994,1,0,0:0:0:0:
320,192,44069,1,0,0:0:0:0:
448,192,44144,1,0,0:0:0:0:
192,192,44219,1,0,0:0:0:0:
64,192,44219,1,0,0:0:0:0:
320,192,44294,1,0,0:0:0:0:
192,192,44369,1,0,0:0:0:0:
64,192,44444,1,0,0:0:0:0:
320,192,44519,1,0,0:0:0:0:
192,192,44519,1,0,0:0:0:0:
448,192,44519,1,0,0:0:0:0:
64,192,44594,1,0,0:0:0:0:
320,192,44669,1,0,0:0:0:0:
192,192,44744,1,0,0:0:0:0:
64,192,44819,1,0,0:0:0:0:
320,192,44819,1,0,0:0:0:0:
448,192,44819,1,0,0:0:0:0:
192,192,44894,1,0,0:0:0:0:
448,192,44969,1,0,0:0:0:0:
320,192,45044,1,0,0:0:0:0:
192,192,45119,1,0,0:0:0:0:
64,192,45119,1,0,0:0:0:0:
448,192,45119,1,0,0:0:0:0:
320,192,45194,1,0,0:0:0:0:
192,192,45269,1,0,0:0:0:0:
64,192,45344,1,0,0:0:0:0:
320,192,45419,1,0,0:0:0:0:
448,192,45419,1,0,0:0:0:0:
192,192,45494,1,0,0:0:0:0:
448,192,45569,1,0,0:0:0:0:
320,192,45644,1,0,0:0:0:0:
192,192,45719,1,0,0:0:0:0:
64,192,45719,1,0,0:0:0:0:
448,192,45719,1,0,0:0:0:0:
320,192,45794,1,0,0:0:0:0:
192,192,45869,1,0,0:0:0:0:
64,192,45944,1,0,0:0:0:0:
192,192,46019,1,0,0:0:0:0:
320,192,46019,1,0,0:0:0:0:
448,192,46019,1,0,0:0:0:0:
64,192,46094,1,0,0:0:0:0:
448,192,46169,1,0,0:0:0:0:
320,192,46244,1,0,0:0:0:0:
192,192,46319,1,0,0:0:0:0:
64,192,46319,1,0,0:0:0:0:
448,192,46319,1,0,0:0:0:0:
320,192,46394,1,0,0:0:0:0:
192,192,46469,1,0,0:0:0:0:
64,192,46544,1,0,0:0:0:0:
320,192,46619,1,0,0:0:0:0:
448,192,46619,1,0,0:0:0:0:
192,192,46694,1,0,0:0:0:0:
320,192,46769,1,0,0:0:0:0:
448,192,46844,1,0,0:0:0:0:
192,192,46919,1,0,0:0:0:0:
64,192,46919,1,0,0:0:0:0:
320,192,46994,1,0,0:0:0:0:
448,192,47069,1,0,0:0:0:0:
192,192,47144,1,0,0:0:0:0:
64,192,47219,1,0,0:0:0:0:
320,192,47219,1,0,0:0:0:0:
448,192,47219,1,0,0:0:0:0:
192,192,47294,1,0,0:0:0:0:
320,192,47369,1,0,0:0:0:0:
64,192,47444,1,0,0:0:0:0:
192,192,47519,1,0,0:0:0:0:
448,192,47519,1,0,0:0:0:0:
320,192,47519,128,0,47969:0:0:0:0:
448,192,47969,1,0,0:0:0:0:
64,192,47969,1,0,0:0:0:0:
320,192,48119,1,0,0:0:0:0:
448,192,48119,1,0,0:0:0:0:
192,192,48119,128,0,48569:0:0:0:0:
64,192,48569,1,0,0:0:0:0:
320,192,48569,1,0,0:0:0:0:
192,192,48719,1,0,0:0:0:0:
64,192,48719,1,0,0:0:0:0:
448,192,48719,128,0,49019:0:0:0:0:
64,192,49019,1,0,0:0:0:0:
192,192,49019,1,0,0:0:0:0:
320,192,49019,1,0,0:0:0:0:
64,192,49319,1,0,0:0:0:0:
192,192,49319,1,0,0:0:0:0:
320,192,49319,1,0,0:0:0:0:
448,192,49469,1,0,0:0:0:0:
192,192,49469,1,0,0:0:0:0:
64,192,49469,1,0,0:0:0:0:
192,192,49619,1,0,0:0:0:0:
320,192,49619,1,0,0:0:0:0:
448,192,49619,1,0,0:0:0:0:
448,192,49919,1,0,0:0:0:0:
64,192,49919,1,0,0:0:0:0:
192,192,49919,1,0,0:0:0:0:
320,192,49994,1,0,0:0:0:0:
192,192,50069,1,0,0:0:0:0:
64,192,50069,1,0,0:0:0:0:
448,192,50144,1,0,0:0:0:0:
320,192,50219,1,0,0:0:0:0:
192,192,50219,1,0,0:0:0:0:
64,192,50294,1,0,0:0:0:0:
192,192,50369,1,0,0:0:0:0:
320,192,50369,1,0,0:0:0:0:
448,192,50444,1,0,0:0:0:0:
320,192,50519,1,0,0:0:0:0:
64,192,50519,1,0,0:0:0:0:
192,192,50594,1,0,0:0:0:0:
320,192,50669,1,0,0:0:0:0:
448,192,50669,1,0,0:0:0:0:
192,192,50744,1,0,0:0:0:0:
320,192,50819,1,0,0:0:0:0:
64,192,50819,1,0,0:0:0:0:
192,192,50894,1,0,0:0:0:0:
448,192,50969,1,0,0:0:0:0:
64,192,51044,1,0,0:0:0:0:
448,192,51119,1,0,0:0:0:0:
192,192,51119,1,0,0:0:0:0:
320,192,51119,1,0,0:0:0:0:
64,192,51194,1,0,0:0:0:0:
192,192,51269,1,0,0:0:0:0:
320,192,51269,1,0,0:0:0:0:
448,192,51344,1,0,0:0:0:0:
64,192,51419,1,0,0:0:0:0:
320,192,51419,1,0,0:0:0:0:
448,192,51494,1,0,0:0:0:0:
192,192,51569,1,0,0:0:0:0:
448,192,51644,1,0,0:0:0:0:
64,192,51719,1,0,0:0:0:0:
192,192,51719,1,0,0:0:0:0:
320,192,51719,1,0,0:0:0:0:
448,192,51794,1,0,0:0:0:0:
64,192,51869,1,0,0:0:0:0:
320,192,51869,1,0,0:0:0:0:
192,192,51944,1,0,0:0:0:0:
448,192,52019,1,0,0:0:0:0:
64,192,52019,1,0,0:0:0:0:
192,192,52094,1,0,0:0:0:0:
448,192,52169,1,0,0:0:0:0:
320,192,52169,1,0,0:0:0:0:
64,192,52244,1,0,0:0:0:0:
192,192,52319,1,0,0:0:0:0:
448,192,52319,1,0,0:0:0:0:
320,192,52319,1,0,0:0:0:0:
64,192,52394,1,0,0:0:0:0:
192,192,52469,1,0,0:0:0:0:
320,192,52469,1,0,0:0:0:0:
448,192,52544,1,0,0:0:0:0:
64,192,52619,1,0,0:0:0:0:
320,192,52619,1,0,0:0:0:0:
192,192,52694,1,0,0:0:0:0:
448,192,52769,1,0,0:0:0:0:
320,192,52769,1,0,0:0:0:0:
64,192,52844,1,0,0:0:0:0:
448,192,52919,1,0,0:0:0:0:
320,192,52919,1,0,0:0:0:0:
192,192,52919,1,0,0:0:0:0:
64,192,52994,1,0,0:0:0:0:
320,192,53069,1,0,0:0:0:0:
192,192,53144,1,0,0:0:0:0:
448,192,53219,1,0,0:0:0:0:
64,192,53219,1,0,0:0:0:0:
320,192,53294,1,0,0:0:0:0:
64,192,53369,1,0,0:0:0:0:
192,192,53369,1,0,0:0:0:0:
320,192,53444,1,0,0:0:0:0:
448,192,53519,1,0,0:0:0:0:
64,192,53519,1,0,0:0:0:0:
192,192,53519,1,0,0:0:0:0:
320,192,53594,1,0,0:0:0:0:
448,192,53669,1,0,0:0:0:0:
192,192,53669,1,0,0:0:0:0:
320,192,53744,1,0,0:0:0:0:
64,192,53819,1,0,0:0:0:0:
448,192,53819,1,0,0:0:0:0:
192,192,53894,1,0,0:0:0:0:
448,192,53969,1,0,0:0:0:0:
320,192,53969,1,0,0:0:0:0:
64,192,54044,1,0,0:0:0:0:
192,192,54119,1,0,0:0:0:0:
320,192,54119,1,0,0:0:0:0:
64,192,54194,1,0,0:0:0:0:
448,192,54269,1,0,0:0:0:0:
192,192,54269,1,0,0:0:0:0:
320,192,54344,1,0,0:0:0:0:
64,192,54419,1,0,0:0:0:0:
448,192,54419,1,0,0:0:0:0:
192,192,54494,1,0,0:0:0:0:
320,192,54569,1,0,0:0:0:0:
64,192,54644,1,0,0:0:0:0:
448,192,54719,1,0,0:0:0:0:
192,192,54719,1,0,0:0:0:0:
320,192,54719,1,0,0:0:0:0:
64,192,54794,1,0,0:0:0:0:
192,192,54869,1,0,0:0:0:0:
320,192,54869,1,0,0:0:0:0:
448,192,54944,1,0,0:0:0:0:
192,192,55019,1,0,0:0:0:0:
64,192,55019,1,0,0:0:0:0:
320,192,55094,1,0,0:0:0:0:
448,192,55169,1,0,0:0:0:0:
64,192,55169,1,0,0:0:0:0:
192,192,55244,1,0,0:0:0:0:
448,192,55319,1,0,0:0:0:0:
320,192,55319,1,0,0:0:0:0:
64,192,55319,1,0,0:0:0:0:
192,192,55394,1,0,0:0:0:0:
64,192,55469,1,0,0:0:0:0:
320,192,55469,1,0,0:0:0:0:
448,192,55544,1,0,0:0:0:0:
192,192,55619,1,0,0:0:0:0:
64,192,55619,1,0,0:0:0:0:
448,192,55694,1,0,0:0:0:0:
320,192,55769,1,0,0:0:0:0:
192,192,55769,1,0,0:0:0:0:
64,192,55844,1,0,0:0:0:0:
320,192,55919,1,0,0:0:0:0:
192,192,55919,1,0,0:0:0:0:
448,192,55919,1,0,0:0:0:0:
64,192,55994,1,0,0:0:0:0:
192,192,56069,1,0,0:0:0:0:
320,192,56069,1,0,0:0:0:0:
448,192,56144,1,0,0:0:0:0:
192,192,56219,1,0,0:0:0:0:
64,192,56219,1,0,0:0:0:0:
320,192,56294,1,0,0:0:0:0:
192,192,56369,1,0,0:0:0:0:
448,192,56369,1,0,0:0:0:0:
64,192,56444,1,0,0:0:0:0:
448,192,56519,1,0,0:0:0:0:
320,192,56519,1,0,0:0:0:0:
64,192,56594,1,0,0:0:0:0:
192,192,56669,1,0,0:0:0:0:
320,192,56669,1,0,0:0:0:0:
64,192,56744,1,0,0:0:0:0:
448,192,56819,1,0,0:0:0:0:
192,192,56819,1,0,0:0:0:0:
320,192,56894,1,0,0:0:0:0:
192,192,56969,1,0,0:0:0:0:
64,192,56969,1,0,0:0:0:0:
320,192,57044,1,0,0:0:0:0:
448,192,57119,1,0,0:0:0:0:
192,192,57119,1,0,0:0:0:0:
64,192,57119,1,0,0:0:0:0:
320,192,57194,1,0,0:0:0:0:
448,192,57269,1,0,0:0:0:0:
64,192,57269,1,0,0:0:0:0:
320,192,57344,1,0,0:0:0:0:
192,192,57419,1,0,0:0:0:0:
448,192,57419,1,0,0:0:0:0:
64,192,57494,1,0,0:0:0:0:
320,192,57569,1,0,0:0:0:0:
448,192,57569,1,0,0:0:0:0:
64,192,57644,1,0,0:0:0:0:
320,192,57719,1,0,0:0:0:0:
192,192,57719,1,0,0:0:0:0:
448,192,57719,1,0,0:0:0:0:
64,192,57794,1,0,0:0:0:0:
192,192,57869,1,0,0:0:0:0:
320,192,57869,1,0,0:0:0:0:
448,192,57944,1,0,0:0:0:0:
64,192,58019,1,0,0:0:0:0:
320,192,58019,1,0,0:0:0:0:
192,192,58094,1,0,0:0:0:0:
320,192,58169,1,0,0:0:0:0:
448,192,58169,1,0,0:0:0:0:
64,192,58244,1,0,0:0:0:0:
448,192,58319,1,0,0:0:0:0:
192,192,58319,1,0,0:0:0:0:
320,192,58319,1,0,0:0:0:0:
64,192,58394,1,0,0:0:0:0:
448,192,58469,1,0,0:0:0:0:
320,192,58469,1,0,0:0:0:0:
64,192,58544,1,0,0:0:0:0:
192,192,58619,1,0,0:0:0:0:
320,192,58619,1,0,0:0:0:0:
64,192,58694,1,0,0:0:0:0:
192,192,58769,1,0,0:0:0:0:
320,192,58769,1,0,0:0:0:0:
448,192,58844,1,0,0:0:0:0:
64,192,58919,1,0,0:0:0:0:
192,192,58919,1,0,0:0:0:0:
320,192,58919,1,0,0:0:0:0:
448,192,58994,1,0,0:0:0:0:
64,192,59069,1,0,0:0:0:0:
320,192,59069,1,0,0:0:0:0:
192,192,59144,1,0,0:0:0:0:
64,192,59219,1,0,0:0:0:0:
448,192,59219,1,0,0:0:0:0:
320,192,59294,1,0,0:0:0:0:
64,192,59369,1,0,0:0:0:0:
448,192,59369,1,0,0:0:0:0:
192,192,59444,1,0,0:0:0:0:
64,192,59519,1,0,0:0:0:0:
448,192,59519,1,0,0:0:0:0:
320,192,59519,1,0,0:0:0:0:
192,192,59594,1,0,0:0:0:0:
64,192,59669,1,0,0:0:0:0:
448,192,59669,1,0,0:0:0:0:
320,192,59744,1,0,0:0:0:0:
192,192,59819,1,0,0:0:0:0:
64,192,59819,1,0,0:0:0:0:
320,192,59894,1,0,0:0:0:0:
192,192,59969,1,0,0:0:0:0:
448,192,59969,1,0,0:0:0:0:
320,192,60044,1,0,0:0:0:0:
448,192,60119,1,0,0:0:0:0:
64,192,60119,1,0,0:0:0:0:
192,192,60119,1,0,0:0:0:0:
320,192,60194,1,0,0:0:0:0:
192,192,60269,1,0,0:0:0:0:
64,192,60269,1,0,0:0:0:0:
448,192,60344,1,0,0:0:0:0:
320,192,60419,1,0,0:0:0:0:
64,192,60419,1,0,0:0:0:0:
448,192,60494,1,0,0:0:0:0:
192,192,60569,1,0,0:0:0:0:
320,192,60569,1,0,0:0:0:0:
64,192,60644,1,0,0:0:0:0:
448,192,60719,1,0,0:0:0:0:
192,192,60719,1,0,0:0:0:0:
320,192,60719,1,0,0:0:0:0:
64,192,60794,1,0,0:0:0:0:
448,192,60869,1,0,0:0:0:0:
320,192,60869,1,0,0:0:0:0:
192,192,60944,1,0,0:0:0:0:
448,192,61019,1,0,0:0:0:0:
64,192,61019,1,0,0:0:0:0:
320,192,61094,1,0,0:0:0:0:
192,192,61169,1,0,0:0:0:0:
64,192,61169,1,0,0:0:0:0:
320,192,61244,1,0,0:0:0:0:
192,192,61319,1,0,0:0:0:0:
448,192,61319,1,0,0:0:0:0:
320,192,61394,1,0,0:0:0:0:
192,192,61469,1,0,0:0:0:0:
64,192,61469,1,0,0:0:0:0:
448,192,61544,1,0,0:0:0:0:
64,192,61619,1,0,0:0:0:0:
320,192,61619,1,0,0:0:0:0:
192,192,61694,1,0,0:0:0:0:
448,192,61769,1,0,0:0:0:0:
320,192,61769,1,0,0:0:0:0:
64,192,61844,1,0,0:0:0:0:
320,192,61919,1,0,0:0:0:0:
192,192,61919,1,0,0:0:0:0:
448,192,61919,1,0,0:0:0:0:
64,192,61994,1,0,0:0:0:0:
448,192,62069,1,0,0:0:0:0:
192,192,62069,1,0,0:0:0:0:
64,192,62144,1,0,0:0:0:0:
448,192,62219,1,0,0:0:0:0:
320,192,62219,1,0,0:0:0:0:
192,192,62294,1,0,0:0:0:0:
64,192,62369,1,0,0:0:0:0:
448,192,62369,1,0,0:0:0:0:
192,192,62444,1,0,0:0:0:0:
64,192,62519,1,0,0:0:0:0:
320,192,62519,1,0,0:0:0:0:
448,192,62519,1,0,0:0:0:0:
192,192,62594,1,0,0:0:0:0:
64,192,62669,1,0,0:0:0:0:
448,192,62669,1,0,0:0:0:0:
192,192,62744,1,0,0:0:0:0:
448,192,62819,1,0,0:0:0:0:
320,192,62819,1,0,0:0:0:0:
64,192,62819,1,0,0:0:0:0:
192,192,62894,1,0,0:0:0:0:
64,192,62969,1,0,0:0:0:0:
320,192,62969,1,0,0:0:0:0:
448,192,63044,1,0,0:0:0:0:
64,192,63119,1,0,0:0:0:0:
192,192,63119,1,0,0:0:0:0:
320,192,63119,1,0,0:0:0:0:
448,192,63194,1,0,0:0:0:0:
192,192,63269,1,0,0:0:0:0:
320,192,63269,1,0,0:0:0:0:
64,192,63344,1,0,0:0:0:0:
192,192,63419,1,0,0:0:0:0:
320,192,63419,1,0,0:0:0:0:
448,192,63419,1,0,0:0:0:0:
64,192,63494,1,0,0:0:0:0:
320,192,63569,1,0,0:0:0:0:
448,192,63569,1,0,0:0:0:0:
64,192,63644,1,0,0:0:0:0:
192,192,63719,1,0,0:0:0:0:
320,192,63719,1,0,0:0:0:0:
448,192,63719,1,0,0:0:0:0:
64,192,63794,1,0,0:0:0:0:
192,192,63869,1,0,0:0:0:0:
448,192,63869,1,0,0:0:0:0:
320,192,63944,1,0,0:0:0:0:
192,192,64019,1,0,0:0:0:0:
64,192,64019,1,0,0:0:0:0:
448,192,64019,1,0,0:0:0:0:
320,192,64094,1,0,0:0:0:0:
64,192,64169,1,0,0:0:0:0:
448,192,64169,1,0,0:0:0:0:
192,192,64244,1,0,0:0:0:0:
448,192,64319,1,0,0:0:0:0:
64,192,64319,1,0,0:0:0:0:
320,192,64319,1,0,0:0:0:0:
192,192,64394,1,0,0:0:0:0:
64,192,64469,1,0,0:0:0:0:
448,192,64469,1,0,0:0:0:0:
320,192,64544,1,0,0:0:0:0:
192,192,64619,1,0,0:0:0:0:
64,192,64619,1,0,0:0:0:0:
320,192,64694,1,0,0:0:0:0:
192,192,64769,1,0,0:0:0:0:
448,192,64769,1,0,0:0:0:0:
64,192,64844,1,0,0:0:0:0:
192,192,64919,1,0,0:0:0:0:
320,192,64919,1,0,0:0:0:0:
448,192,64919,1,0,0:0:0:0:
64,192,64994,1,0,0:0:0:0:
448,192,65069,1,0,0:0:0:0:
192,192,65069,1,0,0:0:0:0:
320,192,65144,1,0,0:0:0:0:
64,192,65219,1,0,0:0:0:0:
448,192,65219,1,0,0:0:0:0:
320,192,65294,1,0,0:0:0:0:
448,192,65369,1,0,0:0:0:0:
192,192,65369,1,0,0:0:0:0:
320,192,65444,1,0,0:0:0:0:
64,192,65519,1,0,0:0:0:0:
192,192,65519,1,0,0:0:0:0:
448,192,65519,1,0,0:0:0:0:
320,192,65594,1,0,0:0:0:0:
64,192,65669,1,0,0:0:0:0:
192,192,65669,1,0,0:0:0:0:
448,192,65744,1,0,0:0:0:0:
320,192,65819,1,0,0:0:0:0:
64,192,65819,1,0,0:0:0:0:
448,192,65894,1,0,0:0:0:0:
64,192,65969,1,0,0:0:0:0:
320,192,65969,1,0,0:0:0:0:
192,192,66044,1,0,0:0:0:0:
64,192,66119,1,0,0:0:0:0:
320,192,66119,1,0,0:0:0:0:
448,192,66119,1,0,0:0:0:0:
192,192,66194,1,0,0:0:0:0:
448,192,66269,1,0,0:0:0:0:
320,192,66269,1,0,0:0:0:0:
64,192,66344,1,0,0:0:0:0:
192,192,66419,1,0,0:0:0:0:
320,192,66419,1,0,0:0:0:0:
448,192,66494,1,0,0:0:0:0:
64,192,66569,1,0,0:0:0:0:
192,192,66569,1,0,0:0:0:0:
320,192,66644,1,0,0:0:0:0:
448,192,66719,1,0,0:0:0:0:
192,192,66719,1,0,0:0:0:0:
64,192,66719,1,0,0:0:0:0:
448,192,66869,1,0,0:0:0:0:
320,192,66869,1,0,0:0:0:0:
192,192,66869,1,0,0:0:0:0:
64,192,67019,1,0,0:0:0:0:
320,192,67019,1,0,0:0:0:0:
448,192,67019,1,0,0:0:0:0:
192,192,67169,1,0,0:0:0:0:
64,192,67169,1,0,0:0:0:0:
320,192,67169,1,0,0:0:0:0:
64,192,67319,1,0,0:0:0:0:
192,192,67319,1,0,0:0:0:0:
320,192,67319,1,0,0:0:0:0:
448,192,67319,1,0,0:0:0:0:
64,192,68669,1,0,0:0:0:0:
320,192,68669,1,0,0:0:0:0:
448,192,68669,1,0,0:0:0:0:
192,192,68819,1,0,0:0:0:0:
64,192,68819,1,0,0:0:0:0:
320,192,68819,1,0,0:0:0:0:
64,192,68969,1,0,0:0:0:0:
192,192,68969,1,0,0:0:0:0:
448,192,68969,1,0,0:0:0:0:
192,192,69119,1,0,0:0:0:0:
320,192,69119,1,0,0:0:0:0:
448,192,69119,1,0,0:0:0:0:
192,192,70019,128,0,70319:0:0:0:0:
320,192,70319,128,0,70919:0:0:0:0:
64,192,70919,128,0,71519:0:0:0:0:
192,192,71519,1,0,0:0:0:0:
320,192,71519,1,0,0:0:0:0:
448,192,71519,128,0,72119:0:0:0:0:
192,192,72119,128,0,72719:0:0:0:0:
448,192,72719,128,0,73019:0:0:0:0:
320,192,73019,128,0,73319:0:0:0:0:
192,192,73319,128,0,73619:0:0:0:0:
320,192,73619,128,0,73919:0:0:0:0:
64,192,73919,128,0,74519:0:0:0:0:
320,192,74819,128,0,75119:0:0:0:0:
448,192,75119,128,0,75419:0:0:0:0:
192,192,75419,128,0,75719:0:0:0:0:
320,192,75719,128,0,76019:0:0:0:0:
64,192,76019,128,0,76319:0:0:0:0:
192,192,76319,128,0,76919:0:0:0:0:
320,192,77219,128,0,77519:0:0:0:0:
448,192,77519,128,0,77819:0:0:0:0:
320,192,77819,128,0,78119:0:0:0:0:
192,192,78119,128,0,78419:0:0:0:0:
64,192,78419,128,0,78719:0:0:0:0:
448,192,78719,128,0,79019:0:0:0:0:
320,192,79019,128,0,79319:0:0:0:0:
192,192,79319,128,0,79619:0:0:0:0:
64,192,79619,128,0,79919:0:0:0:0:
320,192,79919,128,0,80219:0:0:0:0:
192,192,80219,128,0,80519:0:0:0:0:
64,192,80519,128,0,80819:0:0:0:0:
320,192,80519,1,0,0:0:0:0:
448,192,80519,1,0,0:0:0:0:
320,192,80669,1,0,0:0:0:0:
448,192,80669,1,0,0:0:0:0:
192,192,80819,128,0,81119:0:0:0:0:
320,192,80969,1,0,0:0:0:0:
448,192,80969,1,0,0:0:0:0:
64,192,81119,1,0,0:0:0:0:
448,192,81119,1,0,0:0:0:0:
320,192,81119,1,0,0:0:0:0:
192,192,81719,128,0,82019:0:0:0:0:
320,192,82019,128,0,82319:0:0:0:0:
448,192,82319,128,0,82619:0:0:0:0:
192,192,82619,128,0,82919:0:0:0:0:
64,192,82919,128,0,83219:0:0:0:0:
192,192,83219,128,0,83519:0:0:0:0:
64,192,83519,128,0,83819:0:0:0:0:
192,192,84119,128,0,84419:0:0:0:0:
320,192,84419,128,0,84719:0:0:0:0:
448,192,84719,128,0,85019:0:0:0:0:
192,192,85019,128,0,85319:0:0:0:0:
64,192,85319,128,0,85619:0:0:0:0:
320,192,85619,128,0,85919:0:0:0:0:
448,192,85919,128,0,86519:0:0:0:0:
192,192,86819,128,0,87119:0:0:0:0:
448,192,87119,128,0,87419:0:0:0:0:
320,192,87419,128,0,87719:0:0:0:0:
192,192,87719,128,0,88019:0:0:0:0:
64,192,88019,128,0,88319:0:0:0:0:
448,192,88319,128,0,88619:0:0:0:0:
320,192,88619,128,0,88919:0:0:0:0:
192,192,88919,128,0,89219:0:0:0:0:
64,192,89219,128,0,89519:0:0:0:0:
448,192,89519,128,0,89819:0:0:0:0:
320,192,89819,128,0,90119:0:0:0:0:
192,192,90119,128,0,90419:0:0:0:0:
64,192,90419,128,0,90719:0:0:0:0:
448,192,90719,128,0,91919:0:0:0:0:
320,192,91919,128,0,93119:0:0:0:0:
64,192,93119,1,0,0:0:0:0:
192,192,93119,1,0,0:0:0:0:
448,192,93119,1,0,0:0:0:0:
320,192,93269,1,0,0:0:0:0:
64,192,93269,1,0,0:0:0:0:
64,192,93419,1,0,0:0:0:0:
320,192,93419,1,0,0:0:0:0:
448,192,93419,1,0,0:0:0:0:
192,192,93569,1,0,0:0:0:0:
320,192,93569,1,0,0:0:0:0:
448,192,93719,1,0,0:0:0:0:
192,192,93719,1,0,0:0:0:0:
64,192,93719,1,0,0:0:0:0:
192,192,93869,1,0,0:0:0:0:
448,192,93869,1,0,0:0:0:0:
64,192,94019,1,0,0:0:0:0:
192,192,94019,1,0,0:0:0:0:
320,192,94019,1,0,0:0:0:0:
320,192,94169,1,0,0:0:0:0:
448,192,94169,1,0,0:0:0:0:
64,192,94319,1,0,0:0:0:0:
320,192,94319,1,0,0:0:0:0:
448,192,94319,1,0,0:0:0:0:
192,192,94469,1,0,0:0:0:0:
320,192,94469,1,0,0:0:0:0:
64,192,94619,1,0,0:0:0:0:
320,192,94619,1,0,0:0:0:0:
448,192,94619,1,0,0:0:0:0:
448,192,94769,1,0,0:0:0:0:
320,192,94769,1,0,0:0:0:0:
64,192,94919,1,0,0:0:0:0:
192,192,94919,1,0,0:0:0:0:
320,192,94919,1,0,0:0:0:0:
320,192,95069,1,0,0:0:0:0:
448,192,95069,1,0,0:0:0:0:
192,192,95219,1,0,0:0:0:0:
64,192,95219,1,0,0:0:0:0:
448,192,95219,1,0,0:0:0:0:
192,192,95369,1,0,0:0:0:0:
320,192,95369,1,0,0:0:0:0:
448,192,95369,1,0,0:0:0:0:
64,192,95519,1,0,0:0:0:0:
320,192,95519,1,0,0:0:0:0:
448,192,95519,1,0,0:0:0:0:
64,192,95669,1,0,0:0:0:0:
192,192,95669,1,0,0:0:0:0:
448,192,95819,1,0,0:0:0:0:
320,192,95819,1,0,0:0:0:0:
192,192,95819,1,0,0:0:0:0:
64,192,95969,1,0,0:0:0:0:
448,192,95969,1,0,0:0:0:0:
192,192,96119,1,0,0:0:0:0:
64,192,96119,1,0,0:0:0:0:
448,192,96119,1,0,0:0:0:0:
320,192,96269,1,0,0:0:0:0:
448,192,96269,1,0,0:0:0:0:
192,192,96419,1,0,0:0:0:0:
64,192,96419,1,0,0:0:0:0:
320,192,96419,1,0,0:0:0:0:
64,192,96569,1,0,0:0:0:0:
448,192,96569,1,0,0:0:0:0:
192,192,96719,1,0,0:0:0:0:
320,192,96719,1,0,0:0:0:0:
448,192,96719,1,0,0:0:0:0:
64,192,96869,1,0,0:0:0:0:
192,192,96869,1,0,0:0:0:0:
448,192,97019,1,0,0:0:0:0:
192,192,97019,1,0,0:0:0:0:
64,192,97019,1,0,0:0:0:0:
320,192,97169,1,0,0:0:0:0:
448,192,97169,1,0,0:0:0:0:
64,192,97319,1,0,0:0:0:0:
320,192,97319,1,0,0:0:0:0:
448,192,97319,1,0,0:0:0:0:
192,192,97469,1,0,0:0:0:0:
64,192,97469,1,0,0:0:0:0:
320,192,97469,1,0,0:0:0:0:
64,192,97619,1,0,0:0:0:0:
192,192,97619,1,0,0:0:0:0:
448,192,97619,1,0,0:0:0:0:
192,192,97769,1,0,0:0:0:0:
320,192,97769,1,0,0:0:0:0:
448,192,97769,1,0,0:0:0:0:
64,192,97919,1,0,0:0:0:0:
192,192,97919,1,0,0:0:0:0:
320,192,97919,1,0,0:0:0:0:
448,192,98069,1,0,0:0:0:0:
320,192,98069,1,0,0:0:0:0:
64,192,98219,1,0,0:0:0:0:
320,192,98219,1,0,0:0:0:0:
448,192,98219,1,0,0:0:0:0:
192,192,98369,1,0,0:0:0:0:
320,192,98369,1,0,0:0:0:0:
448,192,98519,1,0,0:0:0:0:
320,192,98519,1,0,0:0:0:0:
192,192,98519,1,0,0:0:0:0:
64,192,98669,1,0,0:0:0:0:
448,192,98669,1,0,0:0:0:0:
320,192,98819,1,0,0:0:0:0:
192,192,98819,1,0,0:0:0:0:
64,192,98819,1,0,0:0:0:0:
448,192,98969,1,0,0:0:0:0:
320,192,98969,1,0,0:0:0:0:
64,192,99119,1,0,0:0:0:0:
192,192,99119,1,0,0:0:0:0:
448,192,99119,1,0,0:0:0:0:
320,192,99269,1,0,0:0:0:0:
448,192,99269,1,0,0:0:0:0:
64,192,99419,1,0,0:0:0:0:
192,192,99419,1,0,0:0:0:0:
320,192,99419,1,0,0:0:0:0:
64,192,99569,1,0,0:0:0:0:
192,192,99569,1,0,0:0:0:0:
448,192,99719,1,0,0:0:0:0:
320,192,99719,1,0,0:0:0:0:
64,192,99719,1,0,0:0:0:0:
192,192,99869,1,0,0:0:0:0:
64,192,99869,1,0,0:0:0:0:
448,192,100019,1,0,0:0:0:0:
192,192,100019,1,0,0:0:0:0:
320,192,100019,1,0,0:0:0:0:
64,192,100169,1,0,0:0:0:0:
192,192,100169,1,0,0:0:0:0:
448,192,100169,1,0,0:0:0:0:
64,192,100319,1,0,0:0:0:0:
192,192,100319,1,0,0:0:0:0:
320,192,100319,1,0,0:0:0:0:
448,192,100469,1,0,0:0:0:0:
320,192,100469,1,0,0:0:0:0:
64,192,100619,1,0,0:0:0:0:
320,192,100619,1,0,0:0:0:0:
448,192,100619,1,0,0:0:0:0:
192,192,100769,1,0,0:0:0:0:
448,192,100769,1,0,0:0:0:0:
64,192,100919,1,0,0:0:0:0:
192,192,100919,1,0,0:0:0:0:
448,192,100919,1,0,0:0:0:0:
320,192,101069,1,0,0:0:0:0:
192,192,101069,1,0,0:0:0:0:
64,192,101219,1,0,0:0:0:0:
320,192,101219,1,0,0:0:0:0:
448,192,101219,1,0,0:0:0:0:
192,192,101369,1,0,0:0:0:0:
64,192,101369,1,0,0:0:0:0:
192,192,101519,1,0,0:0:0:0:
320,192,101519,1,0,0:0:0:0:
448,192,101519,1,0,0:0:0:0:
64,192,101669,1,0,0:0:0:0:
192,192,101669,1,0,0:0:0:0:
320,192,101669,1,0,0:0:0:0:
192,192,101819,1,0,0:0:0:0:
320,192,101819,1,0,0:0:0:0:
448,192,101819,1,0,0:0:0:0:
64,192,101969,1,0,0:0:0:0:
192,192,101969,1,0,0:0:0:0:
320,192,101969,1,0,0:0:0:0:
192,192,102119,1,0,0:0:0:0:
320,192,102119,1,0,0:0:0:0:
448,192,102119,1,0,0:0:0:0:
64,192,102269,1,0,0:0:0:0:
192,192,102269,1,0,0:0:0:0:
448,192,102269,1,0,0:0:0:0:
64,192,102419,1,0,0:0:0:0:
320,192,102419,1,0,0:0:0:0:
448,192,102419,1,0,0:0:0:0:
192,192,102569,1,0,0:0:0:0:
320,192,102569,1,0,0:0:0:0:
448,192,102569,1,0,0:0:0:0:
64,192,102719,1,0,0:0:0:0:
192,192,102719,1,0,0:0:0:0:
320,192,102719,1,0,0:0:0:0:
448,192,102794,1,0,0:0:0:0:
192,192,102869,1,0,0:0:0:0:
64,192,102944,1,0,0:0:0:0:
192,192,103019,1,0,0:0:0:0:
320,192,103019,1,0,0:0:0:0:
448,192,103019,1,0,0:0:0:0:
64,192,103094,1,0,0:0:0:0:
448,192,103169,1,0,0:0:0:0:
192,192,103244,1,0,0:0:0:0:
64,192,103319,1,0,0:0:0:0:
320,192,103319,1,0,0:0:0:0:
448,192,103319,1,0,0:0:0:0:
192,192,103394,1,0,0:0:0:0:
320,192,103469,1,0,0:0:0:0:
448,192,103544,1,0,0:0:0:0:
64,192,103619,1,0,0:0:0:0:
192,192,103619,1,0,0:0:0:0:
320,192,103619,1,0,0:0:0:0:
448,192,103694,1,0,0:0:0:0:
192,192,103769,1,0,0:0:0:0:
320,192,103844,1,0,0:0:0:0:
64,192,103919,1,0,0:0:0:0:
192,192,103919,1,0,0:0:0:0:
448,192,103919,1,0,0:0:0:0:
320,192,103994,1,0,0:0:0:0:
448,192,104069,1,0,0:0:0:0:
64,192,104144,1,0,0:0:0:0:
192,192,104219,1,0,0:0:0:0:
320,192,104219,1,0,0:0:0:0:
448,192,104219,1,0,0:0:0:0:
64,192,104294,1,0,0:0:0:0:
192,192,104369,1,0,0:0:0:0:
448,192,104444,1,0,0:0:0:0:
320,192,104519,1,0,0:0:0:0:
64,192,104519,1,0,0:0:0:0:
192,192,104519,1,0,0:0:0:0:
448,192,104594,1,0,0:0:0:0:
64,192,104669,1,0,0:0:0:0:
448,192,104744,1,0,0:0:0:0:
192,192,104819,1,0,0:0:0:0:
64,192,104819,1,0,0:0:0:0:
320,192,104819,1,0,0:0:0:0:
448,192,104894,1,0,0:0:0:0:
64,192,104969,1,0,0:0:0:0:
320,192,104969,1,0,0:0:0:0:
192,192,105044,1,0,0:0:0:0:
448,192,105119,1,0,0:0:0:0:
64,192,105119,1,0,0:0:0:0:
320,192,105119,1,0,0:0:0:0:
192,192,105194,1,0,0:0:0:0:
320,192,105269,1,0,0:0:0:0:
448,192,105344,1,0,0:0:0:0:
192,192,105419,1,0,0:0:0:0:
64,192,105419,1,0,0:0:0:0:
320,192,105419,1,0,0:0:0:0:
448,192,105494,1,0,0:0:0:0:
64,192,105569,1,0,0:0:0:0:
192,192,105644,1,0,0:0:0:0:
320,192,105719,1,0,0:0:0:0:
448,192,105719,1,0,0:0:0:0:
64,192,105719,1,0,0:0:0:0:
192,192,105794,1,0,0:0:0:0:
64,192,105869,1,0,0:0:0:0:
320,192,105944,1,0,0:0:0:0:
192,192,106019,1,0,0:0:0:0:
64,192,106019,1,0,0:0:0:0:
448,192,106019,1,0,0:0:0:0:
320,192,106094,1,0,0:0:0:0:
448,192,106169,1,0,0:0:0:0:
64,192,106244,1,0,0:0:0:0:
192,192,106319,1,0,0:0:0:0:
320,192,106319,1,0,0:0:0:0:
448,192,106319,1,0,0:0:0:0:
64,192,106394,1,0,0:0:0:0:
448,192,106469,1,0,0:0:0:0:
192,192,106544,1,0,0:0:0:0:
64,192,106619,1,0,0:0:0:0:
320,192,106619,1,0,0:0:0:0:
448,192,106619,1,0,0:0:0:0:
192,192,106694,1,0,0:0:0:0:
64,192,106769,1,0,0:0:0:0:
448,192,106844,1,0,0:0:0:0:
192,192,106919,1,0,0:0:0:0:
64,192,106919,1,0,0:0:0:0:
320,192,106919,1,0,0:0:0:0:
448,192,106994,1,0,0:0:0:0:
64,192,107069,1,0,0:0:0:0:
320,192,107069,1,0,0:0:0:0:
192,192,107144,1,0,0:0:0:0:
448,192,107219,1,0,0:0:0:0:
320,192,107219,1,0,0:0:0:0:
64,192,107219,1,0,0:0:0:0:
192,192,107294,1,0,0:0:0:0:
448,192,107369,1,0,0:0:0:0:
64,192,107369,1,0,0:0:0:0:
320,192,107444,1,0,0:0:0:0:
64,192,107519,1,0,0:0:0:0:
192,192,107519,1,0,0:0:0:0:
448,192,107519,1,0,0:0:0:0:
320,192,107594,1,0,0:0:0:0:
64,192,107669,1,0,0:0:0:0:
192,192,107669,1,0,0:0:0:0:
320,192,107744,1,0,0:0:0:0:
448,192,107819,1,0,0:0:0:0:
192,192,107819,1,0,0:0:0:0:
64,192,107894,1,0,0:0:0:0:
320,192,107969,1,0,0:0:0:0:
448,192,107969,1,0,0:0:0:0:
192,192,108044,1,0,0:0:0:0:
64,192,108119,1,0,0:0:0:0:
320,192,108119,1,0,0:0:0:0:
192,192,108194,1,0,0:0:0:0:
448,192,108269,1,0,0:0:0:0:
320,192,108269,1,0,0:0:0:0:
64,192,108344,1,0,0:0:0:0:
320,192,108419,1,0,0:0:0:0:
448,192,108419,1,0,0:0:0:0:
192,192,108494,1,0,0:0:0:0:
64,192,108569,1,0,0:0:0:0:
320,192,108569,1,0,0:0:0:0:
448,192,108644,1,0,0:0:0:0:
320,192,108719,1,0,0:0:0:0:
192,192,108719,1,0,0:0:0:0:
64,192,108794,1,0,0:0:0:0:
320,192,108869,1,0,0:0:0:0:
448,192,108869,1,0,0:0:0:0:
64,192,108944,1,0,0:0:0:0:
320,192,109019,1,0,0:0:0:0:
192,192,109019,1,0,0:0:0:0:
64,192,109094,1,0,0:0:0:0:
448,192,109169,1,0,0:0:0:0:
320,192,109169,1,0,0:0:0:0:
64,192,109244,1,0,0:0:0:0:
192,192,109319,1,0,0:0:0:0:
448,192,109319,1,0,0:0:0:0:
320,192,109394,1,0,0:0:0:0:
64,192,109469,1,0,0:0:0:0:
192,192,109469,1,0,0:0:0:0:
448,192,109544,1,0,0:0:0:0:
64,192,109619,1,0,0:0:0:0:
320,192,109619,1,0,0:0:0:0:
192,192,109694,1,0,0:0:0:0:
448,192,109769,1,0,0:0:0:0:
64,192,109769,1,0,0:0:0:0:
320,192,109844,1,0,0:0:0:0:
64,192,109919,1,0,0:0:0:0:
192,192,109919,1,0,0:0:0:0:
320,192,110069,1,0,0:0:0:0:
448,192,110069,1,0,0:0:0:0:
64,192,110219,1,0,0:0:0:0:
192,192,110256,1,0,0:0:0:0:
448,192,110294,1,0,0:0:0:0:
320,192,110331,1,0,0:0:0:0:
192,192,110369,1,0,0:0:0:0:
64,192,110406,1,0,0:0:0:0:
448,192,110444,1,0,0:0:0:0:
320,192,110481,1,0,0:0:0:0:
64,192,110519,1,0,0:0:0:0:
192,192,110556,1,0,0:0:0:0:
320,192,110594,1,0,0:0:0:0:
448,192,110631,1,0,0:0:0:0:
64,192,110669,1,0,0:0:0:0:
192,192,110706,1,0,0:0:0:0:
320,192,110744,1,0,0:0:0:0:
448,192,110781,1,0,0:0:0:0:
192,192,110819,1,0,0:0:0:0:
320,192,110856,1,0,0:0:0:0:
448,192,110894,1,0,0:0:0:0:
64,192,110931,1,0,0:0:0:0:
192,192,110969,1,0,0:0:0:0:
320,192,111006,1,0,0:0:0:0:
448,192,111044,1,0,0:0:0:0:
192,192,111081,1,0,0:0:0:0:
64,192,111119,1,0,0:0:0:0:
192,192,112319,1,0,0:0:0:0:
64,192,112319,1,0,0:0:0:0:
448,192,112319,1,0,0:0:0:0:
320,192,112394,1,0,0:0:0:0:
192,192,112469,1,0,0:0:0:0:
448,192,112469,1,0,0:0:0:0:
64,192,112544,1,0,0:0:0:0:
320,192,112619,1,0,0:0:0:0:
192,192,112619,1,0,0:0:0:0:
64,192,112694,1,0,0:0:0:0:
448,192,112769,1,0,0:0:0:0:
192,192,112769,1,0,0:0:0:0:
320,192,112844,1,0,0:0:0:0:
64,192,112919,1,0,0:0:0:0:
192,192,112919,1,0,0:0:0:0:
448,192,112919,1,0,0:0:0:0:
320,192,112994,1,0,0:0:0:0:
64,192,113069,1,0,0:0:0:0:
448,192,113069,1,0,0:0:0:0:
192,192,113144,1,0,0:0:0:0:
320,192,113219,1,0,0:0:0:0:
64,192,113219,1,0,0:0:0:0:
448,192,113294,1,0,0:0:0:0:
192,192,113369,1,0,0:0:0:0:
320,192,113369,1,0,0:0:0:0:
448,192,113444,1,0,0:0:0:0:
192,192,113519,1,0,0:0:0:0:
320,192,113519,1,0,0:0:0:0:
64,192,113519,1,0,0:0:0:0:
448,192,113594,1,0,0:0:0:0:
64,192,113669,1,0,0:0:0:0:
320,192,113669,1,0,0:0:0:0:
192,192,113744,1,0,0:0:0:0:
64,192,113819,1,0,0:0:0:0:
320,192,113819,1,0,0:0:0:0:
448,192,113819,1,0,0:0:0:0:
192,192,113894,1,0,0:0:0:0:
320,192,113969,1,0,0:0:0:0:
64,192,113969,1,0,0:0:0:0:
192,192,114044,1,0,0:0:0:0:
320,192,114119,1,0,0:0:0:0:
448,192,114119,1,0,0:0:0:0:
64,192,114119,1,0,0:0:0:0:
192,192,114194,1,0,0:0:0:0:
448,192,114269,1,0,0:0:0:0:
64,192,114269,1,0,0:0:0:0:
320,192,114344,1,0,0:0:0:0:
64,192,114419,1,0,0:0:0:0:
192,192,114419,1,0,0:0:0:0:
448,192,114419,1,0,0:0:0:0:
320,192,114494,1,0,0:0:0:0:
448,192,114569,1,0,0:0:0:0:
192,192,114569,1,0,0:0:0:0:
64,192,114644,1,0,0:0:0:0:
192,192,114719,1,0,0:0:0:0:
320,192,114719,1,0,0:0:0:0:
448,192,114719,1,0,0:0:0:0:
64,192,114794,1,0,0:0:0:0:
192,192,114869,1,0,0:0:0:0:
320,192,114869,1,0,0:0:0:0:
448,192,114944,1,0,0:0:0:0:
320,192,115019,1,0,0:0:0:0:
64,192,115019,1,0,0:0:0:0:
192,192,115094,1,0,0:0:0:0:
64,192,115169,1,0,0:0:0:0:
320,192,115169,1,0,0:0:0:0:
448,192,115244,1,0,0:0:0:0:
192,192,115319,1,0,0:0:0:0:
320,192,115319,1,0,0:0:0:0:
64,192,115394,1,0,0:0:0:0:
448,192,115469,1,0,0:0:0:0:
192,192,115469,1,0,0:0:0:0:
320,192,115544,1,0,0:0:0:0:
64,192,115619,1,0,0:0:0:0:
192,192,115619,1,0,0:0:0:0:
448,192,115619,1,0,0:0:0:0:
320,192,115694,1,0,0:0:0:0:
64,192,115769,1,0,0:0:0:0:
448,192,115769,1,0,0:0:0:0:
192,192,115844,1,0,0:0:0:0:
320,192,115919,1,0,0:0:0:0:
64,192,115919,1,0,0:0:0:0:
448,192,115919,1,0,0:0:0:0:
192,192,115994,1,0,0:0:0:0:
448,192,116069,1,0,0:0:0:0:
320,192,116069,1,0,0:0:0:0:
64,192,116144,1,0,0:0:0:0:
320,192,116219,1,0,0:0:0:0:
192,192,116219,1,0,0:0:0:0:
448,192,116219,1,0,0:0:0:0:
64,192,116294,1,0,0:0:0:0:
192,192,116369,1,0,0:0:0:0:
448,192,116369,1,0,0:0:0:0:
320,192,116444,1,0,0:0:0:0:
192,192,116519,1,0,0:0:0:0:
64,192,116519,1,0,0:0:0:0:
448,192,116519,1,0,0:0:0:0:
320,192,116594,1,0,0:0:0:0:
64,192,116669,1,0,0:0:0:0:
192,192,116669,1,0,0:0:0:0:
448,192,116744,1,0,0:0:0:0:
64,192,116819,1,0,0:0:0:0:
320,192,116819,1,0,0:0:0:0:
192,192,116819,1,0,0:0:0:0:
448,192,116894,1,0,0:0:0:0:
64,192,116969,1,0,0:0:0:0:
320,192,116969,1,0,0:0:0:0:
192,192,117044,1,0,0:0:0:0:
64,192,117119,1,0,0:0:0:0:
320,192,117119,1,0,0:0:0:0:
448,192,117119,1,0,0:0:0:0:
192,192,117194,1,0,0:0:0:0:
64,192,117269,1,0,0:0:0:0:
320,192,117269,1,0,0:0:0:0:
192,192,117344,1,0,0:0:0:0:
320,192,117419,1,0,0:0:0:0:
448,192,117419,1,0,0:0:0:0:
192,192,117494,1,0,0:0:0:0:
64,192,117569,1,0,0:0:0:0:
448,192,117569,1,0,0:0:0:0:
320,192,117644,1,0,0:0:0:0:
192,192,117719,1,0,0:0:0:0:
64,192,117719,1,0,0:0:0:0:
448,192,117794,1,0,0:0:0:0:
64,192,117869,1,0,0:0:0:0:
320,192,117869,1,0,0:0:0:0:
192,192,117944,1,0,0:0:0:0:
320,192,118019,1,0,0:0:0:0:
448,192,118019,1,0,0:0:0:0:
64,192,118019,1,0,0:0:0:0:
192,192,118094,1,0,0:0:0:0:
64,192,118169,1,0,0:0:0:0:
448,192,118169,1,0,0:0:0:0:
320,192,118244,1,0,0:0:0:0:
192,192,118319,1,0,0:0:0:0:
64,192,118319,1,0,0:0:0:0:
448,192,118319,1,0,0:0:0:0:
320,192,118394,1,0,0:0:0:0:
192,192,118469,1,0,0:0:0:0:
448,192,118469,1,0,0:0:0:0:
64,192,118544,1,0,0:0:0:0:
192,192,118619,1,0,0:0:0:0:
320,192,118619,1,0,0:0:0:0:
448,192,118619,1,0,0:0:0:0:
64,192,118694,1,0,0:0:0:0:
448,192,118769,1,0,0:0:0:0:
192,192,118769,1,0,0:0:0:0:
320,192,118844,1,0,0:0:0:0:
64,192,118919,1,0,0:0:0:0:
192,192,118919,1,0,0:0:0:0:
448,192,118919,1,0,0:0:0:0:
320,192,118994,1,0,0:0:0:0:
64,192,119069,1,0,0:0:0:0:
448,192,119069,1,0,0:0:0:0:
192,192,119144,1,0,0:0:0:0:
320,192,119219,1,0,0:0:0:0:
448,192,119219,1,0,0:0:0:0:
64,192,119219,1,0,0:0:0:0:
192,192,119294,1,0,0:0:0:0:
448,192,119369,1,0,0:0:0:0:
64,192,119369,1,0,0:0:0:0:
320,192,119444,1,0,0:0:0:0:
192,192,119519,1,0,0:0:0:0:
64,192,119519,1,0,0:0:0:0:
448,192,119519,1,0,0:0:0:0:
320,192,119594,1,0,0:0:0:0:
448,192,119669,1,0,0:0:0:0:
192,192,119669,1,0,0:0:0:0:
64,192,119744,1,0,0:0:0:0:
192,192,119819,1,0,0:0:0:0:
320,192,119819,1,0,0:0:0:0:
448,192,119819,1,0,0:0:0:0:
64,192,119894,1,0,0:0:0:0:
448,192,119969,1,0,0:0:0:0:
192,192,119969,1,0,0:0:0:0:
320,192,120044,1,0,0:0:0:0:
64,192,120119,1,0,0:0:0:0:
192,192,120119,1,0,0:0:0:0:
448,192,120119,1,0,0:0:0:0:
320,192,120194,1,0,0:0:0:0:
64,192,120269,1,0,0:0:0:0:
192,192,120269,1,0,0:0:0:0:
448,192,120344,1,0,0:0:0:0:
320,192,120419,1,0,0:0:0:0:
192,192,120419,1,0,0:0:0:0:
64,192,120419,1,0,0:0:0:0:
448,192,120494,1,0,0:0:0:0:
192,192,120569,1,0,0:0:0:0:
320,192,120569,1,0,0:0:0:0:
64,192,120644,1,0,0:0:0:0:
192,192,120719,1,0,0:0:0:0:
320,192,120719,1,0,0:0:0:0:
448,192,120719,1,0,0:0:0:0:
64,192,120794,1,0,0:0:0:0:
448,192,120869,1,0,0:0:0:0:
192,192,120869,1,0,0:0:0:0:
320,192,120944,1,0,0:0:0:0:
64,192,121019,1,0,0:0:0:0:
192,192,121019,1,0,0:0:0:0:
448,192,121019,1,0,0:0:0:0:
320,192,121094,1,0,0:0:0:0:
64,192,121169,1,0,0:0:0:0:
448,192,121169,1,0,0:0:0:0:
192,192,121244,1,0,0:0:0:0:
320,192,121319,1,0,0:0:0:0:
448,192,121319,1,0,0:0:0:0:
64,192,121319,1,0,0:0:0:0:
192,192,121394,1,0,0:0:0:0:
448,192,121469,1,0,0:0:0:0:
64,192,121469,1,0,0:0:0:0:
320,192,121544,1,0,0:0:0:0:
192,192,121619,1,0,0:0:0:0:
64,192,121619,1,0,0:0:0:0:
448,192,121619,1,0,0:0:0:0:
320,192,121694,1,0,0:0:0:0:
192,192,121769,1,0,0:0:0:0:
448,192,121769,1,0,0:0:0:0:
64,192,121844,1,0,0:0:0:0:
192,192,121919,1,0,0:0:0:0:
320,192,121919,1,0,0:0:0:0:
448,192,121919,1,0,0:0:0:0:
64,192,121994,1,0,0:0:0:0:
448,192,122069,1,0,0:0:0:0:
192,192,122069,1,0,0:0:0:0:
320,192,122144,1,0,0:0:0:0:
64,192,122219,1,0,0:0:0:0:
448,192,122219,1,0,0:0:0:0:
192,192,122294,1,0,0:0:0:0:
320,192,122369,1,0,0:0:0:0:
448,192,122369,1,0,0:0:0:0:
192,192,122444,1,0,0:0:0:0:
64,192,122519,1,0,0:0:0:0:
320,192,122519,1,0,0:0:0:0:
448,192,122519,1,0,0:0:0:0:
192,192,122594,1,0,0:0:0:0:
64,192,122669,1,0,0:0:0:0:
320,192,122669,1,0,0:0:0:0:
192,192,122744,1,0,0:0:0:0:
64,192,122819,1,0,0:0:0:0:
320,192,122819,1,0,0:0:0:0:
448,192,122819,1,0,0:0:0:0:
192,192,122894,1,0,0:0:0:0:
448,192,122969,1,0,0:0:0:0:
320,192,122969,1,0,0:0:0:0:
64,192,123044,1,0,0:0:0:0:
320,192,123119,1,0,0:0:0:0:
192,192,123119,1,0,0:0:0:0:
448,192,123119,1,0,0:0:0:0:
64,192,123194,1,0,0:0:0:0:
192,192,123269,1,0,0:0:0:0:
448,192,123269,1,0,0:0:0:0:
64,192,123344,1,0,0:0:0:0:
192,192,123419,1,0,0:0:0:0:
320,192,123419,1,0,0:0:0:0:
448,192,123419,1,0,0:0:0:0:
64,192,123494,1,0,0:0:0:0:
448,192,123569,1,0,0:0:0:0:
192,192,123569,1,0,0:0:0:0:
320,192,123644,1,0,0:0:0:0:
192,192,123719,1,0,0:0:0:0:
64,192,123719,1,0,0:0:0:0:
448,192,123719,1,0,0:0:0:0:
320,192,123794,1,0,0:0:0:0:
64,192,123869,1,0,0:0:0:0:
448,192,123869,1,0,0:0:0:0:
192,192,123944,1,0,0:0:0:0:
320,192,124019,1,0,0:0:0:0:
448,192,124019,1,0,0:0:0:0:
64,192,124019,1,0,0:0:0:0:
192,192,124094,1,0,0:0:0:0:
320,192,124169,1,0,0:0:0:0:
64,192,124169,1,0,0:0:0:0:
448,192,124244,1,0,0:0:0:0:
320,192,124319,1,0,0:0:0:0:
192,192,124319,1,0,0:0:0:0:
64,192,124319,1,0,0:0:0:0:
448,192,124394,1,0,0:0:0:0:
64,192,124469,1,0,0:0:0:0:
320,192,124469,1,0,0:0:0:0:
192,192,124544,1,0,0:0:0:0:
448,192,124619,1,0,0:0:0:0:
320,192,124619,1,0,0:0:0:0:
64,192,124694,1,0,0:0:0:0:
192,192,124769,1,0,0:0:0:0:
448,192,124769,1,0,0:0:0:0:
320,192,124844,1,0,0:0:0:0:
64,192,124919,1,0,0:0:0:0:
448,192,124919,1,0,0:0:0:0:
192,192,124919,1,0,0:0:0:0:
320,192,124994,1,0,0:0:0:0:
448,192,125069,1,0,0:0:0:0:
64,192,125069,1,0,0:0:0:0:
192,192,125144,1,0,0:0:0:0:
64,192,125219,1,0,0:0:0:0:
448,192,125219,1,0,0:0:0:0:
320,192,125219,1,0,0:0:0:0:
192,192,125294,1,0,0:0:0:0:
320,192,125369,1,0,0:0:0:0:
448,192,125369,1,0,0:0:0:0:
64,192,125444,1,0,0:0:0:0:
192,192,125519,1,0,0:0:0:0:
320,192,125519,1,0,0:0:0:0:
448,192,125519,1,0,0:0:0:0:
64,192,125594,1,0,0:0:0:0:
448,192,125669,1,0,0:0:0:0:
192,192,125669,1,0,0:0:0:0:
320,192,125744,1,0,0:0:0:0:
64,192,125819,1,0,0:0:0:0:
192,192,125819,1,0,0:0:0:0:
448,192,125819,1,0,0:0:0:0:
320,192,125894,1,0,0:0:0:0:
64,192,125969,1,0,0:0:0:0:
448,192,125969,1,0,0:0:0:0:
192,192,126044,1,0,0:0:0:0:
320,192,126119,1,0,0:0:0:0:
448,192,126119,1,0,0:0:0:0:
64,192,126119,1,0,0:0:0:0:
192,192,126194,1,0,0:0:0:0:
320,192,126269,1,0,0:0:0:0:
448,192,126269,1,0,0:0:0:0:
64,192,126344,1,0,0:0:0:0:
192,192,126419,1,0,0:0:0:0:
320,192,126419,1,0,0:0:0:0:
448,192,126419,1,0,0:0:0:0:
64,192,126494,1,0,0:0:0:0:
448,192,126569,1,0,0:0:0:0:
192,192,126569,1,0,0:0:0:0:
320,192,126644,1,0,0:0:0:0:
448,192,126719,1,0,0:0:0:0:
192,192,126719,1,0,0:0:0:0:
64,192,126719,1,0,0:0:0:0:
320,192,126794,1,0,0:0:0:0:
64,192,126869,1,0,0:0:0:0:
448,192,126869,1,0,0:0:0:0:
192,192,126944,1,0,0:0:0:0:
448,192,127019,1,0,0:0:0:0:
320,192,127019,1,0,0:0:0:0:
64,192,127019,1,0,0:0:0:0:
192,192,127094,1,0,0:0:0:0:
448,192,127169,1,0,0:0:0:0:
320,192,127169,1,0,0:0:0:0:
64,192,127244,1,0,0:0:0:0:
192,192,127319,1,0,0:0:0:0:
448,192,127319,1,0,0:0:0:0:
320,192,127394,1,0,0:0:0:0:
64,192,127469,1,0,0:0:0:0:
192,192,127469,1,0,0:0:0:0:
448,192,127544,1,0,0:0:0:0:
64,192,127619,1,0,0:0:0:0:
192,192,127619,1,0,0:0:0:0:
320,192,127619,1,0,0:0:0:0:
448,192,127694,1,0,0:0:0:0:
64,192,127769,1,0,0:0:0:0:
320,192,127769,1,0,0:0:0:0:
192,192,127844,1,0,0:0:0:0:
64,192,127919,1,0,0:0:0:0:
320,192,127919,1,0,0:0:0:0:
448,192,127919,1,0,0:0:0:0:
192,192,127994,1,0,0:0:0:0:
320,192,128069,1,0,0:0:0:0:
448,192,128069,1,0,0:0:0:0:
64,192,128144,1,0,0:0:0:0:
192,192,128219,1,0,0:0:0:0:
320,192,128219,1,0,0:0:0:0:
448,192,128219,1,0,0:0:0:0:
64,192,128294,1,0,0:0:0:0:
448,192,128369,1,0,0:0:0:0:
192,192,128369,1,0,0:0:0:0:
320,192,128444,1,0,0:0:0:0:
192,192,128519,1,0,0:0:0:0:
64,192,128519,1,0,0:0:0:0:
448,192,128519,1,0,0:0:0:0:
320,192,128594,1,0,0:0:0:0:
192,192,128669,1,0,0:0:0:0:
448,192,128669,1,0,0:0:0:0:
64,192,128744,1,0,0:0:0:0:
192,192,128819,1,0,0:0:0:0:
320,192,128819,1,0,0:0:0:0:
448,192,128819,1,0,0:0:0:0:
64,192,128894,1,0,0:0:0:0:
320,192,128969,1,0,0:0:0:0:
448,192,128969,1,0,0:0:0:0:
192,192,129044,1,0,0:0:0:0:
64,192,129119,1,0,0:0:0:0:
320,192,129119,1,0,0:0:0:0:
448,192,129119,1,0,0:0:0:0:
192,192,129194,1,0,0:0:0:0:
64,192,129269,1,0,0:0:0:0:
320,192,129269,1,0,0:0:0:0:
448,192,129344,1,0,0:0:0:0:
320,192,129419,1,0,0:0:0:0:
192,192,129419,1,0,0:0:0:0:
64,192,129419,1,0,0:0:0:0:
448,192,129494,1,0,0:0:0:0:
320,192,129569,1,0,0:0:0:0:
64,192,129569,1,0,0:0:0:0:
192,192,129644,1,0,0:0:0:0:
64,192,129719,1,0,0:0:0:0:
320,192,129719,1,0,0:0:0:0:
448,192,129719,1,0,0:0:0:0:
192,192,129794,1,0,0:0:0:0:
448,192,129869,1,0,0:0:0:0:
64,192,129869,1,0,0:0:0:0:
320,192,129944,1,0,0:0:0:0:
192,192,130019,1,0,0:0:0:0:
64,192,130019,1,0,0:0:0:0:
448,192,130019,1,0,0:0:0:0:
320,192,130094,1,0,0:0:0:0:
192,192,130169,1,0,0:0:0:0:
448,192,130169,1,0,0:0:0:0:
64,192,130244,1,0,0:0:0:0:
192,192,130319,1,0,0:0:0:0:
320,192,130319,1,0,0:0:0:0:
448,192,130319,1,0,0:0:0:0:
64,192,130394,1,0,0:0:0:0:
448,192,130469,1,0,0:0:0:0:
192,192,130469,1,0,0:0:0:0:
320,192,130544,1,0,0:0:0:0:
192,192,130619,1,0,0:0:0:0:
64,192,130619,1,0,0:0:0:0:
448,192,130619,1,0,0:0:0:0:
320,192,130694,1,0,0:0:0:0:
192,192,130769,1,0,0:0:0:0:
64,192,130769,1,0,0:0:0:0:
448,192,130844,1,0,0:0:0:0:
320,192,130919,1,0,0:0:0:0:
192,192,130919,1,0,0:0:0:0:
64,192,130919,1,0,0:0:0:0:
448,192,130994,1,0,0:0:0:0:
192,192,131069,1,0,0:0:0:0:
320,192,131069,1,0,0:0:0:0:
64,192,131144,1,0,0:0:0:0:
192,192,131219,1,0,0:0:0:0:
320,192,131219,1,0,0:0:0:0:
448,192,131219,1,0,0:0:0:0:
64,192,131294,1,0,0:0:0:0:
448,192,131369,1,0,0:0:0:0:
192,192,131369,1,0,0:0:0:0:
320,192,131444,1,0,0:0:0:0:
192,192,131519,1,0,0:0:0:0:
64,192,131519,1,0,0:0:0:0:
448,192,131519,128,0,132719:0:0:0:0:
320,192,131594,1,0,0:0:0:0:
64,192,131669,1,0,0:0:0:0:
320,192,131744,1,0,0:0:0:0:
192,192,131819,1,0,0:0:0:0:
64,192,131819,1,0,0:0:0:0:
320,192,131894,1,0,0:0:0:0:
64,192,131969,1,0,0:0:0:0:
192,192,132044,1,0,0:0:0:0:
320,192,132119,1,0,0:0:0:0:
64,192,132119,1,0,0:0:0:0:
192,192,132194,1,0,0:0:0:0:
64,192,132269,1,0,0:0:0:0:
320,192,132344,1,0,0:0:0:0:
192,192,132419,1,0,0:0:0:0:
64,192,132419,1,0,0:0:0:0:
320,192,132494,1,0,0:0:0:0:
64,192,132569,1,0,0:0:0:0:
192,192,132644,1,0,0:0:0:0:
320,192,132719,128,0,133919:0:0:0:0:
64,192,132719,1,0,0:0:0:0:
192,192,132794,1,0,0:0:0:0:
448,192,132869,1,0,0:0:0:0:
64,192,132944,1,0,0:0:0:0:
192,192,133019,1,0,0:0:0:0:
448,192,133019,1,0,0:0:0:0:
64,192,133094,1,0,0:0:0:0:
448,192,133169,1,0,0:0:0:0:
192,192,133244,1,0,0:0:0:0:
64,192,133319,1,0,0:0:0:0:
448,192,133319,1,0,0:0:0:0:
192,192,133394,1,0,0:0:0:0:
64,192,133469,1,0,0:0:0:0:
448,192,133544,1,0,0:0:0:0:
192,192,133619,1,0,0:0:0:0:
64,192,133619,1,0,0:0:0:0:
448,192,133694,1,0,0:0:0:0:
64,192,133769,1,0,0:0:0:0:
448,192,133844,1,0,0:0:0:0:
64,192,133919,1,0,0:0:0:0:
192,192,133919,128,0,135119:0:0:0:0:
448,192,133994,1,0,0:0:0:0:
64,192,134069,1,0,0:0:0:0:
320,192,134144,1,0,0:0:0:0:
448,192,134219,1,0,0:0:0:0:
64,192,134219,1,0,0:0:0:0:
320,192,134294,1,0,0:0:0:0:
448,192,134369,1,0,0:0:0:0:
64,192,134444,1,0,0:0:0:0:
320,192,134519,1,0,0:0:0:0:
448,192,134519,1,0,0:0:0:0:
64,192,134594,1,0,0:0:0:0:
448,192,134669,1,0,0:0:0:0:
320,192,134744,1,0,0:0:0:0:
448,192,134819,1,0,0:0:0:0:
64,192,134819,1,0,0:0:0:0:
320,192,134894,1,0,0:0:0:0:
64,192,134969,1,0,0:0:0:0:
448,192,135044,1,0,0:0:0:0:
64,192,135119,1,0,0:0:0:0:
320,192,135119,1,0,0:0:0:0:
448,192,135194,1,0,0:0:0:0:
192,192,135269,1,0,0:0:0:0:
320,192,135269,1,0,0:0:0:0:
64,192,135344,1,0,0:0:0:0:
448,192,135344,1,0,0:0:0:0:
192,192,135419,1,0,0:0:0:0:
320,192,135419,1,0,0:0:0:0:
64,192,135494,1,0,0:0:0:0:
448,192,135569,1,0,0:0:0:0:
320,192,135569,1,0,0:0:0:0:
64,192,135644,1,0,0:0:0:0:
320,192,135719,1,0,0:0:0:0:
448,192,135719,1,0,0:0:0:0:
192,192,135794,1,0,0:0:0:0:
64,192,135794,1,0,0:0:0:0:
320,192,135869,1,0,0:0:0:0:
448,192,135869,1,0,0:0:0:0:
192,192,135944,1,0,0:0:0:0:
64,192,136019,1,0,0:0:0:0:
320,192,136019,1,0,0:0:0:0:
448,192,136094,1,0,0:0:0:0:
192,192,136169,1,0,0:0:0:0:
64,192,136244,1,0,0:0:0:0:
192,192,136319,1,0,0:0:0:0:
320,192,136319,1,0,0:0:0:0:
448,192,136319,1,0,0:0:0:0:
64,192,136394,1,0,0:0:0:0:
192,192,136469,1,0,0:0:0:0:
320,192,136469,1,0,0:0:0:0:
64,192,136544,1,0,0:0:0:0:
448,192,136544,1,0,0:0:0:0:
192,192,136619,1,0,0:0:0:0:
320,192,136619,1,0,0:0:0:0:
64,192,136694,1,0,0:0:0:0:
448,192,136769,1,0,0:0:0:0:
320,192,136769,1,0,0:0:0:0:
192,192,136844,1,0,0:0:0:0:
320,192,136919,1,0,0:0:0:0:
448,192,136919,1,0,0:0:0:0:
192,192,136994,1,0,0:0:0:0:
64,192,136994,1,0,0:0:0:0:
320,192,137069,1,0,0:0:0:0:
448,192,137069,1,0,0:0:0:0:
192,192,137144,1,0,0:0:0:0:
64,192,137219,1,0,0:0:0:0:
448,192,137219,1,0,0:0:0:0:
320,192,137294,1,0,0:0:0:0:
192,192,137369,1,0,0:0:0:0:
64,192,137444,1,0,0:0:0:0:
448,192,137519,1,0,0:0:0:0:
192,192,137519,1,0,0:0:0:0:
320,192,137519,1,0,0:0:0:0:
64,192,137594,1,0,0:0:0:0:
448,192,137669,1,0,0:0:0:0:
320,192,137669,1,0,0:0:0:0:
192,192,137744,1,0,0:0:0:0:
64,192,137744,1,0,0:0:0:0:
448,192,137819,1,0,0:0:0:0:
320,192,137819,1,0,0:0:0:0:
64,192,137894,1,0,0:0:0:0:
448,192,137969,1,0,0:0:0:0:
320,192,137969,1,0,0:0:0:0:
64,192,138044,1,0,0:0:0:0:
192,192,138119,1,0,0:0:0:0:
320,192,138119,1,0,0:0:0:0:
64,192,138194,1,0,0:0:0:0:
448,192,138194,1,0,0:0:0:0:
320,192,138269,1,0,0:0:0:0:
192,192,138269,1,0,0:0:0:0:
64,192,138344,1,0,0:0:0:0:
192,192,138419,1,0,0:0:0:0:
448,192,138419,1,0,0:0:0:0:
320,192,138494,1,0,0:0:0:0:
192,192,138569,1,0,0:0:0:0:
448,192,138644,1,0,0:0:0:0:
192,192,138719,1,0,0:0:0:0:
64,192,138719,1,0,0:0:0:0:
320,192,138719,1,0,0:0:0:0:
448,192,138794,1,0,0:0:0:0:
64,192,138869,1,0,0:0:0:0:
192,192,138869,1,0,0:0:0:0:
320,192,138944,1,0,0:0:0:0:
448,192,138944,1,0,0:0:0:0:
192,192,139019,1,0,0:0:0:0:
64,192,139019,1,0,0:0:0:0:
448,192,139094,1,0,0:0:0:0:
192,192,139169,1,0,0:0:0:0:
320,192,139169,1,0,0:0:0:0:
448,192,139244,1,0,0:0:0:0:
320,192,139319,1,0,0:0:0:0:
192,192,139319,1,0,0:0:0:0:
64,192,139394,1,0,0:0:0:0:
448,192,139394,1,0,0:0:0:0:
192,192,139469,1,0,0:0:0:0:
320,192,139469,1,0,0:0:0:0:
64,192,139544,1,0,0:0:0:0:
320,192,139619,1,0,0:0:0:0:
448,192,139619,1,0,0:0:0:0:
192,192,139694,1,0,0:0:0:0:
448,192,139769,1,0,0:0:0:0:
320,192,139844,1,0,0:0:0:0:
448,192,139919,1,0,0:0:0:0:
64,192,139919,1,0,0:0:0:0:
192,192,139919,1,0,0:0:0:0:
320,192,139994,1,0,0:0:0:0:
64,192,140069,1,0,0:0:0:0:
192,192,140069,1,0,0:0:0:0:
320,192,140144,1,0,0:0:0:0:
448,192,140144,1,0,0:0:0:0:
192,192,140219,1,0,0:0:0:0:
64,192,140219,1,0,0:0:0:0:
448,192,140294,1,0,0:0:0:0:
64,192,140369,1,0,0:0:0:0:
320,192,140369,1,0,0:0:0:0:
448,192,140444,1,0,0:0:0:0:
192,192,140519,1,0,0:0:0:0:
320,192,140519,1,0,0:0:0:0:
64,192,140594,1,0,0:0:0:0:
448,192,140594,1,0,0:0:0:0:
192,192,140669,1,0,0:0:0:0:
320,192,140669,1,0,0:0:0:0:
448,192,140744,1,0,0:0:0:0:
64,192,140819,1,0,0:0:0:0:
192,192,140819,1,0,0:0:0:0:
448,192,140894,1,0,0:0:0:0:
320,192,140969,1,0,0:0:0:0:
64,192,141044,1,0,0:0:0:0:
192,192,141119,1,0,0:0:0:0:
320,192,141119,1,0,0:0:0:0:
448,192,141119,1,0,0:0:0:0:
64,192,141194,1,0,0:0:0:0:
320,192,141269,1,0,0:0:0:0:
192,192,141269,1,0,0:0:0:0:
448,192,141344,1,0,0:0:0:0:
64,192,141344,1,0,0:0:0:0:
192,192,141419,1,0,0:0:0:0:
320,192,141419,1,0,0:0:0:0:
448,192,141494,1,0,0:0:0:0:
64,192,141569,1,0,0:0:0:0:
320,192,141569,1,0,0:0:0:0:
192,192,141644,1,0,0:0:0:0:
320,192,141719,1,0,0:0:0:0:
448,192,141719,1,0,0:0:0:0:
192,192,141794,1,0,0:0:0:0:
64,192,141794,1,0,0:0:0:0:
320,192,141869,1,0,0:0:0:0:
448,192,141869,1,0,0:0:0:0:
64,192,141944,1,0,0:0:0:0:
192,192,142019,1,0,0:0:0:0:
448,192,142019,1,0,0:0:0:0:
320,192,142094,1,0,0:0:0:0:
64,192,142169,1,0,0:0:0:0:
320,192,142244,1,0,0:0:0:0:
192,192,142319,1,0,0:0:0:0:
448,192,142319,1,0,0:0:0:0:
64,192,142319,1,0,0:0:0:0:
320,192,142394,1,0,0:0:0:0:
64,192,142469,1,0,0:0:0:0:
192,192,142469,1,0,0:0:0:0:
320,192,142544,1,0,0:0:0:0:
448,192,142544,1,0,0:0:0:0:
192,192,142619,1,0,0:0:0:0:
64,192,142619,1,0,0:0:0:0:
448,192,142694,1,0,0:0:0:0:
192,192,142769,1,0,0:0:0:0:
320,192,142769,1,0,0:0:0:0:
448,192,142844,1,0,0:0:0:0:
192,192,142919,1,0,0:0:0:0:
320,192,142919,1,0,0:0:0:0:
64,192,142994,1,0,0:0:0:0:
448,192,142994,1,0,0:0:0:0:
192,192,143069,1,0,0:0:0:0:
320,192,143069,1,0,0:0:0:0:
448,192,143144,1,0,0:0:0:0:
64,192,143219,1,0,0:0:0:0:
320,192,143219,1,0,0:0:0:0:
192,192,143294,1,0,0:0:0:0:
448,192,143369,1,0,0:0:0:0:
192,192,143444,1,0,0:0:0:0:
64,192,143519,1,0,0:0:0:0:
320,192,143519,1,0,0:0:0:0:
448,192,143519,1,0,0:0:0:0:
192,192,143594,1,0,0:0:0:0:
320,192,143669,1,0,0:0:0:0:
448,192,143669,1,0,0:0:0:0:
192,192,143744,1,0,0:0:0:0:
64,192,143744,1,0,0:0:0:0:
320,192,143819,1,0,0:0:0:0:
448,192,143819,1,0,0:0:0:0:
192,192,143894,1,0,0:0:0:0:
64,192,143969,1,0,0:0:0:0:
448,192,143969,1,0,0:0:0:0:
320,192,144044,1,0,0:0:0:0:
64,192,144119,1,0,0:0:0:0:
192,192,144119,1,0,0:0:0:0:
320,192,144194,1,0,0:0:0:0:
448,192,144194,1,0,0:0:0:0:
192,192,144269,1,0,0:0:0:0:
64,192,144269,1,0,0:0:0:0:
320,192,144344,1,0,0:0:0:0:
64,192,144419,1,0,0:0:0:0:
448,192,144419,1,0,0:0:0:0:
320,192,144494,1,0,0:0:0:0:
64,192,144569,1,0,0:0:0:0:
448,192,144644,1,0,0:0:0:0:
320,192,144719,1,0,0:0:0:0:
192,192,144719,1,0,0:0:0:0:
64,192,144719,1,0,0:0:0:0:
448,192,144794,1,0,0:0:0:0:
320,192,144869,1,0,0:0:0:0:
192,192,144869,1,0,0:0:0:0:
64,192,144944,1,0,0:0:0:0:
448,192,144944,1,0,0:0:0:0:
192,192,145019,1,0,0:0:0:0:
320,192,145019,1,0,0:0:0:0:
448,192,145094,1,0,0:0:0:0:
64,192,145169,1,0,0:0:0:0:
192,192,145169,1,0,0:0:0:0:
320,192,145244,1,0,0:0:0:0:
192,192,145319,1,0,0:0:0:0:
64,192,145319,1,0,0:0:0:0:
320,192,145394,1,0,0:0:0:0:
448,192,145394,1,0,0:0:0:0:
192,192,145469,1,0,0:0:0:0:
64,192,145469,1,0,0:0:0:0:
320,192,145544,1,0,0:0:0:0:
192,192,145619,1,0,0:0:0:0:
448,192,145619,1,0,0:0:0:0:
320,192,145694,1,0,0:0:0:0:
64,192,145769,1,0,0:0:0:0:
192,192,145844,1,0,0:0:0:0:
64,192,145919,1,0,0:0:0:0:
320,192,145919,1,0,0:0:0:0:
448,192,145919,1,0,0:0:0:0:
192,192,145994,1,0,0:0:0:0:
320,192,146069,1,0,0:0:0:0:
448,192,146069,1,0,0:0:0:0:
192,192,146144,1,0,0:0:0:0:
64,192,146144,1,0,0:0:0:0:
320,192,146219,1,0,0:0:0:0:
448,192,146219,1,0,0:0:0:0:
64,192,146294,1,0,0:0:0:0:
448,192,146369,1,0,0:0:0:0:
320,192,146369,1,0,0:0:0:0:
64,192,146444,1,0,0:0:0:0:
192,192,146519,1,0,0:0:0:0:
320,192,146519,1,0,0:0:0:0:
448,192,146594,1,0,0:0:0:0:
64,192,146594,1,0,0:0:0:0:
192,192,146669,1,0,0:0:0:0:
320,192,146669,1,0,0:0:0:0:
64,192,146744,1,0,0:0:0:0:
448,192,146819,1,0,0:0:0:0:
320,192,146819,1,0,0:0:0:0:
192,192,146894,1,0,0:0:0:0:
64,192,146969,1,0,0:0:0:0:
448,192,147044,1,0,0:0:0:0:
64,192,147119,1,0,0:0:0:0:
192,192,147119,1,0,0:0:0:0:
320,192,147119,1,0,0:0:0:0:
448,192,147194,5,0,0:0:0:0:
64,192,147269,1,0,0:0:0:0:
192,192,147269,1,0,0:0:0:0:
320,192,147344,1,0,0:0:0:0:
448,192,147344,1,0,0:0:0:0:
192,192,147419,1,0,0:0:0:0:
64,192,147419,1,0,0:0:0:0:
448,192,147494,1,0,0:0:0:0:
64,192,147569,1,0,0:0:0:0:
320,192,147569,1,0,0:0:0:0:
448,192,147644,1,0,0:0:0:0:
192,192,147719,1,0,0:0:0:0:
320,192,147719,1,0,0:0:0:0:
448,192,147794,1,0,0:0:0:0:
64,192,147794,1,0,0:0:0:0:
192,192,147869,1,0,0:0:0:0:
320,192,147869,1,0,0:0:0:0:
448,192,147944,1,0,0:0:0:0:
64,192,148019,1,0,0:0:0:0:
320,192,148019,1,0,0:0:0:0:
192,192,148094,1,0,0:0:0:0:
448,192,148169,1,0,0:0:0:0:
192,192,148244,1,0,0:0:0:0:
448,192,148319,128,0,148619:0:0:0:0:
320,192,148619,128,0,148919:0:0:0:0:
192,192,148919,128,0,149219:0:0:0:0:
320,192,149219,128,0,149519:0:0:0:0:
448,192,149519,128,0,149819:0:0:0:0:
320,192,149819,128,0,150119:0:0:0:0:
192,192,150119,128,0,150419:0:0:0:0:
320,192,150419,128,0,150719:0:0:0:0:
64,192,150719,1,0,0:0:0:0:
192,192,150719,1,0,0:0:0:0:
448,192,150719,1,0,0:0:0:0:
