osu file format v14

[General]
AudioFilename: audio 1.100x (pitch raised).mp3
AudioLeadIn: 0
PreviewTime: 100725
Countdown: 0
SampleSet: None
StackLeniency: 0.7
Mode: 3
LetterboxInBreaks: 0
SpecialStyle: 0
WidescreenStoryboard: 1

[Editor]
DistanceSpacing: 1.4
BeatDivisor: 4
GridSize: 16
TimelineZoom: 1.6

[Metadata]
Title:Love is War
TitleUnicode:Love is War
Artist:Helblinde
ArtistUnicode:Helblinde
Creator:Jole
Version:megaphone 1.1x (220bpm)
Source:
Tags:4k 4 key handstream jumpstream stamina
BeatmapID:2959660
BeatmapSetID:808698

[Difficulty]
HPDrainRate:8
CircleSize:4
OverallDifficulty:8
ApproachRate:6.6
SliderMultiplier:1.4
SliderTickRate:1

[Events]
//Background and Video events
0,0,"fatsune.jpg",0,0
//Break Periods
//Storyboard Layer 0 (Background)
//Storyboard Layer 1 (Fail)
//Storyboard Layer 2 (Pass)
//Storyboard Layer 3 (Foreground)
//Storyboard Layer 4 (Overlay)
//Storyboard Sound Samples

[TimingPoints]
8838,272.727272727273,4,1,0,25,1,0

[HitObjects]
448,192,8838,128,0,11019:0:0:0:0:
64,192,11019,1,0,0:0:0:0:
320,192,11019,1,0,0:0:0:0:
192,192,11156,1,0,0:0:0:0:
448,192,11292,1,0,0:0:0:0:
64,192,11292,1,0,0:0:0:0:
192,192,11428,1,0,0:0:0:0:
320,192,11565,1,0,0:0:0:0:
64,192,11565,1,0,0:0:0:0:
192,192,11701,1,0,0:0:0:0:
64,192,11838,1,0,0:0:0:0:
448,192,11838,1,0,0:0:0:0:
192,192,11974,1,0,0:0:0:0:
64,192,12110,1,0,0:0:0:0:
320,192,12110,1,0,0:0:0:0:
192,192,12247,1,0,0:0:0:0:
320,192,12383,1,0,0:0:0:0:
64,192,12383,1,0,0:0:0:0:
192,192,12519,1,0,0:0:0:0:
64,192,12656,1,0,0:0:0:0:
448,192,12656,1,0,0:0:0:0:
192,192,12792,1,0,0:0:0:0:
320,192,12928,1,0,0:0:0:0:
192,192,12928,1,0,0:0:0:0:
192,192,13065,1,0,0:0:0:0:
64,192,13201,1,0,0:0:0:0:
448,192,13201,1,0,0:0:0:0:
192,192,13338,1,0,0:0:0:0:
320,192,13474,1,0,0:0:0:0:
64,192,13474,1,0,0:0:0:0:
192,192,13610,1,0,0:0:0:0:
320,192,13747,1,0,0:0:0:0:
64,192,13747,1,0,0:0:0:0:
192,192,13883,1,0,0:0:0:0:
64,192,14019,1,0,0:0:0:0:
448,192,14019,1,0,0:0:0:0:
192,192,14156,1,0,0:0:0:0:
64,192,14292,1,0,0:0:0:0:
320,192,14292,1,0,0:0:0:0:
192,192,14428,1,0,0:0:0:0:
448,192,14565,1,0,0:0:0:0:
64,192,14565,1,0,0:0:0:0:
192,192,14701,1,0,0:0:0:0:
192,192,14838,1,0,0:0:0:0:
448,192,14838,1,0,0:0:0:0:
448,192,14974,1,0,0:0:0:0:
320,192,14974,1,0,0:0:0:0:
192,192,15110,1,0,0:0:0:0:
448,192,15110,1,0,0:0:0:0:
64,192,15247,1,0,0:0:0:0:
192,192,15247,1,0,0:0:0:0:
64,192,15383,1,0,0:0:0:0:
448,192,15383,1,0,0:0:0:0:
320,192,15519,1,0,0:0:0:0:
192,192,15656,1,0,0:0:0:0:
448,192,15656,1,0,0:0:0:0:
320,192,15792,1,0,0:0:0:0:
448,192,15928,1,0,0:0:0:0:
64,192,15928,1,0,0:0:0:0:
320,192,16065,1,0,0:0:0:0:
64,192,16201,1,0,0:0:0:0:
448,192,16201,1,0,0:0:0:0:
320,192,16338,1,0,0:0:0:0:
192,192,16474,1,0,0:0:0:0:
448,192,16474,1,0,0:0:0:0:
320,192,16610,1,0,0:0:0:0:
64,192,16747,1,0,0:0:0:0:
448,192,16747,1,0,0:0:0:0:
320,192,16883,1,0,0:0:0:0:
192,192,17019,1,0,0:0:0:0:
448,192,17019,1,0,0:0:0:0:
320,192,17156,1,0,0:0:0:0:
64,192,17292,1,0,0:0:0:0:
320,192,17292,1,0,0:0:0:0:
320,192,17428,1,0,0:0:0:0:
192,192,17565,1,0,0:0:0:0:
448,192,17565,1,0,0:0:0:0:
320,192,17701,1,0,0:0:0:0:
64,192,17838,1,0,0:0:0:0:
448,192,17838,1,0,0:0:0:0:
320,192,17974,1,0,0:0:0:0:
192,192,18110,1,0,0:0:0:0:
448,192,18110,1,0,0:0:0:0:
320,192,18247,1,0,0:0:0:0:
192,192,18383,1,0,0:0:0:0:
448,192,18383,1,0,0:0:0:0:
320,192,18519,1,0,0:0:0:0:
64,192,18656,1,0,0:0:0:0:
448,192,18656,1,0,0:0:0:0:
320,192,18792,1,0,0:0:0:0:
192,192,18928,1,0,0:0:0:0:
448,192,18928,1,0,0:0:0:0:
320,192,19065,1,0,0:0:0:0:
64,192,19201,1,0,0:0:0:0:
192,192,19201,1,0,0:0:0:0:
320,192,19269,1,0,0:0:0:0:
448,192,19338,1,0,0:0:0:0:
320,192,19406,1,0,0:0:0:0:
64,192,19474,1,0,0:0:0:0:
192,192,19474,1,0,0:0:0:0:
320,192,19542,1,0,0:0:0:0:
448,192,19610,1,0,0:0:0:0:
320,192,19678,1,0,0:0:0:0:
192,192,19747,1,0,0:0:0:0:
448,192,19747,1,0,0:0:0:0:
64,192,19747,1,0,0:0:0:0:
320,192,19815,1,0,0:0:0:0:
64,192,19883,1,0,0:0:0:0:
192,192,19883,1,0,0:0:0:0:
448,192,19951,1,0,0:0:0:0:
64,192,20019,1,0,0:0:0:0:
320,192,20019,1,0,0:0:0:0:
192,192,20088,1,0,0:0:0:0:
320,192,20156,1,0,0:0:0:0:
448,192,20156,1,0,0:0:0:0:
64,192,20224,1,0,0:0:0:0:
192,192,20292,1,0,0:0:0:0:
448,192,20292,1,0,0:0:0:0:
320,192,20360,1,0,0:0:0:0:
64,192,20428,1,0,0:0:0:0:
192,192,20428,1,0,0:0:0:0:
448,192,20497,1,0,0:0:0:0:
64,192,20565,1,0,0:0:0:0:
320,192,20565,1,0,0:0:0:0:
192,192,20633,1,0,0:0:0:0:
448,192,20701,1,0,0:0:0:0:
320,192,20701,1,0,0:0:0:0:
64,192,20769,1,0,0:0:0:0:
448,192,20838,1,0,0:0:0:0:
192,192,20838,1,0,0:0:0:0:
320,192,20906,1,0,0:0:0:0:
64,192,20974,1,0,0:0:0:0:
192,192,20974,1,0,0:0:0:0:
448,192,21042,1,0,0:0:0:0:
320,192,21110,1,0,0:0:0:0:
64,192,21110,1,0,0:0:0:0:
192,192,21178,1,0,0:0:0:0:
320,192,21247,1,0,0:0:0:0:
448,192,21247,1,0,0:0:0:0:
64,192,21315,1,0,0:0:0:0:
448,192,21383,1,0,0:0:0:0:
192,192,21383,1,0,0:0:0:0:
320,192,21451,1,0,0:0:0:0:
192,192,21519,1,0,0:0:0:0:
64,192,21519,1,0,0:0:0:0:
320,192,21588,1,0,0:0:0:0:
64,192,21656,1,0,0:0:0:0:
448,192,21656,1,0,0:0:0:0:
192,192,21724,1,0,0:0:0:0:
64,192,21792,1,0,0:0:0:0:
320,192,21792,1,0,0:0:0:0:
448,192,21860,1,0,0:0:0:0:
192,192,21928,1,0,0:0:0:0:
64,192,21928,1,0,0:0:0:0:
448,192,21997,1,0,0:0:0:0:
320,192,22065,1,0,0:0:0:0:
64,192,22065,1,0,0:0:0:0:
192,192,22133,1,0,0:0:0:0:
448,192,22201,1,0,0:0:0:0:
320,192,22201,1,0,0:0:0:0:
64,192,22269,1,0,0:0:0:0:
448,192,22338,1,0,0:0:0:0:
192,192,22338,1,0,0:0:0:0:
320,192,22406,1,0,0:0:0:0:
192,192,22474,1,0,0:0:0:0:
64,192,22474,1,0,0:0:0:0:
448,192,22542,1,0,0:0:0:0:
320,192,22610,1,0,0:0:0:0:
64,192,22610,1,0,0:0:0:0:
192,192,22678,1,0,0:0:0:0:
448,192,22747,1,0,0:0:0:0:
320,192,22747,1,0,0:0:0:0:
64,192,22815,1,0,0:0:0:0:
192,192,22883,1,0,0:0:0:0:
448,192,22883,1,0,0:0:0:0:
320,192,22951,1,0,0:0:0:0:
64,192,23019,1,0,0:0:0:0:
192,192,23019,1,0,0:0:0:0:
448,192,23088,1,0,0:0:0:0:
192,192,23156,1,0,0:0:0:0:
320,192,23156,1,0,0:0:0:0:
64,192,23224,1,0,0:0:0:0:
192,192,23292,1,0,0:0:0:0:
448,192,23292,1,0,0:0:0:0:
320,192,23360,1,0,0:0:0:0:
64,192,23428,1,0,0:0:0:0:
192,192,23428,1,0,0:0:0:0:
320,192,23497,1,0,0:0:0:0:
448,192,23565,1,0,0:0:0:0:
64,192,23565,1,0,0:0:0:0:
320,192,23633,1,0,0:0:0:0:
448,192,23701,1,0,0:0:0:0:
192,192,23701,1,0,0:0:0:0:
320,192,23769,1,0,0:0:0:0:
448,192,23838,1,0,0:0:0:0:
64,192,23838,1,0,0:0:0:0:
192,192,23906,1,0,0:0:0:0:
448,192,23974,1,0,0:0:0:0:
320,192,23974,1,0,0:0:0:0:
192,192,24042,1,0,0:0:0:0:
448,192,24110,1,0,0:0:0:0:
320,192,24110,1,0,0:0:0:0:
64,192,24178,1,0,0:0:0:0:
448,192,24247,1,0,0:0:0:0:
192,192,24247,1,0,0:0:0:0:
320,192,24315,1,0,0:0:0:0:
192,192,24383,1,0,0:0:0:0:
64,192,24383,1,0,0:0:0:0:
448,192,24451,1,0,0:0:0:0:
320,192,24519,1,0,0:0:0:0:
64,192,24519,1,0,0:0:0:0:
192,192,24588,1,0,0:0:0:0:
448,192,24656,1,0,0:0:0:0:
320,192,24656,1,0,0:0:0:0:
64,192,24724,1,0,0:0:0:0:
448,192,24792,1,0,0:0:0:0:
192,192,24792,1,0,0:0:0:0:
320,192,24860,1,0,0:0:0:0:
64,192,24928,1,0,0:0:0:0:
192,192,24928,1,0,0:0:0:0:
448,192,24997,1,0,0:0:0:0:
320,192,25065,1,0,0:0:0:0:
64,192,25065,1,0,0:0:0:0:
192,192,25133,1,0,0:0:0:0:
448,192,25201,1,0,0:0:0:0:
320,192,25201,1,0,0:0:0:0:
64,192,25269,1,0,0:0:0:0:
448,192,25338,1,0,0:0:0:0:
192,192,25338,1,0,0:0:0:0:
320,192,25406,1,0,0:0:0:0:
64,192,25474,1,0,0:0:0:0:
192,192,25474,1,0,0:0:0:0:
448,192,25542,1,0,0:0:0:0:
320,192,25610,1,0,0:0:0:0:
64,192,25610,1,0,0:0:0:0:
192,192,25678,1,0,0:0:0:0:
448,192,25747,1,0,0:0:0:0:
320,192,25747,1,0,0:0:0:0:
64,192,25815,1,0,0:0:0:0:
192,192,25883,1,0,0:0:0:0:
448,192,25883,1,0,0:0:0:0:
320,192,25951,1,0,0:0:0:0:
64,192,26019,1,0,0:0:0:0:
448,192,26019,1,0,0:0:0:0:
320,192,26088,1,0,0:0:0:0:
192,192,26156,1,0,0:0:0:0:
64,192,26156,1,0,0:0:0:0:
448,192,26224,1,0,0:0:0:0:
320,192,26292,1,0,0:0:0:0:
64,192,26292,1,0,0:0:0:0:
192,192,26360,1,0,0:0:0:0:
320,192,26428,1,0,0:0:0:0:
448,192,26497,1,0,0:0:0:0:
192,192,26565,1,0,0:0:0:0:
64,192,26565,1,0,0:0:0:0:
448,192,26633,1,0,0:0:0:0:
320,192,26701,1,0,0:0:0:0:
192,192,26769,1,0,0:0:0:0:
320,192,26838,1,0,0:0:0:0:
64,192,26838,1,0,0:0:0:0:
448,192,26906,1,0,0:0:0:0:
64,192,26974,1,0,0:0:0:0:
192,192,27042,1,0,0:0:0:0:
320,192,27110,1,0,0:0:0:0:
448,192,27110,1,0,0:0:0:0:
64,192,27178,1,0,0:0:0:0:
320,192,27247,1,0,0:0:0:0:
448,192,27315,1,0,0:0:0:0:
192,192,27383,1,0,0:0:0:0:
64,192,27383,1,0,0:0:0:0:
320,192,27928,1,0,0:0:0:0:
192,192,28474,1,0,0:0:0:0:
320,192,28474,1,0,0:0:0:0:
448,192,28474,1,0,0:0:0:0:
64,192,28542,1,0,0:0:0:0:
320,192,28610,1,0,0:0:0:0:
448,192,28678,1,0,0:0:0:0:
192,192,28747,1,0,0:0:0:0:
64,192,28747,1,0,0:0:0:0:
320,192,28815,1,0,0:0:0:0:
64,192,28883,1,0,0:0:0:0:
448,192,28951,1,0,0:0:0:0:
64,192,29019,1,0,0:0:0:0:
192,192,29019,1,0,0:0:0:0:
320,192,29019,1,0,0:0:0:0:
448,192,29088,1,0,0:0:0:0:
64,192,29156,1,0,0:0:0:0:
320,192,29224,1,0,0:0:0:0:
448,192,29292,1,0,0:0:0:0:
192,192,29292,1,0,0:0:0:0:
64,192,29360,1,0,0:0:0:0:
320,192,29428,1,0,0:0:0:0:
448,192,29497,1,0,0:0:0:0:
192,192,29565,1,0,0:0:0:0:
64,192,29565,1,0,0:0:0:0:
320,192,29633,1,0,0:0:0:0:
448,192,29701,1,0,0:0:0:0:
192,192,29769,1,0,0:0:0:0:
64,192,29838,1,0,0:0:0:0:
320,192,29838,1,0,0:0:0:0:
448,192,29838,1,0,0:0:0:0:
192,192,29906,1,0,0:0:0:0:
64,192,29974,1,0,0:0:0:0:
448,192,30042,1,0,0:0:0:0:
64,192,30110,1,0,0:0:0:0:
192,192,30110,1,0,0:0:0:0:
320,192,30110,1,0,0:0:0:0:
448,192,30178,1,0,0:0:0:0:
64,192,30247,1,0,0:0:0:0:
192,192,30315,1,0,0:0:0:0:
320,192,30383,1,0,0:0:0:0:
448,192,30383,1,0,0:0:0:0:
64,192,30451,1,0,0:0:0:0:
448,192,30519,1,0,0:0:0:0:
192,192,30588,1,0,0:0:0:0:
64,192,30656,1,0,0:0:0:0:
320,192,30656,1,0,0:0:0:0:
448,192,30724,1,0,0:0:0:0:
192,192,30792,1,0,0:0:0:0:
320,192,30860,1,0,0:0:0:0:
64,192,30928,1,0,0:0:0:0:
192,192,30928,1,0,0:0:0:0:
448,192,30928,1,0,0:0:0:0:
320,192,30997,1,0,0:0:0:0:
64,192,31065,1,0,0:0:0:0:
192,192,31133,1,0,0:0:0:0:
64,192,31201,1,0,0:0:0:0:
320,192,31201,1,0,0:0:0:0:
448,192,31201,1,0,0:0:0:0:
192,192,31269,1,0,0:0:0:0:
448,192,31338,1,0,0:0:0:0:
64,192,31406,1,0,0:0:0:0:
320,192,31474,1,0,0:0:0:0:
448,192,31474,1,0,0:0:0:0:
192,192,31542,1,0,0:0:0:0:
64,192,31610,1,0,0:0:0:0:
448,192,31678,1,0,0:0:0:0:
64,192,31747,1,0,0:0:0:0:
192,192,31747,1,0,0:0:0:0:
320,192,31747,1,0,0:0:0:0:
448,192,31815,1,0,0:0:0:0:
64,192,31883,1,0,0:0:0:0:
320,192,31951,1,0,0:0:0:0:
192,192,32019,1,0,0:0:0:0:
64,192,32019,1,0,0:0:0:0:
448,192,32019,1,0,0:0:0:0:
320,192,32088,1,0,0:0:0:0:
448,192,32156,1,0,0:0:0:0:
192,192,32224,1,0,0:0:0:0:
64,192,32292,1,0,0:0:0:0:
320,192,32292,1,0,0:0:0:0:
448,192,32292,1,0,0:0:0:0:
192,192,32360,1,0,0:0:0:0:
64,192,32428,1,0,0:0:0:0:
448,192,32497,1,0,0:0:0:0:
192,192,32565,1,0,0:0:0:0:
320,192,32565,1,0,0:0:0:0:
64,192,32633,1,0,0:0:0:0:
448,192,32701,1,0,0:0:0:0:
320,192,32769,1,0,0:0:0:0:
448,192,32838,1,0,0:0:0:0:
64,192,32838,1,0,0:0:0:0:
192,192,32838,1,0,0:0:0:0:
320,192,32906,1,0,0:0:0:0:
64,192,32974,1,0,0:0:0:0:
448,192,33042,1,0,0:0:0:0:
320,192,33110,1,0,0:0:0:0:
64,192,33110,1,0,0:0:0:0:
192,192,33178,1,0,0:0:0:0:
448,192,33247,1,0,0:0:0:0:
64,192,33315,1,0,0:0:0:0:
192,192,33383,1,0,0:0:0:0:
320,192,33383,1,0,0:0:0:0:
448,192,33383,1,0,0:0:0:0:
64,192,33451,1,0,0:0:0:0:
448,192,33519,1,0,0:0:0:0:
320,192,33588,1,0,0:0:0:0:
192,192,33656,1,0,0:0:0:0:
64,192,33656,1,0,0:0:0:0:
448,192,33724,1,0,0:0:0:0:
64,192,33792,1,0,0:0:0:0:
320,192,33860,1,0,0:0:0:0:
192,192,33928,1,0,0:0:0:0:
448,192,33928,1,0,0:0:0:0:
64,192,33997,1,0,0:0:0:0:
320,192,34065,1,0,0:0:0:0:
448,192,34133,1,0,0:0:0:0:
64,192,34201,1,0,0:0:0:0:
192,192,34201,1,0,0:0:0:0:
320,192,34269,1,0,0:0:0:0:
448,192,34338,1,0,0:0:0:0:
64,192,34406,1,0,0:0:0:0:
192,192,34474,1,0,0:0:0:0:
320,192,34474,1,0,0:0:0:0:
448,192,34474,1,0,0:0:0:0:
64,192,34542,1,0,0:0:0:0:
192,192,34610,1,0,0:0:0:0:
320,192,34678,1,0,0:0:0:0:
448,192,34747,1,0,0:0:0:0:
64,192,34747,1,0,0:0:0:0:
192,192,34815,1,0,0:0:0:0:
320,192,34883,1,0,0:0:0:0:
448,192,34951,1,0,0:0:0:0:
64,192,35019,1,0,0:0:0:0:
192,192,35019,1,0,0:0:0:0:
320,192,35019,1,0,0:0:0:0:
448,192,35088,1,0,0:0:0:0:
320,192,35156,1,0,0:0:0:0:
192,192,35224,1,0,0:0:0:0:
64,192,35292,1,0,0:0:0:0:
448,192,35292,1,0,0:0:0:0:
320,192,35360,1,0,0:0:0:0:
192,192,35428,1,0,0:0:0:0:
64,192,35497,1,0,0:0:0:0:
192,192,35565,1,0,0:0:0:0:
320,192,35565,1,0,0:0:0:0:
448,192,35565,1,0,0:0:0:0:
64,192,35633,1,0,0:0:0:0:
192,192,35701,1,0,0:0:0:0:
320,192,35769,1,0,0:0:0:0:
448,192,35838,1,0,0:0:0:0:
320,192,35906,1,0,0:0:0:0:
448,192,35974,1,0,0:0:0:0:
64,192,35974,1,0,0:0:0:0:
320,192,36042,1,0,0:0:0:0:
192,192,36110,1,0,0:0:0:0:
64,192,36178,1,0,0:0:0:0:
448,192,36247,1,0,0:0:0:0:
320,192,36247,1,0,0:0:0:0:
192,192,36315,1,0,0:0:0:0:
64,192,36383,1,0,0:0:0:0:
320,192,36383,1,0,0:0:0:0:
448,192,36451,1,0,0:0:0:0:
192,192,36519,1,0,0:0:0:0:
64,192,36519,1,0,0:0:0:0:
320,192,36588,1,0,0:0:0:0:
192,192,36656,1,0,0:0:0:0:
64,192,36656,1,0,0:0:0:0:
448,192,36656,1,0,0:0:0:0:
320,192,36724,1,0,0:0:0:0:
192,192,36792,1,0,0:0:0:0:
448,192,36860,1,0,0:0:0:0:
64,192,36928,1,0,0:0:0:0:
320,192,36928,1,0,0:0:0:0:
192,192,36997,1,0,0:0:0:0:
448,192,37065,1,0,0:0:0:0:
64,192,37133,1,0,0:0:0:0:
192,192,37201,1,0,0:0:0:0:
320,192,37201,1,0,0:0:0:0:
448,192,37201,1,0,0:0:0:0:
64,192,37269,1,0,0:0:0:0:
448,192,37338,1,0,0:0:0:0:
192,192,37406,1,0,0:0:0:0:
320,192,37474,1,0,0:0:0:0:
64,192,37474,1,0,0:0:0:0:
448,192,37542,1,0,0:0:0:0:
192,192,37610,1,0,0:0:0:0:
320,192,37678,1,0,0:0:0:0:
64,192,37747,1,0,0:0:0:0:
192,192,37747,1,0,0:0:0:0:
448,192,37747,1,0,0:0:0:0:
320,192,37815,1,0,0:0:0:0:
64,192,37883,1,0,0:0:0:0:
448,192,37951,1,0,0:0:0:0:
64,192,38019,1,0,0:0:0:0:
192,192,38019,1,0,0:0:0:0:
320,192,38019,1,0,0:0:0:0:
448,192,38088,1,0,0:0:0:0:
192,192,38156,1,0,0:0:0:0:
64,192,38224,1,0,0:0:0:0:
192,192,38292,1,0,0:0:0:0:
448,192,38292,1,0,0:0:0:0:
320,192,38292,1,0,0:0:0:0:
64,192,38360,1,0,0:0:0:0:
448,192,38428,1,0,0:0:0:0:
192,192,38497,1,0,0:0:0:0:
448,192,38565,1,0,0:0:0:0:
320,192,38565,1,0,0:0:0:0:
64,192,38565,1,0,0:0:0:0:
192,192,38633,1,0,0:0:0:0:
320,192,38701,1,0,0:0:0:0:
64,192,38769,1,0,0:0:0:0:
192,192,38838,1,0,0:0:0:0:
320,192,38838,1,0,0:0:0:0:
448,192,38838,1,0,0:0:0:0:
64,192,38906,1,0,0:0:0:0:
448,192,38974,1,0,0:0:0:0:
192,192,39042,1,0,0:0:0:0:
320,192,39110,1,0,0:0:0:0:
64,192,39110,1,0,0:0:0:0:
448,192,39178,1,0,0:0:0:0:
192,192,39247,1,0,0:0:0:0:
320,192,39315,1,0,0:0:0:0:
64,192,39383,1,0,0:0:0:0:
448,192,39383,1,0,0:0:0:0:
192,192,39451,1,0,0:0:0:0:
320,192,39519,1,0,0:0:0:0:
64,192,39588,1,0,0:0:0:0:
320,192,39656,1,0,0:0:0:0:
192,192,39656,1,0,0:0:0:0:
448,192,39656,1,0,0:0:0:0:
64,192,39724,1,0,0:0:0:0:
448,192,39792,1,0,0:0:0:0:
192,192,39860,1,0,0:0:0:0:
64,192,39928,1,0,0:0:0:0:
320,192,39928,1,0,0:0:0:0:
448,192,39997,1,0,0:0:0:0:
192,192,40065,1,0,0:0:0:0:
64,192,40133,1,0,0:0:0:0:
192,192,40201,1,0,0:0:0:0:
448,192,40201,1,0,0:0:0:0:
320,192,40269,1,0,0:0:0:0:
64,192,40338,1,0,0:0:0:0:
448,192,40406,1,0,0:0:0:0:
192,192,40474,1,0,0:0:0:0:
320,192,40474,1,0,0:0:0:0:
64,192,40474,1,0,0:0:0:0:
448,192,40542,1,0,0:0:0:0:
64,192,40610,1,0,0:0:0:0:
320,192,40678,1,0,0:0:0:0:
192,192,40747,1,0,0:0:0:0:
64,192,40747,1,0,0:0:0:0:
448,192,40747,1,0,0:0:0:0:
320,192,40815,1,0,0:0:0:0:
64,192,40883,1,0,0:0:0:0:
192,192,40951,1,0,0:0:0:0:
64,192,41019,1,0,0:0:0:0:
320,192,41019,1,0,0:0:0:0:
448,192,41019,1,0,0:0:0:0:
192,192,41088,1,0,0:0:0:0:
448,192,41156,1,0,0:0:0:0:
64,192,41224,1,0,0:0:0:0:
192,192,41292,1,0,0:0:0:0:
320,192,41292,1,0,0:0:0:0:
448,192,41360,1,0,0:0:0:0:
64,192,41428,1,0,0:0:0:0:
320,192,41497,1,0,0:0:0:0:
192,192,41565,1,0,0:0:0:0:
64,192,41565,1,0,0:0:0:0:
448,192,41565,1,0,0:0:0:0:
320,192,41633,1,0,0:0:0:0:
64,192,41701,1,0,0:0:0:0:
448,192,41769,1,0,0:0:0:0:
64,192,41838,1,0,0:0:0:0:
192,192,41838,1,0,0:0:0:0:
320,192,41838,1,0,0:0:0:0:
448,192,41906,1,0,0:0:0:0:
192,192,41974,1,0,0:0:0:0:
64,192,42042,1,0,0:0:0:0:
192,192,42110,1,0,0:0:0:0:
320,192,42110,1,0,0:0:0:0:
448,192,42110,1,0,0:0:0:0:
64,192,42178,1,0,0:0:0:0:
320,192,42247,1,0,0:0:0:0:
448,192,42315,1,0,0:0:0:0:
64,192,42383,1,0,0:0:0:0:
192,192,42383,1,0,0:0:0:0:
320,192,42451,1,0,0:0:0:0:
448,192,42519,1,0,0:0:0:0:
64,192,42588,1,0,0:0:0:0:
192,192,42656,1,0,0:0:0:0:
320,192,42656,1,0,0:0:0:0:
448,192,42724,1,0,0:0:0:0:
64,192,42792,1,0,0:0:0:0:
320,192,42860,1,0,0:0:0:0:
192,192,42928,1,0,0:0:0:0:
64,192,42928,1,0,0:0:0:0:
448,192,42928,1,0,0:0:0:0:
320,192,42997,1,0,0:0:0:0:
64,192,43065,1,0,0:0:0:0:
448,192,43133,1,0,0:0:0:0:
64,192,43201,1,0,0:0:0:0:
192,192,43201,1,0,0:0:0:0:
320,192,43201,1,0,0:0:0:0:
448,192,43338,1,0,0:0:0:0:
448,192,43610,1,0,0:0:0:0:
192,192,43747,1,0,0:0:0:0:
320,192,43747,1,0,0:0:0:0:
448,192,43747,1,0,0:0:0:0:
448,192,43883,1,0,0:0:0:0:
64,192,43883,1,0,0:0:0:0:
64,192,44156,1,0,0:0:0:0:
448,192,44156,1,0,0:0:0:0:
64,192,44292,1,0,0:0:0:0:
192,192,44292,1,0,0:0:0:0:
320,192,44292,1,0,0:0:0:0:
448,192,44428,1,0,0:0:0:0:
64,192,44565,1,0,0:0:0:0:
192,192,44565,1,0,0:0:0:0:
320,192,44565,1,0,0:0:0:0:
448,192,44701,1,0,0:0:0:0:
64,192,44838,1,0,0:0:0:0:
192,192,44838,1,0,0:0:0:0:
320,192,44838,1,0,0:0:0:0:
192,192,44974,1,0,0:0:0:0:
64,192,44974,1,0,0:0:0:0:
320,192,44974,1,0,0:0:0:0:
64,192,45110,1,0,0:0:0:0:
448,192,45110,1,0,0:0:0:0:
64,192,45383,1,0,0:0:0:0:
192,192,45383,1,0,0:0:0:0:
320,192,45383,1,0,0:0:0:0:
448,192,45451,1,0,0:0:0:0:
64,192,45519,1,0,0:0:0:0:
320,192,45519,1,0,0:0:0:0:
192,192,45588,1,0,0:0:0:0:
64,192,45656,1,0,0:0:0:0:
448,192,45656,1,0,0:0:0:0:
320,192,45724,1,0,0:0:0:0:
64,192,45792,1,0,0:0:0:0:
192,192,45792,1,0,0:0:0:0:
448,192,45860,1,0,0:0:0:0:
64,192,45928,1,0,0:0:0:0:
320,192,45928,1,0,0:0:0:0:
192,192,45997,1,0,0:0:0:0:
64,192,46065,1,0,0:0:0:0:
448,192,46065,1,0,0:0:0:0:
320,192,46133,1,0,0:0:0:0:
192,192,46201,1,0,0:0:0:0:
64,192,46201,1,0,0:0:0:0:
448,192,46201,1,0,0:0:0:0:
320,192,46269,1,0,0:0:0:0:
448,192,46338,1,0,0:0:0:0:
192,192,46338,1,0,0:0:0:0:
64,192,46406,1,0,0:0:0:0:
448,192,46474,1,0,0:0:0:0:
320,192,46474,1,0,0:0:0:0:
192,192,46474,1,0,0:0:0:0:
64,192,46542,1,0,0:0:0:0:
448,192,46610,1,0,0:0:0:0:
320,192,46610,1,0,0:0:0:0:
192,192,46678,1,0,0:0:0:0:
448,192,46747,1,0,0:0:0:0:
320,192,46747,1,0,0:0:0:0:
64,192,46747,1,0,0:0:0:0:
192,192,46815,1,0,0:0:0:0:
448,192,46883,1,0,0:0:0:0:
64,192,46883,1,0,0:0:0:0:
320,192,46951,1,0,0:0:0:0:
192,192,47019,1,0,0:0:0:0:
64,192,47019,1,0,0:0:0:0:
448,192,47019,1,0,0:0:0:0:
320,192,47088,1,0,0:0:0:0:
64,192,47156,1,0,0:0:0:0:
192,192,47156,1,0,0:0:0:0:
448,192,47224,1,0,0:0:0:0:
320,192,47292,1,0,0:0:0:0:
64,192,47292,1,0,0:0:0:0:
192,192,47292,1,0,0:0:0:0:
448,192,47360,1,0,0:0:0:0:
64,192,47428,1,0,0:0:0:0:
192,192,47428,1,0,0:0:0:0:
320,192,47497,1,0,0:0:0:0:
192,192,47565,1,0,0:0:0:0:
64,192,47565,1,0,0:0:0:0:
448,192,47565,1,0,0:0:0:0:
320,192,47633,1,0,0:0:0:0:
64,192,47701,1,0,0:0:0:0:
192,192,47701,1,0,0:0:0:0:
448,192,47769,1,0,0:0:0:0:
320,192,47838,1,0,0:0:0:0:
64,192,47838,1,0,0:0:0:0:
192,192,47906,1,0,0:0:0:0:
64,192,47974,1,0,0:0:0:0:
448,192,47974,1,0,0:0:0:0:
320,192,48042,1,0,0:0:0:0:
192,192,48110,1,0,0:0:0:0:
64,192,48110,1,0,0:0:0:0:
448,192,48110,1,0,0:0:0:0:
320,192,48178,1,0,0:0:0:0:
64,192,48247,1,0,0:0:0:0:
192,192,48247,1,0,0:0:0:0:
320,192,48315,1,0,0:0:0:0:
192,192,48383,1,0,0:0:0:0:
448,192,48383,1,0,0:0:0:0:
64,192,48451,1,0,0:0:0:0:
448,192,48519,1,0,0:0:0:0:
192,192,48519,1,0,0:0:0:0:
320,192,48588,1,0,0:0:0:0:
192,192,48656,1,0,0:0:0:0:
64,192,48656,1,0,0:0:0:0:
448,192,48656,1,0,0:0:0:0:
320,192,48724,1,0,0:0:0:0:
64,192,48792,1,0,0:0:0:0:
192,192,48792,1,0,0:0:0:0:
448,192,48860,1,0,0:0:0:0:
320,192,48928,1,0,0:0:0:0:
64,192,48928,1,0,0:0:0:0:
192,192,48997,1,0,0:0:0:0:
64,192,49065,1,0,0:0:0:0:
448,192,49065,1,0,0:0:0:0:
320,192,49133,1,0,0:0:0:0:
448,192,49201,1,0,0:0:0:0:
192,192,49201,1,0,0:0:0:0:
320,192,49269,1,0,0:0:0:0:
192,192,49338,1,0,0:0:0:0:
64,192,49338,1,0,0:0:0:0:
448,192,49406,1,0,0:0:0:0:
64,192,49474,1,0,0:0:0:0:
320,192,49474,1,0,0:0:0:0:
192,192,49474,1,0,0:0:0:0:
448,192,49542,1,0,0:0:0:0:
64,192,49610,1,0,0:0:0:0:
320,192,49610,1,0,0:0:0:0:
192,192,49678,1,0,0:0:0:0:
64,192,49747,1,0,0:0:0:0:
320,192,49747,1,0,0:0:0:0:
448,192,49747,1,0,0:0:0:0:
192,192,49815,1,0,0:0:0:0:
320,192,49883,1,0,0:0:0:0:
448,192,49883,1,0,0:0:0:0:
64,192,49951,1,0,0:0:0:0:
192,192,50019,1,0,0:0:0:0:
448,192,50019,1,0,0:0:0:0:
320,192,50088,1,0,0:0:0:0:
64,192,50156,1,0,0:0:0:0:
448,192,50156,1,0,0:0:0:0:
192,192,50224,1,0,0:0:0:0:
64,192,50292,1,0,0:0:0:0:
320,192,50292,1,0,0:0:0:0:
448,192,50292,1,0,0:0:0:0:
192,192,50360,1,0,0:0:0:0:
448,192,50428,1,0,0:0:0:0:
320,192,50428,1,0,0:0:0:0:
64,192,50497,1,0,0:0:0:0:
192,192,50565,1,0,0:0:0:0:
320,192,50565,1,0,0:0:0:0:
448,192,50633,1,0,0:0:0:0:
64,192,50701,1,0,0:0:0:0:
320,192,50701,1,0,0:0:0:0:
192,192,50769,1,0,0:0:0:0:
64,192,50838,1,0,0:0:0:0:
320,192,50838,1,0,0:0:0:0:
448,192,50838,1,0,0:0:0:0:
192,192,50906,1,0,0:0:0:0:
320,192,50974,1,0,0:0:0:0:
448,192,50974,1,0,0:0:0:0:
64,192,51042,1,0,0:0:0:0:
192,192,51110,1,0,0:0:0:0:
448,192,51110,1,0,0:0:0:0:
320,192,51178,1,0,0:0:0:0:
64,192,51247,1,0,0:0:0:0:
448,192,51247,1,0,0:0:0:0:
192,192,51315,1,0,0:0:0:0:
320,192,51383,1,0,0:0:0:0:
448,192,51383,1,0,0:0:0:0:
192,192,51451,1,0,0:0:0:0:
320,192,51519,1,0,0:0:0:0:
448,192,51519,1,0,0:0:0:0:
64,192,51588,1,0,0:0:0:0:
192,192,51656,1,0,0:0:0:0:
448,192,51656,1,0,0:0:0:0:
320,192,51724,1,0,0:0:0:0:
64,192,51792,1,0,0:0:0:0:
448,192,51792,1,0,0:0:0:0:
192,192,51792,1,0,0:0:0:0:
320,192,51860,1,0,0:0:0:0:
192,192,51928,1,0,0:0:0:0:
64,192,51928,1,0,0:0:0:0:
448,192,51928,1,0,0:0:0:0:
320,192,51997,1,0,0:0:0:0:
192,192,52065,1,0,0:0:0:0:
448,192,52065,1,0,0:0:0:0:
64,192,52133,1,0,0:0:0:0:
448,192,52201,1,0,0:0:0:0:
192,192,52201,1,0,0:0:0:0:
320,192,52201,1,0,0:0:0:0:
64,192,52269,1,0,0:0:0:0:
192,192,52338,1,0,0:0:0:0:
320,192,52338,1,0,0:0:0:0:
64,192,52406,1,0,0:0:0:0:
192,192,52474,1,0,0:0:0:0:
448,192,52474,1,0,0:0:0:0:
320,192,52474,1,0,0:0:0:0:
64,192,52542,1,0,0:0:0:0:
448,192,52610,1,0,0:0:0:0:
192,192,52610,1,0,0:0:0:0:
320,192,52678,1,0,0:0:0:0:
64,192,52747,1,0,0:0:0:0:
192,192,52747,1,0,0:0:0:0:
320,192,52815,1,0,0:0:0:0:
192,192,52883,1,0,0:0:0:0:
64,192,52883,1,0,0:0:0:0:
448,192,52883,1,0,0:0:0:0:
320,192,52951,1,0,0:0:0:0:
192,192,53019,1,0,0:0:0:0:
64,192,53019,1,0,0:0:0:0:
448,192,53019,1,0,0:0:0:0:
320,192,53088,1,0,0:0:0:0:
64,192,53156,1,0,0:0:0:0:
448,192,53156,1,0,0:0:0:0:
192,192,53224,1,0,0:0:0:0:
320,192,53292,1,0,0:0:0:0:
448,192,53292,1,0,0:0:0:0:
64,192,53360,1,0,0:0:0:0:
192,192,53428,1,0,0:0:0:0:
448,192,53428,1,0,0:0:0:0:
320,192,53497,1,0,0:0:0:0:
192,192,53565,1,0,0:0:0:0:
64,192,53565,1,0,0:0:0:0:
448,192,53565,1,0,0:0:0:0:
320,192,53633,1,0,0:0:0:0:
192,192,53701,1,0,0:0:0:0:
64,192,53701,1,0,0:0:0:0:
448,192,53769,1,0,0:0:0:0:
64,192,53838,1,0,0:0:0:0:
320,192,53838,1,0,0:0:0:0:
192,192,53906,1,0,0:0:0:0:
320,192,53974,1,0,0:0:0:0:
448,192,53974,1,0,0:0:0:0:
64,192,53974,1,0,0:0:0:0:
192,192,54042,1,0,0:0:0:0:
320,192,54110,1,0,0:0:0:0:
448,192,54110,1,0,0:0:0:0:
64,192,54110,1,0,0:0:0:0:
192,192,54178,1,0,0:0:0:0:
320,192,54247,1,0,0:0:0:0:
448,192,54247,1,0,0:0:0:0:
64,192,54315,1,0,0:0:0:0:
192,192,54383,1,0,0:0:0:0:
320,192,54383,1,0,0:0:0:0:
448,192,54451,1,0,0:0:0:0:
64,192,54519,1,0,0:0:0:0:
320,192,54519,1,0,0:0:0:0:
192,192,54588,1,0,0:0:0:0:
64,192,54656,1,0,0:0:0:0:
320,192,54656,1,0,0:0:0:0:
448,192,54656,1,0,0:0:0:0:
192,192,54724,1,0,0:0:0:0:
320,192,54792,1,0,0:0:0:0:
448,192,54792,1,0,0:0:0:0:
64,192,54860,1,0,0:0:0:0:
448,192,54928,1,0,0:0:0:0:
192,192,54928,1,0,0:0:0:0:
320,192,54997,1,0,0:0:0:0:
64,192,55065,1,0,0:0:0:0:
448,192,55065,1,0,0:0:0:0:
192,192,55133,1,0,0:0:0:0:
320,192,55201,1,0,0:0:0:0:
64,192,55201,1,0,0:0:0:0:
448,192,55201,1,0,0:0:0:0:
192,192,55269,1,0,0:0:0:0:
448,192,55338,1,0,0:0:0:0:
320,192,55338,1,0,0:0:0:0:
64,192,55406,1,0,0:0:0:0:
192,192,55474,1,0,0:0:0:0:
320,192,55474,1,0,0:0:0:0:
448,192,55542,1,0,0:0:0:0:
64,192,55610,1,0,0:0:0:0:
320,192,55610,1,0,0:0:0:0:
192,192,55678,1,0,0:0:0:0:
320,192,55747,1,0,0:0:0:0:
448,192,55747,1,0,0:0:0:0:
192,192,55815,1,0,0:0:0:0:
64,192,55883,1,0,0:0:0:0:
320,192,55883,1,0,0:0:0:0:
448,192,55951,1,0,0:0:0:0:
192,192,56019,1,0,0:0:0:0:
64,192,56019,1,0,0:0:0:0:
320,192,56019,1,0,0:0:0:0:
448,192,56088,1,0,0:0:0:0:
320,192,56156,1,0,0:0:0:0:
192,192,56156,1,0,0:0:0:0:
64,192,56156,1,0,0:0:0:0:
448,192,56224,1,0,0:0:0:0:
320,192,56292,1,0,0:0:0:0:
192,192,56292,1,0,0:0:0:0:
64,192,56292,1,0,0:0:0:0:
448,192,56360,1,0,0:0:0:0:
192,192,56428,1,0,0:0:0:0:
64,192,56428,1,0,0:0:0:0:
320,192,56497,1,0,0:0:0:0:
192,192,56565,1,0,0:0:0:0:
448,192,56565,1,0,0:0:0:0:
64,192,56633,1,0,0:0:0:0:
320,192,56701,1,0,0:0:0:0:
448,192,56701,1,0,0:0:0:0:
192,192,56769,1,0,0:0:0:0:
64,192,56838,1,0,0:0:0:0:
320,192,56838,1,0,0:0:0:0:
448,192,56838,1,0,0:0:0:0:
192,192,56906,1,0,0:0:0:0:
448,192,56974,1,0,0:0:0:0:
64,192,56974,1,0,0:0:0:0:
320,192,57042,1,0,0:0:0:0:
192,192,57110,1,0,0:0:0:0:
64,192,57110,1,0,0:0:0:0:
448,192,57110,1,0,0:0:0:0:
320,192,57178,1,0,0:0:0:0:
64,192,57247,1,0,0:0:0:0:
192,192,57247,1,0,0:0:0:0:
448,192,57315,1,0,0:0:0:0:
320,192,57383,1,0,0:0:0:0:
192,192,57383,1,0,0:0:0:0:
64,192,57383,1,0,0:0:0:0:
448,192,57451,1,0,0:0:0:0:
320,192,57519,1,0,0:0:0:0:
64,192,57519,1,0,0:0:0:0:
192,192,57588,1,0,0:0:0:0:
64,192,57656,1,0,0:0:0:0:
320,192,57656,1,0,0:0:0:0:
448,192,57656,1,0,0:0:0:0:
192,192,57724,1,0,0:0:0:0:
448,192,57792,1,0,0:0:0:0:
64,192,57792,1,0,0:0:0:0:
320,192,57860,1,0,0:0:0:0:
192,192,57928,1,0,0:0:0:0:
64,192,57928,1,0,0:0:0:0:
448,192,57928,1,0,0:0:0:0:
320,192,57997,1,0,0:0:0:0:
192,192,58065,1,0,0:0:0:0:
448,192,58065,1,0,0:0:0:0:
64,192,58133,1,0,0:0:0:0:
192,192,58201,1,0,0:0:0:0:
320,192,58201,1,0,0:0:0:0:
448,192,58201,1,0,0:0:0:0:
64,192,58269,1,0,0:0:0:0:
320,192,58338,1,0,0:0:0:0:
448,192,58338,1,0,0:0:0:0:
192,192,58406,1,0,0:0:0:0:
64,192,58474,1,0,0:0:0:0:
320,192,58474,1,0,0:0:0:0:
448,192,58474,1,0,0:0:0:0:
192,192,58542,1,0,0:0:0:0:
448,192,58610,1,0,0:0:0:0:
64,192,58610,1,0,0:0:0:0:
320,192,58678,1,0,0:0:0:0:
192,192,58747,1,0,0:0:0:0:
64,192,58747,1,0,0:0:0:0:
448,192,58815,1,0,0:0:0:0:
64,192,58883,1,0,0:0:0:0:
320,192,58883,1,0,0:0:0:0:
192,192,58951,1,0,0:0:0:0:
64,192,59019,1,0,0:0:0:0:
320,192,59019,1,0,0:0:0:0:
448,192,59019,1,0,0:0:0:0:
192,192,59088,1,0,0:0:0:0:
448,192,59156,1,0,0:0:0:0:
320,192,59156,1,0,0:0:0:0:
64,192,59224,1,0,0:0:0:0:
192,192,59292,1,0,0:0:0:0:
320,192,59292,1,0,0:0:0:0:
448,192,59292,1,0,0:0:0:0:
64,192,59360,1,0,0:0:0:0:
192,192,59428,1,0,0:0:0:0:
448,192,59428,1,0,0:0:0:0:
320,192,59497,1,0,0:0:0:0:
192,192,59565,1,0,0:0:0:0:
64,192,59565,1,0,0:0:0:0:
448,192,59565,1,0,0:0:0:0:
320,192,59633,1,0,0:0:0:0:
64,192,59701,1,0,0:0:0:0:
192,192,59701,1,0,0:0:0:0:
448,192,59769,1,0,0:0:0:0:
64,192,59838,1,0,0:0:0:0:
320,192,59838,1,0,0:0:0:0:
192,192,59906,1,0,0:0:0:0:
448,192,59974,1,0,0:0:0:0:
320,192,59974,1,0,0:0:0:0:
64,192,60042,1,0,0:0:0:0:
192,192,60110,1,0,0:0:0:0:
320,192,60110,1,0,0:0:0:0:
448,192,60110,1,0,0:0:0:0:
64,192,60178,1,0,0:0:0:0:
448,192,60247,1,0,0:0:0:0:
192,192,60247,1,0,0:0:0:0:
320,192,60315,1,0,0:0:0:0:
64,192,60383,1,0,0:0:0:0:
192,192,60383,1,0,0:0:0:0:
448,192,60451,1,0,0:0:0:0:
192,192,60519,1,0,0:0:0:0:
320,192,60519,1,0,0:0:0:0:
64,192,60588,1,0,0:0:0:0:
192,192,60656,1,0,0:0:0:0:
320,192,60656,1,0,0:0:0:0:
448,192,60656,1,0,0:0:0:0:
64,192,60724,1,0,0:0:0:0:
448,192,60792,1,0,0:0:0:0:
320,192,60792,1,0,0:0:0:0:
64,192,60860,1,0,0:0:0:0:
320,192,60928,1,0,0:0:0:0:
448,192,60928,1,0,0:0:0:0:
192,192,60928,1,0,0:0:0:0:
64,192,60997,1,0,0:0:0:0:
320,192,61065,1,0,0:0:0:0:
192,192,61065,1,0,0:0:0:0:
64,192,61201,1,0,0:0:0:0:
448,192,61201,1,0,0:0:0:0:
192,192,61201,1,0,0:0:0:0:
320,192,61338,1,0,0:0:0:0:
448,192,61474,1,0,0:0:0:0:
320,192,61610,1,0,0:0:0:0:
192,192,61747,1,0,0:0:0:0:
448,192,61883,1,0,0:0:0:0:
320,192,62019,1,0,0:0:0:0:
192,192,62156,1,0,0:0:0:0:
64,192,62428,1,0,0:0:0:0:
320,192,62428,1,0,0:0:0:0:
448,192,62428,1,0,0:0:0:0:
64,192,62565,1,0,0:0:0:0:
320,192,62565,1,0,0:0:0:0:
192,192,62565,1,0,0:0:0:0:
192,192,62701,1,0,0:0:0:0:
448,192,62701,1,0,0:0:0:0:
64,192,62701,1,0,0:0:0:0:
64,192,62838,1,0,0:0:0:0:
448,192,62838,1,0,0:0:0:0:
320,192,62838,1,0,0:0:0:0:
192,192,63656,1,0,0:0:0:0:
320,192,63928,1,0,0:0:0:0:
448,192,64474,1,0,0:0:0:0:
192,192,65019,1,0,0:0:0:0:
64,192,65019,1,0,0:0:0:0:
320,192,65565,1,0,0:0:0:0:
448,192,66110,1,0,0:0:0:0:
192,192,66110,1,0,0:0:0:0:
192,192,66383,1,0,0:0:0:0:
320,192,66656,1,0,0:0:0:0:
320,192,66928,1,0,0:0:0:0:
64,192,67201,1,0,0:0:0:0:
192,192,67201,1,0,0:0:0:0:
320,192,68019,1,0,0:0:0:0:
448,192,68292,1,0,0:0:0:0:
64,192,68565,1,0,0:0:0:0:
320,192,68838,1,0,0:0:0:0:
192,192,69110,1,0,0:0:0:0:
448,192,69383,1,0,0:0:0:0:
320,192,69383,1,0,0:0:0:0:
64,192,70201,1,0,0:0:0:0:
192,192,70474,1,0,0:0:0:0:
448,192,70474,1,0,0:0:0:0:
320,192,70747,1,0,0:0:0:0:
64,192,71019,1,0,0:0:0:0:
448,192,71019,1,0,0:0:0:0:
192,192,71292,1,0,0:0:0:0:
320,192,71565,1,0,0:0:0:0:
448,192,71565,1,0,0:0:0:0:
192,192,71838,1,0,0:0:0:0:
320,192,72110,1,0,0:0:0:0:
64,192,72383,1,0,0:0:0:0:
448,192,72656,1,0,0:0:0:0:
192,192,72656,1,0,0:0:0:0:
320,192,72928,1,0,0:0:0:0:
192,192,72928,1,0,0:0:0:0:
192,192,73201,1,0,0:0:0:0:
64,192,73201,1,0,0:0:0:0:
448,192,73201,1,0,0:0:0:0:
192,192,73338,1,0,0:0:0:0:
64,192,73338,1,0,0:0:0:0:
320,192,73474,1,0,0:0:0:0:
192,192,73610,1,0,0:0:0:0:
64,192,73610,1,0,0:0:0:0:
64,192,73747,1,0,0:0:0:0:
448,192,73747,1,0,0:0:0:0:
320,192,73747,1,0,0:0:0:0:
192,192,74292,1,0,0:0:0:0:
320,192,74565,1,0,0:0:0:0:
320,192,74838,1,0,0:0:0:0:
64,192,75110,1,0,0:0:0:0:
320,192,75383,1,0,0:0:0:0:
192,192,75656,1,0,0:0:0:0:
448,192,75928,1,0,0:0:0:0:
320,192,76474,1,0,0:0:0:0:
448,192,76747,1,0,0:0:0:0:
448,192,77019,1,0,0:0:0:0:
192,192,77019,1,0,0:0:0:0:
64,192,77292,1,0,0:0:0:0:
192,192,77565,1,0,0:0:0:0:
320,192,77838,1,0,0:0:0:0:
320,192,78110,1,0,0:0:0:0:
448,192,78928,1,0,0:0:0:0:
448,192,79201,1,0,0:0:0:0:
192,192,79474,1,0,0:0:0:0:
64,192,79747,1,0,0:0:0:0:
320,192,79747,1,0,0:0:0:0:
448,192,80019,1,0,0:0:0:0:
192,192,80292,1,0,0:0:0:0:
192,192,80565,1,0,0:0:0:0:
320,192,80838,1,0,0:0:0:0:
64,192,81110,1,0,0:0:0:0:
448,192,81383,1,0,0:0:0:0:
320,192,81656,1,0,0:0:0:0:
192,192,81928,1,0,0:0:0:0:
64,192,82201,1,0,0:0:0:0:
320,192,82474,128,0,83565:0:0:0:0:
192,192,83565,128,0,84656:0:0:0:0:
64,192,84656,1,0,0:0:0:0:
448,192,84656,1,0,0:0:0:0:
192,192,84792,1,0,0:0:0:0:
64,192,84928,1,0,0:0:0:0:
320,192,84928,1,0,0:0:0:0:
192,192,85065,1,0,0:0:0:0:
64,192,85201,1,0,0:0:0:0:
448,192,85201,1,0,0:0:0:0:
192,192,85338,1,0,0:0:0:0:
64,192,85474,1,0,0:0:0:0:
320,192,85474,1,0,0:0:0:0:
192,192,85610,1,0,0:0:0:0:
64,192,85747,1,0,0:0:0:0:
448,192,85747,1,0,0:0:0:0:
192,192,85883,1,0,0:0:0:0:
64,192,86019,1,0,0:0:0:0:
320,192,86019,1,0,0:0:0:0:
192,192,86156,1,0,0:0:0:0:
64,192,86292,1,0,0:0:0:0:
448,192,86292,1,0,0:0:0:0:
192,192,86428,1,0,0:0:0:0:
320,192,86565,1,0,0:0:0:0:
448,192,86565,1,0,0:0:0:0:
64,192,86565,1,0,0:0:0:0:
448,192,86701,1,0,0:0:0:0:
320,192,86701,1,0,0:0:0:0:
192,192,86701,1,0,0:0:0:0:
64,192,86838,1,0,0:0:0:0:
448,192,86838,1,0,0:0:0:0:
320,192,86974,1,0,0:0:0:0:
192,192,87110,1,0,0:0:0:0:
448,192,87110,1,0,0:0:0:0:
320,192,87247,1,0,0:0:0:0:
64,192,87383,1,0,0:0:0:0:
448,192,87383,1,0,0:0:0:0:
320,192,87519,1,0,0:0:0:0:
448,192,87656,1,0,0:0:0:0:
192,192,87656,1,0,0:0:0:0:
320,192,87792,1,0,0:0:0:0:
64,192,87928,1,0,0:0:0:0:
320,192,87928,1,0,0:0:0:0:
448,192,88065,1,0,0:0:0:0:
448,192,88201,1,0,0:0:0:0:
192,192,88201,1,0,0:0:0:0:
320,192,88201,1,0,0:0:0:0:
320,192,88338,1,0,0:0:0:0:
448,192,88474,1,0,0:0:0:0:
192,192,88474,1,0,0:0:0:0:
448,192,88610,1,0,0:0:0:0:
192,192,88610,1,0,0:0:0:0:
448,192,88747,1,0,0:0:0:0:
192,192,88747,1,0,0:0:0:0:
192,192,88883,1,0,0:0:0:0:
448,192,88883,1,0,0:0:0:0:
192,192,89019,1,0,0:0:0:0:
448,192,89019,1,0,0:0:0:0:
64,192,89156,1,0,0:0:0:0:
192,192,89292,1,0,0:0:0:0:
448,192,89292,1,0,0:0:0:0:
64,192,89428,1,0,0:0:0:0:
192,192,89565,1,0,0:0:0:0:
320,192,89565,1,0,0:0:0:0:
64,192,89701,1,0,0:0:0:0:
192,192,89838,1,0,0:0:0:0:
448,192,89838,1,0,0:0:0:0:
64,192,89974,1,0,0:0:0:0:
192,192,90110,1,0,0:0:0:0:
320,192,90110,1,0,0:0:0:0:
64,192,90247,1,0,0:0:0:0:
448,192,90383,1,0,0:0:0:0:
192,192,90383,1,0,0:0:0:0:
64,192,90519,1,0,0:0:0:0:
320,192,90656,1,0,0:0:0:0:
192,192,90656,1,0,0:0:0:0:
64,192,90792,1,0,0:0:0:0:
192,192,90928,1,0,0:0:0:0:
448,192,90928,1,0,0:0:0:0:
448,192,91065,1,0,0:0:0:0:
192,192,91065,1,0,0:0:0:0:
64,192,91201,1,0,0:0:0:0:
320,192,91201,1,0,0:0:0:0:
448,192,91338,1,0,0:0:0:0:
320,192,91474,1,0,0:0:0:0:
192,192,91474,1,0,0:0:0:0:
448,192,91610,1,0,0:0:0:0:
320,192,91747,1,0,0:0:0:0:
64,192,91747,1,0,0:0:0:0:
448,192,91883,1,0,0:0:0:0:
320,192,92019,1,0,0:0:0:0:
192,192,92019,1,0,0:0:0:0:
448,192,92156,1,0,0:0:0:0:
64,192,92292,1,0,0:0:0:0:
448,192,92292,1,0,0:0:0:0:
64,192,92428,1,0,0:0:0:0:
320,192,92428,1,0,0:0:0:0:
64,192,92565,1,0,0:0:0:0:
448,192,92565,1,0,0:0:0:0:
64,192,92701,1,0,0:0:0:0:
320,192,92701,1,0,0:0:0:0:
192,192,92838,1,0,0:0:0:0:
448,192,92838,1,0,0:0:0:0:
64,192,92974,1,0,0:0:0:0:
320,192,92974,1,0,0:0:0:0:
64,192,93110,1,0,0:0:0:0:
448,192,93110,1,0,0:0:0:0:
192,192,93247,1,0,0:0:0:0:
320,192,93247,1,0,0:0:0:0:
320,192,93383,1,0,0:0:0:0:
192,192,93383,1,0,0:0:0:0:
448,192,93451,1,0,0:0:0:0:
64,192,93519,1,0,0:0:0:0:
192,192,93588,1,0,0:0:0:0:
320,192,93656,1,0,0:0:0:0:
64,192,93656,1,0,0:0:0:0:
448,192,93724,1,0,0:0:0:0:
192,192,93792,1,0,0:0:0:0:
320,192,93860,1,0,0:0:0:0:
448,192,93928,1,0,0:0:0:0:
64,192,93928,1,0,0:0:0:0:
320,192,93997,1,0,0:0:0:0:
192,192,94065,1,0,0:0:0:0:
448,192,94133,1,0,0:0:0:0:
320,192,94201,1,0,0:0:0:0:
64,192,94201,1,0,0:0:0:0:
192,192,94269,1,0,0:0:0:0:
448,192,94338,1,0,0:0:0:0:
192,192,94406,1,0,0:0:0:0:
448,192,94474,1,0,0:0:0:0:
64,192,94474,1,0,0:0:0:0:
320,192,94542,1,0,0:0:0:0:
448,192,94610,1,0,0:0:0:0:
192,192,94678,1,0,0:0:0:0:
320,192,94747,1,0,0:0:0:0:
64,192,94747,1,0,0:0:0:0:
448,192,94815,1,0,0:0:0:0:
64,192,94883,1,0,0:0:0:0:
192,192,94951,1,0,0:0:0:0:
448,192,95019,1,0,0:0:0:0:
64,192,95019,1,0,0:0:0:0:
320,192,95088,1,0,0:0:0:0:
192,192,95156,1,0,0:0:0:0:
320,192,95224,1,0,0:0:0:0:
448,192,95292,1,0,0:0:0:0:
64,192,95292,1,0,0:0:0:0:
320,192,95360,1,0,0:0:0:0:
448,192,95428,1,0,0:0:0:0:
64,192,95428,1,0,0:0:0:0:
320,192,95497,1,0,0:0:0:0:
64,192,95565,1,0,0:0:0:0:
192,192,95565,1,0,0:0:0:0:
448,192,95633,1,0,0:0:0:0:
320,192,95701,1,0,0:0:0:0:
64,192,95769,1,0,0:0:0:0:
448,192,95838,1,0,0:0:0:0:
192,192,95838,1,0,0:0:0:0:
320,192,95906,1,0,0:0:0:0:
64,192,95974,1,0,0:0:0:0:
320,192,96042,1,0,0:0:0:0:
448,192,96110,1,0,0:0:0:0:
64,192,96110,1,0,0:0:0:0:
192,192,96178,1,0,0:0:0:0:
320,192,96247,1,0,0:0:0:0:
64,192,96315,1,0,0:0:0:0:
192,192,96383,1,0,0:0:0:0:
448,192,96383,1,0,0:0:0:0:
320,192,96451,1,0,0:0:0:0:
64,192,96519,1,0,0:0:0:0:
448,192,96588,1,0,0:0:0:0:
320,192,96656,1,0,0:0:0:0:
64,192,96656,1,0,0:0:0:0:
192,192,96656,1,0,0:0:0:0:
448,192,96724,1,0,0:0:0:0:
64,192,96792,1,0,0:0:0:0:
192,192,96860,1,0,0:0:0:0:
448,192,96928,1,0,0:0:0:0:
64,192,96928,1,0,0:0:0:0:
320,192,96997,1,0,0:0:0:0:
64,192,97065,1,0,0:0:0:0:
320,192,97133,1,0,0:0:0:0:
192,192,97201,1,0,0:0:0:0:
448,192,97201,1,0,0:0:0:0:
64,192,97269,1,0,0:0:0:0:
448,192,97338,1,0,0:0:0:0:
192,192,97338,1,0,0:0:0:0:
64,192,97406,1,0,0:0:0:0:
192,192,97474,1,0,0:0:0:0:
448,192,97474,1,0,0:0:0:0:
64,192,97542,1,0,0:0:0:0:
448,192,97610,1,0,0:0:0:0:
192,192,97610,1,0,0:0:0:0:
64,192,97678,1,0,0:0:0:0:
192,192,97747,1,0,0:0:0:0:
448,192,97747,1,0,0:0:0:0:
320,192,97815,1,0,0:0:0:0:
64,192,97815,1,0,0:0:0:0:
448,192,97883,1,0,0:0:0:0:
64,192,97951,1,0,0:0:0:0:
192,192,97951,1,0,0:0:0:0:
448,192,98019,1,0,0:0:0:0:
320,192,98019,1,0,0:0:0:0:
64,192,98088,1,0,0:0:0:0:
192,192,98156,1,0,0:0:0:0:
320,192,98156,1,0,0:0:0:0:
64,192,98224,1,0,0:0:0:0:
448,192,98224,1,0,0:0:0:0:
320,192,98292,1,0,0:0:0:0:
192,192,98360,1,0,0:0:0:0:
64,192,98360,1,0,0:0:0:0:
448,192,98428,1,0,0:0:0:0:
320,192,98428,1,0,0:0:0:0:
192,192,98497,1,0,0:0:0:0:
64,192,98565,1,0,0:0:0:0:
448,192,98565,1,0,0:0:0:0:
320,192,98633,1,0,0:0:0:0:
192,192,98633,1,0,0:0:0:0:
448,192,98701,1,0,0:0:0:0:
64,192,98769,1,0,0:0:0:0:
192,192,98769,1,0,0:0:0:0:
320,192,98838,1,0,0:0:0:0:
448,192,98838,1,0,0:0:0:0:
64,192,98906,1,0,0:0:0:0:
192,192,98974,1,0,0:0:0:0:
448,192,98974,1,0,0:0:0:0:
320,192,99042,1,0,0:0:0:0:
64,192,99042,1,0,0:0:0:0:
448,192,99110,1,0,0:0:0:0:
192,192,99178,1,0,0:0:0:0:
64,192,99247,1,0,0:0:0:0:
320,192,99247,1,0,0:0:0:0:
448,192,99315,1,0,0:0:0:0:
192,192,99383,1,0,0:0:0:0:
320,192,99383,1,0,0:0:0:0:
64,192,99451,1,0,0:0:0:0:
448,192,99519,1,0,0:0:0:0:
320,192,99519,1,0,0:0:0:0:
192,192,99588,1,0,0:0:0:0:
64,192,99588,1,0,0:0:0:0:
448,192,99656,1,0,0:0:0:0:
320,192,99724,1,0,0:0:0:0:
64,192,99724,1,0,0:0:0:0:
448,192,99792,1,0,0:0:0:0:
192,192,99792,1,0,0:0:0:0:
64,192,99860,1,0,0:0:0:0:
320,192,99928,1,0,0:0:0:0:
192,192,99928,1,0,0:0:0:0:
320,192,100065,1,0,0:0:0:0:
64,192,100201,1,0,0:0:0:0:
192,192,100247,1,0,0:0:0:0:
320,192,100292,1,0,0:0:0:0:
64,192,100338,1,0,0:0:0:0:
192,192,100383,1,0,0:0:0:0:
448,192,100428,1,0,0:0:0:0:
320,192,100474,128,0,101019:0:0:0:0:
192,192,100747,1,0,0:0:0:0:
64,192,101019,1,0,0:0:0:0:
448,192,101019,1,0,0:0:0:0:
192,192,101156,1,0,0:0:0:0:
64,192,101292,1,0,0:0:0:0:
320,192,101428,1,0,0:0:0:0:
64,192,101565,1,0,0:0:0:0:
448,192,101565,1,0,0:0:0:0:
192,192,101701,1,0,0:0:0:0:
448,192,102110,1,0,0:0:0:0:
320,192,102110,1,0,0:0:0:0:
64,192,102110,1,0,0:0:0:0:
192,192,102178,1,0,0:0:0:0:
448,192,102247,1,0,0:0:0:0:
320,192,102247,1,0,0:0:0:0:
64,192,102315,1,0,0:0:0:0:
448,192,102383,1,0,0:0:0:0:
192,192,102383,1,0,0:0:0:0:
320,192,102451,1,0,0:0:0:0:
64,192,102519,1,0,0:0:0:0:
192,192,102519,1,0,0:0:0:0:
320,192,102588,1,0,0:0:0:0:
192,192,102656,1,0,0:0:0:0:
64,192,102656,1,0,0:0:0:0:
448,192,102656,1,0,0:0:0:0:
320,192,102724,1,0,0:0:0:0:
64,192,102792,1,0,0:0:0:0:
192,192,102792,1,0,0:0:0:0:
448,192,102860,1,0,0:0:0:0:
64,192,102928,1,0,0:0:0:0:
320,192,102928,1,0,0:0:0:0:
192,192,102997,1,0,0:0:0:0:
320,192,103065,1,0,0:0:0:0:
448,192,103065,1,0,0:0:0:0:
64,192,103133,1,0,0:0:0:0:
192,192,103201,1,0,0:0:0:0:
320,192,103201,1,0,0:0:0:0:
448,192,103201,1,0,0:0:0:0:
64,192,103269,1,0,0:0:0:0:
320,192,103338,1,0,0:0:0:0:
448,192,103338,1,0,0:0:0:0:
192,192,103406,1,0,0:0:0:0:
64,192,103474,1,0,0:0:0:0:
320,192,103474,1,0,0:0:0:0:
448,192,103474,1,0,0:0:0:0:
192,192,103542,1,0,0:0:0:0:
320,192,103610,1,0,0:0:0:0:
448,192,103610,1,0,0:0:0:0:
64,192,103678,1,0,0:0:0:0:
192,192,103747,1,0,0:0:0:0:
448,192,103747,1,0,0:0:0:0:
320,192,103747,1,0,0:0:0:0:
64,192,103815,1,0,0:0:0:0:
320,192,103883,1,0,0:0:0:0:
448,192,103883,1,0,0:0:0:0:
192,192,103951,1,0,0:0:0:0:
448,192,104019,1,0,0:0:0:0:
320,192,104019,1,0,0:0:0:0:
64,192,104019,1,0,0:0:0:0:
192,192,104088,1,0,0:0:0:0:
64,192,104156,1,0,0:0:0:0:
320,192,104156,1,0,0:0:0:0:
448,192,104224,1,0,0:0:0:0:
320,192,104292,1,0,0:0:0:0:
64,192,104292,1,0,0:0:0:0:
192,192,104292,1,0,0:0:0:0:
448,192,104360,1,0,0:0:0:0:
64,192,104428,1,0,0:0:0:0:
320,192,104428,1,0,0:0:0:0:
192,192,104497,1,0,0:0:0:0:
448,192,104565,1,0,0:0:0:0:
64,192,104565,1,0,0:0:0:0:
320,192,104633,1,0,0:0:0:0:
192,192,104701,1,0,0:0:0:0:
64,192,104701,1,0,0:0:0:0:
448,192,104769,1,0,0:0:0:0:
320,192,104838,1,0,0:0:0:0:
192,192,104838,1,0,0:0:0:0:
64,192,104838,1,0,0:0:0:0:
448,192,104906,1,0,0:0:0:0:
192,192,104974,1,0,0:0:0:0:
64,192,104974,1,0,0:0:0:0:
320,192,105042,1,0,0:0:0:0:
192,192,105110,1,0,0:0:0:0:
448,192,105110,1,0,0:0:0:0:
64,192,105110,1,0,0:0:0:0:
320,192,105178,1,0,0:0:0:0:
64,192,105247,1,0,0:0:0:0:
192,192,105247,1,0,0:0:0:0:
448,192,105315,1,0,0:0:0:0:
64,192,105383,1,0,0:0:0:0:
192,192,105383,1,0,0:0:0:0:
320,192,105383,1,0,0:0:0:0:
448,192,105451,1,0,0:0:0:0:
192,192,105519,1,0,0:0:0:0:
320,192,105519,1,0,0:0:0:0:
64,192,105588,1,0,0:0:0:0:
192,192,105656,1,0,0:0:0:0:
448,192,105656,1,0,0:0:0:0:
320,192,105656,1,0,0:0:0:0:
64,192,105724,1,0,0:0:0:0:
192,192,105792,1,0,0:0:0:0:
448,192,105792,1,0,0:0:0:0:
320,192,105860,1,0,0:0:0:0:
192,192,105928,1,0,0:0:0:0:
64,192,105928,1,0,0:0:0:0:
448,192,105928,1,0,0:0:0:0:
320,192,105997,1,0,0:0:0:0:
64,192,106065,1,0,0:0:0:0:
448,192,106065,1,0,0:0:0:0:
192,192,106133,1,0,0:0:0:0:
64,192,106201,1,0,0:0:0:0:
320,192,106201,1,0,0:0:0:0:
448,192,106201,1,0,0:0:0:0:
192,192,106269,1,0,0:0:0:0:
448,192,106338,1,0,0:0:0:0:
320,192,106338,1,0,0:0:0:0:
64,192,106406,1,0,0:0:0:0:
192,192,106474,1,0,0:0:0:0:
320,192,106474,1,0,0:0:0:0:
448,192,106474,1,0,0:0:0:0:
64,192,106542,1,0,0:0:0:0:
448,192,106610,1,0,0:0:0:0:
192,192,106610,1,0,0:0:0:0:
320,192,106678,1,0,0:0:0:0:
64,192,106747,1,0,0:0:0:0:
448,192,106747,1,0,0:0:0:0:
192,192,106815,1,0,0:0:0:0:
320,192,106883,1,0,0:0:0:0:
448,192,106883,1,0,0:0:0:0:
192,192,106951,1,0,0:0:0:0:
64,192,107019,1,0,0:0:0:0:
320,192,107019,1,0,0:0:0:0:
448,192,107019,1,0,0:0:0:0:
192,192,107088,1,0,0:0:0:0:
448,192,107156,1,0,0:0:0:0:
320,192,107156,1,0,0:0:0:0:
64,192,107224,1,0,0:0:0:0:
192,192,107292,1,0,0:0:0:0:
320,192,107292,1,0,0:0:0:0:
448,192,107292,1,0,0:0:0:0:
64,192,107360,1,0,0:0:0:0:
192,192,107428,1,0,0:0:0:0:
448,192,107428,1,0,0:0:0:0:
320,192,107497,1,0,0:0:0:0:
192,192,107565,1,0,0:0:0:0:
64,192,107565,1,0,0:0:0:0:
448,192,107565,1,0,0:0:0:0:
320,192,107633,1,0,0:0:0:0:
64,192,107701,1,0,0:0:0:0:
192,192,107701,1,0,0:0:0:0:
448,192,107769,1,0,0:0:0:0:
320,192,107838,1,0,0:0:0:0:
192,192,107838,1,0,0:0:0:0:
64,192,107838,1,0,0:0:0:0:
448,192,107906,1,0,0:0:0:0:
64,192,107974,1,0,0:0:0:0:
320,192,107974,1,0,0:0:0:0:
192,192,108042,1,0,0:0:0:0:
64,192,108110,1,0,0:0:0:0:
320,192,108110,1,0,0:0:0:0:
448,192,108110,1,0,0:0:0:0:
192,192,108178,1,0,0:0:0:0:
448,192,108247,1,0,0:0:0:0:
320,192,108247,1,0,0:0:0:0:
64,192,108315,1,0,0:0:0:0:
192,192,108383,1,0,0:0:0:0:
320,192,108383,1,0,0:0:0:0:
448,192,108383,1,0,0:0:0:0:
64,192,108451,1,0,0:0:0:0:
448,192,108519,1,0,0:0:0:0:
320,192,108519,1,0,0:0:0:0:
192,192,108588,1,0,0:0:0:0:
64,192,108656,1,0,0:0:0:0:
320,192,108656,1,0,0:0:0:0:
448,192,108656,1,0,0:0:0:0:
192,192,108724,1,0,0:0:0:0:
448,192,108792,1,0,0:0:0:0:
320,192,108792,1,0,0:0:0:0:
64,192,108860,1,0,0:0:0:0:
320,192,108928,1,0,0:0:0:0:
192,192,108928,1,0,0:0:0:0:
448,192,108997,1,0,0:0:0:0:
192,192,109065,1,0,0:0:0:0:
64,192,109065,1,0,0:0:0:0:
320,192,109133,1,0,0:0:0:0:
192,192,109201,1,0,0:0:0:0:
448,192,109201,1,0,0:0:0:0:
64,192,109201,1,0,0:0:0:0:
320,192,109269,1,0,0:0:0:0:
64,192,109338,1,0,0:0:0:0:
192,192,109338,1,0,0:0:0:0:
448,192,109406,1,0,0:0:0:0:
64,192,109474,1,0,0:0:0:0:
320,192,109474,1,0,0:0:0:0:
192,192,109474,1,0,0:0:0:0:
448,192,109542,1,0,0:0:0:0:
64,192,109610,1,0,0:0:0:0:
320,192,109610,1,0,0:0:0:0:
192,192,109678,1,0,0:0:0:0:
448,192,109747,1,0,0:0:0:0:
320,192,109747,1,0,0:0:0:0:
64,192,109747,1,0,0:0:0:0:
192,192,109815,1,0,0:0:0:0:
64,192,109883,1,0,0:0:0:0:
320,192,109883,1,0,0:0:0:0:
448,192,109951,1,0,0:0:0:0:
64,192,110019,1,0,0:0:0:0:
192,192,110019,1,0,0:0:0:0:
320,192,110019,1,0,0:0:0:0:
448,192,110088,1,0,0:0:0:0:
64,192,110156,1,0,0:0:0:0:
192,192,110156,1,0,0:0:0:0:
320,192,110224,1,0,0:0:0:0:
192,192,110292,1,0,0:0:0:0:
64,192,110292,1,0,0:0:0:0:
448,192,110292,1,0,0:0:0:0:
320,192,110360,1,0,0:0:0:0:
192,192,110428,1,0,0:0:0:0:
64,192,110428,1,0,0:0:0:0:
448,192,110497,1,0,0:0:0:0:
192,192,110565,1,0,0:0:0:0:
320,192,110565,1,0,0:0:0:0:
64,192,110565,1,0,0:0:0:0:
448,192,110633,1,0,0:0:0:0:
64,192,110701,1,0,0:0:0:0:
320,192,110701,1,0,0:0:0:0:
192,192,110769,1,0,0:0:0:0:
448,192,110838,1,0,0:0:0:0:
320,192,110838,1,0,0:0:0:0:
64,192,110838,1,0,0:0:0:0:
192,192,110906,1,0,0:0:0:0:
320,192,110974,1,0,0:0:0:0:
448,192,110974,1,0,0:0:0:0:
64,192,111042,1,0,0:0:0:0:
192,192,111110,1,0,0:0:0:0:
448,192,111110,1,0,0:0:0:0:
320,192,111178,1,0,0:0:0:0:
64,192,111247,1,0,0:0:0:0:
192,192,111247,1,0,0:0:0:0:
448,192,111315,1,0,0:0:0:0:
320,192,111383,1,0,0:0:0:0:
192,192,111383,1,0,0:0:0:0:
64,192,111383,1,0,0:0:0:0:
448,192,111451,1,0,0:0:0:0:
64,192,111519,1,0,0:0:0:0:
192,192,111519,1,0,0:0:0:0:
320,192,111588,1,0,0:0:0:0:
64,192,111656,1,0,0:0:0:0:
192,192,111656,1,0,0:0:0:0:
448,192,111656,1,0,0:0:0:0:
320,192,111724,1,0,0:0:0:0:
192,192,111792,1,0,0:0:0:0:
448,192,111792,1,0,0:0:0:0:
64,192,111860,1,0,0:0:0:0:
192,192,111928,1,0,0:0:0:0:
320,192,111928,1,0,0:0:0:0:
448,192,111928,1,0,0:0:0:0:
64,192,111997,1,0,0:0:0:0:
320,192,112065,1,0,0:0:0:0:
448,192,112065,1,0,0:0:0:0:
192,192,112133,1,0,0:0:0:0:
64,192,112201,1,0,0:0:0:0:
448,192,112201,1,0,0:0:0:0:
320,192,112201,1,0,0:0:0:0:
192,192,112269,1,0,0:0:0:0:
320,192,112338,1,0,0:0:0:0:
448,192,112338,1,0,0:0:0:0:
64,192,112406,1,0,0:0:0:0:
192,192,112474,1,0,0:0:0:0:
448,192,112474,1,0,0:0:0:0:
320,192,112474,1,0,0:0:0:0:
64,192,112542,1,0,0:0:0:0:
192,192,112610,1,0,0:0:0:0:
448,192,112610,1,0,0:0:0:0:
320,192,112678,1,0,0:0:0:0:
192,192,112747,1,0,0:0:0:0:
64,192,112747,1,0,0:0:0:0:
448,192,112747,1,0,0:0:0:0:
320,192,112815,1,0,0:0:0:0:
64,192,112883,1,0,0:0:0:0:
448,192,112883,1,0,0:0:0:0:
192,192,112951,1,0,0:0:0:0:
64,192,113019,1,0,0:0:0:0:
320,192,113019,1,0,0:0:0:0:
448,192,113019,1,0,0:0:0:0:
192,192,113088,1,0,0:0:0:0:
64,192,113156,1,0,0:0:0:0:
320,192,113156,1,0,0:0:0:0:
448,192,113224,1,0,0:0:0:0:
192,192,113292,1,0,0:0:0:0:
320,192,113292,1,0,0:0:0:0:
64,192,113360,1,0,0:0:0:0:
192,192,113428,1,0,0:0:0:0:
448,192,113428,1,0,0:0:0:0:
320,192,113497,1,0,0:0:0:0:
192,192,113565,1,0,0:0:0:0:
64,192,113565,1,0,0:0:0:0:
448,192,113565,1,0,0:0:0:0:
320,192,113633,1,0,0:0:0:0:
192,192,113701,1,0,0:0:0:0:
64,192,113701,1,0,0:0:0:0:
448,192,113769,1,0,0:0:0:0:
320,192,113838,1,0,0:0:0:0:
192,192,113838,1,0,0:0:0:0:
64,192,113838,1,0,0:0:0:0:
448,192,113906,1,0,0:0:0:0:
64,192,113974,1,0,0:0:0:0:
192,192,113974,1,0,0:0:0:0:
320,192,114042,1,0,0:0:0:0:
192,192,114110,1,0,0:0:0:0:
64,192,114110,1,0,0:0:0:0:
448,192,114110,1,0,0:0:0:0:
320,192,114178,1,0,0:0:0:0:
64,192,114247,1,0,0:0:0:0:
192,192,114247,1,0,0:0:0:0:
448,192,114315,1,0,0:0:0:0:
192,192,114383,1,0,0:0:0:0:
64,192,114383,1,0,0:0:0:0:
320,192,114451,1,0,0:0:0:0:
192,192,114519,1,0,0:0:0:0:
448,192,114519,1,0,0:0:0:0:
64,192,114588,1,0,0:0:0:0:
192,192,114656,1,0,0:0:0:0:
320,192,114656,1,0,0:0:0:0:
448,192,114656,1,0,0:0:0:0:
64,192,114724,1,0,0:0:0:0:
320,192,114792,1,0,0:0:0:0:
448,192,114792,1,0,0:0:0:0:
192,192,114860,1,0,0:0:0:0:
64,192,114928,1,0,0:0:0:0:
320,192,114928,1,0,0:0:0:0:
448,192,114928,1,0,0:0:0:0:
192,192,114997,1,0,0:0:0:0:
448,192,115065,1,0,0:0:0:0:
320,192,115065,1,0,0:0:0:0:
64,192,115133,1,0,0:0:0:0:
320,192,115201,1,0,0:0:0:0:
192,192,115201,1,0,0:0:0:0:
448,192,115201,1,0,0:0:0:0:
64,192,115269,1,0,0:0:0:0:
192,192,115338,1,0,0:0:0:0:
448,192,115338,1,0,0:0:0:0:
320,192,115406,1,0,0:0:0:0:
64,192,115474,1,0,0:0:0:0:
192,192,115474,1,0,0:0:0:0:
448,192,115542,1,0,0:0:0:0:
320,192,115610,1,0,0:0:0:0:
64,192,115610,1,0,0:0:0:0:
192,192,115678,1,0,0:0:0:0:
64,192,115747,1,0,0:0:0:0:
448,192,115747,1,0,0:0:0:0:
320,192,115747,1,0,0:0:0:0:
192,192,115815,1,0,0:0:0:0:
64,192,115883,1,0,0:0:0:0:
320,192,115883,1,0,0:0:0:0:
448,192,115951,1,0,0:0:0:0:
192,192,116019,1,0,0:0:0:0:
64,192,116019,1,0,0:0:0:0:
320,192,116019,1,0,0:0:0:0:
448,192,116088,1,0,0:0:0:0:
64,192,116156,1,0,0:0:0:0:
320,192,116156,1,0,0:0:0:0:
192,192,116224,1,0,0:0:0:0:
64,192,116292,1,0,0:0:0:0:
320,192,116292,1,0,0:0:0:0:
448,192,116292,1,0,0:0:0:0:
192,192,116360,1,0,0:0:0:0:
320,192,116428,1,0,0:0:0:0:
448,192,116428,1,0,0:0:0:0:
64,192,116497,1,0,0:0:0:0:
192,192,116565,1,0,0:0:0:0:
448,192,116565,1,0,0:0:0:0:
320,192,116565,1,0,0:0:0:0:
64,192,116633,1,0,0:0:0:0:
192,192,116701,1,0,0:0:0:0:
320,192,116701,1,0,0:0:0:0:
448,192,116769,1,0,0:0:0:0:
64,192,116838,1,0,0:0:0:0:
192,192,116838,1,0,0:0:0:0:
320,192,116838,1,0,0:0:0:0:
448,192,116906,1,0,0:0:0:0:
64,192,116974,1,0,0:0:0:0:
320,192,116974,1,0,0:0:0:0:
192,192,117042,1,0,0:0:0:0:
64,192,117110,1,0,0:0:0:0:
320,192,117110,1,0,0:0:0:0:
448,192,117110,1,0,0:0:0:0:
192,192,117178,1,0,0:0:0:0:
448,192,117247,1,0,0:0:0:0:
320,192,117247,1,0,0:0:0:0:
64,192,117315,1,0,0:0:0:0:
192,192,117383,1,0,0:0:0:0:
320,192,117383,1,0,0:0:0:0:
448,192,117383,1,0,0:0:0:0:
64,192,117451,1,0,0:0:0:0:
192,192,117519,1,0,0:0:0:0:
448,192,117519,1,0,0:0:0:0:
320,192,117588,1,0,0:0:0:0:
192,192,117656,1,0,0:0:0:0:
64,192,117656,1,0,0:0:0:0:
448,192,117656,1,0,0:0:0:0:
320,192,117724,1,0,0:0:0:0:
64,192,117792,1,0,0:0:0:0:
192,192,117792,1,0,0:0:0:0:
448,192,117860,1,0,0:0:0:0:
320,192,117928,1,0,0:0:0:0:
192,192,117928,1,0,0:0:0:0:
64,192,117928,1,0,0:0:0:0:
448,192,117997,1,0,0:0:0:0:
64,192,118065,1,0,0:0:0:0:
320,192,118065,1,0,0:0:0:0:
192,192,118133,1,0,0:0:0:0:
64,192,118201,1,0,0:0:0:0:
320,192,118201,1,0,0:0:0:0:
448,192,118201,1,0,0:0:0:0:
192,192,118269,1,0,0:0:0:0:
64,192,118338,1,0,0:0:0:0:
448,192,118338,1,0,0:0:0:0:
320,192,118406,1,0,0:0:0:0:
192,192,118474,1,0,0:0:0:0:
64,192,118474,1,0,0:0:0:0:
448,192,118474,1,0,0:0:0:0:
320,192,118542,1,0,0:0:0:0:
64,192,118610,1,0,0:0:0:0:
192,192,118610,1,0,0:0:0:0:
448,192,118678,1,0,0:0:0:0:
320,192,118747,1,0,0:0:0:0:
192,192,118747,1,0,0:0:0:0:
64,192,118747,1,0,0:0:0:0:
448,192,118815,1,0,0:0:0:0:
192,192,118883,1,0,0:0:0:0:
320,192,118883,1,0,0:0:0:0:
64,192,118951,1,0,0:0:0:0:
192,192,119019,1,0,0:0:0:0:
320,192,119019,1,0,0:0:0:0:
448,192,119019,1,0,0:0:0:0:
64,192,119088,1,0,0:0:0:0:
192,192,119156,1,0,0:0:0:0:
448,192,119156,1,0,0:0:0:0:
320,192,119224,1,0,0:0:0:0:
64,192,119292,1,0,0:0:0:0:
448,192,119292,1,0,0:0:0:0:
192,192,119428,1,0,0:0:0:0:
64,192,119565,1,0,0:0:0:0:
320,192,119565,1,0,0:0:0:0:
448,192,119565,1,0,0:0:0:0:
192,192,119633,1,0,0:0:0:0:
448,192,119701,1,0,0:0:0:0:
64,192,119701,1,0,0:0:0:0:
320,192,119769,1,0,0:0:0:0:
192,192,119769,1,0,0:0:0:0:
448,192,119838,1,0,0:0:0:0:
64,192,119906,1,0,0:0:0:0:
448,192,119974,1,0,0:0:0:0:
192,192,119974,1,0,0:0:0:0:
320,192,120042,1,0,0:0:0:0:
64,192,120110,1,0,0:0:0:0:
192,192,120178,1,0,0:0:0:0:
448,192,120178,1,0,0:0:0:0:
320,192,120247,1,0,0:0:0:0:
448,192,120315,1,0,0:0:0:0:
64,192,120383,1,0,0:0:0:0:
320,192,120383,1,0,0:0:0:0:
192,192,120451,1,0,0:0:0:0:
64,192,120519,1,0,0:0:0:0:
448,192,120588,1,0,0:0:0:0:
320,192,120588,1,0,0:0:0:0:
192,192,120656,1,0,0:0:0:0:
64,192,120656,1,0,0:0:0:0:
448,192,120724,1,0,0:0:0:0:
320,192,120792,1,0,0:0:0:0:
192,192,120860,1,0,0:0:0:0:
64,192,120860,1,0,0:0:0:0:
448,192,120928,1,0,0:0:0:0:
192,192,120997,1,0,0:0:0:0:
320,192,121065,1,0,0:0:0:0:
448,192,121065,1,0,0:0:0:0:
64,192,121133,1,0,0:0:0:0:
192,192,121201,1,0,0:0:0:0:
320,192,121269,1,0,0:0:0:0:
448,192,121269,1,0,0:0:0:0:
64,192,121338,1,0,0:0:0:0:
448,192,121406,1,0,0:0:0:0:
192,192,121474,1,0,0:0:0:0:
320,192,121474,1,0,0:0:0:0:
64,192,121542,1,0,0:0:0:0:
448,192,121610,1,0,0:0:0:0:
64,192,121678,1,0,0:0:0:0:
320,192,121678,1,0,0:0:0:0:
192,192,121747,1,0,0:0:0:0:
448,192,121747,1,0,0:0:0:0:
320,192,121815,1,0,0:0:0:0:
64,192,121883,1,0,0:0:0:0:
448,192,121951,1,0,0:0:0:0:
192,192,121951,1,0,0:0:0:0:
320,192,122019,1,0,0:0:0:0:
64,192,122088,1,0,0:0:0:0:
192,192,122156,1,0,0:0:0:0:
448,192,122156,1,0,0:0:0:0:
320,192,122224,1,0,0:0:0:0:
192,192,122292,1,0,0:0:0:0:
64,192,122360,1,0,0:0:0:0:
320,192,122360,1,0,0:0:0:0:
448,192,122428,1,0,0:0:0:0:
192,192,122497,1,0,0:0:0:0:
320,192,122565,1,0,0:0:0:0:
64,192,122565,1,0,0:0:0:0:
448,192,122633,1,0,0:0:0:0:
64,192,122701,1,0,0:0:0:0:
192,192,122769,1,0,0:0:0:0:
320,192,122769,1,0,0:0:0:0:
64,192,122838,1,0,0:0:0:0:
448,192,122838,1,0,0:0:0:0:
192,192,122906,1,0,0:0:0:0:
320,192,122974,1,0,0:0:0:0:
192,192,123042,1,0,0:0:0:0:
64,192,123042,1,0,0:0:0:0:
448,192,123110,1,0,0:0:0:0:
320,192,123178,1,0,0:0:0:0:
192,192,123247,1,0,0:0:0:0:
64,192,123247,1,0,0:0:0:0:
448,192,123315,1,0,0:0:0:0:
192,192,123383,1,0,0:0:0:0:
448,192,123451,1,0,0:0:0:0:
320,192,123451,1,0,0:0:0:0:
64,192,123519,1,0,0:0:0:0:
192,192,123588,1,0,0:0:0:0:
448,192,123656,1,0,0:0:0:0:
320,192,123656,1,0,0:0:0:0:
64,192,123724,1,0,0:0:0:0:
320,192,123792,1,0,0:0:0:0:
448,192,123860,1,0,0:0:0:0:
64,192,123860,1,0,0:0:0:0:
320,192,123928,1,0,0:0:0:0:
192,192,123928,1,0,0:0:0:0:
448,192,123997,1,0,0:0:0:0:
64,192,124065,1,0,0:0:0:0:
192,192,124133,1,0,0:0:0:0:
448,192,124133,1,0,0:0:0:0:
320,192,124201,1,0,0:0:0:0:
64,192,124269,1,0,0:0:0:0:
448,192,124338,1,0,0:0:0:0:
192,192,124338,1,0,0:0:0:0:
320,192,124406,1,0,0:0:0:0:
64,192,124474,1,0,0:0:0:0:
192,192,124542,1,0,0:0:0:0:
448,192,124542,1,0,0:0:0:0:
320,192,124610,1,0,0:0:0:0:
448,192,124678,1,0,0:0:0:0:
64,192,124747,1,0,0:0:0:0:
320,192,124747,1,0,0:0:0:0:
192,192,124815,1,0,0:0:0:0:
64,192,124883,1,0,0:0:0:0:
448,192,124951,1,0,0:0:0:0:
320,192,124951,1,0,0:0:0:0:
192,192,125019,1,0,0:0:0:0:
64,192,125019,1,0,0:0:0:0:
448,192,125088,1,0,0:0:0:0:
320,192,125156,1,0,0:0:0:0:
192,192,125224,1,0,0:0:0:0:
64,192,125224,1,0,0:0:0:0:
448,192,125292,1,0,0:0:0:0:
192,192,125360,1,0,0:0:0:0:
320,192,125428,1,0,0:0:0:0:
448,192,125428,1,0,0:0:0:0:
64,192,125497,1,0,0:0:0:0:
192,192,125565,1,0,0:0:0:0:
320,192,125633,1,0,0:0:0:0:
448,192,125633,1,0,0:0:0:0:
64,192,125701,1,0,0:0:0:0:
448,192,125769,1,0,0:0:0:0:
192,192,125838,1,0,0:0:0:0:
320,192,125838,1,0,0:0:0:0:
64,192,125906,1,0,0:0:0:0:
448,192,125974,1,0,0:0:0:0:
64,192,126042,1,0,0:0:0:0:
320,192,126042,1,0,0:0:0:0:
192,192,126110,1,0,0:0:0:0:
448,192,126110,1,0,0:0:0:0:
320,192,126178,1,0,0:0:0:0:
64,192,126247,1,0,0:0:0:0:
448,192,126315,1,0,0:0:0:0:
192,192,126315,1,0,0:0:0:0:
320,192,126383,1,0,0:0:0:0:
64,192,126451,1,0,0:0:0:0:
192,192,126519,1,0,0:0:0:0:
448,192,126519,1,0,0:0:0:0:
320,192,126588,1,0,0:0:0:0:
192,192,126656,1,0,0:0:0:0:
64,192,126724,1,0,0:0:0:0:
320,192,126724,1,0,0:0:0:0:
448,192,126792,1,0,0:0:0:0:
192,192,126860,1,0,0:0:0:0:
320,192,126928,1,0,0:0:0:0:
64,192,126928,1,0,0:0:0:0:
448,192,126997,1,0,0:0:0:0:
64,192,127065,1,0,0:0:0:0:
192,192,127133,1,0,0:0:0:0:
320,192,127133,1,0,0:0:0:0:
64,192,127201,1,0,0:0:0:0:
448,192,127201,1,0,0:0:0:0:
192,192,127269,1,0,0:0:0:0:
320,192,127338,1,0,0:0:0:0:
192,192,127406,1,0,0:0:0:0:
64,192,127406,1,0,0:0:0:0:
448,192,127474,1,0,0:0:0:0:
320,192,127542,1,0,0:0:0:0:
192,192,127610,1,0,0:0:0:0:
64,192,127610,1,0,0:0:0:0:
448,192,127678,1,0,0:0:0:0:
192,192,127747,1,0,0:0:0:0:
448,192,127815,1,0,0:0:0:0:
320,192,127815,1,0,0:0:0:0:
64,192,127883,1,0,0:0:0:0:
192,192,127951,1,0,0:0:0:0:
448,192,128019,1,0,0:0:0:0:
320,192,128019,1,0,0:0:0:0:
64,192,128088,1,0,0:0:0:0:
320,192,128156,1,0,0:0:0:0:
448,192,128224,1,0,0:0:0:0:
64,192,128224,1,0,0:0:0:0:
320,192,128292,1,0,0:0:0:0:
192,192,128292,1,0,0:0:0:0:
64,192,128360,1,0,0:0:0:0:
448,192,128428,1,0,0:0:0:0:
320,192,128497,1,0,0:0:0:0:
64,192,128497,1,0,0:0:0:0:
192,192,128565,1,0,0:0:0:0:
64,192,128633,1,0,0:0:0:0:
192,192,128701,1,0,0:0:0:0:
448,192,128701,1,0,0:0:0:0:
320,192,128769,1,0,0:0:0:0:
64,192,128838,1,0,0:0:0:0:
448,192,128906,1,0,0:0:0:0:
192,192,128906,1,0,0:0:0:0:
320,192,128974,1,0,0:0:0:0:
448,192,129042,1,0,0:0:0:0:
320,192,129110,1,0,0:0:0:0:
64,192,129110,1,0,0:0:0:0:
192,192,129178,1,0,0:0:0:0:
64,192,129247,1,0,0:0:0:0:
320,192,129315,1,0,0:0:0:0:
448,192,129315,1,0,0:0:0:0:
64,192,129383,1,0,0:0:0:0:
192,192,129383,1,0,0:0:0:0:
448,192,129451,1,0,0:0:0:0:
320,192,129519,1,0,0:0:0:0:
64,192,129588,1,0,0:0:0:0:
192,192,129588,1,0,0:0:0:0:
448,192,129656,1,0,0:0:0:0:
192,192,129724,1,0,0:0:0:0:
448,192,129792,1,0,0:0:0:0:
320,192,129792,1,0,0:0:0:0:
64,192,129860,1,0,0:0:0:0:
192,192,129928,1,0,0:0:0:0:
448,192,129997,1,0,0:0:0:0:
320,192,129997,1,0,0:0:0:0:
64,192,130065,1,0,0:0:0:0:
448,192,130133,1,0,0:0:0:0:
320,192,130201,1,0,0:0:0:0:
192,192,130201,1,0,0:0:0:0:
64,192,130269,1,0,0:0:0:0:
448,192,130338,1,0,0:0:0:0:
320,192,130406,1,0,0:0:0:0:
64,192,130406,1,0,0:0:0:0:
448,192,130474,1,0,0:0:0:0:
192,192,130474,1,0,0:0:0:0:
320,192,130542,1,0,0:0:0:0:
64,192,130610,1,0,0:0:0:0:
192,192,130678,1,0,0:0:0:0:
448,192,130678,1,0,0:0:0:0:
320,192,130747,1,0,0:0:0:0:
64,192,130815,1,0,0:0:0:0:
448,192,130883,1,0,0:0:0:0:
192,192,130883,1,0,0:0:0:0:
320,192,130951,1,0,0:0:0:0:
192,192,131019,1,0,0:0:0:0:
320,192,131088,1,0,0:0:0:0:
64,192,131088,1,0,0:0:0:0:
448,192,131156,1,0,0:0:0:0:
192,192,131224,1,0,0:0:0:0:
64,192,131292,1,0,0:0:0:0:
320,192,131292,1,0,0:0:0:0:
448,192,131360,1,0,0:0:0:0:
64,192,131428,1,0,0:0:0:0:
320,192,131497,1,0,0:0:0:0:
192,192,131497,1,0,0:0:0:0:
448,192,131565,1,0,0:0:0:0:
64,192,131565,1,0,0:0:0:0:
192,192,131633,1,0,0:0:0:0:
320,192,131701,1,0,0:0:0:0:
64,192,131769,1,0,0:0:0:0:
192,192,131769,1,0,0:0:0:0:
448,192,131838,1,0,0:0:0:0:
320,192,131906,1,0,0:0:0:0:
64,192,131974,1,0,0:0:0:0:
192,192,131974,1,0,0:0:0:0:
448,192,132042,1,0,0:0:0:0:
192,192,132110,1,0,0:0:0:0:
320,192,132178,1,0,0:0:0:0:
448,192,132178,1,0,0:0:0:0:
64,192,132247,1,0,0:0:0:0:
192,192,132315,1,0,0:0:0:0:
320,192,132383,1,0,0:0:0:0:
448,192,132383,1,0,0:0:0:0:
64,192,132451,1,0,0:0:0:0:
320,192,132519,1,0,0:0:0:0:
64,192,132588,1,0,0:0:0:0:
448,192,132588,1,0,0:0:0:0:
192,192,132656,1,0,0:0:0:0:
320,192,132656,1,0,0:0:0:0:
64,192,132724,1,0,0:0:0:0:
448,192,132792,1,0,0:0:0:0:
320,192,132860,1,0,0:0:0:0:
64,192,132860,1,0,0:0:0:0:
192,192,132928,1,0,0:0:0:0:
64,192,132997,1,0,0:0:0:0:
448,192,133065,1,0,0:0:0:0:
192,192,133065,1,0,0:0:0:0:
320,192,133133,1,0,0:0:0:0:
64,192,133201,1,0,0:0:0:0:
192,192,133269,1,0,0:0:0:0:
448,192,133269,1,0,0:0:0:0:
320,192,133338,1,0,0:0:0:0:
448,192,133406,1,0,0:0:0:0:
64,192,133474,1,0,0:0:0:0:
320,192,133474,1,0,0:0:0:0:
192,192,133542,1,0,0:0:0:0:
64,192,133610,1,0,0:0:0:0:
448,192,133678,1,0,0:0:0:0:
320,192,133678,1,0,0:0:0:0:
192,192,133747,1,0,0:0:0:0:
64,192,133747,1,0,0:0:0:0:
448,192,133815,1,0,0:0:0:0:
320,192,133883,1,0,0:0:0:0:
192,192,133951,1,0,0:0:0:0:
64,192,133951,1,0,0:0:0:0:
448,192,134019,1,0,0:0:0:0:
192,192,134088,1,0,0:0:0:0:
320,192,134156,1,0,0:0:0:0:
448,192,134156,1,0,0:0:0:0:
64,192,134224,1,0,0:0:0:0:
192,192,134292,1,0,0:0:0:0:
320,192,134360,1,0,0:0:0:0:
448,192,134360,1,0,0:0:0:0:
64,192,134428,1,0,0:0:0:0:
448,192,134497,1,0,0:0:0:0:
192,192,134565,1,0,0:0:0:0:
320,192,134565,1,0,0:0:0:0:
64,192,134633,1,0,0:0:0:0:
448,192,134701,1,0,0:0:0:0:
64,192,134769,1,0,0:0:0:0:
320,192,134769,1,0,0:0:0:0:
192,192,134838,1,0,0:0:0:0:
448,192,134838,1,0,0:0:0:0:
320,192,134906,1,0,0:0:0:0:
64,192,134974,1,0,0:0:0:0:
448,192,135042,1,0,0:0:0:0:
320,192,135110,1,0,0:0:0:0:
64,192,135178,1,0,0:0:0:0:
448,192,135247,1,0,0:0:0:0:
320,192,135315,1,0,0:0:0:0:
64,192,135383,1,0,0:0:0:0:
448,192,135451,1,0,0:0:0:0:
320,192,135519,1,0,0:0:0:0:
64,192,135588,1,0,0:0:0:0:
448,192,135656,1,0,0:0:0:0:
320,192,135724,1,0,0:0:0:0:
64,192,135792,1,0,0:0:0:0:
320,192,135860,1,0,0:0:0:0:
448,192,135928,1,0,0:0:0:0:
192,192,135997,1,0,0:0:0:0:
64,192,136065,1,0,0:0:0:0:
320,192,136133,1,0,0:0:0:0:
448,192,136201,1,0,0:0:0:0:
64,192,136269,1,0,0:0:0:0:
320,192,136338,1,0,0:0:0:0:
448,192,136406,1,0,0:0:0:0:
64,192,136474,1,0,0:0:0:0:
320,192,136542,1,0,0:0:0:0:
448,192,136610,1,0,0:0:0:0:
64,192,136678,1,0,0:0:0:0:
320,192,136747,1,0,0:0:0:0:
448,192,136815,1,0,0:0:0:0:
64,192,136883,1,0,0:0:0:0:
320,192,136951,1,0,0:0:0:0:
192,192,137019,1,0,0:0:0:0:
64,192,137019,1,0,0:0:0:0:
448,192,137088,1,0,0:0:0:0:
320,192,137156,1,0,0:0:0:0:
64,192,137156,1,0,0:0:0:0:
192,192,137224,1,0,0:0:0:0:
320,192,137292,1,0,0:0:0:0:
448,192,137292,1,0,0:0:0:0:
64,192,137360,1,0,0:0:0:0:
192,192,137428,1,0,0:0:0:0:
448,192,137428,1,0,0:0:0:0:
320,192,137497,1,0,0:0:0:0:
192,192,137565,1,0,0:0:0:0:
64,192,137565,1,0,0:0:0:0:
448,192,137633,1,0,0:0:0:0:
64,192,137701,1,0,0:0:0:0:
320,192,137701,1,0,0:0:0:0:
192,192,137769,1,0,0:0:0:0:
448,192,137838,1,0,0:0:0:0:
320,192,137838,1,0,0:0:0:0:
64,192,137906,1,0,0:0:0:0:
448,192,137974,1,0,0:0:0:0:
192,192,137974,1,0,0:0:0:0:
320,192,138042,1,0,0:0:0:0:
192,192,138110,1,0,0:0:0:0:
64,192,138110,1,0,0:0:0:0:
448,192,138178,1,0,0:0:0:0:
64,192,138247,1,0,0:0:0:0:
320,192,138247,1,0,0:0:0:0:
192,192,138315,1,0,0:0:0:0:
448,192,138383,1,0,0:0:0:0:
320,192,138383,1,0,0:0:0:0:
64,192,138451,1,0,0:0:0:0:
192,192,138519,1,0,0:0:0:0:
448,192,138519,1,0,0:0:0:0:
320,192,138588,1,0,0:0:0:0:
64,192,138656,1,0,0:0:0:0:
192,192,138656,1,0,0:0:0:0:
448,192,138724,1,0,0:0:0:0:
320,192,138792,1,0,0:0:0:0:
64,192,138792,1,0,0:0:0:0:
192,192,138860,1,0,0:0:0:0:
448,192,138928,1,0,0:0:0:0:
320,192,138928,1,0,0:0:0:0:
64,192,138997,1,0,0:0:0:0:
192,192,139065,1,0,0:0:0:0:
448,192,139065,1,0,0:0:0:0:
320,192,139133,1,0,0:0:0:0:
64,192,139201,1,0,0:0:0:0:
192,192,139201,1,0,0:0:0:0:
448,192,139269,1,0,0:0:0:0:
64,192,139338,1,0,0:0:0:0:
320,192,139338,1,0,0:0:0:0:
192,192,139406,1,0,0:0:0:0:
448,192,139474,1,0,0:0:0:0:
320,192,139474,1,0,0:0:0:0:
64,192,139542,1,0,0:0:0:0:
192,192,139610,1,0,0:0:0:0:
448,192,139610,1,0,0:0:0:0:
320,192,139678,1,0,0:0:0:0:
192,192,139747,1,0,0:0:0:0:
64,192,139747,1,0,0:0:0:0:
448,192,139815,1,0,0:0:0:0:
64,192,139883,1,0,0:0:0:0:
320,192,139883,1,0,0:0:0:0:
192,192,139951,1,0,0:0:0:0:
448,192,140019,1,0,0:0:0:0:
320,192,140019,1,0,0:0:0:0:
64,192,140088,1,0,0:0:0:0:
192,192,140156,1,0,0:0:0:0:
448,192,140156,1,0,0:0:0:0:
320,192,140224,1,0,0:0:0:0:
64,192,140292,1,0,0:0:0:0:
192,192,140292,1,0,0:0:0:0:
448,192,140360,1,0,0:0:0:0:
64,192,140428,1,0,0:0:0:0:
320,192,140428,1,0,0:0:0:0:
192,192,140497,1,0,0:0:0:0:
448,192,140565,1,0,0:0:0:0:
320,192,140565,1,0,0:0:0:0:
64,192,140633,1,0,0:0:0:0:
192,192,140701,1,0,0:0:0:0:
448,192,140701,1,0,0:0:0:0:
320,192,140769,1,0,0:0:0:0:
192,192,140838,1,0,0:0:0:0:
64,192,140838,1,0,0:0:0:0:
448,192,140906,1,0,0:0:0:0:
192,192,140974,1,0,0:0:0:0:
64,192,140974,1,0,0:0:0:0:
320,192,141042,1,0,0:0:0:0:
192,192,141110,1,0,0:0:0:0:
64,192,141110,1,0,0:0:0:0:
448,192,141178,1,0,0:0:0:0:
192,192,141247,1,0,0:0:0:0:
64,192,141247,1,0,0:0:0:0:
320,192,141315,1,0,0:0:0:0:
192,192,141383,1,0,0:0:0:0:
64,192,141383,1,0,0:0:0:0:
320,192,141451,1,0,0:0:0:0:
64,192,141519,1,0,0:0:0:0:
448,192,141519,1,0,0:0:0:0:
192,192,141588,1,0,0:0:0:0:
320,192,141656,1,0,0:0:0:0:
64,192,141656,1,0,0:0:0:0:
448,192,141724,1,0,0:0:0:0:
64,192,141792,1,0,0:0:0:0:
192,192,141792,1,0,0:0:0:0:
320,192,141860,1,0,0:0:0:0:
64,192,141928,1,0,0:0:0:0:
448,192,141928,1,0,0:0:0:0:
320,192,141997,1,0,0:0:0:0:
64,192,142065,1,0,0:0:0:0:
448,192,142065,1,0,0:0:0:0:
320,192,142133,1,0,0:0:0:0:
448,192,142201,1,0,0:0:0:0:
192,192,142201,1,0,0:0:0:0:
64,192,142269,1,0,0:0:0:0:
320,192,142338,1,0,0:0:0:0:
448,192,142406,1,0,0:0:0:0:
192,192,142474,1,0,0:0:0:0:
64,192,142474,1,0,0:0:0:0:
320,192,142542,1,0,0:0:0:0:
64,192,142610,1,0,0:0:0:0:
448,192,142610,1,0,0:0:0:0:
192,192,142678,1,0,0:0:0:0:
320,192,142747,1,0,0:0:0:0:
64,192,142747,1,0,0:0:0:0:
448,192,142815,1,0,0:0:0:0:
192,192,142883,1,0,0:0:0:0:
64,192,142883,1,0,0:0:0:0:
320,192,142951,1,0,0:0:0:0:
64,192,143019,1,0,0:0:0:0:
448,192,143019,1,0,0:0:0:0:
320,192,143088,1,0,0:0:0:0:
64,192,143156,1,0,0:0:0:0:
448,192,143156,1,0,0:0:0:0:
320,192,143224,1,0,0:0:0:0:
192,192,143292,1,0,0:0:0:0:
448,192,143292,1,0,0:0:0:0:
64,192,143360,1,0,0:0:0:0:
448,192,143428,1,0,0:0:0:0:
320,192,143497,1,0,0:0:0:0:
64,192,143565,1,0,0:0:0:0:
192,192,143565,1,0,0:0:0:0:
320,192,143633,1,0,0:0:0:0:
448,192,143701,1,0,0:0:0:0:
64,192,143701,1,0,0:0:0:0:
192,192,143769,1,0,0:0:0:0:
64,192,143838,1,0,0:0:0:0:
320,192,143838,1,0,0:0:0:0:
448,192,143906,1,0,0:0:0:0:
64,192,143974,1,0,0:0:0:0:
192,192,143974,1,0,0:0:0:0:
320,192,144042,1,0,0:0:0:0:
448,192,144110,1,0,0:0:0:0:
64,192,144110,1,0,0:0:0:0:
320,192,144178,1,0,0:0:0:0:
448,192,144247,1,0,0:0:0:0:
64,192,144247,1,0,0:0:0:0:
320,192,144315,1,0,0:0:0:0:
448,192,144383,1,0,0:0:0:0:
192,192,144383,1,0,0:0:0:0:
64,192,144451,1,0,0:0:0:0:
320,192,144519,1,0,0:0:0:0:
448,192,144588,1,0,0:0:0:0:
192,192,144656,1,0,0:0:0:0:
64,192,144656,1,0,0:0:0:0:
320,192,144724,1,0,0:0:0:0:
64,192,144792,1,0,0:0:0:0:
192,192,144792,1,0,0:0:0:0:
320,192,145065,1,0,0:0:0:0:
64,192,145201,1,0,0:0:0:0:
448,192,145201,1,0,0:0:0:0:
192,192,145201,1,0,0:0:0:0:
64,192,145338,1,0,0:0:0:0:
448,192,145338,1,0,0:0:0:0:
192,192,145338,1,0,0:0:0:0:
320,192,145474,1,0,0:0:0:0:
64,192,145474,1,0,0:0:0:0:
192,192,145610,1,0,0:0:0:0:
448,192,145747,1,0,0:0:0:0:
320,192,145747,1,0,0:0:0:0:
64,192,145747,1,0,0:0:0:0:
192,192,145815,1,0,0:0:0:0:
64,192,145883,1,0,0:0:0:0:
448,192,145883,1,0,0:0:0:0:
320,192,145951,1,0,0:0:0:0:
448,192,146019,1,0,0:0:0:0:
192,192,146019,1,0,0:0:0:0:
64,192,146088,1,0,0:0:0:0:
448,192,146156,1,0,0:0:0:0:
320,192,146156,1,0,0:0:0:0:
192,192,146224,1,0,0:0:0:0:
64,192,146292,1,0,0:0:0:0:
448,192,146292,1,0,0:0:0:0:
192,192,146360,1,0,0:0:0:0:
64,192,146428,1,0,0:0:0:0:
448,192,146428,1,0,0:0:0:0:
192,192,146497,1,0,0:0:0:0:
64,192,146565,1,0,0:0:0:0:
320,192,146565,1,0,0:0:0:0:
448,192,146633,1,0,0:0:0:0:
64,192,146701,1,0,0:0:0:0:
192,192,146769,1,0,0:0:0:0:
320,192,146838,1,0,0:0:0:0:
448,192,146838,1,0,0:0:0:0:
192,192,146906,1,0,0:0:0:0:
448,192,146974,1,0,0:0:0:0:
64,192,146974,1,0,0:0:0:0:
320,192,147042,1,0,0:0:0:0:
192,192,147110,1,0,0:0:0:0:
448,192,147110,1,0,0:0:0:0:
64,192,147178,1,0,0:0:0:0:
320,192,147247,1,0,0:0:0:0:
448,192,147247,1,0,0:0:0:0:
192,192,147315,1,0,0:0:0:0:
448,192,147383,1,0,0:0:0:0:
64,192,147383,1,0,0:0:0:0:
192,192,147451,1,0,0:0:0:0:
448,192,147519,1,0,0:0:0:0:
64,192,147519,1,0,0:0:0:0:
192,192,147588,1,0,0:0:0:0:
320,192,147656,1,0,0:0:0:0:
64,192,147656,1,0,0:0:0:0:
448,192,147724,1,0,0:0:0:0:
192,192,147792,1,0,0:0:0:0:
64,192,147860,1,0,0:0:0:0:
448,192,147928,1,0,0:0:0:0:
320,192,147928,1,0,0:0:0:0:
192,192,147997,1,0,0:0:0:0:
64,192,148065,1,0,0:0:0:0:
448,192,148065,1,0,0:0:0:0:
320,192,148133,1,0,0:0:0:0:
448,192,148201,1,0,0:0:0:0:
192,192,148201,1,0,0:0:0:0:
64,192,148269,1,0,0:0:0:0:
448,192,148338,1,0,0:0:0:0:
320,192,148338,1,0,0:0:0:0:
192,192,148406,1,0,0:0:0:0:
64,192,148474,1,0,0:0:0:0:
448,192,148474,1,0,0:0:0:0:
192,192,148542,1,0,0:0:0:0:
64,192,148610,1,0,0:0:0:0:
448,192,148610,1,0,0:0:0:0:
192,192,148678,1,0,0:0:0:0:
64,192,148747,1,0,0:0:0:0:
320,192,148747,1,0,0:0:0:0:
448,192,148815,1,0,0:0:0:0:
64,192,148883,1,0,0:0:0:0:
192,192,148951,1,0,0:0:0:0:
320,192,149019,1,0,0:0:0:0:
448,192,149019,1,0,0:0:0:0:
192,192,149088,1,0,0:0:0:0:
448,192,149156,1,0,0:0:0:0:
64,192,149156,1,0,0:0:0:0:
320,192,149224,1,0,0:0:0:0:
192,192,149292,1,0,0:0:0:0:
448,192,149292,1,0,0:0:0:0:
64,192,149360,1,0,0:0:0:0:
320,192,149428,1,0,0:0:0:0:
448,192,149428,1,0,0:0:0:0:
192,192,149497,1,0,0:0:0:0:
448,192,149565,1,0,0:0:0:0:
64,192,149565,1,0,0:0:0:0:
192,192,149633,1,0,0:0:0:0:
448,192,149701,1,0,0:0:0:0:
64,192,149701,1,0,0:0:0:0:
192,192,149769,1,0,0:0:0:0:
320,192,149838,1,0,0:0:0:0:
64,192,149838,1,0,0:0:0:0:
448,192,149906,1,0,0:0:0:0:
192,192,149974,1,0,0:0:0:0:
64,192,150042,1,0,0:0:0:0:
448,192,150110,1,0,0:0:0:0:
320,192,150110,1,0,0:0:0:0:
192,192,150178,1,0,0:0:0:0:
64,192,150247,1,0,0:0:0:0:
448,192,150247,1,0,0:0:0:0:
320,192,150315,1,0,0:0:0:0:
448,192,150383,1,0,0:0:0:0:
192,192,150383,1,0,0:0:0:0:
64,192,150451,1,0,0:0:0:0:
448,192,150519,1,0,0:0:0:0:
320,192,150519,1,0,0:0:0:0:
192,192,150588,1,0,0:0:0:0:
64,192,150656,1,0,0:0:0:0:
448,192,150656,1,0,0:0:0:0:
192,192,150724,1,0,0:0:0:0:
64,192,150792,1,0,0:0:0:0:
448,192,150792,1,0,0:0:0:0:
192,192,150860,1,0,0:0:0:0:
64,192,150928,1,0,0:0:0:0:
320,192,150928,1,0,0:0:0:0:
448,192,150997,1,0,0:0:0:0:
64,192,151065,1,0,0:0:0:0:
192,192,151133,1,0,0:0:0:0:
320,192,151201,1,0,0:0:0:0:
448,192,151201,1,0,0:0:0:0:
192,192,151269,1,0,0:0:0:0:
448,192,151338,1,0,0:0:0:0:
64,192,151338,1,0,0:0:0:0:
320,192,151406,1,0,0:0:0:0:
192,192,151474,1,0,0:0:0:0:
448,192,151474,1,0,0:0:0:0:
64,192,151542,1,0,0:0:0:0:
320,192,151610,1,0,0:0:0:0:
448,192,151610,1,0,0:0:0:0:
192,192,151678,1,0,0:0:0:0:
448,192,151747,1,0,0:0:0:0:
64,192,151747,1,0,0:0:0:0:
192,192,151815,1,0,0:0:0:0:
448,192,151883,1,0,0:0:0:0:
64,192,151883,1,0,0:0:0:0:
192,192,151951,1,0,0:0:0:0:
320,192,152019,1,0,0:0:0:0:
448,192,152019,1,0,0:0:0:0:
64,192,152088,1,0,0:0:0:0:
320,192,152156,1,0,0:0:0:0:
448,192,152224,1,0,0:0:0:0:
64,192,152292,1,0,0:0:0:0:
192,192,152292,1,0,0:0:0:0:
320,192,152360,1,0,0:0:0:0:
64,192,152428,1,0,0:0:0:0:
448,192,152428,1,0,0:0:0:0:
192,192,152497,1,0,0:0:0:0:
64,192,152565,1,0,0:0:0:0:
320,192,152565,1,0,0:0:0:0:
448,192,152633,1,0,0:0:0:0:
64,192,152701,1,0,0:0:0:0:
192,192,152701,1,0,0:0:0:0:
320,192,152769,1,0,0:0:0:0:
448,192,152838,1,0,0:0:0:0:
64,192,152838,1,0,0:0:0:0:
320,192,152906,1,0,0:0:0:0:
448,192,152974,1,0,0:0:0:0:
64,192,152974,1,0,0:0:0:0:
320,192,153042,1,0,0:0:0:0:
448,192,153110,1,0,0:0:0:0:
192,192,153110,1,0,0:0:0:0:
64,192,153178,1,0,0:0:0:0:
320,192,153247,1,0,0:0:0:0:
192,192,153315,1,0,0:0:0:0:
64,192,153383,1,0,0:0:0:0:
448,192,153383,1,0,0:0:0:0:
320,192,153383,1,0,0:0:0:0:
192,192,153519,5,0,0:0:0:0:
448,192,153519,1,0,0:0:0:0:
320,192,153792,1,0,0:0:0:0:
448,192,153792,1,0,0:0:0:0:
64,192,153792,1,0,0:0:0:0:
448,192,153928,1,0,0:0:0:0:
320,192,153928,1,0,0:0:0:0:
64,192,153928,1,0,0:0:0:0:
192,192,154065,1,0,0:0:0:0:
320,192,154201,1,0,0:0:0:0:
448,192,154201,1,0,0:0:0:0:
64,192,154201,1,0,0:0:0:0:
64,192,154338,1,0,0:0:0:0:
448,192,154474,5,0,0:0:0:0:
320,192,154474,1,0,0:0:0:0:
192,192,154474,1,0,0:0:0:0:
64,192,154542,1,0,0:0:0:0:
448,192,154610,1,0,0:0:0:0:
192,192,154610,1,0,0:0:0:0:
320,192,154678,1,0,0:0:0:0:
448,192,154747,1,0,0:0:0:0:
64,192,154747,1,0,0:0:0:0:
192,192,154815,1,0,0:0:0:0:
448,192,154883,1,0,0:0:0:0:
320,192,154883,1,0,0:0:0:0:
64,192,154951,1,0,0:0:0:0:
448,192,155019,1,0,0:0:0:0:
192,192,155019,1,0,0:0:0:0:
320,192,155088,1,0,0:0:0:0:
448,192,155156,1,0,0:0:0:0:
64,192,155156,1,0,0:0:0:0:
192,192,155224,1,0,0:0:0:0:
320,192,155292,1,0,0:0:0:0:
448,192,155292,1,0,0:0:0:0:
64,192,155292,1,0,0:0:0:0:
192,192,155360,1,0,0:0:0:0:
64,192,155428,1,0,0:0:0:0:
320,192,155428,1,0,0:0:0:0:
448,192,155497,1,0,0:0:0:0:
64,192,155565,1,0,0:0:0:0:
192,192,155565,1,0,0:0:0:0:
320,192,155565,1,0,0:0:0:0:
448,192,155633,1,0,0:0:0:0:
64,192,155701,1,0,0:0:0:0:
192,192,155701,1,0,0:0:0:0:
320,192,155769,1,0,0:0:0:0:
64,192,155838,1,0,0:0:0:0:
192,192,155838,1,0,0:0:0:0:
448,192,155838,1,0,0:0:0:0:
320,192,155906,1,0,0:0:0:0:
64,192,155974,1,0,0:0:0:0:
448,192,155974,1,0,0:0:0:0:
192,192,156042,1,0,0:0:0:0:
320,192,156110,1,0,0:0:0:0:
448,192,156110,1,0,0:0:0:0:
64,192,156110,1,0,0:0:0:0:
192,192,156178,1,0,0:0:0:0:
448,192,156247,1,0,0:0:0:0:
320,192,156247,1,0,0:0:0:0:
64,192,156315,1,0,0:0:0:0:
192,192,156383,1,0,0:0:0:0:
448,192,156383,1,0,0:0:0:0:
320,192,156383,1,0,0:0:0:0:
64,192,156451,1,0,0:0:0:0:
448,192,156519,1,0,0:0:0:0:
320,192,156519,1,0,0:0:0:0:
192,192,156588,1,0,0:0:0:0:
320,192,156656,1,0,0:0:0:0:
448,192,156656,1,0,0:0:0:0:
64,192,156656,1,0,0:0:0:0:
192,192,156724,1,0,0:0:0:0:
448,192,156792,1,0,0:0:0:0:
320,192,156792,1,0,0:0:0:0:
64,192,156860,1,0,0:0:0:0:
192,192,156928,1,0,0:0:0:0:
320,192,156928,1,0,0:0:0:0:
448,192,156997,1,0,0:0:0:0:
64,192,157065,1,0,0:0:0:0:
320,192,157065,1,0,0:0:0:0:
192,192,157133,1,0,0:0:0:0:
320,192,157201,1,0,0:0:0:0:
448,192,157201,1,0,0:0:0:0:
64,192,157201,1,0,0:0:0:0:
192,192,157269,1,0,0:0:0:0:
448,192,157338,1,0,0:0:0:0:
320,192,157338,1,0,0:0:0:0:
64,192,157406,1,0,0:0:0:0:
448,192,157474,1,0,0:0:0:0:
192,192,157474,1,0,0:0:0:0:
320,192,157542,1,0,0:0:0:0:
448,192,157610,1,0,0:0:0:0:
64,192,157610,1,0,0:0:0:0:
192,192,157678,1,0,0:0:0:0:
320,192,157747,1,0,0:0:0:0:
448,192,157747,1,0,0:0:0:0:
64,192,157747,1,0,0:0:0:0:
192,192,157815,1,0,0:0:0:0:
448,192,157883,1,0,0:0:0:0:
320,192,157883,1,0,0:0:0:0:
64,192,157951,1,0,0:0:0:0:
192,192,158019,1,0,0:0:0:0:
448,192,158019,1,0,0:0:0:0:
320,192,158088,1,0,0:0:0:0:
448,192,158156,1,0,0:0:0:0:
64,192,158156,1,0,0:0:0:0:
192,192,158224,1,0,0:0:0:0:
64,192,158292,1,0,0:0:0:0:
320,192,158292,1,0,0:0:0:0:
192,192,158360,1,0,0:0:0:0:
320,192,158428,1,0,0:0:0:0:
448,192,158428,1,0,0:0:0:0:
64,192,158497,1,0,0:0:0:0:
448,192,158565,1,0,0:0:0:0:
192,192,158565,1,0,0:0:0:0:
320,192,158565,1,0,0:0:0:0:
64,192,158633,1,0,0:0:0:0:
448,192,158701,1,0,0:0:0:0:
192,192,158701,1,0,0:0:0:0:
320,192,158769,1,0,0:0:0:0:
448,192,158838,1,0,0:0:0:0:
192,192,158838,1,0,0:0:0:0:
64,192,158838,1,0,0:0:0:0:
320,192,158906,1,0,0:0:0:0:
192,192,158974,1,0,0:0:0:0:
64,192,158974,1,0,0:0:0:0:
448,192,159042,1,0,0:0:0:0:
320,192,159110,1,0,0:0:0:0:
64,192,159110,1,0,0:0:0:0:
192,192,159178,1,0,0:0:0:0:
448,192,159247,1,0,0:0:0:0:
64,192,159247,1,0,0:0:0:0:
320,192,159315,1,0,0:0:0:0:
448,192,159383,1,0,0:0:0:0:
192,192,159383,1,0,0:0:0:0:
64,192,159383,1,0,0:0:0:0:
320,192,159451,1,0,0:0:0:0:
64,192,159519,1,0,0:0:0:0:
192,192,159519,1,0,0:0:0:0:
448,192,159588,1,0,0:0:0:0:
320,192,159656,1,0,0:0:0:0:
192,192,159656,1,0,0:0:0:0:
64,192,159724,1,0,0:0:0:0:
448,192,159792,1,0,0:0:0:0:
192,192,159792,1,0,0:0:0:0:
320,192,159860,1,0,0:0:0:0:
448,192,159928,1,0,0:0:0:0:
192,192,159928,1,0,0:0:0:0:
64,192,159928,1,0,0:0:0:0:
320,192,159997,1,0,0:0:0:0:
192,192,160065,1,0,0:0:0:0:
64,192,160065,1,0,0:0:0:0:
448,192,160133,1,0,0:0:0:0:
320,192,160201,1,0,0:0:0:0:
64,192,160201,1,0,0:0:0:0:
192,192,160269,1,0,0:0:0:0:
448,192,160338,1,0,0:0:0:0:
64,192,160338,1,0,0:0:0:0:
320,192,160406,1,0,0:0:0:0:
192,192,160474,1,0,0:0:0:0:
64,192,160474,1,0,0:0:0:0:
320,192,160542,1,0,0:0:0:0:
192,192,160610,1,0,0:0:0:0:
448,192,160610,1,0,0:0:0:0:
64,192,160678,1,0,0:0:0:0:
320,192,160747,1,0,0:0:0:0:
448,192,160747,1,0,0:0:0:0:
64,192,160815,1,0,0:0:0:0:
448,192,160883,1,0,0:0:0:0:
320,192,160883,1,0,0:0:0:0:
192,192,160883,1,0,0:0:0:0:
64,192,160951,1,0,0:0:0:0:
320,192,161019,1,0,0:0:0:0:
448,192,161019,1,0,0:0:0:0:
192,192,161019,1,0,0:0:0:0:
64,192,161088,1,0,0:0:0:0:
192,192,161156,1,0,0:0:0:0:
448,192,161156,1,0,0:0:0:0:
320,192,161224,1,0,0:0:0:0:
64,192,161292,1,0,0:0:0:0:
192,192,161292,1,0,0:0:0:0:
448,192,161292,1,0,0:0:0:0:
320,192,161360,1,0,0:0:0:0:
192,192,161428,1,0,0:0:0:0:
64,192,161428,1,0,0:0:0:0:
448,192,161428,1,0,0:0:0:0:
320,192,161497,1,0,0:0:0:0:
64,192,161565,1,0,0:0:0:0:
192,192,161565,1,0,0:0:0:0:
448,192,161565,1,0,0:0:0:0:
320,192,161633,1,0,0:0:0:0:
64,192,161701,1,0,0:0:0:0:
448,192,161701,1,0,0:0:0:0:
192,192,161769,1,0,0:0:0:0:
448,192,161838,1,0,0:0:0:0:
320,192,161838,1,0,0:0:0:0:
192,192,161906,1,0,0:0:0:0:
320,192,161974,1,0,0:0:0:0:
448,192,161974,1,0,0:0:0:0:
64,192,161974,1,0,0:0:0:0:
192,192,162042,1,0,0:0:0:0:
320,192,162110,1,0,0:0:0:0:
448,192,162110,1,0,0:0:0:0:
64,192,162110,1,0,0:0:0:0:
192,192,162178,1,0,0:0:0:0:
448,192,162247,1,0,0:0:0:0:
64,192,162247,1,0,0:0:0:0:
320,192,162315,1,0,0:0:0:0:
192,192,162383,1,0,0:0:0:0:
64,192,162383,1,0,0:0:0:0:
448,192,162451,1,0,0:0:0:0:
320,192,162519,1,0,0:0:0:0:
64,192,162519,1,0,0:0:0:0:
192,192,162588,1,0,0:0:0:0:
320,192,162656,1,0,0:0:0:0:
448,192,162656,1,0,0:0:0:0:
64,192,162656,1,0,0:0:0:0:
192,192,162724,1,0,0:0:0:0:
320,192,162792,1,0,0:0:0:0:
448,192,162792,1,0,0:0:0:0:
64,192,162860,1,0,0:0:0:0:
448,192,162928,1,0,0:0:0:0:
192,192,162928,1,0,0:0:0:0:
320,192,162997,1,0,0:0:0:0:
192,192,163065,1,0,0:0:0:0:
64,192,163065,1,0,0:0:0:0:
448,192,163065,1,0,0:0:0:0:
320,192,163133,1,0,0:0:0:0:
192,192,163201,1,0,0:0:0:0:
64,192,163201,1,0,0:0:0:0:
448,192,163201,1,0,0:0:0:0:
320,192,163269,1,0,0:0:0:0:
192,192,163338,1,0,0:0:0:0:
64,192,163338,1,0,0:0:0:0:
448,192,163406,1,0,0:0:0:0:
320,192,163474,1,0,0:0:0:0:
64,192,163474,1,0,0:0:0:0:
192,192,163542,1,0,0:0:0:0:
448,192,163610,1,0,0:0:0:0:
64,192,163610,1,0,0:0:0:0:
320,192,163678,1,0,0:0:0:0:
448,192,163747,1,0,0:0:0:0:
192,192,163747,1,0,0:0:0:0:
64,192,163747,1,0,0:0:0:0:
320,192,163815,1,0,0:0:0:0:
192,192,163883,1,0,0:0:0:0:
64,192,163883,1,0,0:0:0:0:
448,192,163951,1,0,0:0:0:0:
320,192,164019,1,0,0:0:0:0:
192,192,164019,1,0,0:0:0:0:
64,192,164088,1,0,0:0:0:0:
448,192,164156,1,0,0:0:0:0:
192,192,164156,1,0,0:0:0:0:
320,192,164224,1,0,0:0:0:0:
192,192,164292,1,0,0:0:0:0:
448,192,164292,1,0,0:0:0:0:
64,192,164292,1,0,0:0:0:0:
320,192,164360,1,0,0:0:0:0:
64,192,164428,1,0,0:0:0:0:
192,192,164428,1,0,0:0:0:0:
448,192,164497,1,0,0:0:0:0:
320,192,164565,1,0,0:0:0:0:
64,192,164565,1,0,0:0:0:0:
192,192,164633,1,0,0:0:0:0:
448,192,164701,1,0,0:0:0:0:
320,192,164701,1,0,0:0:0:0:
64,192,164769,1,0,0:0:0:0:
192,192,164838,1,0,0:0:0:0:
448,192,164838,1,0,0:0:0:0:
320,192,164906,1,0,0:0:0:0:
192,192,164974,1,0,0:0:0:0:
64,192,164974,1,0,0:0:0:0:
448,192,165042,1,0,0:0:0:0:
192,192,165110,1,0,0:0:0:0:
64,192,165110,1,0,0:0:0:0:
320,192,165110,1,0,0:0:0:0:
448,192,165178,1,0,0:0:0:0:
320,192,165247,1,0,0:0:0:0:
192,192,165247,1,0,0:0:0:0:
64,192,165247,1,0,0:0:0:0:
448,192,165315,1,0,0:0:0:0:
320,192,165383,1,0,0:0:0:0:
192,192,165383,1,0,0:0:0:0:
64,192,165383,1,0,0:0:0:0:
448,192,165451,1,0,0:0:0:0:
64,192,165519,1,0,0:0:0:0:
192,192,165519,1,0,0:0:0:0:
320,192,165588,1,0,0:0:0:0:
192,192,165656,1,0,0:0:0:0:
448,192,165656,1,0,0:0:0:0:
64,192,165724,1,0,0:0:0:0:
320,192,165792,1,0,0:0:0:0:
448,192,165792,1,0,0:0:0:0:
192,192,165860,1,0,0:0:0:0:
64,192,165928,1,0,0:0:0:0:
320,192,165928,1,0,0:0:0:0:
448,192,165928,1,0,0:0:0:0:
192,192,165997,1,0,0:0:0:0:
448,192,166065,1,0,0:0:0:0:
64,192,166065,1,0,0:0:0:0:
320,192,166133,1,0,0:0:0:0:
192,192,166201,1,0,0:0:0:0:
64,192,166201,1,0,0:0:0:0:
448,192,166201,1,0,0:0:0:0:
320,192,166269,1,0,0:0:0:0:
64,192,166338,1,0,0:0:0:0:
192,192,166338,1,0,0:0:0:0:
448,192,166406,1,0,0:0:0:0:
320,192,166474,1,0,0:0:0:0:
192,192,166474,1,0,0:0:0:0:
64,192,166474,1,0,0:0:0:0:
448,192,166542,1,0,0:0:0:0:
320,192,166610,1,0,0:0:0:0:
64,192,166610,1,0,0:0:0:0:
192,192,166678,1,0,0:0:0:0:
64,192,166747,1,0,0:0:0:0:
320,192,166747,1,0,0:0:0:0:
448,192,166747,1,0,0:0:0:0:
192,192,166815,1,0,0:0:0:0:
448,192,166883,1,0,0:0:0:0:
64,192,166883,1,0,0:0:0:0:
320,192,166951,1,0,0:0:0:0:
192,192,167019,1,0,0:0:0:0:
64,192,167019,1,0,0:0:0:0:
448,192,167019,1,0,0:0:0:0:
320,192,167088,1,0,0:0:0:0:
192,192,167156,1,0,0:0:0:0:
448,192,167156,1,0,0:0:0:0:
64,192,167224,1,0,0:0:0:0:
192,192,167292,1,0,0:0:0:0:
320,192,167292,1,0,0:0:0:0:
448,192,167292,1,0,0:0:0:0:
64,192,167360,1,0,0:0:0:0:
320,192,167428,1,0,0:0:0:0:
448,192,167428,1,0,0:0:0:0:
192,192,167497,1,0,0:0:0:0:
64,192,167565,1,0,0:0:0:0:
320,192,167565,1,0,0:0:0:0:
448,192,167565,1,0,0:0:0:0:
192,192,167633,1,0,0:0:0:0:
448,192,167701,1,0,0:0:0:0:
64,192,167701,1,0,0:0:0:0:
320,192,167769,1,0,0:0:0:0:
192,192,167838,1,0,0:0:0:0:
64,192,167838,1,0,0:0:0:0:
448,192,167906,1,0,0:0:0:0:
64,192,167974,1,0,0:0:0:0:
320,192,167974,1,0,0:0:0:0:
192,192,168042,1,0,0:0:0:0:
64,192,168110,1,0,0:0:0:0:
320,192,168110,1,0,0:0:0:0:
448,192,168110,1,0,0:0:0:0:
192,192,168178,1,0,0:0:0:0:
448,192,168247,1,0,0:0:0:0:
320,192,168247,1,0,0:0:0:0:
64,192,168315,1,0,0:0:0:0:
192,192,168383,1,0,0:0:0:0:
320,192,168383,1,0,0:0:0:0:
448,192,168383,1,0,0:0:0:0:
64,192,168451,1,0,0:0:0:0:
192,192,168519,1,0,0:0:0:0:
448,192,168519,1,0,0:0:0:0:
320,192,168588,1,0,0:0:0:0:
192,192,168656,1,0,0:0:0:0:
64,192,168656,1,0,0:0:0:0:
448,192,168656,1,0,0:0:0:0:
320,192,168724,1,0,0:0:0:0:
64,192,168792,1,0,0:0:0:0:
192,192,168792,1,0,0:0:0:0:
448,192,168860,1,0,0:0:0:0:
64,192,168928,1,0,0:0:0:0:
320,192,168928,1,0,0:0:0:0:
192,192,168997,1,0,0:0:0:0:
448,192,169065,1,0,0:0:0:0:
320,192,169065,1,0,0:0:0:0:
64,192,169133,1,0,0:0:0:0:
192,192,169201,1,0,0:0:0:0:
320,192,169201,1,0,0:0:0:0:
448,192,169201,1,0,0:0:0:0:
64,192,169269,1,0,0:0:0:0:
448,192,169338,1,0,0:0:0:0:
192,192,169338,1,0,0:0:0:0:
320,192,169406,1,0,0:0:0:0:
64,192,169474,1,0,0:0:0:0:
192,192,169474,1,0,0:0:0:0:
448,192,169542,1,0,0:0:0:0:
192,192,169610,1,0,0:0:0:0:
320,192,169610,1,0,0:0:0:0:
64,192,169678,1,0,0:0:0:0:
192,192,169747,1,0,0:0:0:0:
320,192,169747,1,0,0:0:0:0:
448,192,169747,1,0,0:0:0:0:
64,192,169815,1,0,0:0:0:0:
448,192,169883,1,0,0:0:0:0:
320,192,169883,1,0,0:0:0:0:
64,192,169951,1,0,0:0:0:0:
320,192,170019,1,0,0:0:0:0:
448,192,170019,1,0,0:0:0:0:
192,192,170019,1,0,0:0:0:0:
64,192,170088,1,0,0:0:0:0:
320,192,170156,1,0,0:0:0:0:
192,192,170156,1,0,0:0:0:0:
448,192,170224,1,0,0:0:0:0:
64,192,170292,1,0,0:0:0:0:
192,192,170292,1,0,0:0:0:0:
320,192,170292,1,0,0:0:0:0:
448,192,170360,1,0,0:0:0:0:
320,192,170428,1,0,0:0:0:0:
64,192,170428,1,0,0:0:0:0:
192,192,170497,1,0,0:0:0:0:
448,192,170565,1,0,0:0:0:0:
320,192,170565,1,0,0:0:0:0:
64,192,170565,1,0,0:0:0:0:
192,192,170633,1,0,0:0:0:0:
320,192,170701,1,0,0:0:0:0:
448,192,170701,1,0,0:0:0:0:
64,192,170769,1,0,0:0:0:0:
192,192,170838,1,0,0:0:0:0:
448,192,170838,1,0,0:0:0:0:
320,192,170906,1,0,0:0:0:0:
448,192,170974,1,0,0:0:0:0:
192,192,170974,1,0,0:0:0:0:
64,192,170974,1,0,0:0:0:0:
320,192,171042,1,0,0:0:0:0:
448,192,171110,1,0,0:0:0:0:
64,192,171110,1,0,0:0:0:0:
192,192,171178,1,0,0:0:0:0:
64,192,171247,1,0,0:0:0:0:
320,192,171247,1,0,0:0:0:0:
192,192,171315,1,0,0:0:0:0:
64,192,171383,1,0,0:0:0:0:
448,192,171383,1,0,0:0:0:0:
320,192,171451,1,0,0:0:0:0:
64,192,171519,1,0,0:0:0:0:
192,192,171519,1,0,0:0:0:0:
448,192,171519,1,0,0:0:0:0:
320,192,171588,1,0,0:0:0:0:
64,192,171656,1,0,0:0:0:0:
192,192,171656,1,0,0:0:0:0:
448,192,171656,1,0,0:0:0:0:
320,192,171724,1,0,0:0:0:0:
192,192,171792,1,0,0:0:0:0:
448,192,171792,1,0,0:0:0:0:
64,192,171792,1,0,0:0:0:0:
64,192,171928,1,0,0:0:0:0:
448,192,171928,1,0,0:0:0:0:
320,192,171928,1,0,0:0:0:0:
192,192,172747,1,0,0:0:0:0:
320,192,173019,1,0,0:0:0:0:
448,192,173019,1,0,0:0:0:0:
64,192,173019,1,0,0:0:0:0:
448,192,173156,1,0,0:0:0:0:
320,192,173156,1,0,0:0:0:0:
320,192,173292,1,0,0:0:0:0:
448,192,173292,1,0,0:0:0:0:
448,192,173428,1,0,0:0:0:0:
320,192,173428,1,0,0:0:0:0:
320,192,173565,1,0,0:0:0:0:
448,192,173565,1,0,0:0:0:0:
64,192,173633,1,0,0:0:0:0:
192,192,173633,1,0,0:0:0:0:
320,192,173701,1,0,0:0:0:0:
448,192,173701,1,0,0:0:0:0:
192,192,173769,1,0,0:0:0:0:
64,192,173769,1,0,0:0:0:0:
448,192,173838,1,0,0:0:0:0:
320,192,173838,1,0,0:0:0:0:
192,192,173906,1,0,0:0:0:0:
64,192,173906,1,0,0:0:0:0:
320,192,173974,1,0,0:0:0:0:
448,192,173974,1,0,0:0:0:0:
192,192,174042,1,0,0:0:0:0:
64,192,174042,1,0,0:0:0:0:
448,192,174110,1,0,0:0:0:0:
320,192,174110,1,0,0:0:0:0:
192,192,174178,1,0,0:0:0:0:
448,192,174247,1,0,0:0:0:0:
320,192,174247,1,0,0:0:0:0:
64,192,174315,1,0,0:0:0:0:
192,192,174383,1,0,0:0:0:0:
448,192,174383,1,0,0:0:0:0:
320,192,174451,1,0,0:0:0:0:
64,192,174519,1,0,0:0:0:0:
192,192,174519,1,0,0:0:0:0:
320,192,174588,1,0,0:0:0:0:
192,192,174656,1,0,0:0:0:0:
64,192,174656,1,0,0:0:0:0:
448,192,174656,1,0,0:0:0:0:
320,192,174724,1,0,0:0:0:0:
64,192,174792,1,0,0:0:0:0:
192,192,174792,1,0,0:0:0:0:
448,192,174860,1,0,0:0:0:0:
64,192,174928,1,0,0:0:0:0:
320,192,174928,1,0,0:0:0:0:
192,192,174997,1,0,0:0:0:0:
320,192,175065,1,0,0:0:0:0:
448,192,175065,1,0,0:0:0:0:
64,192,175133,1,0,0:0:0:0:
192,192,175201,1,0,0:0:0:0:
320,192,175201,1,0,0:0:0:0:
448,192,175201,1,0,0:0:0:0:
64,192,175269,1,0,0:0:0:0:
320,192,175338,1,0,0:0:0:0:
448,192,175338,1,0,0:0:0:0:
192,192,175406,1,0,0:0:0:0:
64,192,175474,1,0,0:0:0:0:
320,192,175474,1,0,0:0:0:0:
448,192,175474,1,0,0:0:0:0:
192,192,175542,1,0,0:0:0:0:
320,192,175610,1,0,0:0:0:0:
448,192,175610,1,0,0:0:0:0:
64,192,175678,1,0,0:0:0:0:
192,192,175747,1,0,0:0:0:0:
448,192,175747,1,0,0:0:0:0:
320,192,175747,1,0,0:0:0:0:
64,192,175815,1,0,0:0:0:0:
320,192,175883,1,0,0:0:0:0:
448,192,175883,1,0,0:0:0:0:
192,192,175951,1,0,0:0:0:0:
448,192,176019,1,0,0:0:0:0:
320,192,176019,1,0,0:0:0:0:
64,192,176019,1,0,0:0:0:0:
192,192,176088,1,0,0:0:0:0:
64,192,176156,1,0,0:0:0:0:
320,192,176156,1,0,0:0:0:0:
448,192,176224,1,0,0:0:0:0:
320,192,176292,1,0,0:0:0:0:
64,192,176292,1,0,0:0:0:0:
192,192,176292,1,0,0:0:0:0:
448,192,176360,1,0,0:0:0:0:
64,192,176428,1,0,0:0:0:0:
320,192,176428,1,0,0:0:0:0:
192,192,176497,1,0,0:0:0:0:
448,192,176565,1,0,0:0:0:0:
64,192,176565,1,0,0:0:0:0:
320,192,176633,1,0,0:0:0:0:
192,192,176701,1,0,0:0:0:0:
64,192,176701,1,0,0:0:0:0:
448,192,176769,1,0,0:0:0:0:
320,192,176838,1,0,0:0:0:0:
192,192,176838,1,0,0:0:0:0:
64,192,176838,1,0,0:0:0:0:
448,192,176906,1,0,0:0:0:0:
192,192,176974,1,0,0:0:0:0:
64,192,176974,1,0,0:0:0:0:
320,192,177042,1,0,0:0:0:0:
192,192,177110,1,0,0:0:0:0:
448,192,177110,1,0,0:0:0:0:
64,192,177110,1,0,0:0:0:0:
320,192,177178,1,0,0:0:0:0:
64,192,177247,1,0,0:0:0:0:
192,192,177247,1,0,0:0:0:0:
448,192,177315,1,0,0:0:0:0:
64,192,177383,1,0,0:0:0:0:
192,192,177383,1,0,0:0:0:0:
320,192,177383,1,0,0:0:0:0:
448,192,177451,1,0,0:0:0:0:
192,192,177519,1,0,0:0:0:0:
320,192,177519,1,0,0:0:0:0:
64,192,177588,1,0,0:0:0:0:
192,192,177656,1,0,0:0:0:0:
448,192,177656,1,0,0:0:0:0:
320,192,177656,1,0,0:0:0:0:
64,192,177724,1,0,0:0:0:0:
192,192,177792,1,0,0:0:0:0:
448,192,177792,1,0,0:0:0:0:
320,192,177860,1,0,0:0:0:0:
192,192,177928,1,0,0:0:0:0:
64,192,177928,1,0,0:0:0:0:
448,192,177928,1,0,0:0:0:0:
320,192,177997,1,0,0:0:0:0:
64,192,178065,1,0,0:0:0:0:
448,192,178065,1,0,0:0:0:0:
192,192,178133,1,0,0:0:0:0:
64,192,178201,1,0,0:0:0:0:
320,192,178201,1,0,0:0:0:0:
448,192,178201,1,0,0:0:0:0:
192,192,178269,1,0,0:0:0:0:
448,192,178338,1,0,0:0:0:0:
320,192,178338,1,0,0:0:0:0:
64,192,178406,1,0,0:0:0:0:
192,192,178474,1,0,0:0:0:0:
320,192,178474,1,0,0:0:0:0:
448,192,178474,1,0,0:0:0:0:
64,192,178542,1,0,0:0:0:0:
192,192,178610,1,0,0:0:0:0:
320,192,178610,1,0,0:0:0:0:
448,192,178678,1,0,0:0:0:0:
64,192,178747,1,0,0:0:0:0:
320,192,178747,1,0,0:0:0:0:
192,192,178815,1,0,0:0:0:0:
320,192,178883,1,0,0:0:0:0:
448,192,178883,1,0,0:0:0:0:
192,192,178951,1,0,0:0:0:0:
64,192,179019,1,0,0:0:0:0:
320,192,179019,1,0,0:0:0:0:
448,192,179019,1,0,0:0:0:0:
192,192,179088,1,0,0:0:0:0:
448,192,179156,1,0,0:0:0:0:
320,192,179156,1,0,0:0:0:0:
64,192,179224,1,0,0:0:0:0:
192,192,179292,1,0,0:0:0:0:
320,192,179292,1,0,0:0:0:0:
448,192,179292,1,0,0:0:0:0:
64,192,179360,1,0,0:0:0:0:
192,192,179428,1,0,0:0:0:0:
448,192,179428,1,0,0:0:0:0:
320,192,179497,1,0,0:0:0:0:
192,192,179565,1,0,0:0:0:0:
64,192,179565,1,0,0:0:0:0:
448,192,179565,1,0,0:0:0:0:
320,192,179633,1,0,0:0:0:0:
64,192,179701,1,0,0:0:0:0:
192,192,179701,1,0,0:0:0:0:
448,192,179769,1,0,0:0:0:0:
320,192,179838,1,0,0:0:0:0:
192,192,179838,1,0,0:0:0:0:
64,192,179838,1,0,0:0:0:0:
448,192,179906,1,0,0:0:0:0:
64,192,179974,1,0,0:0:0:0:
320,192,179974,1,0,0:0:0:0:
192,192,180042,1,0,0:0:0:0:
64,192,180110,1,0,0:0:0:0:
320,192,180110,1,0,0:0:0:0:
448,192,180110,1,0,0:0:0:0:
192,192,180178,1,0,0:0:0:0:
448,192,180247,1,0,0:0:0:0:
320,192,180247,1,0,0:0:0:0:
64,192,180315,1,0,0:0:0:0:
192,192,180383,1,0,0:0:0:0:
320,192,180383,1,0,0:0:0:0:
448,192,180383,1,0,0:0:0:0:
64,192,180451,1,0,0:0:0:0:
448,192,180519,1,0,0:0:0:0:
320,192,180519,1,0,0:0:0:0:
192,192,180588,1,0,0:0:0:0:
64,192,180656,1,0,0:0:0:0:
320,192,180656,1,0,0:0:0:0:
448,192,180656,1,0,0:0:0:0:
192,192,180724,1,0,0:0:0:0:
448,192,180792,1,0,0:0:0:0:
320,192,180792,1,0,0:0:0:0:
192,192,180860,1,0,0:0:0:0:
64,192,180928,1,0,0:0:0:0:
320,192,180928,1,0,0:0:0:0:
448,192,180997,1,0,0:0:0:0:
192,192,181065,1,0,0:0:0:0:
64,192,181065,1,0,0:0:0:0:
320,192,181133,1,0,0:0:0:0:
192,192,181201,1,0,0:0:0:0:
448,192,181201,1,0,0:0:0:0:
64,192,181201,1,0,0:0:0:0:
320,192,181269,1,0,0:0:0:0:
64,192,181338,1,0,0:0:0:0:
192,192,181338,1,0,0:0:0:0:
448,192,181406,1,0,0:0:0:0:
64,192,181474,1,0,0:0:0:0:
320,192,181474,1,0,0:0:0:0:
192,192,181474,1,0,0:0:0:0:
448,192,181542,1,0,0:0:0:0:
64,192,181610,1,0,0:0:0:0:
320,192,181610,1,0,0:0:0:0:
192,192,181678,1,0,0:0:0:0:
448,192,181747,1,0,0:0:0:0:
320,192,181747,1,0,0:0:0:0:
64,192,181747,1,0,0:0:0:0:
192,192,181815,1,0,0:0:0:0:
64,192,181883,1,0,0:0:0:0:
320,192,181883,1,0,0:0:0:0:
448,192,181951,1,0,0:0:0:0:
64,192,182019,1,0,0:0:0:0:
192,192,182019,1,0,0:0:0:0:
320,192,182019,1,0,0:0:0:0:
448,192,182088,1,0,0:0:0:0:
64,192,182156,1,0,0:0:0:0:
192,192,182156,1,0,0:0:0:0:
320,192,182224,1,0,0:0:0:0:
192,192,182292,1,0,0:0:0:0:
64,192,182292,1,0,0:0:0:0:
448,192,182292,1,0,0:0:0:0:
320,192,182360,1,0,0:0:0:0:
192,192,182428,1,0,0:0:0:0:
64,192,182428,1,0,0:0:0:0:
448,192,182497,1,0,0:0:0:0:
192,192,182565,1,0,0:0:0:0:
320,192,182565,1,0,0:0:0:0:
64,192,182565,1,0,0:0:0:0:
448,192,182633,1,0,0:0:0:0:
64,192,182701,1,0,0:0:0:0:
320,192,182701,1,0,0:0:0:0:
192,192,182769,1,0,0:0:0:0:
448,192,182838,1,0,0:0:0:0:
320,192,182838,1,0,0:0:0:0:
64,192,182838,1,0,0:0:0:0:
192,192,182906,1,0,0:0:0:0:
320,192,182974,1,0,0:0:0:0:
448,192,182974,1,0,0:0:0:0:
64,192,183042,1,0,0:0:0:0:
192,192,183110,1,0,0:0:0:0:
448,192,183110,1,0,0:0:0:0:
320,192,183178,1,0,0:0:0:0:
64,192,183247,1,0,0:0:0:0:
192,192,183247,1,0,0:0:0:0:
448,192,183315,1,0,0:0:0:0:
320,192,183383,1,0,0:0:0:0:
192,192,183383,1,0,0:0:0:0:
64,192,183383,1,0,0:0:0:0:
448,192,183451,1,0,0:0:0:0:
64,192,183519,1,0,0:0:0:0:
192,192,183519,1,0,0:0:0:0:
320,192,183588,1,0,0:0:0:0:
64,192,183656,1,0,0:0:0:0:
192,192,183656,1,0,0:0:0:0:
448,192,183656,1,0,0:0:0:0:
320,192,183724,1,0,0:0:0:0:
192,192,183792,1,0,0:0:0:0:
448,192,183792,1,0,0:0:0:0:
64,192,183860,1,0,0:0:0:0:
192,192,183928,1,0,0:0:0:0:
320,192,183928,1,0,0:0:0:0:
448,192,183928,1,0,0:0:0:0:
64,192,183997,1,0,0:0:0:0:
320,192,184065,1,0,0:0:0:0:
448,192,184065,1,0,0:0:0:0:
192,192,184133,1,0,0:0:0:0:
64,192,184201,1,0,0:0:0:0:
448,192,184201,1,0,0:0:0:0:
320,192,184201,1,0,0:0:0:0:
192,192,184269,1,0,0:0:0:0:
320,192,184338,1,0,0:0:0:0:
448,192,184338,1,0,0:0:0:0:
64,192,184406,1,0,0:0:0:0:
192,192,184474,1,0,0:0:0:0:
448,192,184474,1,0,0:0:0:0:
320,192,184474,1,0,0:0:0:0:
64,192,184542,1,0,0:0:0:0:
192,192,184610,1,0,0:0:0:0:
448,192,184610,1,0,0:0:0:0:
320,192,184678,1,0,0:0:0:0:
192,192,184747,1,0,0:0:0:0:
64,192,184747,1,0,0:0:0:0:
448,192,184747,1,0,0:0:0:0:
320,192,184815,1,0,0:0:0:0:
64,192,184883,1,0,0:0:0:0:
448,192,184883,1,0,0:0:0:0:
192,192,184951,1,0,0:0:0:0:
64,192,185019,1,0,0:0:0:0:
320,192,185019,1,0,0:0:0:0:
448,192,185019,1,0,0:0:0:0:
192,192,185088,1,0,0:0:0:0:
64,192,185156,1,0,0:0:0:0:
320,192,185156,1,0,0:0:0:0:
448,192,185224,1,0,0:0:0:0:
192,192,185292,1,0,0:0:0:0:
320,192,185292,1,0,0:0:0:0:
64,192,185360,1,0,0:0:0:0:
192,192,185428,1,0,0:0:0:0:
448,192,185428,1,0,0:0:0:0:
320,192,185497,1,0,0:0:0:0:
192,192,185565,1,0,0:0:0:0:
64,192,185565,1,0,0:0:0:0:
448,192,185565,1,0,0:0:0:0:
320,192,185633,1,0,0:0:0:0:
192,192,185701,1,0,0:0:0:0:
64,192,185701,1,0,0:0:0:0:
448,192,185769,1,0,0:0:0:0:
320,192,185838,1,0,0:0:0:0:
192,192,185838,1,0,0:0:0:0:
64,192,185838,1,0,0:0:0:0:
448,192,185906,1,0,0:0:0:0:
64,192,185974,1,0,0:0:0:0:
192,192,185974,1,0,0:0:0:0:
320,192,186042,1,0,0:0:0:0:
192,192,186110,1,0,0:0:0:0:
64,192,186110,1,0,0:0:0:0:
448,192,186110,1,0,0:0:0:0:
320,192,186178,1,0,0:0:0:0:
64,192,186247,1,0,0:0:0:0:
192,192,186247,1,0,0:0:0:0:
448,192,186315,1,0,0:0:0:0:
192,192,186383,1,0,0:0:0:0:
64,192,186383,1,0,0:0:0:0:
320,192,186451,1,0,0:0:0:0:
192,192,186519,1,0,0:0:0:0:
448,192,186519,1,0,0:0:0:0:
64,192,186588,1,0,0:0:0:0:
192,192,186656,1,0,0:0:0:0:
320,192,186656,1,0,0:0:0:0:
448,192,186656,1,0,0:0:0:0:
64,192,186724,1,0,0:0:0:0:
320,192,186792,1,0,0:0:0:0:
448,192,186792,1,0,0:0:0:0:
192,192,186860,1,0,0:0:0:0:
64,192,186928,1,0,0:0:0:0:
320,192,186928,1,0,0:0:0:0:
448,192,186928,1,0,0:0:0:0:
192,192,186997,1,0,0:0:0:0:
448,192,187065,1,0,0:0:0:0:
320,192,187065,1,0,0:0:0:0:
64,192,187133,1,0,0:0:0:0:
320,192,187201,1,0,0:0:0:0:
192,192,187201,1,0,0:0:0:0:
448,192,187201,1,0,0:0:0:0:
64,192,187269,1,0,0:0:0:0:
192,192,187338,1,0,0:0:0:0:
448,192,187338,1,0,0:0:0:0:
320,192,187406,1,0,0:0:0:0:
64,192,187474,1,0,0:0:0:0:
192,192,187474,1,0,0:0:0:0:
448,192,187542,1,0,0:0:0:0:
320,192,187610,1,0,0:0:0:0:
64,192,187610,1,0,0:0:0:0:
192,192,187678,1,0,0:0:0:0:
64,192,187747,1,0,0:0:0:0:
448,192,187747,1,0,0:0:0:0:
320,192,187747,1,0,0:0:0:0:
192,192,187815,1,0,0:0:0:0:
64,192,187883,1,0,0:0:0:0:
320,192,187883,1,0,0:0:0:0:
448,192,187951,1,0,0:0:0:0:
192,192,188019,1,0,0:0:0:0:
64,192,188019,1,0,0:0:0:0:
320,192,188019,1,0,0:0:0:0:
448,192,188088,1,0,0:0:0:0:
64,192,188156,1,0,0:0:0:0:
320,192,188156,1,0,0:0:0:0:
192,192,188224,1,0,0:0:0:0:
64,192,188292,1,0,0:0:0:0:
320,192,188292,1,0,0:0:0:0:
448,192,188292,1,0,0:0:0:0:
192,192,188360,1,0,0:0:0:0:
320,192,188428,1,0,0:0:0:0:
448,192,188428,1,0,0:0:0:0:
64,192,188497,1,0,0:0:0:0:
192,192,188565,1,0,0:0:0:0:
448,192,188565,1,0,0:0:0:0:
320,192,188565,1,0,0:0:0:0:
64,192,188633,1,0,0:0:0:0:
192,192,188701,1,0,0:0:0:0:
320,192,188701,1,0,0:0:0:0:
448,192,188769,1,0,0:0:0:0:
64,192,188838,1,0,0:0:0:0:
192,192,188838,1,0,0:0:0:0:
320,192,188838,1,0,0:0:0:0:
448,192,188906,1,0,0:0:0:0:
64,192,188974,1,0,0:0:0:0:
320,192,188974,1,0,0:0:0:0:
192,192,189042,1,0,0:0:0:0:
64,192,189110,1,0,0:0:0:0:
320,192,189110,1,0,0:0:0:0:
448,192,189110,1,0,0:0:0:0:
192,192,189178,1,0,0:0:0:0:
448,192,189247,1,0,0:0:0:0:
320,192,189247,1,0,0:0:0:0:
64,192,189315,1,0,0:0:0:0:
192,192,189383,1,0,0:0:0:0:
320,192,189383,1,0,0:0:0:0:
448,192,189383,1,0,0:0:0:0:
64,192,189451,1,0,0:0:0:0:
192,192,189519,1,0,0:0:0:0:
448,192,189519,1,0,0:0:0:0:
320,192,189588,1,0,0:0:0:0:
192,192,189656,1,0,0:0:0:0:
64,192,189656,1,0,0:0:0:0:
448,192,189656,1,0,0:0:0:0:
320,192,189724,1,0,0:0:0:0:
64,192,189792,1,0,0:0:0:0:
192,192,189792,1,0,0:0:0:0:
448,192,189860,1,0,0:0:0:0:
320,192,189928,1,0,0:0:0:0:
192,192,189928,1,0,0:0:0:0:
64,192,189928,1,0,0:0:0:0:
448,192,189997,1,0,0:0:0:0:
64,192,190065,1,0,0:0:0:0:
320,192,190065,1,0,0:0:0:0:
192,192,190133,1,0,0:0:0:0:
64,192,190201,1,0,0:0:0:0:
320,192,190201,1,0,0:0:0:0:
448,192,190201,1,0,0:0:0:0:
192,192,190269,1,0,0:0:0:0:
64,192,190338,1,0,0:0:0:0:
448,192,190338,1,0,0:0:0:0:
320,192,190406,1,0,0:0:0:0:
192,192,190474,1,0,0:0:0:0:
64,192,190474,1,0,0:0:0:0:
448,192,190474,1,0,0:0:0:0:
320,192,190542,1,0,0:0:0:0:
64,192,190610,1,0,0:0:0:0:
192,192,190610,1,0,0:0:0:0:
448,192,190678,1,0,0:0:0:0:
320,192,190747,1,0,0:0:0:0:
192,192,190747,1,0,0:0:0:0:
64,192,190747,1,0,0:0:0:0:
448,192,190815,1,0,0:0:0:0:
192,192,190883,1,0,0:0:0:0:
320,192,190883,1,0,0:0:0:0:
64,192,190951,1,0,0:0:0:0:
192,192,191019,1,0,0:0:0:0:
320,192,191019,1,0,0:0:0:0:
448,192,191019,1,0,0:0:0:0:
64,192,191088,1,0,0:0:0:0:
192,192,191156,1,0,0:0:0:0:
448,192,191156,1,0,0:0:0:0:
320,192,191224,1,0,0:0:0:0:
64,192,191292,1,0,0:0:0:0:
448,192,191292,1,0,0:0:0:0:
192,192,191428,1,0,0:0:0:0:
64,192,191565,1,0,0:0:0:0:
320,192,191565,1,0,0:0:0:0:
448,192,191565,1,0,0:0:0:0:
192,192,191633,1,0,0:0:0:0:
448,192,191701,1,0,0:0:0:0:
64,192,191701,1,0,0:0:0:0:
320,192,191769,1,0,0:0:0:0:
192,192,191769,1,0,0:0:0:0:
448,192,191838,1,0,0:0:0:0:
64,192,191906,1,0,0:0:0:0:
448,192,191974,1,0,0:0:0:0:
192,192,191974,1,0,0:0:0:0:
320,192,192042,1,0,0:0:0:0:
64,192,192110,1,0,0:0:0:0:
192,192,192178,1,0,0:0:0:0:
448,192,192178,1,0,0:0:0:0:
320,192,192247,1,0,0:0:0:0:
448,192,192315,1,0,0:0:0:0:
64,192,192383,1,0,0:0:0:0:
320,192,192383,1,0,0:0:0:0:
192,192,192451,1,0,0:0:0:0:
64,192,192519,1,0,0:0:0:0:
448,192,192588,1,0,0:0:0:0:
320,192,192588,1,0,0:0:0:0:
192,192,192656,1,0,0:0:0:0:
64,192,192656,1,0,0:0:0:0:
448,192,192724,1,0,0:0:0:0:
320,192,192792,1,0,0:0:0:0:
192,192,192860,1,0,0:0:0:0:
64,192,192860,1,0,0:0:0:0:
448,192,192928,1,0,0:0:0:0:
192,192,192997,1,0,0:0:0:0:
320,192,193065,1,0,0:0:0:0:
448,192,193065,1,0,0:0:0:0:
64,192,193133,1,0,0:0:0:0:
192,192,193201,1,0,0:0:0:0:
320,192,193269,1,0,0:0:0:0:
448,192,193269,1,0,0:0:0:0:
64,192,193338,1,0,0:0:0:0:
448,192,193406,1,0,0:0:0:0:
192,192,193474,1,0,0:0:0:0:
320,192,193474,1,0,0:0:0:0:
64,192,193542,1,0,0:0:0:0:
448,192,193610,1,0,0:0:0:0:
64,192,193678,1,0,0:0:0:0:
320,192,193678,1,0,0:0:0:0:
192,192,193747,1,0,0:0:0:0:
448,192,193747,1,0,0:0:0:0:
320,192,193815,1,0,0:0:0:0:
64,192,193883,1,0,0:0:0:0:
448,192,193951,1,0,0:0:0:0:
192,192,193951,1,0,0:0:0:0:
320,192,194019,1,0,0:0:0:0:
64,192,194088,1,0,0:0:0:0:
192,192,194156,1,0,0:0:0:0:
448,192,194156,1,0,0:0:0:0:
320,192,194224,1,0,0:0:0:0:
192,192,194292,1,0,0:0:0:0:
64,192,194360,1,0,0:0:0:0:
320,192,194360,1,0,0:0:0:0:
448,192,194428,1,0,0:0:0:0:
192,192,194497,1,0,0:0:0:0:
320,192,194565,1,0,0:0:0:0:
64,192,194565,1,0,0:0:0:0:
448,192,194633,1,0,0:0:0:0:
64,192,194701,1,0,0:0:0:0:
192,192,194769,1,0,0:0:0:0:
320,192,194769,1,0,0:0:0:0:
64,192,194838,1,0,0:0:0:0:
448,192,194838,1,0,0:0:0:0:
192,192,194906,1,0,0:0:0:0:
320,192,194974,1,0,0:0:0:0:
192,192,195042,1,0,0:0:0:0:
64,192,195042,1,0,0:0:0:0:
448,192,195110,1,0,0:0:0:0:
320,192,195178,1,0,0:0:0:0:
192,192,195247,1,0,0:0:0:0:
64,192,195247,1,0,0:0:0:0:
448,192,195315,1,0,0:0:0:0:
192,192,195383,1,0,0:0:0:0:
448,192,195451,1,0,0:0:0:0:
320,192,195451,1,0,0:0:0:0:
64,192,195519,1,0,0:0:0:0:
192,192,195588,1,0,0:0:0:0:
448,192,195656,1,0,0:0:0:0:
320,192,195656,1,0,0:0:0:0:
64,192,195724,1,0,0:0:0:0:
320,192,195792,1,0,0:0:0:0:
448,192,195860,1,0,0:0:0:0:
64,192,195860,1,0,0:0:0:0:
320,192,195928,1,0,0:0:0:0:
192,192,195928,1,0,0:0:0:0:
448,192,195997,1,0,0:0:0:0:
64,192,196065,1,0,0:0:0:0:
192,192,196133,1,0,0:0:0:0:
448,192,196133,1,0,0:0:0:0:
320,192,196201,1,0,0:0:0:0:
64,192,196269,1,0,0:0:0:0:
448,192,196338,1,0,0:0:0:0:
192,192,196338,1,0,0:0:0:0:
320,192,196406,1,0,0:0:0:0:
64,192,196474,1,0,0:0:0:0:
192,192,196542,1,0,0:0:0:0:
448,192,196542,1,0,0:0:0:0:
320,192,196610,1,0,0:0:0:0:
448,192,196678,1,0,0:0:0:0:
64,192,196747,1,0,0:0:0:0:
320,192,196747,1,0,0:0:0:0:
192,192,196815,1,0,0:0:0:0:
64,192,196883,1,0,0:0:0:0:
448,192,196951,1,0,0:0:0:0:
320,192,196951,1,0,0:0:0:0:
192,192,197019,1,0,0:0:0:0:
64,192,197019,1,0,0:0:0:0:
448,192,197088,1,0,0:0:0:0:
320,192,197156,1,0,0:0:0:0:
192,192,197224,1,0,0:0:0:0:
64,192,197224,1,0,0:0:0:0:
448,192,197292,1,0,0:0:0:0:
192,192,197360,1,0,0:0:0:0:
320,192,197428,1,0,0:0:0:0:
448,192,197428,1,0,0:0:0:0:
64,192,197497,1,0,0:0:0:0:
192,192,197565,1,0,0:0:0:0:
320,192,197633,1,0,0:0:0:0:
448,192,197633,1,0,0:0:0:0:
64,192,197701,1,0,0:0:0:0:
448,192,197769,1,0,0:0:0:0:
192,192,197838,1,0,0:0:0:0:
320,192,197838,1,0,0:0:0:0:
64,192,197906,1,0,0:0:0:0:
448,192,197974,1,0,0:0:0:0:
64,192,198042,1,0,0:0:0:0:
320,192,198042,1,0,0:0:0:0:
192,192,198110,1,0,0:0:0:0:
448,192,198110,1,0,0:0:0:0:
320,192,198178,1,0,0:0:0:0:
64,192,198247,1,0,0:0:0:0:
448,192,198315,1,0,0:0:0:0:
192,192,198315,1,0,0:0:0:0:
320,192,198383,1,0,0:0:0:0:
64,192,198451,1,0,0:0:0:0:
192,192,198519,1,0,0:0:0:0:
448,192,198519,1,0,0:0:0:0:
320,192,198588,1,0,0:0:0:0:
192,192,198656,1,0,0:0:0:0:
64,192,198724,1,0,0:0:0:0:
320,192,198724,1,0,0:0:0:0:
448,192,198792,1,0,0:0:0:0:
192,192,198860,1,0,0:0:0:0:
320,192,198928,1,0,0:0:0:0:
64,192,198928,1,0,0:0:0:0:
448,192,198997,1,0,0:0:0:0:
64,192,199065,1,0,0:0:0:0:
192,192,199133,1,0,0:0:0:0:
320,192,199133,1,0,0:0:0:0:
64,192,199201,1,0,0:0:0:0:
448,192,199201,1,0,0:0:0:0:
192,192,199269,1,0,0:0:0:0:
320,192,199338,1,0,0:0:0:0:
192,192,199406,1,0,0:0:0:0:
64,192,199406,1,0,0:0:0:0:
448,192,199474,1,0,0:0:0:0:
320,192,199542,1,0,0:0:0:0:
192,192,199610,1,0,0:0:0:0:
64,192,199610,1,0,0:0:0:0:
448,192,199678,1,0,0:0:0:0:
192,192,199747,1,0,0:0:0:0:
448,192,199815,1,0,0:0:0:0:
320,192,199815,1,0,0:0:0:0:
64,192,199883,1,0,0:0:0:0:
192,192,199951,1,0,0:0:0:0:
448,192,200019,1,0,0:0:0:0:
320,192,200019,1,0,0:0:0:0:
64,192,200088,1,0,0:0:0:0:
320,192,200156,1,0,0:0:0:0:
448,192,200224,1,0,0:0:0:0:
64,192,200224,1,0,0:0:0:0:
320,192,200292,1,0,0:0:0:0:
192,192,200292,1,0,0:0:0:0:
64,192,200360,1,0,0:0:0:0:
448,192,200428,1,0,0:0:0:0:
320,192,200497,1,0,0:0:0:0:
64,192,200497,1,0,0:0:0:0:
192,192,200565,1,0,0:0:0:0:
64,192,200633,1,0,0:0:0:0:
192,192,200701,1,0,0:0:0:0:
448,192,200701,1,0,0:0:0:0:
320,192,200769,1,0,0:0:0:0:
64,192,200838,1,0,0:0:0:0:
448,192,200906,1,0,0:0:0:0:
192,192,200906,1,0,0:0:0:0:
320,192,200974,1,0,0:0:0:0:
448,192,201042,1,0,0:0:0:0:
320,192,201110,1,0,0:0:0:0:
64,192,201110,1,0,0:0:0:0:
192,192,201178,1,0,0:0:0:0:
64,192,201247,1,0,0:0:0:0:
320,192,201315,1,0,0:0:0:0:
448,192,201315,1,0,0:0:0:0:
64,192,201383,1,0,0:0:0:0:
192,192,201383,1,0,0:0:0:0:
448,192,201451,1,0,0:0:0:0:
320,192,201519,1,0,0:0:0:0:
64,192,201588,1,0,0:0:0:0:
192,192,201588,1,0,0:0:0:0:
448,192,201656,1,0,0:0:0:0:
192,192,201724,1,0,0:0:0:0:
448,192,201792,1,0,0:0:0:0:
320,192,201792,1,0,0:0:0:0:
64,192,201860,1,0,0:0:0:0:
192,192,201928,1,0,0:0:0:0:
448,192,201997,1,0,0:0:0:0:
320,192,201997,1,0,0:0:0:0:
64,192,202065,1,0,0:0:0:0:
448,192,202133,1,0,0:0:0:0:
320,192,202201,1,0,0:0:0:0:
192,192,202201,1,0,0:0:0:0:
64,192,202269,1,0,0:0:0:0:
448,192,202338,1,0,0:0:0:0:
320,192,202406,1,0,0:0:0:0:
64,192,202406,1,0,0:0:0:0:
448,192,202474,1,0,0:0:0:0:
192,192,202474,1,0,0:0:0:0:
320,192,202542,1,0,0:0:0:0:
64,192,202610,1,0,0:0:0:0:
192,192,202678,1,0,0:0:0:0:
448,192,202678,1,0,0:0:0:0:
320,192,202747,1,0,0:0:0:0:
64,192,202815,1,0,0:0:0:0:
448,192,202883,1,0,0:0:0:0:
192,192,202883,1,0,0:0:0:0:
320,192,202951,1,0,0:0:0:0:
192,192,203019,1,0,0:0:0:0:
320,192,203088,1,0,0:0:0:0:
64,192,203088,1,0,0:0:0:0:
448,192,203156,1,0,0:0:0:0:
192,192,203224,1,0,0:0:0:0:
64,192,203292,1,0,0:0:0:0:
320,192,203292,1,0,0:0:0:0:
448,192,203360,1,0,0:0:0:0:
64,192,203428,1,0,0:0:0:0:
320,192,203497,1,0,0:0:0:0:
192,192,203497,1,0,0:0:0:0:
448,192,203565,1,0,0:0:0:0:
64,192,203565,1,0,0:0:0:0:
192,192,203633,1,0,0:0:0:0:
320,192,203701,1,0,0:0:0:0:
64,192,203769,1,0,0:0:0:0:
192,192,203769,1,0,0:0:0:0:
448,192,203838,1,0,0:0:0:0:
320,192,203906,1,0,0:0:0:0:
64,192,203974,1,0,0:0:0:0:
192,192,203974,1,0,0:0:0:0:
448,192,204042,1,0,0:0:0:0:
192,192,204110,1,0,0:0:0:0:
320,192,204178,1,0,0:0:0:0:
448,192,204178,1,0,0:0:0:0:
64,192,204247,1,0,0:0:0:0:
192,192,204315,1,0,0:0:0:0:
320,192,204383,1,0,0:0:0:0:
448,192,204383,1,0,0:0:0:0:
64,192,204451,1,0,0:0:0:0:
320,192,204519,1,0,0:0:0:0:
64,192,204588,1,0,0:0:0:0:
448,192,204588,1,0,0:0:0:0:
192,192,204656,1,0,0:0:0:0:
320,192,204656,1,0,0:0:0:0:
64,192,204724,1,0,0:0:0:0:
448,192,204792,1,0,0:0:0:0:
320,192,204860,1,0,0:0:0:0:
64,192,204860,1,0,0:0:0:0:
192,192,204928,1,0,0:0:0:0:
64,192,204997,1,0,0:0:0:0:
448,192,205065,1,0,0:0:0:0:
192,192,205065,1,0,0:0:0:0:
320,192,205133,1,0,0:0:0:0:
64,192,205201,1,0,0:0:0:0:
192,192,205269,1,0,0:0:0:0:
448,192,205269,1,0,0:0:0:0:
320,192,205338,1,0,0:0:0:0:
448,192,205406,1,0,0:0:0:0:
64,192,205474,1,0,0:0:0:0:
320,192,205474,1,0,0:0:0:0:
192,192,205542,1,0,0:0:0:0:
64,192,205610,1,0,0:0:0:0:
448,192,205678,1,0,0:0:0:0:
320,192,205678,1,0,0:0:0:0:
192,192,205747,1,0,0:0:0:0:
64,192,205747,1,0,0:0:0:0:
448,192,205815,1,0,0:0:0:0:
320,192,205883,1,0,0:0:0:0:
192,192,205951,1,0,0:0:0:0:
64,192,205951,1,0,0:0:0:0:
448,192,206019,1,0,0:0:0:0:
192,192,206088,1,0,0:0:0:0:
320,192,206156,1,0,0:0:0:0:
448,192,206156,1,0,0:0:0:0:
64,192,206224,1,0,0:0:0:0:
192,192,206292,1,0,0:0:0:0:
320,192,206360,1,0,0:0:0:0:
448,192,206360,1,0,0:0:0:0:
64,192,206428,1,0,0:0:0:0:
448,192,206497,1,0,0:0:0:0:
192,192,206565,1,0,0:0:0:0:
320,192,206565,1,0,0:0:0:0:
64,192,206633,1,0,0:0:0:0:
448,192,206701,1,0,0:0:0:0:
64,192,206769,1,0,0:0:0:0:
320,192,206769,1,0,0:0:0:0:
192,192,206838,1,0,0:0:0:0:
448,192,206838,1,0,0:0:0:0:
320,192,206906,1,0,0:0:0:0:
64,192,206974,1,0,0:0:0:0:
448,192,207042,1,0,0:0:0:0:
320,192,207110,1,0,0:0:0:0:
64,192,207178,1,0,0:0:0:0:
448,192,207247,1,0,0:0:0:0:
320,192,207315,1,0,0:0:0:0:
64,192,207383,1,0,0:0:0:0:
448,192,207451,1,0,0:0:0:0:
320,192,207519,1,0,0:0:0:0:
64,192,207588,1,0,0:0:0:0:
448,192,207656,1,0,0:0:0:0:
320,192,207724,1,0,0:0:0:0:
64,192,207792,1,0,0:0:0:0:
320,192,207860,1,0,0:0:0:0:
448,192,207928,1,0,0:0:0:0:
192,192,207997,1,0,0:0:0:0:
64,192,208065,1,0,0:0:0:0:
320,192,208133,1,0,0:0:0:0:
448,192,208201,1,0,0:0:0:0:
64,192,208269,1,0,0:0:0:0:
320,192,208338,1,0,0:0:0:0:
448,192,208406,1,0,0:0:0:0:
64,192,208474,1,0,0:0:0:0:
320,192,208542,1,0,0:0:0:0:
448,192,208610,1,0,0:0:0:0:
64,192,208678,1,0,0:0:0:0:
320,192,208747,1,0,0:0:0:0:
448,192,208815,1,0,0:0:0:0:
64,192,208883,1,0,0:0:0:0:
320,192,208951,1,0,0:0:0:0:
448,192,209019,1,0,0:0:0:0:
192,192,209019,1,0,0:0:0:0:
