osu file format v14

[General]
AudioFilename: audio.mp3
AudioLeadIn: 0
PreviewTime: 217992
Countdown: 0
SampleSet: Normal
StackLeniency: 0.7
Mode: 1
LetterboxInBreaks: 0
WidescreenStoryboard: 0

[Editor]
Bookmarks: 4392,13992,23592,28392,33192,37992,42792,47592,52392,61992,66792,76392,85992,90792,119592,133992,153192,177192,196392,215592,234792,256392,263592,277992
DistanceSpacing: 0.8
BeatDivisor: 4
GridSize: 8
TimelineZoom: 2.5

[Metadata]
Title:Little Busters Forever
TitleUnicode:Little Busters Forever
Artist:Helblinde
ArtistUnicode:Helblinde
Creator:-Kazuha
Version:All for you
Source:リトルバスターズ!
Tags:japanese j-core jcore hardcore electronic video game anime vn visual novel arts visualarts key studio label female vocals remix free releases (2006​-​2016) Busters! 麻枝准 jun maeda 遥か彼方 Haruka Kanata Rita gaston_2199
BeatmapID:4206222
BeatmapSetID:2019768

[Difficulty]
HPDrainRate:5
CircleSize:5
OverallDifficulty:7
ApproachRate:5
SliderMultiplier:1.4
SliderTickRate:1

[Events]
//Background and Video events
0,0,"little_busters_2_compressed.jpg",0,-10
//Break Periods
//Storyboard Layer 0 (Background)
//Storyboard Layer 1 (Fail)
//Storyboard Layer 2 (Pass)
//Storyboard Layer 3 (Foreground)
//Storyboard Layer 4 (Overlay)
//Storyboard Sound Samples

[TimingPoints]
3192,300,4,1,0,70,1,0
4392,-100,4,1,0,70,0,0
4467,-100,4,1,0,70,0,0
23592,-100,4,1,0,75,0,0
40389,-133.333333333333,4,1,0,75,0,0
40989,-123.076923076923,4,1,0,75,0,0
41589,-114.285714285714,4,1,0,75,0,0
41739,-112.280701754386,4,1,0,75,0,0
41889,-110.344827586207,4,1,0,75,0,0
42039,-108.474576271186,4,1,0,75,0,0
42189,-106.666666666667,4,1,0,75,0,0
42264,-105.785123966942,4,1,0,75,0,0
42339,-104.918032786885,4,1,0,75,0,0
42414,-104.065040650407,4,1,0,75,0,0
42489,-103.225806451613,4,1,0,75,0,0
42564,-102.4,4,1,0,75,0,0
42639,-101.587301587302,4,1,0,75,0,0
42789,-100,4,1,0,75,0,0
75339,-103.225806451613,4,1,0,75,0,0
75489,-106.666666666667,4,1,0,75,0,0
75564,-108.474576271186,4,1,0,75,0,0
75639,-110.344827586207,4,1,0,75,0,0
75789,-114.285714285714,4,1,0,75,0,0
75939,-118.518518518519,4,1,0,75,0,0
76014,-120.754716981132,4,1,0,75,0,0
76089,-123.076923076923,4,1,0,75,0,0
76164,-125.490196078431,4,1,0,75,0,0
76239,-128,4,1,0,75,0,0
76389,-133.333333333333,4,1,0,75,0,0
83589,-131.578947368421,4,1,0,75,0,0
83739,-129.032258064516,4,1,0,75,0,0
83889,-126.582278481013,4,1,0,75,0,0
84039,-124.223602484472,4,1,0,75,0,0
84189,-121.951219512195,4,1,0,75,0,0
84339,-119.760479041916,4,1,0,75,0,0
84489,-117.647058823529,4,1,0,75,0,0
84639,-115.606936416185,4,1,0,75,0,0
84789,-113.636363636364,4,1,0,75,0,0
84864,-112.676056338028,4,1,0,75,0,0
84939,-111.731843575419,4,1,0,75,0,0
85014,-110.803324099723,4,1,0,75,0,0
85089,-109.89010989011,4,1,0,75,0,0
85164,-108.991825613079,4,1,0,75,0,0
85239,-108.108108108108,4,1,0,75,0,0
85314,-107.238605898123,4,1,0,75,0,0
85389,-106.382978723404,4,1,0,75,0,0
85464,-105.540897097625,4,1,0,75,0,0
85539,-104.712041884817,4,1,0,75,0,0
85614,-103.896103896104,4,1,0,75,0,0
85689,-103.092783505155,4,1,0,75,0,0
85764,-102.30179028133,4,1,0,75,0,0
85839,-101.522842639594,4,1,0,75,0,0
85989,-100,4,1,0,75,0,0
86892,-125,4,1,0,75,0,0
87867,-120.481927710843,4,1,0,75,0,0
88167,-125,4,1,0,75,0,0
88467,-129.87012987013,4,1,0,75,0,0
88767,-135.135135135135,4,1,0,75,0,0
89067,-140.845070422535,4,1,0,75,0,0
90792,-181.818181818182,4,1,0,60,0,0
105117,-100,4,1,0,60,0,0
105267,-181.818181818181,4,1,0,60,0,0
119592,-142.857142857143,4,1,0,80,0,0
126789,-123.456790123457,4,1,0,80,0,0
126864,-123.155869146889,4,1,0,80,0,0
126939,-122.856411568979,4,1,0,80,0,0
127014,-122.558406740712,4,1,0,80,0,0
127089,-122.261844116149,4,1,0,80,0,0
127164,-121.966713251175,4,1,0,80,0,0
127239,-121.673003802281,4,1,0,80,0,0
127314,-121.380705525351,4,1,0,80,0,0
127389,-121.08980827447,4,1,0,80,0,0
127464,-120.800302000755,4,1,0,80,0,0
127539,-120.512176751193,4,1,0,80,0,0
127614,-120.225422667502,4,1,0,80,0,0
127689,-119.940029985007,4,1,0,80,0,0
127764,-119.655989031534,4,1,0,80,0,0
127839,-119.373290226312,4,1,0,80,0,0
127914,-119.091924078898,4,1,0,80,0,0
127989,-118.811881188119,4,1,0,80,0,0
128064,-118.533152241017,4,1,0,80,0,0
128139,-118.255728011826,4,1,0,80,0,0
128214,-117.979599360944,4,1,0,80,0,0
128289,-117.704757233938,4,1,0,80,0,0
128364,-117.43119266055,4,1,0,80,0,0
128439,-117.158896753722,4,1,0,80,0,0
128514,-116.887860708633,4,1,0,80,0,0
128589,-116.618075801749,4,1,0,80,0,0
128664,-116.349533389892,4,1,0,80,0,0
128739,-116.082224909311,4,1,0,80,0,0
128814,-115.816141874774,4,1,0,80,0,0
128889,-115.551275878671,4,1,0,80,0,0
128964,-115.287618590128,4,1,0,80,0,0
129039,-115.025161754134,4,1,0,80,0,0
129114,-114.763897190675,4,1,0,80,0,0
129189,-114.503816793893,4,1,0,80,0,0
129264,-114.244912531239,4,1,0,80,0,0
129339,-113.98717644265,4,1,0,80,0,0
129414,-113.730600639735,4,1,0,80,0,0
129489,-113.475177304965,4,1,0,80,0,0
129564,-113.220898690883,4,1,0,80,0,0
129639,-112.967757119322,4,1,0,80,0,0
129714,-112.715744980627,4,1,0,80,0,0
129789,-112.464854732896,4,1,0,80,0,0
129864,-112.215078901227,4,1,0,80,0,0
129939,-111.966410076977,4,1,0,80,0,0
130014,-111.718840917025,4,1,0,80,0,0
130089,-111.472364143056,4,1,0,80,0,0
130164,-111.226972540841,4,1,0,80,0,0
130239,-110.982658959538,4,1,0,80,0,0
130314,-110.739416310993,4,1,0,80,0,0
130389,-110.497237569061,4,1,0,80,0,0
130464,-110.256115768922,4,1,0,80,0,0
130539,-110.016044006418,4,1,0,80,0,0
130614,-109.777015437393,4,1,0,80,0,0
130689,-109.539023277042,4,1,0,80,0,0
130764,-109.302060799271,4,1,0,80,0,0
130839,-109.06612133606,4,1,0,80,0,0
130914,-108.831198276839,4,1,0,80,0,0
130989,-108.597285067873,4,1,0,80,0,0
131064,-108.364375211649,4,1,0,80,0,0
131139,-108.132462266276,4,1,0,80,0,0
131214,-107.901539844892,4,1,0,80,0,0
131289,-107.671601615074,4,1,0,80,0,0
131364,-107.442641298265,4,1,0,80,0,0
131439,-107.214652669198,4,1,0,80,0,0
131514,-106.987629555333,4,1,0,80,0,0
131589,-106.761565836299,4,1,0,80,0,0
131664,-106.536455443347,4,1,0,80,0,0
131739,-106.312292358804,4,1,0,80,0,0
131814,-106.089070615538,4,1,0,80,0,0
131889,-105.866784296427,4,1,0,80,0,0
131964,-105.64542753384,4,1,0,80,0,0
132039,-105.424994509115,4,1,0,80,0,0
132114,-105.205479452055,4,1,0,80,0,0
132189,-104.98687664042,4,1,0,80,0,0
132264,-104.769180399433,4,1,0,80,0,0
132339,-104.552385101285,4,1,0,80,0,0
132414,-104.336485164656,4,1,0,80,0,0
132489,-104.12147505423,4,1,0,80,0,0
132564,-103.907349280225,4,1,0,80,0,0
132639,-103.694102397926,4,1,0,80,0,0
132714,-103.481729007222,4,1,0,80,0,0
132789,-103.270223752151,4,1,0,80,0,0
132864,-103.059581320451,4,1,0,80,0,0
132939,-102.849796443111,4,1,0,80,0,0
133014,-102.640863893938,4,1,0,80,0,0
133089,-102.432778489117,4,1,0,80,0,0
133164,-102.225535086785,4,1,0,80,0,0
133239,-102.01912858661,4,1,0,80,0,0
133314,-101.813553929367,4,1,0,80,0,0
133389,-101.608806096528,4,1,0,80,0,0
133464,-101.404880109855,4,1,0,80,0,0
133539,-101.201771030993,4,1,0,80,0,0
133614,-100.999473961073,4,1,0,80,0,0
133689,-100.797984040319,4,1,0,80,0,0
133764,-100.597296447658,4,1,0,80,0,0
133839,-100.397406400335,4,1,0,80,0,0
133914,-100.198309153533,4,1,0,80,0,0
133989,-80,4,1,0,80,0,0
134292,-133.333333333333,4,1,0,80,0,0
138492,-80,4,1,0,80,0,0
138792,-90.9090909090909,4,1,0,90,0,1
165789,-92.5925925925926,4,1,0,90,0,1
165864,-93.3572710951526,4,1,0,90,0,1
165939,-94.1346850108617,4,1,0,90,0,1
166089,-95.7290132547864,4,1,0,90,0,1
166239,-97.378277153558,4,1,0,90,0,1
166314,-98.2244049867775,4,1,0,90,0,1
166389,-99.0853658536585,4,1,0,90,0,1
166464,-99.9615532487505,4,1,0,90,0,1
166539,-100.853374709077,4,1,0,90,0,1
166614,-101.761252446184,4,1,0,90,0,1
166689,-102.685624012638,4,1,0,90,0,1
166839,-104.585679806919,4,1,0,90,0,1
166989,-106.55737704918,4,1,0,90,0,1
167064,-107.571369466281,4,1,0,90,0,1
167139,-108.604845446951,4,1,0,90,0,1
167289,-110.732538330494,4,1,0,90,0,1
167439,-112.945264986968,4,1,0,90,0,1
167592,-115.248226950355,4,1,0,75,0,0
167667,-100,4,1,0,75,0,0
167739,-117.647058823529,4,1,0,75,0,0
175839,-117.647058823529,4,1,0,75,0,0
175989,-115.384615384615,4,1,0,75,0,0
176139,-113.207547169811,4,1,0,75,0,0
176289,-111.111111111111,4,1,0,75,0,0
176439,-109.090909090909,4,1,0,75,0,0
176589,-107.142857142857,4,1,0,75,0,0
176739,-105.263157894737,4,1,0,75,0,0
176814,-104.347826086957,4,1,0,75,0,0
176889,-103.448275862069,4,1,0,75,0,0
177039,-101.694915254237,4,1,0,75,0,0
177189,-100,4,1,0,75,0,0
215592,-100,4,1,0,70,0,0
215892,-125,4,1,0,70,0,0
221592,-90.9090909090909,4,1,0,90,0,1
249192,-90.9090909090909,4,1,0,80,0,0
249267,-100,4,1,0,80,0,0
279192,-100,4,1,0,60,0,0
280392,-100,4,1,0,50,0,0
281592,-100,4,1,0,40,0,0
282792,-100,4,1,0,30,0,0
283992,-100,4,1,0,20,0,0

[HitObjects]
92,145,4392,5,4,0:0:0:0:
131,158,4542,1,0,0:0:0:0:
131,158,4692,1,8,0:0:0:0:
91,104,4842,1,0,0:0:0:0:
91,104,4917,1,0,0:0:0:0:
91,104,4992,1,8,0:0:0:0:
91,104,5142,1,0,0:0:0:0:
91,104,5292,1,8,0:0:0:0:
182,89,5442,1,0,0:0:0:0:
192,20,5517,1,8,0:0:0:0:
86,84,5592,1,0,0:0:0:0:
155,26,5742,1,0,0:0:0:0:
155,26,5892,1,8,0:0:0:0:
155,26,6042,1,0,0:0:0:0:
155,26,6117,1,0,0:0:0:0:
155,26,6192,1,8,0:0:0:0:
155,26,6267,1,8,0:0:0:0:
155,26,6342,1,0,0:0:0:0:
155,26,6492,1,8,0:0:0:0:
92,145,6792,1,0,0:0:0:0:
131,158,6942,1,0,0:0:0:0:
131,158,7092,1,8,0:0:0:0:
91,104,7242,1,0,0:0:0:0:
91,104,7317,1,0,0:0:0:0:
91,104,7392,1,8,0:0:0:0:
91,104,7542,1,0,0:0:0:0:
69,34,7617,1,8,0:0:0:0:
91,104,7692,1,0,0:0:0:0:
129,55,7842,1,8,0:0:0:0:
86,84,7992,1,0,0:0:0:0:
155,26,8142,1,0,0:0:0:0:
155,26,8292,1,8,0:0:0:0:
155,26,8442,1,0,0:0:0:0:
155,26,8517,1,0,0:0:0:0:
155,26,8592,1,8,0:0:0:0:
155,26,8667,1,8,0:0:0:0:
155,26,8742,1,0,0:0:0:0:
214,106,8817,1,0,0:0:0:0:
155,26,8892,1,8,0:0:0:0:
92,145,9192,1,0,0:0:0:0:
142,164,9342,1,0,0:0:0:0:
142,164,9492,1,8,0:0:0:0:
102,110,9642,1,0,0:0:0:0:
102,110,9717,1,0,0:0:0:0:
102,110,9792,1,8,0:0:0:0:
102,110,9942,1,0,0:0:0:0:
102,110,10092,1,8,0:0:0:0:
193,95,10242,1,0,0:0:0:0:
203,26,10317,1,8,0:0:0:0:
97,90,10392,1,0,0:0:0:0:
166,32,10542,1,0,0:0:0:0:
166,32,10692,1,8,0:0:0:0:
166,32,10842,1,0,0:0:0:0:
166,32,10917,1,0,0:0:0:0:
166,32,10992,1,8,0:0:0:0:
166,32,11067,1,8,0:0:0:0:
166,32,11142,1,0,0:0:0:0:
166,32,11442,1,8,0:0:0:0:
103,151,11592,1,0,0:0:0:0:
142,164,11742,1,0,0:0:0:0:
142,164,11892,1,8,0:0:0:0:
102,110,12042,1,0,0:0:0:0:
102,110,12117,1,0,0:0:0:0:
102,110,12192,1,8,0:0:0:0:
102,110,12342,1,8,0:0:0:0:
80,40,12417,1,8,0:0:0:0:
102,110,12492,1,0,0:0:0:0:
140,61,12642,1,8,0:0:0:0:
97,90,12792,1,0,0:0:0:0:
166,32,12942,1,0,0:0:0:0:
166,32,13092,1,8,0:0:0:0:
166,32,13242,1,0,0:0:0:0:
166,32,13317,1,0,0:0:0:0:
166,32,13392,1,8,0:0:0:0:
166,32,13467,1,8,0:0:0:0:
166,32,13542,1,8,0:0:0:0:
225,112,13617,1,0,0:0:0:0:
166,32,13692,1,8,0:0:0:0:
103,151,13992,5,12,0:0:0:0:
142,164,14142,1,0,0:0:0:0:
142,164,14292,1,8,0:0:0:0:
102,110,14442,1,0,0:0:0:0:
102,110,14517,1,0,0:0:0:0:
102,110,14592,1,8,0:0:0:0:
102,140,14667,1,0,0:0:0:0:
102,110,14742,1,0,0:0:0:0:
102,110,14892,1,8,0:0:0:0:
193,95,15042,1,8,0:0:0:0:
203,26,15117,1,8,0:0:0:0:
97,90,15192,1,0,0:0:0:0:
166,32,15342,1,0,0:0:0:0:
166,32,15492,1,8,0:0:0:0:
166,32,15642,1,0,0:0:0:0:
166,32,15717,1,0,0:0:0:0:
166,32,15792,1,8,0:0:0:0:
166,32,15867,1,8,0:0:0:0:
166,32,15942,1,0,0:0:0:0:
77,104,16017,1,0,0:0:0:0:
166,32,16092,1,8,0:0:0:0:
103,151,16392,1,0,0:0:0:0:
142,164,16542,1,0,0:0:0:0:
142,164,16692,1,8,0:0:0:0:
102,110,16842,1,0,0:0:0:0:
102,110,16917,1,0,0:0:0:0:
102,110,16992,1,8,0:0:0:0:
132,82,17067,1,0,0:0:0:0:
102,110,17142,1,0,0:0:0:0:
80,40,17217,1,0,0:0:0:0:
102,110,17292,1,8,0:0:0:0:
140,61,17442,1,8,0:0:0:0:
97,90,17592,1,0,0:0:0:0:
166,32,17742,1,0,0:0:0:0:
166,32,17892,1,8,0:0:0:0:
166,32,18042,1,0,0:0:0:0:
166,32,18117,1,0,0:0:0:0:
166,32,18192,1,8,0:0:0:0:
166,32,18267,1,8,0:0:0:0:
166,32,18342,1,0,0:0:0:0:
216,81,18642,1,8,0:0:0:0:
103,151,18792,5,0,0:0:0:0:
142,164,18942,1,0,0:0:0:0:
142,164,19092,1,8,0:0:0:0:
102,110,19242,1,0,0:0:0:0:
102,110,19317,1,0,0:0:0:0:
102,110,19392,1,8,0:0:0:0:
102,140,19467,1,0,0:0:0:0:
102,110,19542,1,0,0:0:0:0:
102,110,19692,1,8,0:0:0:0:
193,95,19842,1,8,0:0:0:0:
203,26,19917,1,8,0:0:0:0:
97,90,19992,1,0,0:0:0:0:
166,32,20142,1,0,0:0:0:0:
166,32,20292,1,8,0:0:0:0:
166,32,20442,1,0,0:0:0:0:
166,32,20517,1,0,0:0:0:0:
166,32,20592,1,8,0:0:0:0:
166,32,20667,1,8,0:0:0:0:
166,32,20742,1,0,0:0:0:0:
77,104,20817,1,0,0:0:0:0:
166,32,20892,1,8,0:0:0:0:
103,151,21192,1,0,0:0:0:0:
142,164,21342,1,0,0:0:0:0:
142,164,21492,1,8,0:0:0:0:
102,110,21642,1,0,0:0:0:0:
102,110,21717,1,0,0:0:0:0:
102,110,21792,1,8,0:0:0:0:
132,82,21867,1,8,0:0:0:0:
102,110,21942,1,0,0:0:0:0:
176,204,22092,1,0,0:0:0:0:
140,61,22242,1,8,0:0:0:0:
97,90,22392,1,0,0:0:0:0:
122,106,22467,1,0,0:0:0:0:
166,32,22542,1,8,0:0:0:0:
134,35,22617,1,0,0:0:0:0:
166,32,22692,1,8,0:0:0:0:
166,32,22842,1,0,0:0:0:0:
166,32,22917,1,0,0:0:0:0:
166,32,22992,1,8,0:0:0:0:
166,32,23142,1,0,0:0:0:0:
152,95,23442,1,8,0:0:0:0:
179,47,23592,1,4,0:0:0:0:
75,312,23742,1,8,0:0:0:0:
75,312,23892,1,0,0:0:0:0:
106,109,24042,1,8,0:0:0:0:
75,312,24117,1,8,0:0:0:0:
106,109,24192,1,0,0:0:0:0:
171,79,24267,1,0,0:0:0:0:
106,109,24342,1,8,0:0:0:0:
106,109,24492,1,0,0:0:0:0:
106,109,24642,1,8,0:0:0:0:
149,43,24792,1,8,0:0:0:0:
191,46,24867,1,8,0:0:0:0:
149,43,24942,1,8,0:0:0:0:
191,46,25092,1,0,0:0:0:0:
149,43,25242,1,8,0:0:0:0:
191,46,25317,1,0,0:0:0:0:
149,43,25392,1,0,0:0:0:0:
191,46,25467,1,0,0:0:0:0:
191,46,25542,1,8,0:0:0:0:
179,86,25692,1,0,0:0:0:0:
166,76,25842,1,8,0:0:0:0:
150,60,25992,1,0,0:0:0:0:
132,44,26067,1,0,0:0:0:0:
132,43,26142,1,8,0:0:0:0:
132,43,26292,1,0,0:0:0:0:
132,43,26442,1,8,0:0:0:0:
132,43,26517,1,8,0:0:0:0:
132,43,26592,1,0,0:0:0:0:
132,43,26667,1,0,0:0:0:0:
132,43,26742,1,8,0:0:0:0:
132,43,26892,1,0,0:0:0:0:
112,56,27042,1,8,0:0:0:0:
132,43,27192,1,0,0:0:0:0:
132,43,27342,1,8,0:0:0:0:
132,43,27417,1,8,0:0:0:0:
132,43,27492,1,0,0:0:0:0:
132,43,27642,1,8,0:0:0:0:
132,43,27717,1,0,0:0:0:0:
132,43,27792,1,0,0:0:0:0:
143,24,27867,1,0,0:0:0:0:
114,53,27942,1,8,0:0:0:0:
175,93,28017,1,8,0:0:0:0:
112,56,28092,1,0,0:0:0:0:
180,47,28392,1,0,0:0:0:0:
75,312,28542,1,8,0:0:0:0:
75,312,28617,1,8,0:0:0:0:
75,312,28692,1,0,0:0:0:0:
106,109,28842,1,8,0:0:0:0:
106,109,28992,1,8,0:0:0:0:
122,11,29067,1,8,0:0:0:0:
106,109,29142,1,8,0:0:0:0:
106,109,29292,1,0,0:0:0:0:
106,109,29442,1,8,0:0:0:0:
149,43,29592,1,0,0:0:0:0:
191,46,29667,1,0,0:0:0:0:
149,43,29742,1,0,0:0:0:0:
191,46,29892,1,8,0:0:0:0:
149,43,30042,1,0,0:0:0:0:
191,46,30117,1,0,0:0:0:0:
149,43,30192,1,8,0:0:0:0:
191,46,30267,1,0,0:0:0:0:
191,46,30342,1,0,0:0:0:0:
179,86,30492,1,8,0:0:0:0:
166,76,30642,1,0,0:0:0:0:
150,60,30792,1,8,0:0:0:0:
132,44,30867,1,8,0:0:0:0:
132,43,30942,1,0,0:0:0:0:
132,43,31092,1,8,0:0:0:0:
132,43,31242,1,0,0:0:0:0:
132,43,31317,1,0,0:0:0:0:
132,43,31392,1,8,0:0:0:0:
132,43,31467,1,8,0:0:0:0:
132,43,31542,1,0,0:0:0:0:
132,43,31692,1,8,0:0:0:0:
112,56,31842,1,0,0:0:0:0:
132,43,31992,1,8,0:0:0:0:
132,43,32067,1,8,0:0:0:0:
132,43,32142,1,0,0:0:0:0:
132,43,32217,1,0,0:0:0:0:
132,43,32292,1,8,0:0:0:0:
132,43,32442,1,0,0:0:0:0:
132,43,32517,1,8,0:0:0:0:
132,43,32592,1,0,0:0:0:0:
121,77,32667,1,0,0:0:0:0:
114,53,32742,1,8,0:0:0:0:
121,77,32817,1,8,0:0:0:0:
112,56,32892,1,0,0:0:0:0:
180,47,33192,1,4,0:0:0:0:
75,312,33342,1,8,0:0:0:0:
75,312,33492,1,0,0:0:0:0:
106,109,33642,1,8,0:0:0:0:
75,312,33717,1,8,0:0:0:0:
106,109,33792,1,0,0:0:0:0:
123,19,33867,1,0,0:0:0:0:
106,109,33942,1,8,0:0:0:0:
106,109,34092,1,0,0:0:0:0:
171,79,34167,1,0,0:0:0:0:
106,109,34242,1,8,0:0:0:0:
149,43,34392,1,0,0:0:0:0:
149,43,34542,1,8,0:0:0:0:
191,46,34617,1,8,0:0:0:0:
191,46,34692,1,0,0:0:0:0:
149,43,34842,1,8,0:0:0:0:
191,46,34917,1,0,0:0:0:0:
149,43,34992,1,8,0:0:0:0:
191,46,35067,1,8,0:0:0:0:
191,46,35142,1,0,0:0:0:0:
179,86,35292,1,8,0:0:0:0:
166,76,35442,1,0,0:0:0:0:
150,60,35592,1,8,0:0:0:0:
132,44,35667,1,8,0:0:0:0:
132,43,35742,1,0,0:0:0:0:
132,43,35892,1,8,0:0:0:0:
132,43,36042,1,0,0:0:0:0:
132,43,36117,1,0,0:0:0:0:
132,43,36192,1,8,0:0:0:0:
132,43,36267,1,8,0:0:0:0:
132,43,36342,1,0,0:0:0:0:
132,43,36492,1,8,0:0:0:0:
112,56,36642,1,0,0:0:0:0:
132,43,36792,1,8,0:0:0:0:
132,43,36867,1,8,0:0:0:0:
132,43,36942,1,0,0:0:0:0:
132,43,37017,1,0,0:0:0:0:
132,43,37092,1,8,0:0:0:0:
132,43,37242,1,0,0:0:0:0:
132,43,37317,1,0,0:0:0:0:
132,43,37392,1,8,0:0:0:0:
169,54,37467,1,0,0:0:0:0:
114,53,37542,1,8,0:0:0:0:
146,42,37617,1,8,0:0:0:0:
112,56,37692,1,0,0:0:0:0:
114,53,37842,1,8,0:0:0:0:
145,13,37992,1,4,0:0:0:0:
178,129,40392,1,0,0:0:0:0:
178,129,40992,1,0,0:0:0:0:
178,129,41592,1,0,0:0:0:0:
114,26,41742,1,0,0:0:0:0:
114,26,41892,1,0,0:0:0:0:
114,26,42042,1,0,0:0:0:0:
114,26,42192,1,8,0:0:0:0:
139,29,42267,1,0,0:0:0:0:
139,29,42342,1,8,0:0:0:0:
139,29,42417,1,8,0:0:0:0:
139,29,42492,1,0,0:0:0:0:
139,29,42567,1,0,0:0:0:0:
139,29,42642,1,8,0:0:0:0:
139,29,42792,1,4,0:0:0:0:
159,136,42942,1,8,0:0:0:0:
153,134,43092,1,0,0:0:0:0:
159,136,43167,1,0,0:0:0:0:
95,76,43242,1,8,0:0:0:0:
95,76,43392,1,0,0:0:0:0:
95,76,43542,1,8,0:0:0:0:
106,75,43617,1,8,0:0:0:0:
106,75,43692,1,0,0:0:0:0:
106,75,43767,1,0,0:0:0:0:
106,75,43842,1,8,0:0:0:0:
94,55,43992,1,0,0:0:0:0:
192,64,44142,1,8,0:0:0:0:
192,64,44217,1,8,0:0:0:0:
192,64,44292,1,0,0:0:0:0:
192,64,44442,1,8,0:0:0:0:
192,64,44592,1,0,0:0:0:0:
192,64,44667,1,0,0:0:0:0:
192,64,44742,1,8,0:0:0:0:
192,64,44817,1,8,0:0:0:0:
94,55,44892,1,0,0:0:0:0:
234,114,45042,1,8,0:0:0:0:
234,114,45192,1,0,0:0:0:0:
234,114,45267,1,8,0:0:0:0:
234,114,45342,1,8,0:0:0:0:
194,34,45417,1,8,0:0:0:0:
108,52,45492,1,0,0:0:0:0:
107,51,45642,1,8,0:0:0:0:
501,327,45792,1,0,0:0:0:0:
501,327,45942,1,8,0:0:0:0:
501,327,46017,1,8,0:0:0:0:
501,327,46092,1,0,0:0:0:0:
224,146,46242,1,8,0:0:0:0:
96,50,46392,1,0,0:0:0:0:
96,50,46542,1,8,0:0:0:0:
96,50,46617,1,0,0:0:0:0:
96,50,46692,1,8,0:0:0:0:
96,50,46842,1,0,0:0:0:0:
457,264,46992,1,8,0:0:0:0:
457,264,47067,1,8,0:0:0:0:
450,259,47142,1,0,0:0:0:0:
450,259,47217,1,0,0:0:0:0:
450,259,47292,1,8,0:0:0:0:
139,29,47592,1,0,0:0:0:0:
159,136,47742,1,8,0:0:0:0:
153,134,47892,1,0,0:0:0:0:
159,136,47967,1,0,0:0:0:0:
95,76,48042,1,8,0:0:0:0:
95,76,48192,1,0,0:0:0:0:
106,75,48342,1,8,0:0:0:0:
106,75,48417,1,0,0:0:0:0:
106,75,48492,1,0,0:0:0:0:
95,76,48567,1,0,0:0:0:0:
106,75,48642,1,8,0:0:0:0:
94,55,48792,1,0,0:0:0:0:
192,64,48942,1,8,0:0:0:0:
192,64,49017,1,8,0:0:0:0:
192,64,49092,1,0,0:0:0:0:
192,64,49242,1,8,0:0:0:0:
192,64,49392,1,0,0:0:0:0:
192,64,49467,1,0,0:0:0:0:
192,64,49542,1,8,0:0:0:0:
192,64,49617,1,8,0:0:0:0:
94,55,49692,1,0,0:0:0:0:
234,114,49842,1,8,0:0:0:0:
234,114,49992,1,0,0:0:0:0:
234,114,50067,1,0,0:0:0:0:
234,114,50142,1,8,0:0:0:0:
108,52,50292,1,0,0:0:0:0:
107,51,50442,1,8,0:0:0:0:
501,327,50592,1,0,0:0:0:0:
501,327,50667,1,0,0:0:0:0:
87,51,50742,1,8,0:0:0:0:
501,327,50817,1,0,0:0:0:0:
501,327,50892,1,0,0:0:0:0:
224,146,51042,1,8,0:0:0:0:
146,29,51192,1,0,0:0:0:0:
450,259,51342,1,8,0:0:0:0:
146,29,51492,1,0,0:0:0:0:
457,264,51642,1,8,0:0:0:0:
146,29,51792,1,0,0:0:0:0:
96,50,51942,1,8,0:0:0:0:
146,29,52092,1,0,0:0:0:0:
96,50,52242,1,8,0:0:0:0:
158,93,52392,1,4,0:0:0:0:
158,93,52542,1,8,0:0:0:0:
158,93,52617,1,8,0:0:0:0:
158,93,52692,1,0,0:0:0:0:
158,93,52767,1,0,0:0:0:0:
158,93,52842,1,8,0:0:0:0:
158,93,52992,1,0,0:0:0:0:
158,93,53067,1,0,0:0:0:0:
158,93,53142,1,8,0:0:0:0:
158,93,53292,1,0,0:0:0:0:
158,93,53442,1,8,0:0:0:0:
158,93,53517,1,8,0:0:0:0:
124,35,53592,1,0,0:0:0:0:
224,31,53742,1,8,0:0:0:0:
224,31,53817,1,0,0:0:0:0:
224,31,53892,1,8,0:0:0:0:
164,67,54042,1,0,0:0:0:0:
164,67,54192,1,8,0:0:0:0:
164,67,54267,1,8,0:0:0:0:
164,67,54342,1,0,0:0:0:0:
164,67,54417,1,0,0:0:0:0:
164,67,54492,1,8,0:0:0:0:
176,72,54642,1,0,0:0:0:0:
176,72,54792,1,8,0:0:0:0:
176,72,54942,1,0,0:0:0:0:
176,72,55017,1,0,0:0:0:0:
176,72,55092,1,8,0:0:0:0:
165,61,55242,1,0,0:0:0:0:
165,61,55317,1,0,0:0:0:0:
165,61,55392,1,8,0:0:0:0:
165,61,55467,1,8,0:0:0:0:
165,61,55542,1,0,0:0:0:0:
165,32,55692,1,8,0:0:0:0:
165,32,55842,1,8,0:0:0:0:
165,61,55992,1,0,0:0:0:0:
165,61,56067,1,0,0:0:0:0:
165,61,56142,1,8,0:0:0:0:
165,61,56217,1,0,0:0:0:0:
165,61,56292,1,8,0:0:0:0:
165,61,56367,1,8,0:0:0:0:
165,61,56442,1,0,0:0:0:0:
165,61,56517,1,8,0:0:0:0:
165,61,56592,1,0,0:0:0:0:
165,61,56667,1,0,0:0:0:0:
165,61,56742,1,8,0:0:0:0:
165,61,56817,1,0,0:0:0:0:
165,61,56892,1,8,0:0:0:0:
165,61,56967,1,8,0:0:0:0:
165,61,57042,1,0,0:0:0:0:
165,61,57117,1,8,0:0:0:0:
166,48,57192,1,0,0:0:0:0:
165,48,57342,1,8,0:0:0:0:
165,48,57492,1,0,0:0:0:0:
165,48,57642,1,8,0:0:0:0:
165,48,57717,1,8,0:0:0:0:
165,48,57792,1,0,0:0:0:0:
165,48,57867,1,0,0:0:0:0:
165,48,57942,1,8,0:0:0:0:
165,48,58092,1,0,0:0:0:0:
115,55,58242,1,8,0:0:0:0:
115,55,58317,1,8,0:0:0:0:
115,55,58392,1,0,0:0:0:0:
115,55,58542,1,8,0:0:0:0:
115,55,58692,1,0,0:0:0:0:
115,55,58842,1,8,0:0:0:0:
115,55,58917,1,0,0:0:0:0:
115,55,58992,1,8,0:0:0:0:
115,55,59067,1,8,0:0:0:0:
115,55,59142,1,0,0:0:0:0:
148,89,59292,1,8,0:0:0:0:
133,67,59442,1,0,0:0:0:0:
133,67,59592,1,8,0:0:0:0:
133,67,59667,1,8,0:0:0:0:
133,67,59742,1,0,0:0:0:0:
133,67,59817,1,0,0:0:0:0:
133,67,59892,1,8,0:0:0:0:
133,67,60042,1,0,0:0:0:0:
133,67,60192,1,8,0:0:0:0:
104,34,60267,1,0,0:0:0:0:
104,34,60342,1,0,0:0:0:0:
104,34,60417,1,0,0:0:0:0:
104,34,60492,1,8,0:0:0:0:
104,34,60642,1,0,0:0:0:0:
165,61,60792,1,8,0:0:0:0:
165,61,60867,1,8,0:0:0:0:
165,61,60942,1,0,0:0:0:0:
165,61,61017,1,0,0:0:0:0:
165,61,61092,1,8,0:0:0:0:
165,61,61167,1,0,0:0:0:0:
165,61,61242,1,8,0:0:0:0:
165,61,61317,1,8,0:0:0:0:
165,61,61392,1,0,0:0:0:0:
165,61,61467,1,8,0:0:0:0:
165,61,61542,1,0,0:0:0:0:
165,61,61617,1,0,0:0:0:0:
165,61,61692,1,8,0:0:0:0:
165,61,61767,1,0,0:0:0:0:
165,61,61842,1,8,0:0:0:0:
166,48,61992,1,4,0:0:0:0:
199,237,62142,1,0,0:0:0:0:
199,237,62292,1,8,0:0:0:0:
125,72,62442,1,0,0:0:0:0:
125,72,62517,1,0,0:0:0:0:
125,72,62592,1,8,0:0:0:0:
125,72,62667,1,8,0:0:0:0:
125,72,62742,1,0,0:0:0:0:
125,72,62892,1,8,0:0:0:0:
125,72,63042,1,0,0:0:0:0:
125,72,63117,1,8,0:0:0:0:
125,72,63192,1,0,0:0:0:0:
185,106,63342,1,0,0:0:0:0:
185,106,63492,1,8,0:0:0:0:
185,106,63642,1,0,0:0:0:0:
185,106,63717,1,0,0:0:0:0:
185,106,63792,1,8,0:0:0:0:
185,106,63867,1,0,0:0:0:0:
185,106,63942,1,0,0:0:0:0:
185,106,64092,1,8,0:0:0:0:
185,106,64242,1,0,0:0:0:0:
197,93,64392,1,8,0:0:0:0:
197,93,64467,1,0,0:0:0:0:
197,93,64617,1,0,0:0:0:0:
197,93,64692,1,8,0:0:0:0:
131,40,64842,1,0,0:0:0:0:
175,72,64917,1,8,0:0:0:0:
175,72,64992,1,0,0:0:0:0:
175,72,65067,1,0,0:0:0:0:
175,72,65142,1,8,0:0:0:0:
175,72,65292,1,0,0:0:0:0:
204,105,65442,1,8,0:0:0:0:
200,101,65592,1,0,0:0:0:0:
200,101,65667,1,0,0:0:0:0:
204,105,65742,1,8,0:0:0:0:
204,105,65817,1,8,0:0:0:0:
204,105,65892,1,0,0:0:0:0:
204,105,66042,1,8,0:0:0:0:
204,105,66192,1,0,0:0:0:0:
204,105,66267,1,0,0:0:0:0:
204,105,66342,1,8,0:0:0:0:
200,101,66642,1,8,0:0:0:0:
27,363,66792,1,4,0:0:0:0:
124,144,67017,1,8,0:0:0:0:
124,144,67092,1,0,0:0:0:0:
124,144,67242,1,8,0:0:0:0:
124,144,67392,1,0,0:0:0:0:
124,144,67467,1,8,0:0:0:0:
124,144,67542,1,8,0:0:0:0:
124,144,67692,1,0,0:0:0:0:
124,144,67842,1,8,0:0:0:0:
128,111,67992,1,0,0:0:0:0:
124,144,68067,1,0,0:0:0:0:
128,111,68142,1,8,0:0:0:0:
128,111,68217,1,8,0:0:0:0:
128,111,68292,1,0,0:0:0:0:
128,111,68442,1,8,0:0:0:0:
296,139,68517,1,0,0:0:0:0:
128,111,68592,1,8,0:0:0:0:
128,111,68667,1,8,0:0:0:0:
128,111,68742,1,0,0:0:0:0:
128,111,68817,1,0,0:0:0:0:
128,111,68892,1,8,0:0:0:0:
128,111,69042,1,0,0:0:0:0:
126,54,69192,1,8,0:0:0:0:
126,54,69267,1,8,0:0:0:0:
130,31,69342,1,0,0:0:0:0:
135,48,69492,1,8,0:0:0:0:
135,48,69642,1,0,0:0:0:0:
135,48,69717,1,8,0:0:0:0:
135,48,69792,1,0,0:0:0:0:
135,48,69942,1,8,0:0:0:0:
135,48,70017,1,8,0:0:0:0:
135,48,70092,1,0,0:0:0:0:
135,48,70167,1,0,0:0:0:0:
135,48,70242,1,8,0:0:0:0:
165,38,70392,1,0,0:0:0:0:
165,38,70542,1,8,0:0:0:0:
165,38,70617,1,8,0:0:0:0:
165,38,70692,1,0,0:0:0:0:
165,38,70842,1,8,0:0:0:0:
165,23,70992,1,0,0:0:0:0:
165,23,71067,1,0,0:0:0:0:
165,23,71142,1,8,0:0:0:0:
165,23,71217,1,0,0:0:0:0:
165,23,71292,1,8,0:0:0:0:
165,23,71367,1,8,0:0:0:0:
165,23,71442,1,8,0:0:0:0:
27,363,71592,1,0,0:0:0:0:
178,96,71742,1,8,0:0:0:0:
124,144,71892,1,0,0:0:0:0:
124,144,71967,1,0,0:0:0:0:
124,144,72042,1,8,0:0:0:0:
125,44,72117,1,8,0:0:0:0:
124,144,72192,1,0,0:0:0:0:
124,144,72342,1,8,0:0:0:0:
124,144,72492,1,0,0:0:0:0:
124,144,72567,1,0,0:0:0:0:
124,144,72642,1,8,0:0:0:0:
128,111,72792,1,0,0:0:0:0:
128,111,72942,1,8,0:0:0:0:
128,111,73017,1,8,0:0:0:0:
128,111,73092,1,0,0:0:0:0:
199,68,73167,1,8,0:0:0:0:
128,111,73242,1,0,0:0:0:0:
128,111,73392,1,8,0:0:0:0:
288,103,73467,1,0,0:0:0:0:
128,111,73542,1,0,0:0:0:0:
128,111,73617,1,0,0:0:0:0:
128,111,73692,1,8,0:0:0:0:
128,111,73842,1,0,0:0:0:0:
126,54,73992,1,8,0:0:0:0:
126,54,74067,1,8,0:0:0:0:
130,31,74142,1,0,0:0:0:0:
135,48,74292,1,8,0:0:0:0:
135,48,74367,1,8,0:0:0:0:
135,48,74442,1,8,0:0:0:0:
135,48,74592,1,8,0:0:0:0:
135,48,74667,1,0,0:0:0:0:
135,48,74742,1,0,0:0:0:0:
135,48,74892,1,8,0:0:0:0:
135,48,74967,1,8,0:0:0:0:
135,48,75042,1,8,0:0:0:0:
165,38,75192,1,0,0:0:0:0:
165,38,75342,1,8,0:0:0:0:
165,38,75492,1,0,0:0:0:0:
165,38,75567,1,8,0:0:0:0:
165,38,75642,1,0,0:0:0:0:
165,23,75792,1,8,0:0:0:0:
165,23,75942,1,0,0:0:0:0:
165,23,76017,1,0,0:0:0:0:
165,23,76092,1,8,0:0:0:0:
165,23,76167,1,0,0:0:0:0:
165,23,76242,1,8,0:0:0:0:
228,71,76392,1,4,0:0:0:0:
242,59,78792,1,0,0:0:0:0:
242,59,79392,1,0,0:0:0:0:
242,59,79992,1,0,0:0:0:0:
242,59,80292,1,0,0:0:0:0:
242,59,80592,1,0,0:0:0:0:
242,59,80892,1,0,0:0:0:0:
242,59,81192,1,8,0:0:0:0:
242,59,81492,1,8,0:0:0:0:
242,59,81792,1,8,0:0:0:0:
242,59,82092,1,8,0:0:0:0:
242,59,82392,1,8,0:0:0:0:
242,59,82692,1,8,0:0:0:0:
242,59,82992,1,8,0:0:0:0:
242,59,83292,1,8,0:0:0:0:
242,59,83592,1,0,0:0:0:0:
242,59,83742,1,0,0:0:0:0:
242,59,83892,1,8,0:0:0:0:
242,59,84042,1,0,0:0:0:0:
242,59,84192,1,8,0:0:0:0:
242,59,84342,1,8,0:0:0:0:
242,59,84492,1,0,0:0:0:0:
242,59,84642,1,8,0:0:0:0:
242,59,84792,1,0,0:0:0:0:
125,60,84867,1,0,0:0:0:0:
125,60,84942,1,8,0:0:0:0:
172,31,85017,1,8,0:0:0:0:
242,59,85092,1,0,0:0:0:0:
125,60,85167,1,0,0:0:0:0:
125,60,85242,1,8,0:0:0:0:
172,31,85317,1,0,0:0:0:0:
242,59,85392,1,8,0:0:0:0:
125,60,85467,1,8,0:0:0:0:
125,60,85542,1,0,0:0:0:0:
172,31,85617,1,8,0:0:0:0:
242,59,85692,1,0,0:0:0:0:
125,60,85767,1,0,0:0:0:0:
125,60,85842,1,8,0:0:0:0:
312,141,85992,1,4,0:0:0:0:
280,136,86892,1,8,0:0:0:0:
143,165,87942,1,0,0:0:0:0:
206,54,88242,1,0,0:0:0:0:
453,279,88542,1,8,0:0:0:0:
453,279,88842,1,0,0:0:0:0:
453,279,89142,1,8,0:0:0:0:
349,163,90792,1,0,0:0:0:0:
207,52,91092,1,8,0:0:0:0:
239,214,91242,1,0,0:0:0:0:
239,214,91542,1,8,0:0:0:0:
217,93,91992,1,0,0:0:0:0:
217,93,92142,1,0,0:0:0:0:
217,93,92292,1,0,0:0:0:0:
217,93,92592,1,8,0:0:0:0:
155,29,92892,1,0,0:0:0:0:
155,29,93192,1,0,0:0:0:0:
155,29,93492,1,0,0:0:0:0:
155,29,93792,1,8,0:0:0:0:
140,27,94092,1,0,0:0:0:0:
132,96,94392,1,8,0:0:0:0:
132,96,94692,1,0,0:0:0:0:
132,96,95142,1,8,0:0:0:0:
104,61,95592,1,8,0:0:0:0:
104,61,95742,1,0,0:0:0:0:
131,58,95892,1,8,0:0:0:0:
176,34,96192,1,0,0:0:0:0:
176,34,96492,1,0,0:0:0:0:
176,34,96792,1,0,0:0:0:0:
176,34,97092,1,0,0:0:0:0:
154,80,97392,1,8,0:0:0:0:
139,42,97992,1,0,0:0:0:0:
139,42,98292,1,8,0:0:0:0:
139,42,98592,1,0,0:0:0:0:
139,42,98892,1,0,0:0:0:0:
139,42,99192,1,8,0:0:0:0:
113,72,99792,1,8,0:0:0:0:
113,72,100242,1,0,0:0:0:0:
116,65,100692,1,8,0:0:0:0:
116,65,100992,1,0,0:0:0:0:
116,65,101292,1,8,0:0:0:0:
116,65,101592,1,0,0:0:0:0:
116,65,101742,1,0,0:0:0:0:
116,65,102042,1,8,0:0:0:0:
176,34,102492,1,0,0:0:0:0:
205,113,102792,1,8,0:0:0:0:
176,34,103092,1,0,0:0:0:0:
205,113,103392,1,8,0:0:0:0:
176,34,103692,1,0,0:0:0:0:
176,34,103992,1,0,0:0:0:0:
205,113,104292,5,8,0:0:0:0:
205,113,104592,1,8,0:0:0:0:
69,209,105192,5,4,0:0:0:0:
145,20,105942,1,8,0:0:0:0:
129,121,106392,1,0,0:0:0:0:
172,107,106992,1,8,0:0:0:0:
172,107,107292,1,0,0:0:0:0:
172,107,107592,1,0,0:0:0:0:
172,107,107892,1,8,0:0:0:0:
172,107,108192,1,8,0:0:0:0:
172,107,108492,1,0,0:0:0:0:
172,107,108792,1,8,0:0:0:0:
161,95,109092,1,0,0:0:0:0:
161,95,109542,1,8,0:0:0:0:
149,97,109992,1,8,0:0:0:0:
149,97,110292,1,0,0:0:0:0:
27,77,110592,1,8,0:0:0:0:
149,97,110892,1,0,0:0:0:0:
149,97,111192,1,0,0:0:0:0:
149,97,111492,1,0,0:0:0:0:
149,97,111792,1,8,0:0:0:0:
149,97,112392,1,0,0:0:0:0:
149,97,112692,1,8,0:0:0:0:
145,121,112992,1,0,0:0:0:0:
145,121,113292,1,0,0:0:0:0:
41,76,113592,1,8,0:0:0:0:
41,76,114192,1,8,0:0:0:0:
41,76,114642,1,8,0:0:0:0:
156,114,115092,1,8,0:0:0:0:
156,114,115392,1,0,0:0:0:0:
156,114,115692,1,0,0:0:0:0:
156,114,115992,1,8,0:0:0:0:
156,114,116142,1,0,0:0:0:0:
156,114,116442,1,8,0:0:0:0:
151,151,116892,1,0,0:0:0:0:
156,114,117192,1,8,0:0:0:0:
197,36,117492,1,0,0:0:0:0:
156,114,117792,1,8,0:0:0:0:
151,151,118092,1,0,0:0:0:0:
151,151,118392,1,0,0:0:0:0:
180,61,118692,1,0,0:0:0:0:
180,61,118842,1,0,0:0:0:0:
156,114,118992,1,8,0:0:0:0:
213,107,119592,1,0,0:0:0:0:
213,107,119742,1,0,0:0:0:0:
213,107,119892,1,8,0:0:0:0:
213,107,120042,1,0,0:0:0:0:
213,107,120192,1,0,0:0:0:0:
213,107,120342,1,8,0:0:0:0:
213,107,120492,1,8,0:0:0:0:
213,107,120642,1,0,0:0:0:0:
213,107,120792,1,8,0:0:0:0:
213,107,120942,1,0,0:0:0:0:
213,107,121092,1,8,0:0:0:0:
213,107,121242,1,8,0:0:0:0:
213,107,121392,1,0,0:0:0:0:
213,107,121542,1,8,0:0:0:0:
213,107,121692,1,8,0:0:0:0:
213,107,121842,1,8,0:0:0:0:
213,107,121992,1,0,0:0:0:0:
213,107,122142,1,0,0:0:0:0:
213,107,122292,1,8,0:0:0:0:
213,107,122442,1,0,0:0:0:0:
213,107,122592,1,8,0:0:0:0:
213,107,122742,1,8,0:0:0:0:
213,107,122892,1,0,0:0:0:0:
232,116,123042,1,0,0:0:0:0:
213,107,123192,1,8,0:0:0:0:
213,107,123342,1,0,0:0:0:0:
213,107,123492,1,8,0:0:0:0:
213,107,123642,1,8,0:0:0:0:
213,107,123792,1,0,0:0:0:0:
213,107,123942,1,8,0:0:0:0:
213,107,124092,1,8,0:0:0:0:
213,107,124242,1,8,0:0:0:0:
213,107,124392,1,0,0:0:0:0:
213,107,124542,1,0,0:0:0:0:
213,107,124692,1,8,0:0:0:0:
213,107,124842,1,8,0:0:0:0:
213,107,124992,1,0,0:0:0:0:
213,107,125142,1,8,0:0:0:0:
213,107,125292,1,8,0:0:0:0:
213,107,125442,1,8,0:0:0:0:
213,107,125592,1,0,0:0:0:0:
213,107,125742,1,0,0:0:0:0:
213,107,125892,1,8,0:0:0:0:
213,107,126042,1,0,0:0:0:0:
213,107,126192,1,8,0:0:0:0:
213,107,126342,1,0,0:0:0:0:
213,107,126492,1,8,0:0:0:0:
188,101,126642,1,8,0:0:0:0:
213,107,126792,1,0,0:0:0:0:
213,107,126867,1,0,0:0:0:0:
213,107,126942,1,0,0:0:0:0:
213,107,127017,1,0,0:0:0:0:
213,107,127092,1,8,0:0:0:0:
213,107,127167,1,8,0:0:0:0:
213,107,127242,1,0,0:0:0:0:
213,107,127317,1,8,0:0:0:0:
213,107,127392,1,0,0:0:0:0:
213,107,127467,1,0,0:0:0:0:
213,107,127542,1,8,0:0:0:0:
213,107,127617,1,8,0:0:0:0:
213,107,127692,1,0,0:0:0:0:
213,107,127767,1,0,0:0:0:0:
213,107,127842,1,8,0:0:0:0:
213,107,127917,1,0,0:0:0:0:
213,107,127992,1,8,0:0:0:0:
213,107,128067,1,8,0:0:0:0:
213,107,128142,1,8,0:0:0:0:
213,107,128217,1,8,0:0:0:0:
213,107,128292,1,0,0:0:0:0:
213,107,128367,1,0,0:0:0:0:
213,107,128442,1,0,0:0:0:0:
213,107,128517,1,0,0:0:0:0:
213,107,128592,1,8,0:0:0:0:
213,107,128667,1,8,0:0:0:0:
213,107,128742,1,0,0:0:0:0:
213,107,128817,1,0,0:0:0:0:
213,107,128892,1,8,0:0:0:0:
213,107,128967,1,0,0:0:0:0:
213,107,129042,1,8,0:0:0:0:
213,107,129117,1,8,0:0:0:0:
213,107,129192,1,8,0:0:0:0:
213,107,129267,1,0,0:0:0:0:
213,107,129342,1,8,0:0:0:0:
213,107,129417,1,0,0:0:0:0:
213,107,129492,1,8,0:0:0:0:
213,107,129567,1,8,0:0:0:0:
213,107,129642,1,8,0:0:0:0:
213,107,129717,1,8,0:0:0:0:
213,107,129792,1,0,0:0:0:0:
213,107,129867,1,0,0:0:0:0:
213,107,129942,1,0,0:0:0:0:
213,107,130017,1,0,0:0:0:0:
213,107,130092,1,8,0:0:0:0:
213,107,130167,1,8,0:0:0:0:
213,107,130242,1,0,0:0:0:0:
213,107,130317,1,0,0:0:0:0:
213,107,130392,1,8,0:0:0:0:
213,107,130467,1,0,0:0:0:0:
213,107,130542,1,8,0:0:0:0:
213,107,130617,1,8,0:0:0:0:
213,107,130692,1,0,0:0:0:0:
213,107,130767,1,0,0:0:0:0:
213,107,130842,1,8,0:0:0:0:
213,107,130917,1,8,0:0:0:0:
213,107,130992,1,0,0:0:0:0:
213,107,131067,1,8,0:0:0:0:
213,107,131142,1,0,0:0:0:0:
213,107,131217,1,0,0:0:0:0:
213,107,131292,1,8,0:0:0:0:
213,107,131367,1,8,0:0:0:0:
213,107,131442,1,0,0:0:0:0:
213,107,131517,1,0,0:0:0:0:
213,107,131592,1,8,0:0:0:0:
213,107,131667,1,0,0:0:0:0:
213,107,131742,1,0,0:0:0:0:
213,107,131817,1,8,0:0:0:0:
213,107,131892,1,0,0:0:0:0:
213,107,131967,1,0,0:0:0:0:
213,107,132042,1,8,0:0:0:0:
213,107,132117,1,0,0:0:0:0:
213,107,132192,1,8,0:0:0:0:
213,107,132267,1,8,0:0:0:0:
213,107,132342,1,8,0:0:0:0:
213,107,132417,1,8,0:0:0:0:
213,107,132492,1,0,0:0:0:0:
213,107,132567,1,0,0:0:0:0:
213,107,132642,1,8,0:0:0:0:
213,107,132717,1,0,0:0:0:0:
213,107,132792,1,8,0:0:0:0:
213,107,132867,1,8,0:0:0:0:
213,107,132942,1,0,0:0:0:0:
213,107,133017,1,8,0:0:0:0:
213,107,133092,1,0,0:0:0:0:
213,107,133167,1,0,0:0:0:0:
213,107,133242,1,8,0:0:0:0:
213,107,133317,1,0,0:0:0:0:
213,107,133392,1,8,0:0:0:0:
213,107,133467,1,8,0:0:0:0:
213,107,133542,1,0,0:0:0:0:
213,107,133617,1,0,0:0:0:0:
213,107,133692,1,8,0:0:0:0:
167,36,133767,1,8,0:0:0:0:
167,36,133842,1,8,0:0:0:0:
182,7,133992,1,4,0:0:0:0:
167,138,138492,5,0,0:0:0:0:
213,107,138792,1,8,0:0:0:0:
213,107,138867,1,8,0:0:0:0:
213,107,138942,1,0,0:0:0:0:
213,107,139017,1,0,0:0:0:0:
213,107,139092,1,8,0:0:0:0:
213,107,139167,1,0,0:0:0:0:
213,107,139242,1,8,0:0:0:0:
213,107,139317,1,8,0:0:0:0:
213,107,139392,1,0,0:0:0:0:
213,107,139467,1,0,0:0:0:0:
213,107,139542,1,8,0:0:0:0:
213,107,139617,1,8,0:0:0:0:
213,107,139692,1,8,0:0:0:0:
213,107,139767,1,8,0:0:0:0:
213,107,139842,1,0,0:0:0:0:
213,107,139917,1,0,0:0:0:0:
213,107,139992,1,8,0:0:0:0:
213,107,140067,1,8,0:0:0:0:
213,107,140142,1,8,0:0:0:0:
213,107,140217,1,0,0:0:0:0:
213,107,140292,1,8,0:0:0:0:
213,107,140367,1,8,0:0:0:0:
213,107,140442,1,8,0:0:0:0:
213,107,140517,1,8,0:0:0:0:
213,107,140592,1,0,0:0:0:0:
213,107,140667,1,0,0:0:0:0:
213,107,140742,1,8,0:0:0:0:
213,107,140817,1,8,0:0:0:0:
213,107,140892,1,8,0:0:0:0:
213,107,140967,1,8,0:0:0:0:
213,107,141042,1,0,0:0:0:0:
213,107,141117,1,0,0:0:0:0:
213,107,141192,1,8,0:0:0:0:
213,107,141267,1,8,0:0:0:0:
213,107,141342,1,0,0:0:0:0:
213,107,141417,1,0,0:0:0:0:
213,107,141492,1,8,0:0:0:0:
213,107,141567,1,0,0:0:0:0:
213,107,141642,1,0,0:0:0:0:
213,107,141717,1,0,0:0:0:0:
213,107,141792,1,8,0:0:0:0:
213,107,141867,1,8,0:0:0:0:
213,107,141942,1,8,0:0:0:0:
213,107,142017,1,8,0:0:0:0:
213,107,142092,1,0,0:0:0:0:
186,136,142242,1,0,0:0:0:0:
213,107,142392,1,8,0:0:0:0:
213,107,142467,1,0,0:0:0:0:
213,107,142542,1,0,0:0:0:0:
213,107,142617,1,0,0:0:0:0:
213,107,142692,1,8,0:0:0:0:
213,107,142767,1,0,0:0:0:0:
213,107,142842,1,8,0:0:0:0:
213,107,142917,1,8,0:0:0:0:
213,107,142992,1,0,0:0:0:0:
213,107,143067,1,0,0:0:0:0:
213,107,143142,1,8,0:0:0:0:
213,107,143217,1,8,0:0:0:0:
213,107,143292,1,0,0:0:0:0:
213,107,143367,1,8,0:0:0:0:
213,107,143442,1,0,0:0:0:0:
213,107,143517,1,0,0:0:0:0:
213,107,143592,1,8,0:0:0:0:
213,107,143667,1,8,0:0:0:0:
213,107,143742,1,0,0:0:0:0:
213,107,143817,1,0,0:0:0:0:
213,107,143892,1,8,0:0:0:0:
213,107,143967,1,8,0:0:0:0:
213,107,144042,1,8,0:0:0:0:
213,107,144117,1,8,0:0:0:0:
213,107,144192,1,0,0:0:0:0:
213,107,144267,1,0,0:0:0:0:
213,107,144342,1,8,0:0:0:0:
213,107,144417,1,8,0:0:0:0:
213,107,144492,1,8,0:0:0:0:
213,107,144567,1,8,0:0:0:0:
213,107,144642,1,0,0:0:0:0:
213,107,144717,1,0,0:0:0:0:
213,107,144792,1,8,0:0:0:0:
213,107,144867,1,0,0:0:0:0:
213,107,144942,1,8,0:0:0:0:
213,107,145017,1,8,0:0:0:0:
213,107,145092,1,0,0:0:0:0:
213,107,145167,1,8,0:0:0:0:
213,107,145242,1,0,0:0:0:0:
213,107,145317,1,0,0:0:0:0:
213,107,145392,1,8,0:0:0:0:
181,109,145542,1,0,0:0:0:0:
213,107,145692,1,8,0:0:0:0:
67,29,145767,1,8,0:0:0:0:
67,29,145842,1,0,0:0:0:0:
67,29,145917,1,0,0:0:0:0:
213,107,145992,1,8,0:0:0:0:
141,193,146067,1,8,0:0:0:0:
141,193,146142,1,8,0:0:0:0:
141,193,146217,1,0,0:0:0:0:
213,107,146292,1,8,0:0:0:0:
213,107,146367,1,8,0:0:0:0:
213,107,146442,1,8,0:0:0:0:
213,107,146517,1,8,0:0:0:0:
213,107,146592,1,0,0:0:0:0:
213,107,146667,1,0,0:0:0:0:
213,107,146742,1,8,0:0:0:0:
213,107,146817,1,8,0:0:0:0:
213,107,146892,1,0,0:0:0:0:
213,107,146967,1,0,0:0:0:0:
213,107,147042,1,0,0:0:0:0:
213,107,147117,1,0,0:0:0:0:
213,107,147192,1,8,0:0:0:0:
213,107,147267,1,8,0:0:0:0:
213,107,147342,1,8,0:0:0:0:
213,107,147417,1,8,0:0:0:0:
213,107,147492,1,0,0:0:0:0:
213,107,147567,1,0,0:0:0:0:
213,107,147642,1,0,0:0:0:0:
213,107,147717,1,0,0:0:0:0:
213,107,147792,1,8,0:0:0:0:
213,107,147867,1,8,0:0:0:0:
213,107,147942,1,0,0:0:0:0:
213,107,148017,1,0,0:0:0:0:
213,107,148092,1,8,0:0:0:0:
213,107,148167,1,0,0:0:0:0:
213,107,148242,1,8,0:0:0:0:
213,107,148317,1,8,0:0:0:0:
213,107,148392,1,8,0:0:0:0:
213,107,148467,1,8,0:0:0:0:
213,107,148542,1,0,0:0:0:0:
213,107,148617,1,0,0:0:0:0:
213,107,148692,1,8,0:0:0:0:
213,107,148767,1,8,0:0:0:0:
213,107,148842,1,8,0:0:0:0:
213,107,148917,1,0,0:0:0:0:
213,107,148992,1,8,0:0:0:0:
213,107,149067,1,8,0:0:0:0:
213,107,149142,1,0,0:0:0:0:
213,107,149217,1,0,0:0:0:0:
213,107,149292,1,8,0:0:0:0:
213,107,149367,1,8,0:0:0:0:
213,107,149442,1,0,0:0:0:0:
213,107,149517,1,0,0:0:0:0:
213,107,149592,1,8,0:0:0:0:
213,107,149667,1,0,0:0:0:0:
213,107,149742,1,8,0:0:0:0:
213,107,149817,1,8,0:0:0:0:
213,107,149892,1,0,0:0:0:0:
213,107,149967,1,8,0:0:0:0:
213,107,150042,1,0,0:0:0:0:
213,107,150117,1,0,0:0:0:0:
213,107,150192,1,8,0:0:0:0:
213,107,150267,1,8,0:0:0:0:
213,107,150342,1,0,0:0:0:0:
213,107,150417,1,0,0:0:0:0:
213,107,150492,1,8,0:0:0:0:
181,109,150642,1,0,0:0:0:0:
213,107,150792,1,8,0:0:0:0:
213,107,150867,1,0,0:0:0:0:
213,107,150942,1,0,0:0:0:0:
213,107,151017,1,8,0:0:0:0:
213,107,151092,1,0,0:0:0:0:
213,107,151167,1,0,0:0:0:0:
213,107,151242,1,8,0:0:0:0:
213,107,151317,1,0,0:0:0:0:
213,107,151392,1,8,0:0:0:0:
213,107,151467,1,8,0:0:0:0:
213,107,151542,1,0,0:0:0:0:
213,107,151617,1,0,0:0:0:0:
213,107,151692,1,8,0:0:0:0:
213,107,151767,1,0,0:0:0:0:
213,107,151842,1,8,0:0:0:0:
213,107,151917,1,8,0:0:0:0:
213,107,151992,1,0,0:0:0:0:
213,107,152067,1,0,0:0:0:0:
213,107,152142,1,8,0:0:0:0:
213,107,152217,1,8,0:0:0:0:
213,107,152292,1,0,0:0:0:0:
213,107,152367,1,8,0:0:0:0:
213,107,152442,1,0,0:0:0:0:
213,107,152517,1,0,0:0:0:0:
213,107,152592,1,8,0:0:0:0:
213,107,152667,1,8,0:0:0:0:
213,107,152742,1,8,0:0:0:0:
213,107,152817,1,8,0:0:0:0:
213,107,152892,1,0,0:0:0:0:
213,107,153192,1,8,0:0:0:0:
213,107,153267,1,0,0:0:0:0:
213,107,153342,1,0,0:0:0:0:
213,107,153417,1,0,0:0:0:0:
213,107,153492,1,8,0:0:0:0:
213,107,153567,1,0,0:0:0:0:
213,107,153642,1,8,0:0:0:0:
213,107,153717,1,8,0:0:0:0:
213,107,153792,1,0,0:0:0:0:
213,107,153867,1,0,0:0:0:0:
213,107,153942,1,8,0:0:0:0:
213,107,154017,1,0,0:0:0:0:
213,107,154092,1,8,0:0:0:0:
213,107,154167,1,8,0:0:0:0:
213,107,154242,1,8,0:0:0:0:
213,107,154317,1,0,0:0:0:0:
213,107,154392,1,8,0:0:0:0:
213,107,154467,1,0,0:0:0:0:
213,107,154542,1,0,0:0:0:0:
213,107,154617,1,0,0:0:0:0:
213,107,154692,1,8,0:0:0:0:
213,107,154767,1,8,0:0:0:0:
213,107,154842,1,0,0:0:0:0:
213,107,154917,1,0,0:0:0:0:
213,107,154992,1,8,0:0:0:0:
213,107,155067,1,0,0:0:0:0:
213,107,155142,1,0,0:0:0:0:
213,107,155217,1,8,0:0:0:0:
213,107,155292,1,0,0:0:0:0:
213,107,155367,1,0,0:0:0:0:
213,107,155442,1,8,0:0:0:0:
213,107,155517,1,0,0:0:0:0:
213,107,155592,1,8,0:0:0:0:
213,107,155667,1,8,0:0:0:0:
213,107,155742,1,0,0:0:0:0:
213,107,155817,1,0,0:0:0:0:
213,107,155892,1,8,0:0:0:0:
213,107,155967,1,0,0:0:0:0:
213,107,156042,1,0,0:0:0:0:
213,107,156117,1,0,0:0:0:0:
213,107,156192,1,8,0:0:0:0:
213,107,156267,1,8,0:0:0:0:
213,107,156342,1,0,0:0:0:0:
213,107,156417,1,0,0:0:0:0:
213,107,156492,1,8,0:0:0:0:
203,115,156642,1,0,0:0:0:0:
213,107,156792,1,8,0:0:0:0:
213,107,156867,1,0,0:0:0:0:
213,107,156942,1,0,0:0:0:0:
213,107,157017,1,0,0:0:0:0:
213,107,157092,1,8,0:0:0:0:
213,107,157167,1,0,0:0:0:0:
213,107,157242,1,8,0:0:0:0:
213,107,157317,1,8,0:0:0:0:
213,107,157392,1,0,0:0:0:0:
213,107,157467,1,0,0:0:0:0:
213,107,157542,1,8,0:0:0:0:
213,107,157617,1,8,0:0:0:0:
213,107,157692,1,0,0:0:0:0:
213,107,157767,1,8,0:0:0:0:
213,107,157842,1,0,0:0:0:0:
213,107,157917,1,0,0:0:0:0:
213,107,157992,1,8,0:0:0:0:
213,107,158067,1,0,0:0:0:0:
213,107,158142,1,8,0:0:0:0:
213,107,158217,1,8,0:0:0:0:
213,107,158292,1,0,0:0:0:0:
213,107,158367,1,0,0:0:0:0:
213,107,158442,1,0,0:0:0:0:
213,107,158517,1,0,0:0:0:0:
213,107,158592,1,8,0:0:0:0:
213,107,158667,1,0,0:0:0:0:
213,107,158742,1,0,0:0:0:0:
213,107,158817,1,8,0:0:0:0:
213,107,158892,1,0,0:0:0:0:
213,107,158967,1,0,0:0:0:0:
213,107,159042,1,8,0:0:0:0:
213,107,159117,1,0,0:0:0:0:
213,107,159192,1,8,0:0:0:0:
213,107,159267,1,8,0:0:0:0:
213,107,159342,1,0,0:0:0:0:
213,107,159417,1,0,0:0:0:0:
213,107,159492,1,8,0:0:0:0:
213,107,159567,1,0,0:0:0:0:
213,107,159642,1,0,0:0:0:0:
213,107,159717,1,0,0:0:0:0:
213,107,159792,1,8,0:0:0:0:
278,213,159867,1,8,0:0:0:0:
275,217,159942,1,8,0:0:0:0:
192,101,160017,1,0,0:0:0:0:
213,107,160092,1,8,0:0:0:0:
278,213,160242,1,0,0:0:0:0:
213,107,160392,1,8,0:0:0:0:
152,27,160467,1,8,0:0:0:0:
213,107,160542,1,0,0:0:0:0:
213,107,160617,1,0,0:0:0:0:
213,107,160692,1,8,0:0:0:0:
213,107,160767,1,8,0:0:0:0:
213,107,160842,1,0,0:0:0:0:
213,107,160917,1,0,0:0:0:0:
213,107,160992,1,8,0:0:0:0:
213,107,161067,1,0,0:0:0:0:
213,107,161142,1,0,0:0:0:0:
213,107,161217,1,0,0:0:0:0:
213,107,161292,1,8,0:0:0:0:
213,107,161367,1,0,0:0:0:0:
213,107,161442,1,0,0:0:0:0:
213,107,161517,1,0,0:0:0:0:
213,107,161592,1,8,0:0:0:0:
213,107,161667,1,8,0:0:0:0:
213,107,161742,1,0,0:0:0:0:
213,107,161817,1,0,0:0:0:0:
213,107,161892,1,8,0:0:0:0:
213,107,161967,1,0,0:0:0:0:
213,107,162042,1,0,0:0:0:0:
213,107,162117,1,0,0:0:0:0:
213,107,162192,1,8,0:0:0:0:
213,107,162267,1,8,0:0:0:0:
213,107,162342,1,0,0:0:0:0:
213,107,162417,1,0,0:0:0:0:
213,107,162492,1,8,0:0:0:0:
213,107,162567,1,0,0:0:0:0:
213,107,162642,1,8,0:0:0:0:
213,107,162717,1,8,0:0:0:0:
213,107,162792,1,0,0:0:0:0:
213,107,162867,1,0,0:0:0:0:
213,107,162942,1,8,0:0:0:0:
213,107,163017,1,0,0:0:0:0:
213,107,163092,1,8,0:0:0:0:
213,107,163167,1,8,0:0:0:0:
213,107,163242,1,8,0:0:0:0:
213,107,163317,1,0,0:0:0:0:
213,107,163392,1,8,0:0:0:0:
213,107,163467,1,8,0:0:0:0:
213,107,163542,1,0,0:0:0:0:
213,107,163617,1,0,0:0:0:0:
213,107,163692,1,8,0:0:0:0:
213,107,163767,1,0,0:0:0:0:
213,107,163842,1,0,0:0:0:0:
213,107,163917,1,0,0:0:0:0:
213,107,163992,1,8,0:0:0:0:
213,107,164067,1,0,0:0:0:0:
213,107,164142,1,8,0:0:0:0:
213,107,164217,1,8,0:0:0:0:
213,107,164292,1,0,0:0:0:0:
213,107,164367,1,0,0:0:0:0:
213,107,164442,1,8,0:0:0:0:
213,107,164517,1,8,0:0:0:0:
213,107,164592,1,0,0:0:0:0:
213,107,164667,1,8,0:0:0:0:
213,107,164742,1,0,0:0:0:0:
213,107,164817,1,0,0:0:0:0:
213,107,164892,1,8,0:0:0:0:
198,122,165042,1,0,0:0:0:0:
213,107,165192,1,8,0:0:0:0:
213,107,165267,1,0,0:0:0:0:
213,107,165342,1,0,0:0:0:0:
213,107,165417,1,8,0:0:0:0:
213,107,165492,1,0,0:0:0:0:
213,107,165567,1,0,0:0:0:0:
213,107,165642,1,8,0:0:0:0:
213,107,165792,1,8,0:0:0:0:
213,107,165867,1,8,0:0:0:0:
213,107,165942,1,0,0:0:0:0:
213,107,166092,1,0,0:0:0:0:
213,107,166242,1,8,0:0:0:0:
213,107,166317,1,0,0:0:0:0:
213,107,166392,1,8,0:0:0:0:
213,107,166467,1,8,0:0:0:0:
213,107,166542,1,0,0:0:0:0:
213,107,166617,1,0,0:0:0:0:
213,107,166692,1,8,0:0:0:0:
213,107,166842,1,0,0:0:0:0:
213,107,166992,1,8,0:0:0:0:
213,107,167067,1,8,0:0:0:0:
213,107,167142,1,8,0:0:0:0:
213,107,167292,1,0,0:0:0:0:
196,59,167442,1,8,0:0:0:0:
69,63,167592,1,4,0:0:0:0:
157,122,167742,1,8,0:0:0:0:
104,14,168042,1,8,0:0:0:0:
104,14,168342,1,8,0:0:0:0:
104,14,168642,1,8,0:0:0:0:
104,14,168942,1,8,0:0:0:0:
122,13,169242,1,8,0:0:0:0:
144,54,169542,1,8,0:0:0:0:
122,13,169692,1,8,0:0:0:0:
122,13,169842,1,0,0:0:0:0:
250,43,170142,1,8,0:0:0:0:
178,88,170442,1,8,0:0:0:0:
178,88,170742,1,8,0:0:0:0:
178,88,171042,1,8,0:0:0:0:
178,88,171342,1,8,0:0:0:0:
298,114,171417,1,0,0:0:0:0:
211,55,171492,1,0,0:0:0:0:
178,88,171642,1,8,0:0:0:0:
290,111,171717,1,8,0:0:0:0:
149,87,171792,1,0,0:0:0:0:
178,88,171942,1,8,0:0:0:0:
290,111,172017,1,0,0:0:0:0:
180,5,172092,1,0,0:0:0:0:
178,88,172242,1,8,0:0:0:0:
174,6,172317,1,8,0:0:0:0:
214,42,172392,1,0,0:0:0:0:
178,88,172542,1,8,0:0:0:0:
178,88,172842,1,8,0:0:0:0:
178,88,173142,1,8,0:0:0:0:
178,88,173442,1,8,0:0:0:0:
178,88,173742,1,8,0:0:0:0:
178,88,174042,1,8,0:0:0:0:
226,111,174342,1,8,0:0:0:0:
178,88,174492,1,8,0:0:0:0:
178,88,174642,1,0,0:0:0:0:
336,34,174942,1,8,0:0:0:0:
178,88,175242,1,8,0:0:0:0:
178,88,175542,1,8,0:0:0:0:
178,88,175842,1,0,0:0:0:0:
178,88,175992,1,8,0:0:0:0:
106,19,176142,1,8,0:0:0:0:
178,88,176292,1,0,0:0:0:0:
106,19,176442,1,0,0:0:0:0:
178,88,176592,1,8,0:0:0:0:
125,34,176742,1,0,0:0:0:0:
125,34,176817,1,0,0:0:0:0:
178,88,176892,1,8,0:0:0:0:
125,34,177042,1,8,0:0:0:0:
184,51,177192,1,4,0:0:0:0:
184,51,177342,1,8,0:0:0:0:
184,51,177417,1,8,0:0:0:0:
184,51,177492,1,0,0:0:0:0:
184,51,177642,1,8,0:0:0:0:
161,66,177792,1,0,0:0:0:0:
161,66,177867,1,0,0:0:0:0:
161,66,177942,1,8,0:0:0:0:
154,57,178092,1,0,0:0:0:0:
154,57,178242,1,8,0:0:0:0:
173,34,178392,1,8,0:0:0:0:
173,34,178467,1,8,0:0:0:0:
173,34,178542,1,8,0:0:0:0:
173,34,178692,1,0,0:0:0:0:
173,34,178842,1,8,0:0:0:0:
173,34,178917,1,0,0:0:0:0:
173,34,178992,1,0,0:0:0:0:
173,34,179142,1,8,0:0:0:0:
185,89,179292,1,8,0:0:0:0:
185,89,179442,1,8,0:0:0:0:
229,271,179592,1,0,0:0:0:0:
229,271,179667,1,0,0:0:0:0:
229,271,179742,1,8,0:0:0:0:
229,271,179892,1,0,0:0:0:0:
229,271,180042,1,8,0:0:0:0:
229,271,180117,1,0,0:0:0:0:
229,271,180192,1,8,0:0:0:0:
229,271,180267,1,8,0:0:0:0:
229,271,180342,1,0,0:0:0:0:
229,271,180492,1,8,0:0:0:0:
201,224,180642,1,0,0:0:0:0:
244,66,180792,1,8,0:0:0:0:
244,66,180942,1,8,0:0:0:0:
244,66,181092,1,0,0:0:0:0:
244,66,181242,1,0,0:0:0:0:
144,50,181392,1,8,0:0:0:0:
144,50,181542,1,8,0:0:0:0:
144,50,181692,1,0,0:0:0:0:
144,50,181842,1,8,0:0:0:0:
184,51,181992,1,0,0:0:0:0:
184,51,182142,1,8,0:0:0:0:
184,51,182217,1,0,0:0:0:0:
184,51,182292,1,0,0:0:0:0:
184,51,182442,1,8,0:0:0:0:
161,66,182592,1,0,0:0:0:0:
161,66,182667,1,8,0:0:0:0:
161,66,182742,1,8,0:0:0:0:
154,57,182892,1,0,0:0:0:0:
154,57,183042,1,8,0:0:0:0:
173,34,183192,1,0,0:0:0:0:
173,34,183267,1,0,0:0:0:0:
173,34,183342,1,8,0:0:0:0:
173,34,183492,1,0,0:0:0:0:
173,34,183642,1,8,0:0:0:0:
173,34,183717,1,8,0:0:0:0:
173,34,183792,1,0,0:0:0:0:
188,57,183867,1,0,0:0:0:0:
173,34,183942,1,8,0:0:0:0:
185,89,184092,1,0,0:0:0:0:
185,89,184242,1,8,0:0:0:0:
229,271,184392,1,0,0:0:0:0:
229,271,184467,1,0,0:0:0:0:
229,271,184542,1,8,0:0:0:0:
229,271,184692,1,0,0:0:0:0:
229,271,184842,1,8,0:0:0:0:
229,271,184917,1,0,0:0:0:0:
229,271,184992,1,0,0:0:0:0:
229,271,185067,1,0,0:0:0:0:
229,271,185142,1,8,0:0:0:0:
229,271,185292,1,0,0:0:0:0:
256,128,185367,1,0,0:0:0:0:
201,224,185442,1,8,0:0:0:0:
244,66,185592,1,0,0:0:0:0:
244,66,185742,1,8,0:0:0:0:
244,66,185892,1,0,0:0:0:0:
244,66,186042,1,8,0:0:0:0:
144,50,186192,1,0,0:0:0:0:
144,50,186267,1,0,0:0:0:0:
144,50,186342,1,8,0:0:0:0:
144,50,186417,1,8,0:0:0:0:
144,50,186492,1,0,0:0:0:0:
144,50,186567,1,0,0:0:0:0:
144,50,186642,1,8,0:0:0:0:
144,50,186792,1,0,0:0:0:0:
194,109,186942,1,8,0:0:0:0:
295,295,187017,1,8,0:0:0:0:
295,295,187092,1,0,0:0:0:0:
295,295,187242,1,8,0:0:0:0:
295,295,187392,1,0,0:0:0:0:
295,295,187467,1,0,0:0:0:0:
295,295,187542,1,8,0:0:0:0:
295,295,187617,1,8,0:0:0:0:
295,295,187692,1,0,0:0:0:0:
295,295,187842,1,8,0:0:0:0:
86,0,187992,1,0,0:0:0:0:
86,0,188067,1,8,0:0:0:0:
86,0,188142,1,8,0:0:0:0:
86,0,188292,1,0,0:0:0:0:
86,0,188442,1,8,0:0:0:0:
86,0,188592,1,0,0:0:0:0:
86,0,188742,1,8,0:0:0:0:
86,0,188817,1,8,0:0:0:0:
86,0,188892,1,0,0:0:0:0:
86,0,189042,1,8,0:0:0:0:
231,135,189192,1,0,0:0:0:0:
231,135,189267,1,8,0:0:0:0:
231,135,189342,1,8,0:0:0:0:
231,135,189492,1,0,0:0:0:0:
231,135,189642,1,8,0:0:0:0:
121,64,189717,1,0,0:0:0:0:
128,61,189792,1,0,0:0:0:0:
128,61,189942,1,8,0:0:0:0:
128,61,190017,1,8,0:0:0:0:
128,61,190092,1,0,0:0:0:0:
119,42,190167,1,0,0:0:0:0:
128,61,190242,1,8,0:0:0:0:
159,87,190392,1,0,0:0:0:0:
157,51,190542,1,8,0:0:0:0:
157,51,190617,1,8,0:0:0:0:
157,51,190692,1,0,0:0:0:0:
157,51,190842,1,8,0:0:0:0:
140,77,190992,1,0,0:0:0:0:
140,77,191067,1,0,0:0:0:0:
140,77,191142,1,8,0:0:0:0:
140,77,191292,1,0,0:0:0:0:
140,77,191442,1,8,0:0:0:0:
102,27,191592,1,0,0:0:0:0:
102,27,191667,1,0,0:0:0:0:
102,27,191742,1,8,0:0:0:0:
106,40,191892,1,0,0:0:0:0:
106,40,192042,1,8,0:0:0:0:
106,40,192117,1,8,0:0:0:0:
106,40,192192,1,0,0:0:0:0:
106,40,192342,1,8,0:0:0:0:
106,40,192417,1,0,0:0:0:0:
102,27,192492,1,8,0:0:0:0:
102,27,192642,5,0,0:0:0:0:
73,79,192792,1,8,0:0:0:0:
166,69,192942,1,0,0:0:0:0:
166,69,193017,1,0,0:0:0:0:
166,69,193092,1,8,0:0:0:0:
166,69,193167,1,8,0:0:0:0:
166,69,193242,1,0,0:0:0:0:
166,69,193317,1,0,0:0:0:0:
166,69,193392,1,8,0:0:0:0:
166,69,193542,1,0,0:0:0:0:
166,69,193692,1,8,0:0:0:0:
166,69,193767,1,8,0:0:0:0:
166,69,193842,1,8,0:0:0:0:
210,285,193992,5,0,0:0:0:0:
210,285,194592,1,0,0:0:0:0:
96,144,195192,1,0,0:0:0:0:
96,144,195342,1,0,0:0:0:0:
96,144,195492,1,0,0:0:0:0:
96,144,195642,1,0,0:0:0:0:
167,110,195792,1,8,0:0:0:0:
167,110,195867,1,8,0:0:0:0:
167,110,195942,1,0,0:0:0:0:
167,110,196017,1,0,0:0:0:0:
167,110,196092,1,8,0:0:0:0:
167,110,196167,1,0,0:0:0:0:
167,110,196242,1,8,0:0:0:0:
179,48,196392,1,4,0:0:0:0:
75,312,196542,1,8,0:0:0:0:
75,312,196692,1,0,0:0:0:0:
106,109,196842,1,8,0:0:0:0:
75,312,196917,1,0,0:0:0:0:
106,109,196992,1,0,0:0:0:0:
171,79,197067,1,0,0:0:0:0:
106,109,197142,1,8,0:0:0:0:
106,109,197292,1,0,0:0:0:0:
106,109,197442,1,8,0:0:0:0:
149,43,197592,1,8,0:0:0:0:
191,46,197667,1,8,0:0:0:0:
149,43,197742,1,0,0:0:0:0:
218,73,197817,1,0,0:0:0:0:
191,46,197892,1,8,0:0:0:0:
149,43,198042,1,0,0:0:0:0:
191,46,198117,1,0,0:0:0:0:
149,43,198192,1,8,0:0:0:0:
191,46,198267,1,8,0:0:0:0:
191,46,198342,1,0,0:0:0:0:
179,86,198492,1,8,0:0:0:0:
166,76,198642,1,0,0:0:0:0:
150,60,198792,1,8,0:0:0:0:
132,44,198867,1,8,0:0:0:0:
132,43,198942,1,0,0:0:0:0:
132,43,199092,1,8,0:0:0:0:
132,43,199242,1,0,0:0:0:0:
132,43,199317,1,8,0:0:0:0:
132,43,199392,1,8,0:0:0:0:
132,43,199467,1,8,0:0:0:0:
132,43,199542,1,0,0:0:0:0:
132,43,199692,1,8,0:0:0:0:
112,56,199842,1,0,0:0:0:0:
132,43,199992,1,8,0:0:0:0:
132,43,200067,1,0,0:0:0:0:
132,43,200142,1,0,0:0:0:0:
132,43,200217,1,0,0:0:0:0:
132,43,200292,1,8,0:0:0:0:
132,43,200442,1,0,0:0:0:0:
132,43,200592,1,8,0:0:0:0:
161,181,200667,1,8,0:0:0:0:
114,53,200742,1,0,0:0:0:0:
161,181,200817,1,0,0:0:0:0:
112,56,200892,1,8,0:0:0:0:
180,47,201192,1,0,0:0:0:0:
75,312,201342,1,8,0:0:0:0:
75,312,201417,1,8,0:0:0:0:
75,312,201492,1,0,0:0:0:0:
106,109,201642,1,8,0:0:0:0:
106,109,201792,1,0,0:0:0:0:
171,79,201867,1,0,0:0:0:0:
106,109,201942,1,8,0:0:0:0:
106,109,202092,1,0,0:0:0:0:
106,109,202242,1,8,0:0:0:0:
275,126,202317,1,0,0:0:0:0:
149,43,202392,1,8,0:0:0:0:
191,46,202467,1,8,0:0:0:0:
149,43,202542,1,0,0:0:0:0:
191,46,202692,1,8,0:0:0:0:
149,43,202842,1,0,0:0:0:0:
191,46,202917,1,0,0:0:0:0:
191,46,202992,1,8,0:0:0:0:
191,46,203067,1,8,0:0:0:0:
191,46,203142,1,0,0:0:0:0:
179,86,203292,1,8,0:0:0:0:
166,76,203442,1,0,0:0:0:0:
150,60,203592,1,8,0:0:0:0:
132,44,203667,1,0,0:0:0:0:
132,43,203742,1,8,0:0:0:0:
150,72,203817,1,8,0:0:0:0:
132,43,203892,1,0,0:0:0:0:
102,72,203967,1,0,0:0:0:0:
132,43,204042,1,8,0:0:0:0:
132,43,204117,1,0,0:0:0:0:
132,43,204192,1,8,0:0:0:0:
132,43,204267,1,8,0:0:0:0:
132,43,204342,1,0,0:0:0:0:
179,130,204417,1,8,0:0:0:0:
132,43,204492,1,0,0:0:0:0:
179,130,204567,1,0,0:0:0:0:
112,56,204642,1,8,0:0:0:0:
132,43,204792,1,0,0:0:0:0:
132,43,204942,1,8,0:0:0:0:
132,43,205092,1,0,0:0:0:0:
132,43,205242,1,8,0:0:0:0:
132,43,205392,1,0,0:0:0:0:
114,53,205542,1,8,0:0:0:0:
112,56,205692,1,8,0:0:0:0:
114,53,205842,1,8,0:0:0:0:
180,47,205992,1,4,0:0:0:0:
75,312,206142,1,8,0:0:0:0:
75,312,206217,1,8,0:0:0:0:
75,312,206292,1,0,0:0:0:0:
171,79,206367,1,0,0:0:0:0:
106,109,206442,1,8,0:0:0:0:
106,109,206592,1,0,0:0:0:0:
139,56,206667,1,0,0:0:0:0:
106,109,206742,1,8,0:0:0:0:
106,109,206892,1,0,0:0:0:0:
106,109,207042,1,8,0:0:0:0:
206,56,207117,1,0,0:0:0:0:
149,43,207192,1,0,0:0:0:0:
191,46,207267,1,0,0:0:0:0:
149,43,207342,1,8,0:0:0:0:
191,46,207492,1,0,0:0:0:0:
149,43,207642,1,8,0:0:0:0:
149,43,207792,1,8,0:0:0:0:
191,46,207867,1,8,0:0:0:0:
191,46,207942,1,0,0:0:0:0:
164,157,208017,1,0,0:0:0:0:
179,86,208092,1,8,0:0:0:0:
166,76,208242,1,0,0:0:0:0:
150,60,208392,1,8,0:0:0:0:
132,44,208467,1,0,0:0:0:0:
132,43,208542,1,8,0:0:0:0:
132,43,208692,1,0,0:0:0:0:
132,43,208842,1,8,0:0:0:0:
132,43,208917,1,0,0:0:0:0:
132,43,208992,1,8,0:0:0:0:
132,43,209067,1,8,0:0:0:0:
132,43,209142,1,0,0:0:0:0:
132,43,209292,1,8,0:0:0:0:
112,56,209442,1,0,0:0:0:0:
132,43,209592,1,8,0:0:0:0:
132,43,209667,1,0,0:0:0:0:
132,43,209742,1,8,0:0:0:0:
132,43,209817,1,8,0:0:0:0:
132,43,209892,1,0,0:0:0:0:
110,8,209967,1,8,0:0:0:0:
132,43,210042,1,0,0:0:0:0:
132,43,210117,1,0,0:0:0:0:
132,43,210192,1,8,0:0:0:0:
121,77,210267,1,8,0:0:0:0:
114,53,210342,1,0,0:0:0:0:
110,8,210417,1,8,0:0:0:0:
112,56,210492,1,0,0:0:0:0:
110,8,210567,1,0,0:0:0:0:
114,53,210642,1,8,0:0:0:0:
145,13,210792,1,0,0:0:0:0:
227,188,210942,1,8,0:0:0:0:
227,188,211092,1,0,0:0:0:0:
227,188,211242,1,8,0:0:0:0:
227,188,211317,1,8,0:0:0:0:
227,188,211392,1,0,0:0:0:0:
227,188,211467,1,0,0:0:0:0:
227,188,211542,1,8,0:0:0:0:
227,188,211692,1,0,0:0:0:0:
227,188,211842,1,8,0:0:0:0:
138,74,211992,1,0,0:0:0:0:
138,74,212067,1,0,0:0:0:0:
138,74,212142,1,8,0:0:0:0:
138,74,212292,1,0,0:0:0:0:
138,74,212442,1,8,0:0:0:0:
138,74,212517,1,0,0:0:0:0:
138,74,212592,1,8,0:0:0:0:
138,74,212667,1,8,0:0:0:0:
138,74,212742,1,0,0:0:0:0:
138,74,212892,1,8,0:0:0:0:
182,76,213042,1,0,0:0:0:0:
182,76,213117,1,0,0:0:0:0:
182,76,213192,1,8,0:0:0:0:
182,76,213342,1,0,0:0:0:0:
182,76,213492,1,8,0:0:0:0:
159,16,213642,1,0,0:0:0:0:
159,16,213717,1,8,0:0:0:0:
159,16,213792,1,8,0:0:0:0:
159,16,213867,1,8,0:0:0:0:
159,16,213942,1,0,0:0:0:0:
159,16,214092,1,8,0:0:0:0:
159,16,214242,1,8,0:0:0:0:
133,11,214392,1,0,0:0:0:0:
194,74,214467,1,0,0:0:0:0:
202,107,214542,1,8,0:0:0:0:
202,107,214617,1,0,0:0:0:0:
202,107,214692,1,8,0:0:0:0:
202,107,214767,1,8,0:0:0:0:
202,107,214842,1,0,0:0:0:0:
202,107,214917,1,0,0:0:0:0:
202,107,214992,1,8,0:0:0:0:
202,107,215067,1,8,0:0:0:0:
202,107,215142,1,0,0:0:0:0:
202,107,215217,1,8,0:0:0:0:
202,107,215292,1,0,0:0:0:0:
202,107,215367,1,0,0:0:0:0:
202,107,215442,1,8,0:0:0:0:
202,107,215592,1,4,0:0:0:0:
247,321,215892,5,0,0:0:0:0:
247,321,217392,1,0,0:0:0:0:
247,321,217692,1,0,0:0:0:0:
247,321,219192,5,0,0:0:0:0:
123,165,219792,1,0,0:0:0:0:
256,192,220392,12,0,221292,0:0:0:0:
213,107,221592,5,8,0:0:0:0:
260,172,221667,1,0,0:0:0:0:
213,107,221742,1,8,0:0:0:0:
260,172,221817,1,0,0:0:0:0:
213,107,221892,1,8,0:0:0:0:
213,107,221967,1,8,0:0:0:0:
213,107,222042,1,8,0:0:0:0:
213,107,222117,1,8,0:0:0:0:
213,107,222192,1,0,0:0:0:0:
213,107,222267,1,0,0:0:0:0:
213,107,222342,1,8,0:0:0:0:
213,107,222417,1,8,0:0:0:0:
213,107,222492,1,8,0:0:0:0:
213,107,222567,1,8,0:0:0:0:
213,107,222642,1,0,0:0:0:0:
213,107,222717,1,0,0:0:0:0:
213,107,222792,1,8,0:0:0:0:
213,107,222867,1,8,0:0:0:0:
213,107,222942,1,0,0:0:0:0:
213,107,223017,1,0,0:0:0:0:
213,107,223092,1,8,0:0:0:0:
213,107,223167,1,0,0:0:0:0:
213,107,223242,1,0,0:0:0:0:
213,107,223317,1,0,0:0:0:0:
213,107,223392,1,8,0:0:0:0:
213,107,223467,1,8,0:0:0:0:
213,107,223542,1,8,0:0:0:0:
213,107,223617,1,8,0:0:0:0:
213,107,223692,1,0,0:0:0:0:
219,211,223842,1,0,0:0:0:0:
213,107,223992,1,8,0:0:0:0:
213,107,224067,1,8,0:0:0:0:
213,107,224142,1,0,0:0:0:0:
213,107,224217,1,0,0:0:0:0:
213,107,224292,1,8,0:0:0:0:
213,107,224367,1,0,0:0:0:0:
213,107,224442,1,8,0:0:0:0:
213,107,224517,1,8,0:0:0:0:
213,107,224592,1,0,0:0:0:0:
213,107,224667,1,0,0:0:0:0:
213,107,224742,1,8,0:0:0:0:
213,107,224817,1,8,0:0:0:0:
213,107,224892,1,8,0:0:0:0:
213,107,224967,1,8,0:0:0:0:
213,107,225042,1,0,0:0:0:0:
213,107,225117,1,0,0:0:0:0:
213,107,225192,1,8,0:0:0:0:
213,107,225267,1,8,0:0:0:0:
213,107,225342,1,8,0:0:0:0:
213,107,225417,1,0,0:0:0:0:
213,107,225492,1,8,0:0:0:0:
213,107,225567,1,8,0:0:0:0:
213,107,225642,1,8,0:0:0:0:
213,107,225717,1,8,0:0:0:0:
213,107,225792,1,0,0:0:0:0:
213,107,225867,1,0,0:0:0:0:
213,107,225942,1,8,0:0:0:0:
213,107,226017,1,8,0:0:0:0:
213,107,226092,1,8,0:0:0:0:
213,107,226167,1,8,0:0:0:0:
213,107,226242,1,0,0:0:0:0:
213,107,226317,1,0,0:0:0:0:
213,107,226392,1,8,0:0:0:0:
213,107,226467,1,8,0:0:0:0:
213,107,226542,1,8,0:0:0:0:
213,107,226617,1,0,0:0:0:0:
213,107,226692,1,8,0:0:0:0:
227,13,226767,1,0,0:0:0:0:
219,211,226842,1,0,0:0:0:0:
213,107,226917,1,0,0:0:0:0:
213,107,226992,1,8,0:0:0:0:
213,107,227142,1,0,0:0:0:0:
213,107,227292,1,8,0:0:0:0:
242,169,227367,1,0,0:0:0:0:
242,169,227442,1,0,0:0:0:0:
242,169,227517,1,0,0:0:0:0:
213,107,227592,1,8,0:0:0:0:
314,94,227667,1,8,0:0:0:0:
307,97,227742,1,0,0:0:0:0:
307,97,227817,1,0,0:0:0:0:
213,107,227892,1,8,0:0:0:0:
213,107,227967,1,8,0:0:0:0:
213,107,228042,1,8,0:0:0:0:
213,107,228117,1,8,0:0:0:0:
213,107,228192,1,0,0:0:0:0:
213,107,228267,1,0,0:0:0:0:
213,107,228342,1,8,0:0:0:0:
213,107,228417,1,8,0:0:0:0:
213,107,228492,1,0,0:0:0:0:
213,107,228567,1,8,0:0:0:0:
213,107,228642,1,0,0:0:0:0:
213,107,228717,1,0,0:0:0:0:
213,107,228792,1,8,0:0:0:0:
213,107,228867,1,8,0:0:0:0:
213,107,228942,1,8,0:0:0:0:
213,107,229017,1,8,0:0:0:0:
213,107,229092,1,0,0:0:0:0:
213,107,229167,1,0,0:0:0:0:
213,107,229242,1,0,0:0:0:0:
213,107,229317,1,0,0:0:0:0:
213,107,229392,1,8,0:0:0:0:
213,107,229467,1,8,0:0:0:0:
213,107,229542,1,0,0:0:0:0:
213,107,229617,1,0,0:0:0:0:
213,107,229692,1,8,0:0:0:0:
213,107,229767,1,0,0:0:0:0:
213,107,229842,1,8,0:0:0:0:
213,107,229917,1,8,0:0:0:0:
213,107,229992,1,8,0:0:0:0:
213,107,230067,1,8,0:0:0:0:
213,107,230142,1,0,0:0:0:0:
213,107,230217,1,0,0:0:0:0:
213,107,230292,1,8,0:0:0:0:
213,107,230367,1,8,0:0:0:0:
213,107,230442,1,8,0:0:0:0:
213,107,230517,1,0,0:0:0:0:
213,107,230592,1,8,0:0:0:0:
213,107,230667,1,8,0:0:0:0:
213,107,230742,1,0,0:0:0:0:
213,107,230817,1,0,0:0:0:0:
213,107,230892,1,8,0:0:0:0:
213,107,230967,1,0,0:0:0:0:
213,107,231042,1,0,0:0:0:0:
213,107,231117,1,0,0:0:0:0:
213,107,231192,1,8,0:0:0:0:
213,107,231267,1,0,0:0:0:0:
213,107,231342,1,8,0:0:0:0:
213,107,231417,1,8,0:0:0:0:
213,107,231492,1,0,0:0:0:0:
213,107,231567,1,0,0:0:0:0:
213,107,231642,1,8,0:0:0:0:
213,107,231717,1,8,0:0:0:0:
213,107,231792,1,0,0:0:0:0:
213,107,231867,1,8,0:0:0:0:
213,107,231942,1,0,0:0:0:0:
213,107,232017,1,0,0:0:0:0:
213,107,232092,1,8,0:0:0:0:
219,211,232242,1,0,0:0:0:0:
213,107,232392,1,8,0:0:0:0:
213,107,232467,1,8,0:0:0:0:
213,107,232542,1,8,0:0:0:0:
213,107,232617,1,0,0:0:0:0:
213,107,232692,1,8,0:0:0:0:
213,107,232767,1,8,0:0:0:0:
213,107,232842,1,0,0:0:0:0:
213,107,232917,1,0,0:0:0:0:
213,107,232992,1,8,0:0:0:0:
213,107,233067,1,8,0:0:0:0:
213,107,233142,1,8,0:0:0:0:
213,107,233217,1,8,0:0:0:0:
213,107,233292,1,0,0:0:0:0:
213,107,233367,1,0,0:0:0:0:
213,107,233442,1,8,0:0:0:0:
213,107,233517,1,0,0:0:0:0:
213,107,233592,1,8,0:0:0:0:
213,107,233667,1,8,0:0:0:0:
213,107,233742,1,0,0:0:0:0:
213,107,233817,1,8,0:0:0:0:
213,107,233892,1,0,0:0:0:0:
213,107,233967,1,0,0:0:0:0:
213,107,234042,1,8,0:0:0:0:
213,107,234117,1,0,0:0:0:0:
213,107,234192,1,8,0:0:0:0:
213,107,234267,1,8,0:0:0:0:
213,107,234342,1,8,0:0:0:0:
213,107,234417,1,8,0:0:0:0:
213,107,234492,1,0,0:0:0:0:
213,107,234792,1,8,0:0:0:0:
213,107,234867,1,8,0:0:0:0:
213,107,234942,1,0,0:0:0:0:
213,107,235017,1,0,0:0:0:0:
213,107,235092,1,8,0:0:0:0:
213,107,235167,1,0,0:0:0:0:
213,107,235242,1,8,0:0:0:0:
213,107,235317,1,8,0:0:0:0:
213,107,235392,1,0,0:0:0:0:
213,107,235467,1,0,0:0:0:0:
213,107,235542,1,8,0:0:0:0:
213,107,235617,1,8,0:0:0:0:
213,107,235692,1,8,0:0:0:0:
213,107,235767,1,8,0:0:0:0:
213,107,235842,1,0,0:0:0:0:
213,107,235917,1,0,0:0:0:0:
213,107,235992,1,8,0:0:0:0:
213,107,236067,1,8,0:0:0:0:
213,107,236142,1,8,0:0:0:0:
213,107,236217,1,0,0:0:0:0:
213,107,236292,1,8,0:0:0:0:
213,107,236367,1,8,0:0:0:0:
213,107,236442,1,8,0:0:0:0:
213,107,236517,1,8,0:0:0:0:
213,107,236592,1,0,0:0:0:0:
213,107,236667,1,0,0:0:0:0:
213,107,236742,1,8,0:0:0:0:
213,107,236817,1,8,0:0:0:0:
213,107,236892,1,8,0:0:0:0:
213,107,236967,1,8,0:0:0:0:
213,107,237042,1,0,0:0:0:0:
213,107,237117,1,0,0:0:0:0:
213,107,237192,1,8,0:0:0:0:
213,107,237267,1,8,0:0:0:0:
213,107,237342,1,0,0:0:0:0:
213,107,237417,1,0,0:0:0:0:
213,107,237492,1,8,0:0:0:0:
213,107,237567,1,0,0:0:0:0:
213,107,237642,1,0,0:0:0:0:
213,107,237717,1,0,0:0:0:0:
213,107,237792,1,8,0:0:0:0:
213,107,237867,1,8,0:0:0:0:
213,107,237942,1,8,0:0:0:0:
213,107,238017,1,8,0:0:0:0:
213,107,238092,1,0,0:0:0:0:
168,207,238242,1,0,0:0:0:0:
213,107,238392,1,8,0:0:0:0:
213,107,238467,1,8,0:0:0:0:
213,107,238542,1,0,0:0:0:0:
213,107,238617,1,0,0:0:0:0:
213,107,238692,1,8,0:0:0:0:
213,107,238767,1,0,0:0:0:0:
213,107,238842,1,8,0:0:0:0:
213,107,238917,1,8,0:0:0:0:
213,107,238992,1,0,0:0:0:0:
213,107,239067,1,0,0:0:0:0:
213,107,239142,1,8,0:0:0:0:
213,107,239217,1,8,0:0:0:0:
213,107,239292,1,0,0:0:0:0:
213,107,239367,1,8,0:0:0:0:
213,107,239442,1,0,0:0:0:0:
213,107,239517,1,0,0:0:0:0:
213,107,239592,1,8,0:0:0:0:
213,107,239667,1,8,0:0:0:0:
213,107,239742,1,0,0:0:0:0:
213,107,239817,1,0,0:0:0:0:
213,107,239892,1,8,0:0:0:0:
213,107,239967,1,8,0:0:0:0:
213,107,240042,1,8,0:0:0:0:
213,107,240117,1,8,0:0:0:0:
213,107,240192,1,0,0:0:0:0:
213,107,240267,1,0,0:0:0:0:
213,107,240342,1,8,0:0:0:0:
213,107,240417,1,8,0:0:0:0:
213,107,240492,1,8,0:0:0:0:
213,107,240567,1,8,0:0:0:0:
213,107,240642,1,0,0:0:0:0:
213,107,240717,1,0,0:0:0:0:
213,107,240792,1,8,0:0:0:0:
213,107,240867,1,0,0:0:0:0:
213,107,240942,1,8,0:0:0:0:
213,107,241017,1,8,0:0:0:0:
213,107,241092,1,0,0:0:0:0:
213,107,241167,1,8,0:0:0:0:
168,207,241242,1,8,0:0:0:0:
213,107,241317,1,8,0:0:0:0:
213,107,241392,1,0,0:0:0:0:
182,93,241542,1,8,0:0:0:0:
213,107,241692,1,0,0:0:0:0:
67,29,241767,1,0,0:0:0:0:
282,227,241842,1,8,0:0:0:0:
180,67,241917,1,0,0:0:0:0:
213,107,241992,1,8,0:0:0:0:
141,193,242067,1,8,0:0:0:0:
141,193,242142,1,0,0:0:0:0:
141,193,242217,1,0,0:0:0:0:
213,107,242292,1,8,0:0:0:0:
213,107,242367,1,8,0:0:0:0:
213,107,242442,1,8,0:0:0:0:
213,107,242517,1,8,0:0:0:0:
213,107,242592,1,0,0:0:0:0:
213,107,242667,1,0,0:0:0:0:
213,107,242742,1,8,0:0:0:0:
213,107,242817,1,8,0:0:0:0:
213,107,242892,1,0,0:0:0:0:
213,107,242967,1,0,0:0:0:0:
213,107,243042,1,0,0:0:0:0:
213,107,243117,1,0,0:0:0:0:
213,107,243192,1,8,0:0:0:0:
213,107,243267,1,8,0:0:0:0:
213,107,243342,1,8,0:0:0:0:
213,107,243417,1,8,0:0:0:0:
213,107,243492,1,0,0:0:0:0:
213,107,243567,1,0,0:0:0:0:
213,107,243642,1,0,0:0:0:0:
213,107,243717,1,0,0:0:0:0:
213,107,243792,1,8,0:0:0:0:
213,107,243867,1,8,0:0:0:0:
213,107,243942,1,0,0:0:0:0:
213,107,244017,1,0,0:0:0:0:
213,107,244092,1,8,0:0:0:0:
213,107,244167,1,0,0:0:0:0:
213,107,244242,1,8,0:0:0:0:
213,107,244317,1,8,0:0:0:0:
213,107,244392,1,8,0:0:0:0:
213,107,244467,1,8,0:0:0:0:
213,107,244542,1,0,0:0:0:0:
213,107,244617,1,0,0:0:0:0:
213,107,244692,1,8,0:0:0:0:
213,107,244767,1,8,0:0:0:0:
213,107,244842,1,8,0:0:0:0:
213,107,244917,1,0,0:0:0:0:
213,107,244992,1,8,0:0:0:0:
213,107,245067,1,8,0:0:0:0:
213,107,245142,1,0,0:0:0:0:
213,107,245217,1,0,0:0:0:0:
213,107,245292,1,8,0:0:0:0:
213,107,245367,1,8,0:0:0:0:
213,107,245442,1,0,0:0:0:0:
213,107,245517,1,0,0:0:0:0:
213,107,245592,1,8,0:0:0:0:
213,107,245667,5,0,0:0:0:0:
213,107,245742,1,8,0:0:0:0:
213,107,245817,1,8,0:0:0:0:
213,107,245892,1,0,0:0:0:0:
213,107,245967,1,0,0:0:0:0:
213,107,246042,1,8,0:0:0:0:
213,107,246117,1,8,0:0:0:0:
213,107,246192,1,0,0:0:0:0:
213,107,246267,1,8,0:0:0:0:
213,107,246342,1,0,0:0:0:0:
213,107,246417,1,0,0:0:0:0:
213,107,246492,1,8,0:0:0:0:
168,207,246642,1,0,0:0:0:0:
213,107,246792,5,8,0:0:0:0:
213,107,246867,1,8,0:0:0:0:
213,107,246942,1,8,0:0:0:0:
213,107,247017,1,0,0:0:0:0:
213,107,247092,1,8,0:0:0:0:
213,107,247167,1,8,0:0:0:0:
213,107,247242,1,0,0:0:0:0:
213,107,247317,1,0,0:0:0:0:
213,107,247392,1,8,0:0:0:0:
213,107,247467,1,8,0:0:0:0:
213,107,247542,1,0,0:0:0:0:
213,107,247617,1,0,0:0:0:0:
213,107,247692,1,8,0:0:0:0:
213,107,247767,1,0,0:0:0:0:
213,107,247842,5,8,0:0:0:0:
213,107,247917,1,8,0:0:0:0:
213,107,247992,1,0,0:0:0:0:
213,107,248067,1,0,0:0:0:0:
213,107,248142,1,0,0:0:0:0:
213,107,248217,1,0,0:0:0:0:
213,107,248292,1,8,0:0:0:0:
213,107,248367,1,0,0:0:0:0:
213,107,248442,1,0,0:0:0:0:
213,107,248517,1,0,0:0:0:0:
213,107,248592,1,8,0:0:0:0:
213,107,248667,1,8,0:0:0:0:
213,107,248742,1,0,0:0:0:0:
213,107,248817,1,0,0:0:0:0:
213,107,248892,1,8,0:0:0:0:
149,74,248967,5,0,0:0:0:0:
149,74,249042,1,8,0:0:0:0:
173,24,249192,1,4,0:0:0:0:
112,6,249342,1,8,0:0:0:0:
112,6,249492,1,0,0:0:0:0:
112,6,249642,1,8,0:0:0:0:
112,6,249717,1,0,0:0:0:0:
112,6,249792,1,8,0:0:0:0:
112,6,249867,1,8,0:0:0:0:
112,6,249942,1,0,0:0:0:0:
112,6,250092,1,8,0:0:0:0:
112,6,250242,1,0,0:0:0:0:
192,36,250392,1,8,0:0:0:0:
192,36,250542,1,8,0:0:0:0:
192,36,250692,1,0,0:0:0:0:
205,37,250767,1,0,0:0:0:0:
205,37,250842,1,0,0:0:0:0:
205,37,250992,1,8,0:0:0:0:
205,37,251067,1,8,0:0:0:0:
205,37,251142,1,0,0:0:0:0:
205,37,251217,1,0,0:0:0:0:
205,37,251292,1,8,0:0:0:0:
205,35,251442,1,0,0:0:0:0:
151,68,251592,1,8,0:0:0:0:
151,68,251742,1,8,0:0:0:0:
151,68,251892,1,0,0:0:0:0:
179,58,252042,1,8,0:0:0:0:
179,58,252117,1,8,0:0:0:0:
179,58,252192,1,0,0:0:0:0:
179,58,252267,1,8,0:0:0:0:
179,58,252342,1,0,0:0:0:0:
179,58,252492,1,8,0:0:0:0:
179,58,252642,1,0,0:0:0:0:
146,40,252717,1,0,0:0:0:0:
146,40,252792,1,8,0:0:0:0:
146,40,252942,1,8,0:0:0:0:
95,64,253092,1,0,0:0:0:0:
135,40,253242,1,8,0:0:0:0:
135,40,253317,1,0,0:0:0:0:
135,40,253392,1,8,0:0:0:0:
135,40,253467,1,8,0:0:0:0:
135,40,253542,1,0,0:0:0:0:
129,59,253692,1,8,0:0:0:0:
135,40,253842,1,0,0:0:0:0:
64,60,253992,1,8,0:0:0:0:
64,60,254067,1,0,0:0:0:0:
64,60,254142,1,8,0:0:0:0:
150,31,254292,1,0,0:0:0:0:
64,60,254442,1,8,0:0:0:0:
64,60,254517,1,0,0:0:0:0:
64,60,254592,1,8,0:0:0:0:
64,60,254667,1,8,0:0:0:0:
64,60,254742,1,0,0:0:0:0:
64,60,254817,1,0,0:0:0:0:
64,60,254892,1,8,0:0:0:0:
64,60,255042,1,0,0:0:0:0:
66,34,255192,1,8,0:0:0:0:
66,34,255342,1,0,0:0:0:0:
66,34,255417,1,0,0:0:0:0:
66,34,255492,1,8,0:0:0:0:
166,63,255642,1,0,0:0:0:0:
166,63,255717,1,8,0:0:0:0:
166,63,255792,1,8,0:0:0:0:
166,63,255867,1,8,0:0:0:0:
166,63,255942,1,0,0:0:0:0:
166,63,256092,1,8,0:0:0:0:
166,63,256242,1,0,0:0:0:0:
166,63,256317,1,0,0:0:0:0:
166,63,256392,1,8,0:0:0:0:
116,82,256542,1,8,0:0:0:0:
116,82,256692,1,0,0:0:0:0:
102,78,256842,1,8,0:0:0:0:
102,78,256917,1,0,0:0:0:0:
102,78,256992,1,0,0:0:0:0:
102,78,257067,1,8,0:0:0:0:
102,78,257142,1,0,0:0:0:0:
103,61,257292,1,8,0:0:0:0:
102,78,257442,1,0,0:0:0:0:
60,57,257592,1,8,0:0:0:0:
77,61,257742,1,0,0:0:0:0:
77,61,257817,1,0,0:0:0:0:
77,61,257892,1,8,0:0:0:0:
77,61,258042,1,0,0:0:0:0:
77,61,258117,1,0,0:0:0:0:
77,61,258192,1,8,0:0:0:0:
77,61,258267,1,8,0:0:0:0:
77,61,258342,1,0,0:0:0:0:
77,61,258492,1,8,0:0:0:0:
77,61,258642,1,0,0:0:0:0:
143,88,258792,1,0,0:0:0:0:
143,88,258867,1,0,0:0:0:0:
143,88,258942,1,0,0:0:0:0:
143,88,259092,1,8,0:0:0:0:
143,88,259242,1,8,0:0:0:0:
143,88,259317,1,8,0:0:0:0:
143,88,259392,1,0,0:0:0:0:
143,88,259467,1,8,0:0:0:0:
143,88,259542,1,0,0:0:0:0:
143,88,259692,1,8,0:0:0:0:
143,88,259842,1,0,0:0:0:0:
104,64,259992,1,8,0:0:0:0:
114,70,260067,1,8,0:0:0:0:
114,70,260142,1,0,0:0:0:0:
71,8,260292,1,8,0:0:0:0:
71,8,260442,1,0,0:0:0:0:
71,8,260517,1,0,0:0:0:0:
71,8,260592,1,8,0:0:0:0:
71,8,260667,1,8,0:0:0:0:
71,8,260742,1,0,0:0:0:0:
71,8,260892,1,8,0:0:0:0:
116,83,261042,1,0,0:0:0:0:
111,79,261192,1,8,0:0:0:0:
111,79,261342,1,0,0:0:0:0:
111,79,261417,1,0,0:0:0:0:
111,79,261492,1,8,0:0:0:0:
111,79,261642,1,0,0:0:0:0:
111,79,261717,1,8,0:0:0:0:
111,79,261792,1,8,0:0:0:0:
111,79,261867,1,8,0:0:0:0:
111,79,261942,1,0,0:0:0:0:
111,79,262092,1,8,0:0:0:0:
111,79,262242,1,0,0:0:0:0:
174,90,262392,1,8,0:0:0:0:
174,90,262467,1,8,0:0:0:0:
174,90,262542,1,0,0:0:0:0:
174,90,262692,1,8,0:0:0:0:
174,90,262842,1,0,0:0:0:0:
114,44,262917,1,0,0:0:0:0:
154,71,262992,1,8,0:0:0:0:
154,71,263067,1,8,0:0:0:0:
154,71,263142,1,0,0:0:0:0:
154,71,263217,1,0,0:0:0:0:
154,71,263292,1,8,0:0:0:0:
154,71,263442,1,0,0:0:0:0:
154,71,263517,1,0,0:0:0:0:
154,71,263592,1,8,0:0:0:0:
331,274,263742,1,0,0:0:0:0:
331,274,263892,1,8,0:0:0:0:
346,232,264042,1,0,0:0:0:0:
346,232,264117,1,8,0:0:0:0:
346,232,264192,1,8,0:0:0:0:
346,232,264267,1,8,0:0:0:0:
346,232,264342,1,0,0:0:0:0:
346,232,264492,1,8,0:0:0:0:
123,62,264642,1,0,0:0:0:0:
123,62,264717,1,0,0:0:0:0:
123,62,264792,1,8,0:0:0:0:
170,83,264942,1,0,0:0:0:0:
170,83,265092,1,8,0:0:0:0:
142,40,265242,1,0,0:0:0:0:
142,40,265317,1,8,0:0:0:0:
142,40,265392,1,8,0:0:0:0:
142,40,265467,1,0,0:0:0:0:
142,40,265542,1,0,0:0:0:0:
142,40,265692,1,8,0:0:0:0:
112,42,265842,1,0,0:0:0:0:
112,42,265992,1,8,0:0:0:0:
112,42,266067,1,0,0:0:0:0:
112,42,266142,1,0,0:0:0:0:
112,42,266292,1,8,0:0:0:0:
112,42,266442,1,0,0:0:0:0:
112,42,266517,1,0,0:0:0:0:
112,42,266592,1,8,0:0:0:0:
112,42,266667,1,8,0:0:0:0:
112,42,266742,1,0,0:0:0:0:
112,42,266892,1,8,0:0:0:0:
65,61,267042,1,0,0:0:0:0:
65,61,267192,1,8,0:0:0:0:
90,18,267267,1,0,0:0:0:0:
143,89,267342,1,8,0:0:0:0:
143,89,267492,1,0,0:0:0:0:
143,89,267642,1,8,0:0:0:0:
143,89,267717,1,0,0:0:0:0:
143,89,267792,1,8,0:0:0:0:
143,89,267867,1,8,0:0:0:0:
143,89,267942,1,0,0:0:0:0:
143,89,268092,1,8,0:0:0:0:
143,89,268242,1,0,0:0:0:0:
85,33,268392,1,8,0:0:0:0:
85,33,268467,1,8,0:0:0:0:
85,33,268542,1,8,0:0:0:0:
85,33,268692,1,0,0:0:0:0:
85,33,268842,1,8,0:0:0:0:
85,33,268917,1,8,0:0:0:0:
85,33,268992,1,0,0:0:0:0:
85,33,269067,1,8,0:0:0:0:
85,33,269142,1,0,0:0:0:0:
104,45,269292,1,8,0:0:0:0:
122,46,269442,1,0,0:0:0:0:
158,68,269517,1,0,0:0:0:0:
122,46,269592,1,8,0:0:0:0:
134,65,269742,1,0,0:0:0:0:
136,66,269892,1,8,0:0:0:0:
135,62,270042,1,0,0:0:0:0:
157,49,270117,1,0,0:0:0:0:
135,62,270192,1,8,0:0:0:0:
135,62,270267,1,0,0:0:0:0:
135,62,270342,1,0,0:0:0:0:
135,62,270492,1,8,0:0:0:0:
134,65,270642,1,0,0:0:0:0:
136,66,270792,1,8,0:0:0:0:
247,35,270867,1,0,0:0:0:0:
247,35,270942,1,0,0:0:0:0:
158,122,271017,1,0,0:0:0:0:
247,35,271092,1,8,0:0:0:0:
247,35,271242,1,0,0:0:0:0:
247,35,271317,1,0,0:0:0:0:
247,35,271392,1,8,0:0:0:0:
247,35,271467,1,8,0:0:0:0:
247,35,271542,1,0,0:0:0:0:
247,35,271617,1,0,0:0:0:0:
134,74,271692,1,8,0:0:0:0:
247,35,271842,1,0,0:0:0:0:
195,80,271992,1,8,0:0:0:0:
195,80,272067,1,8,0:0:0:0:
195,80,272142,1,0,0:0:0:0:
195,80,272292,1,8,0:0:0:0:
186,66,272442,1,0,0:0:0:0:
186,66,272517,1,8,0:0:0:0:
186,66,272592,1,0,0:0:0:0:
186,66,272667,1,0,0:0:0:0:
186,66,272742,1,8,0:0:0:0:
195,80,272817,1,0,0:0:0:0:
186,66,272892,1,8,0:0:0:0:
186,66,273042,1,0,0:0:0:0:
199,96,273192,1,8,0:0:0:0:
199,96,273267,1,0,0:0:0:0:
199,95,273342,1,0,0:0:0:0:
199,95,273492,1,8,0:0:0:0:
199,95,273642,1,0,0:0:0:0:
199,95,273717,1,0,0:0:0:0:
199,95,273792,1,8,0:0:0:0:
199,95,273867,1,0,0:0:0:0:
199,95,273942,1,8,0:0:0:0:
181,79,274017,1,8,0:0:0:0:
199,96,274092,1,0,0:0:0:0:
199,95,274242,1,0,0:0:0:0:
109,46,274392,1,8,0:0:0:0:
109,46,274542,1,0,0:0:0:0:
109,46,274692,1,8,0:0:0:0:
109,46,274842,1,0,0:0:0:0:
109,46,274917,1,0,0:0:0:0:
109,46,274992,1,8,0:0:0:0:
109,46,275067,1,8,0:0:0:0:
109,46,275142,1,0,0:0:0:0:
164,102,275217,1,0,0:0:0:0:
109,46,275292,1,8,0:0:0:0:
109,46,275442,1,0,0:0:0:0:
133,41,275592,1,8,0:0:0:0:
133,41,275667,1,8,0:0:0:0:
133,41,275742,1,8,0:0:0:0:
133,41,275892,1,0,0:0:0:0:
133,41,276042,1,8,0:0:0:0:
133,41,276117,1,0,0:0:0:0:
133,41,276192,1,8,0:0:0:0:
133,41,276267,1,8,0:0:0:0:
133,41,276342,1,0,0:0:0:0:
163,101,276417,1,0,0:0:0:0:
101,14,276492,1,8,0:0:0:0:
133,41,276642,1,0,0:0:0:0:
154,54,276792,1,8,0:0:0:0:
154,54,276867,1,8,0:0:0:0:
154,54,276942,1,0,0:0:0:0:
154,54,277092,1,8,0:0:0:0:
154,54,277242,1,0,0:0:0:0:
154,54,277317,1,0,0:0:0:0:
154,54,277392,1,8,0:0:0:0:
153,54,277467,1,8,0:0:0:0:
153,54,277542,1,0,0:0:0:0:
163,101,277617,1,0,0:0:0:0:
153,55,277692,1,8,0:0:0:0:
153,55,277842,1,0,0:0:0:0:
150,47,277992,1,12,0:0:0:0:
256,192,278142,12,0,286392,0:0:0:0:
