osu file format v14

[General]
AudioFilename: audio.mp3
AudioLeadIn: 0
PreviewTime: -1
Countdown: 0
SampleSet: Normal
StackLeniency: 0.6
Mode: 0
LetterboxInBreaks: 1
WidescreenStoryboard: 1

[Editor]
Bookmarks: 12164,13364
DistanceSpacing: 1
BeatDivisor: 4
GridSize: 32
TimelineZoom: 1.6

[Metadata]
Title:Infinity Chasers
TitleUnicode:Infinity Chasers
Artist:Helblinde
ArtistUnicode:Helblinde
Creator:poiuyos
Version:Insane
Source:Fractal Dreamers
Tags:
BeatmapID:1284621
BeatmapSetID:608275

[Difficulty]
HPDrainRate:6
CircleSize:4.2
OverallDifficulty:8
ApproachRate:9
SliderMultiplier:1.4
SliderTickRate:1

[Events]
//Background and Video events
//Break Periods
2,77314,88514
//Storyboard Layer 0 (Background)
//Storyboard Layer 1 (Fail)
//Storyboard Layer 2 (Pass)
//Storyboard Layer 3 (Foreground)
//Storyboard Sound Samples

[TimingPoints]
314.69706950338,300,4,1,0,50,1,0
17714,-133.333333333333,4,1,0,100,0,0
19514,-66.6666666666667,4,1,0,100,0,0
36914,-80,4,1,0,100,0,0
37514,-100,4,1,0,100,0,0
38114,-133.333333333333,4,1,0,100,0,0
38714,-200,4,1,0,100,0,0
48314,-100,4,1,0,100,0,0
56714,-133.333333333333,4,1,0,100,0,0
57314,-200,4,1,0,100,0,0
57914,-66.6666666666667,4,1,0,100,0,0
72314,-133.333333333333,4,1,0,100,0,0
73514,-200,4,1,0,100,0,0
74714,600,4,1,0,50,1,0
74714,-133.333333333333,4,1,0,100,0,0
75914,-200,4,1,0,100,0,0
89114,300,4,1,0,50,1,0
89114,-66.6666666666667,4,1,0,100,0,0

[HitObjects]
152,136,314,6,0,L|186:198,1,70
201,205,539,1,0,0:0:0:0:
216,213,614,1,0,0:0:0:0:
246,138,764,1,0,0:0:0:0:
224,314,914,6,0,L|144:281,1,70
281,254,1214,1,0,0:0:0:0:
293,265,1289,2,0,L|393:243,1,70
313,169,1514,1,0,0:0:0:0:
329,172,1589,2,0,L|404:102,1,70
388,46,1814,1,0,0:0:0:0:
433,190,1964,1,0,0:0:0:0:
309,110,2114,2,0,L|298:179,1,70
262,314,2414,2,0,L|243:232,1,70
122,135,2639,1,0,0:0:0:0:
98,157,2714,2,0,L|187:174,1,70
169,254,3014,1,0,0:0:0:0:
252,133,3164,1,0,0:0:0:0:
351,234,3314,2,0,L|273:217,1,70
377,129,3614,2,0,L|445:143,1,70
375,333,3914,2,0,L|463:302,1,70
446,292,4139,1,0,0:0:0:0:
449,274,4214,1,0,0:0:0:0:
261,328,4364,1,0,0:0:0:0:
247,221,4514,2,0,L|319:261,1,70
356,136,4739,1,0,0:0:0:0:
343,123,4814,2,0,L|261:144,1,70
138,232,5039,1,0,0:0:0:0:
139,249,5114,2,0,L|146:319,1,70
175,149,5414,1,0,0:0:0:0:
70,193,5564,1,0,0:0:0:0:
230,297,5714,2,0,L|224:228,1,70
302,207,6014,1,0,0:0:0:0:
324,333,6164,2,0,L|360:244,1,70
202,161,6389,1,0,0:0:0:0:
179,173,6464,2,0,L|229:233,1,70
219,313,6764,1,0,0:0:0:0:
303,160,6914,2,0,L|260:104,1,70
152,244,7214,2,0,L|211:192,1,70
164,47,7439,1,0,0:0:0:0:
126,47,7514,2,0,L|170:113,1,70
257,131,7814,1,0,0:0:0:0:
130,182,7964,1,0,0:0:0:0:
239,281,8114,2,0,L|218:189,1,70
293,159,8414,1,0,0:0:0:0:
396,279,8564,2,0,L|316:247,1,70
338,218,8789,1,0,0:0:0:0:
345,183,8864,1,0,0:0:0:0:
305,332,9014,1,0,0:0:0:0:
255,231,9164,1,0,0:0:0:0:
140,316,9314,2,0,L|233:305,1,70
255,231,9614,1,0,0:0:0:0:
81,174,9764,2,0,L|121:253,1,70
187,258,10064,1,0,0:0:0:0:
64,297,10214,1,0,0:0:0:0:
173,171,10364,1,0,0:0:0:0:
203,347,10514,2,0,L|260:296,1,70
268,201,10814,1,8,0:0:0:0:
332,331,10964,2,8,L|355:258,1,70
342,157,11264,1,0,0:0:0:0:
427,231,11414,1,0,0:0:0:0:
395,92,11564,1,0,0:0:0:0:
237,170,11714,2,0,L|300:235,1,70
328,143,12014,1,0,0:0:0:0:
235,294,12164,2,0,L|322:318,1,70
285,220,12464,1,0,0:0:0:0:
154,341,12614,1,0,0:0:0:0:
201,227,12764,1,0,0:0:0:0:
51,325,12914,2,0,L|38:244,1,70
31,175,13214,1,0,0:0:0:0:
137,97,13364,2,0,L|124:178,1,70
117,251,13664,1,0,0:0:0:0:
235,114,13814,1,0,0:0:0:0:
216,224,13964,1,0,0:0:0:0:
332,53,14114,2,0,L|354:125,1,70
435,144,14414,1,0,0:0:0:0:
297,187,14564,2,0,L|352:238,1,70
433,226,14864,1,0,0:0:0:0:
279,284,15014,1,0,0:0:0:0:
433,226,15164,1,0,0:0:0:0:
209,225,15314,2,0,L|187:309,1,70
251,357,15614,1,0,0:0:0:0:
283,179,15764,2,0,L|305:95,1,70
241,47,16064,1,0,0:0:0:0:
180,174,16214,1,0,0:0:0:0:
81,51,16364,1,0,0:0:0:0:
55,143,16514,2,0,L|146:111,1,70
192,52,16814,1,0,0:0:0:0:
171,190,16964,2,0,L|104:213,1,70
47,148,17264,1,0,0:0:0:0:
129,304,17414,1,0,0:0:0:0:
47,148,17564,1,0,0:0:0:0:
231,299,17714,2,0,L|185:246,1,52.5000020027161
167,336,18014,1,0,0:0:0:0:
278,236,18164,2,0,L|312:275,1,52.5000020027161
293,349,18464,1,0,0:0:0:0:
390,262,18614,1,0,0:0:0:0:
376,345,18764,1,0,0:0:0:0:
312,275,18914,2,0,L|313:222,1,52.5000020027161
242,319,19214,1,0,0:0:0:0:
242,319,19364,1,0,0:0:0:0:
99,90,19514,2,0,L|216:138,1,105.000004005432
257,246,19814,2,0,L|159:206,1,105.000004005432
288,121,20114,1,0,0:0:0:0:
338,188,20264,2,0,B|282:165|282:165|289:106,1,105.000004005432
335,269,20564,1,0,0:0:0:0:
199,69,20714,2,0,L|182:214,1,105.000004005432
93,243,21014,2,0,L|105:138,1,105.000004005432
191,266,21314,1,0,0:0:0:0:
136,338,21464,2,0,B|185:316|185:316|191:263,1,105.000004005432
63,354,21764,1,0,0:0:0:0:
296,248,21914,2,0,L|212:156,1,105.000004005432
269,52,22214,2,0,L|147:78,1,105.000004005432
130,174,22514,1,0,0:0:0:0:
54,108,22664,2,0,B|92:162|92:162|146:178,1,105.000004005432
94,39,22964,1,0,0:0:0:0:
82,246,23114,2,0,L|199:280,1,105.000004005432
275,199,23414,2,0,L|304:317,1,105.000004005432
220,366,23714,1,0,0:0:0:0:
370,349,23864,2,0,B|389:300|389:300|373:240,1,105.000004005432
220,366,24164,1,0,0:0:0:0:
82,246,24314,2,0,L|130:124,1,105.000004005432
300,189,24614,2,0,L|171:217,1,105.000004005432
232,318,24914,1,0,0:0:0:0:
314,268,25064,2,0,B|257:278|257:278|221:335,1,105.000004005432
317,355,25364,1,0,0:0:0:0:
269,187,25514,2,0,L|259:56,1,105.000004005432
356,203,25814,2,0,L|363:307,1,105.000004005432
382,98,26114,1,0,0:0:0:0:
453,165,26264,2,0,B|425:113|425:113|363:91,1,105.000004005432
433,239,26564,1,0,0:0:0:0:
284,127,26714,2,0,L|194:55,1,105.000004005432
174,173,27014,2,0,L|213:275,1,105.000004005432
119,285,27314,1,0,0:0:0:0:
187,359,27464,2,0,B|136:325|136:325|106:255,1,105.000004005432
266,336,27764,1,0,0:0:0:0:
167,140,27914,2,0,L|55:179,1,105.000004005432
269,184,28214,2,0,L|291:67,1,105.000004005432
196,232,28514,1,0,0:0:0:0:
292,277,28664,2,0,B|340:256|340:256|360:180,1,105.000004005432
196,232,28964,1,0,0:0:0:0:
110,296,29114,2,0,L|199:362,1,105.000004005432
194,358,29414,2,0,L|307:348,1,105.000004005432
110,296,29714,1,0,0:0:0:0:
298,348,29864,2,0,L|411:338,1,105.000004005432
110,296,30164,1,0,0:0:0:0:
172,117,30314,2,0,L|247:213,1,105.000004005432
236,199,30614,2,0,L|208:310,1,105.000004005432
172,117,30914,1,0,0:0:0:0:
325,250,31064,2,0,L|296:360,1,105.000004005432
172,117,31364,1,0,0:0:0:0:
378,117,31514,2,0,L|270:148,1,105.000004005432
276,147,31814,2,0,L|222:244,1,105.000004005432
378,117,32114,1,0,0:0:0:0:
225,239,32264,2,0,L|171:336,1,105.000004005432
378,117,32564,1,0,0:0:0:0:
411,261,32714,2,0,P|349:269|290:231,2,105.000004005432
265,60,33164,2,0,P|216:41|165:51,1,105.000004005432
208,159,33464,1,0,0:0:0:0:
103,109,33614,1,0,0:0:0:0:
208,159,33764,1,0,0:0:0:0:
75,282,33914,2,0,P|84:231|122:196,1,105.000004005432
264,290,34214,2,0,P|308:242|309:191,1,105.000004005432
147,347,34514,1,0,0:0:0:0:
311,204,34664,2,0,P|276:149|227:134,1,105.000004005432
147,347,34964,1,0,0:0:0:0:
54,220,35114,2,0,L|172:216,1,105.000004005432
264,213,35414,1,0,0:0:0:0:
104,128,35564,2,0,L|208:124,1,105.000004005432
314,121,35864,1,0,0:0:0:0:
251,36,36014,1,0,0:0:0:0:
279,211,36164,1,0,0:0:0:0:
160,40,36314,2,0,L|55:43,1,105.000004005432
83,246,36614,2,0,L|187:242,1,105.000004005432
215,107,36914,2,0,L|151:30,1,87.5
27,178,37214,2,0,L|82:245,1,87.5
188,171,37514,2,0,L|227:77,1,70
53,113,37814,2,0,L|26:177,1,70
135,171,38114,2,0,L|193:171,1,52.5000020027161
105,113,38414,2,0,L|52:113,1,52.5000020027161
135,171,38714,2,0,P|151:90|260:122,1,210
263,322,39914,2,0,P|301:307|324:277,1,70
248,218,40364,2,0,P|271:192|304:181,1,70
397,214,40814,2,0,P|405:191|403:167,1,35,0|0,2:0|0:0,0:0:0:0:
248,218,41114,2,0,P|237:170|314:120,1,140
276,292,42014,2,0,P|257:297|237:297,1,35
248,218,42314,2,0,P|239:187|211:162,1,70
152,230,42764,2,0,P|125:207|115:174,1,70
151,86,43214,2,0,P|128:79|103:80,1,35
151,86,43514,2,0,P|197:66|256:122,1,140
121,194,44414,2,0,P|103:170|97:155,1,35
151,86,44714,2,0,P|123:58|84:47,1,70
121,194,45164,2,0,P|149:222|188:233,1,70
302,185,45614,2,0,P|288:167|266:157,1,35
253,282,45914,2,0,P|287:331|366:155,1,420
195,105,48314,6,0,B|226:120|226:120|255:159,1,70
295,196,48614,2,0,B|275:165|275:165|235:142,1,70
207,295,48914,5,0,0:0:0:0:
126,272,49064,1,0,0:0:0:0:
111,189,49214,1,0,0:0:0:0:
167,126,49364,1,0,0:0:0:0:
207,295,49514,6,0,L|184:215,1,70
273,114,49814,2,0,L|250:194,1,70
329,266,50114,5,0,0:0:0:0:
328,187,50264,1,0,0:0:0:0:
400,144,50414,5,0,0:0:0:0:
399,65,50564,1,0,0:0:0:0:
193,262,50714,6,0,B|203:222|203:222|231:203,1,70
267,154,51014,2,0,B|233:177|233:177|225:210,1,70
321,254,51314,5,0,0:0:0:0:
281,328,51464,1,0,0:0:0:0:
197,337,51614,1,0,0:0:0:0:
136,279,51764,1,0,0:0:0:0:
151,143,51914,6,0,L|198:228,1,70
240,131,52214,2,0,L|200:64,1,70
184,204,52514,5,0,0:0:0:0:
268,204,52664,1,0,0:0:0:0:
229,278,52814,5,0,0:0:0:0:
312,273,52964,1,0,0:0:0:0:
453,292,53114,6,0,B|456:250|456:250|430:218,1,70
410,169,53414,2,0,B|438:200|438:200|437:241,1,70
327,223,53714,5,0,0:0:0:0:
292,146,53864,1,0,0:0:0:0:
337,75,54014,1,0,0:0:0:0:
420,73,54164,1,0,0:0:0:0:
327,223,54314,6,0,L|242:214,1,70
191,119,54614,2,0,L|260:126,1,70
178,202,54914,5,0,0:0:0:0:
109,153,55064,1,0,0:0:0:0:
36,196,55214,1,0,0:0:0:0:
42,279,55364,1,0,0:0:0:0:
232,259,55514,6,0,B|230:222|230:222|260:189,1,70
273,136,55814,2,0,B|250:160|250:160|251:197,1,70
360,212,56114,5,0,0:0:0:0:
345,294,56264,1,0,0:0:0:0:
269,330,56414,1,0,0:0:0:0:
192,294,56564,1,0,0:0:0:0:
333,166,56714,2,0,L|368:226,1,52.5000020027161
192,294,57014,2,0,L|165:248,1,52.5000020027161
333,234,57314,2,0,P|337:262|336:281,1,35
195,230,57614,2,0,P|191:212|190:195,1,35
363,338,57914,1,0,0:0:0:0:
408,205,58064,1,0,0:0:0:0:
219,234,58214,2,0,P|196:187|199:130,1,105.000004005432
281,120,58514,1,0,0:0:0:0:
110,163,58664,2,0,P|113:110|144:62,1,105.000004005432
227,63,58964,1,0,0:0:0:0:
162,226,59114,1,0,0:0:0:0:
43,231,59264,1,0,0:0:0:0:
50,261,59339,1,0,0:0:0:0:
63,289,59414,2,0,P|122:325|202:312,1,105.000004005432
275,190,59714,2,0,P|232:173|186:174,2,52.5000020027161
338,243,60014,1,0,0:0:0:0:
301,120,60164,1,0,0:0:0:0:
184,271,60314,2,0,P|176:226|121:177,1,105.000004005432
104,174,60539,1,0,0:0:0:0:
74,163,60614,2,0,P|37:126|26:75,1,105.000004005432
284,77,60914,1,0,0:0:0:0:
306,174,61064,2,0,P|247:167|198:124,1,105.000004005432,0|0,2:0|2:0,2:0:0:0:
284,77,61364,1,0,0:0:0:0:
147,197,61514,2,0,P|123:142|136:78,1,105.000004005432,0|0,2:0|2:0,2:0:0:0:
157,86,61739,1,0,0:0:0:0:
188,81,61814,2,0,B|239:81|230:138|291:133,1,105.000004005432
375,118,62114,1,0,0:0:0:0:
333,280,62264,1,0,0:0:0:0:
301,280,62339,1,0,0:0:0:0:
273,273,62414,2,0,L|196:237,1,52.5000020027161
156,269,62564,2,0,L|135:193,1,52.5000020027161
189,155,62714,2,0,P|255:166|305:136,1,105.000004005432
300,122,62939,1,0,0:0:0:0:
287,93,63014,2,0,L|176:37,1,105.000004005432
326,221,63314,1,0,0:0:0:0:
227,177,63464,2,0,L|116:121,1,105.000004005432
248,304,63764,1,0,0:0:0:0:
364,197,63914,2,0,P|323:229|265:236,1,105.000004005432
171,218,64139,1,0,0:0:0:0:
186,190,64214,2,0,P|239:155|295:149,1,105.000004005432
313,222,64514,1,0,0:0:0:0:
321,57,64664,2,0,P|235:52|190:62,1,105.000004005432
234,215,64964,1,0,0:0:0:0:
43,199,65114,2,0,P|81:170|109:107,1,105.000004005432
117,89,65339,1,0,0:0:0:0:
121,57,65414,1,0,0:0:0:0:
148,218,65564,1,0,0:0:0:0:
272,150,65714,2,0,L|356:182,2,52.5000020027161
221,260,66014,1,0,0:0:0:0:
106,119,66164,2,0,P|42:157|21:207,1,105.000004005432
141,241,66464,1,0,0:0:0:0:
203,117,66614,1,0,0:0:0:0:
249,199,66764,1,0,0:0:0:0:
275,220,66839,1,0,0:0:0:0:
302,231,66914,2,0,L|372:206,1,52.5000020027161
412,274,67064,2,0,L|446:222,1,52.5000020027161
407,142,67214,2,0,P|341:99|285:98,1,105.000004005432
117,282,67514,2,0,L|15:201,1,105.000004005432
120,169,67814,2,0,L|138:40,1,105.000004005432
220,194,68114,1,0,0:0:0:0:
221,92,68264,2,0,P|282:113|323:107,1,105.000004005432
282,23,68564,1,0,0:0:0:0:
306,198,68714,1,0,0:0:0:0:
393,128,68864,1,0,0:0:0:0:
415,149,68939,1,0,0:0:0:0:
432,171,69014,2,0,L|422:299,1,105.000004005432
279,326,69314,1,0,0:0:0:0:
167,162,69464,2,0,L|77:177,1,52.5000020027161
176,242,69614,2,0,L|233:312,1,52.5000020027161
240,195,69764,2,0,L|272:109,1,52.5000020027161
98,78,69914,2,0,P|180:68|231:102,1,105.000004005432
96,256,70214,1,0,0:0:0:0:
24,184,70364,1,0,0:0:0:0:
173,333,70514,2,0,L|220:205,1,105.000004005432
140,154,70814,1,0,0:0:0:0:
312,215,70964,2,0,L|224:110,1,105.000004005432
140,154,71264,1,0,0:0:0:0:
252,282,71414,1,0,0:0:0:0:
293,62,71564,1,0,0:0:0:0:
405,190,71714,2,0,L|389:252,1,52.5000020027161
322,197,71864,2,0,L|284:160,1,52.5000020027161
320,279,72014,2,0,L|283:316,1,52.5000020027161
249,237,72164,2,0,L|198:223,1,52.5000020027161
203,307,72314,2,0,P|128:320|117:142,1,315.000012016297
203,307,73514,2,0,P|128:320|59:212,1,210
203,307,74714,2,0,P|128:320|65:267,1,157.500006008148
203,307,75914,2,0,P|128:320|92:301,1,105
150,231,77114,1,0,0:0:0:0:
71,70,89114,6,0,P|104:121|160:151,2,105.000004005432
180,43,89564,1,0,0:0:0:0:
161,231,89714,6,0,P|109:226|63:201,1,105.000004005432
178,49,90014,1,0,0:0:0:0:
289,199,90164,1,0,0:0:0:0:
321,77,90314,2,0,L|207:139,2,105.000004005432
406,113,90764,1,0,0:0:0:0:
390,203,90914,2,0,L|276:265,1,105.000004005432
216,228,91214,1,0,0:0:0:0:
314,338,91364,1,0,0:0:0:0:
263,141,91514,2,0,P|207:132|135:168,1,105.000004005432
146,62,91814,2,0,P|97:90|64:164,1,105.000004005432
180,217,92114,1,0,0:0:0:0:
250,107,92264,2,0,P|293:142|374:148,1,105.000004005432
344,33,92564,1,0,0:0:0:0:
171,69,92714,2,0,L|106:158,2,105.000004005432
264,52,93164,1,0,0:0:0:0:
276,145,93314,2,0,L|214:229,1,105.000004005432
323,308,93614,2,0,L|384:223,1,105.000004005432
190,309,93914,2,0,P|130:239|137:188,1,105.000004005432
214,183,94214,1,0,0:0:0:0:
99,134,94364,1,0,0:0:0:0:
255,83,94514,2,0,P|315:153|308:203,1,105.000004005432,0|0,3:0|3:0,3:0:0:0:
271,256,94814,1,0,0:0:0:0:
385,112,94964,2,0,P|365:69|315:23,1,105.000004005432,0|0,3:0|3:0,3:0:0:0:
134,74,95264,1,0,0:0:0:0:
270,129,95414,1,0,0:0:0:0:
174,202,95564,1,0,0:0:0:0:
324,28,95714,2,0,L|450:56,2,105.000004005432
238,89,96164,1,0,0:0:0:0:
284,183,96314,2,0,L|410:211,1,105.000004005432
189,219,96614,2,0,L|266:290,1,105.000004005432
167,117,96914,1,0,0:0:0:0:
88,207,97064,2,0,L|119:307,1,105.000004005432,0|0,3:0|3:0,3:0:0:0:
55,105,97364,1,0,0:0:0:0:
119,307,97514,2,0,P|174:345|241:340,1,105.000004005432
170,186,97814,1,0,0:0:0:0:
36,259,97964,1,0,0:0:0:0:
88,122,98114,2,0,P|143:84|210:89,1,105.000004005432
108,213,98414,1,0,0:0:0:0:
247,136,98564,1,0,0:0:0:0:
225,270,98714,2,0,L|169:159,2,105.000004005432
328,290,99164,1,0,0:0:0:0:
374,195,99314,2,0,L|318:84,1,105.000004005432
234,96,99614,1,0,0:0:0:0:
425,106,99764,1,0,0:0:0:0:
328,290,99914,2,0,P|263:305|208:275,1,105.000004005432
276,90,100214,1,0,0:0:0:0:
280,221,100364,1,0,0:0:0:0:
223,20,100514,2,0,P|288:5|343:35,1,105.000004005432,0|0,3:0|3:0,3:0:0:0:
363,207,100814,1,0,0:0:0:0:
183,97,100964,1,0,0:0:0:0:
103,253,101114,2,0,L|214:200,2,105.000004005432
13,197,101564,1,0,0:0:0:0:
27,92,101714,2,0,L|138:39,1,105.000004005432
