osu file format v14

[General]
AudioFilename: audio.mp3
AudioLeadIn: 0
PreviewTime: 66655
Countdown: 0
SampleSet: Normal
StackLeniency: 0.7
Mode: 3
LetterboxInBreaks: 0
SpecialStyle: 0
WidescreenStoryboard: 1

[Editor]
DistanceSpacing: 1.8
BeatDivisor: 4
GridSize: 16
TimelineZoom: 1.500001

[Metadata]
Title:Imagine Breaker
TitleUnicode:Imagine Breaker
Artist:Helblinde
ArtistUnicode:Helblinde
Creator:xIVUx
Version:Insane (NOSV)
Source:
Tags:
BeatmapID:1523440
BeatmapSetID:720685

[Difficulty]
HPDrainRate:7
CircleSize:4
OverallDifficulty:7
ApproachRate:5
SliderMultiplier:1.4
SliderTickRate:1

[Events]
//Background and Video events
0,0,"イマジン.PNG",0,0
//Break Periods
//Storyboard Layer 0 (Background)
//Storyboard Layer 1 (Fail)
//Storyboard Layer 2 (Pass)
//Storyboard Layer 3 (Foreground)
//Storyboard Sound Samples

[TimingPoints]
55,300,4,1,0,5,1,0
19255,300,4,1,0,5,1,0
28855,300,4,1,0,5,1,0
52555,300,4,1,0,5,1,0
95755,300,4,1,0,5,1,0
105355,300,4,1,0,5,1,0

[HitObjects]
192,192,55,5,0,0:0:0:0:
320,192,205,1,0,0:0:0:0:
448,192,355,1,0,0:0:0:0:
64,192,505,1,0,0:0:0:0:
320,192,655,1,0,0:0:0:0:
448,192,805,1,0,0:0:0:0:
64,192,955,1,0,0:0:0:0:
192,192,1105,1,0,0:0:0:0:
448,192,1255,1,0,0:0:0:0:
64,192,1405,1,0,0:0:0:0:
320,192,1555,1,0,0:0:0:0:
448,192,1705,1,0,0:0:0:0:
64,192,1855,1,0,0:0:0:0:
320,192,1855,128,0,2155:0:0:0:0:
192,192,2005,1,0,0:0:0:0:
448,192,2155,1,0,0:0:0:0:
192,192,2305,1,0,0:0:0:0:
64,192,2455,1,0,0:0:0:0:
320,192,2605,1,0,0:0:0:0:
448,192,2755,1,0,0:0:0:0:
64,192,2905,1,0,0:0:0:0:
192,192,3055,1,0,0:0:0:0:
320,192,3205,1,0,0:0:0:0:
192,192,3355,1,0,0:0:0:0:
320,192,3505,1,0,0:0:0:0:
448,192,3655,1,0,0:0:0:0:
64,192,3805,1,0,0:0:0:0:
192,192,3955,1,0,0:0:0:0:
448,192,4105,1,0,0:0:0:0:
64,192,4255,1,0,0:0:0:0:
320,192,4255,128,0,4405:0:0:0:0:
192,192,4405,128,0,4555:0:0:0:0:
448,192,4555,1,0,0:0:0:0:
192,192,4705,1,0,0:0:0:0:
64,192,4855,128,0,5005:0:0:0:0:
320,192,4855,128,0,5005:0:0:0:0:
192,192,5005,1,0,0:0:0:0:
448,192,5155,1,0,0:0:0:0:
64,192,5305,128,0,5455:0:0:0:0:
192,192,5305,128,0,5455:0:0:0:0:
320,192,5455,1,0,0:0:0:0:
448,192,5605,1,0,0:0:0:0:
64,192,5755,128,0,5830:0:0:0:0:
320,192,5755,128,0,5830:0:0:0:0:
192,192,5905,1,0,0:0:0:0:
320,192,6055,1,0,0:0:0:0:
64,192,6205,128,0,6505:0:0:0:0:
192,192,6205,128,0,6505:0:0:0:0:
320,192,6355,1,0,0:0:0:0:
448,192,6505,1,0,0:0:0:0:
320,192,6655,1,0,0:0:0:0:
64,192,6655,1,0,0:0:0:0:
192,192,6805,1,0,0:0:0:0:
448,192,6955,1,0,0:0:0:0:
64,192,6955,1,0,0:0:0:0:
320,192,7105,1,0,0:0:0:0:
64,192,7255,1,0,0:0:0:0:
192,192,7255,1,0,0:0:0:0:
448,192,7405,1,0,0:0:0:0:
320,192,7555,1,0,0:0:0:0:
192,192,7555,1,0,0:0:0:0:
320,192,7705,1,0,0:0:0:0:
448,192,7855,1,0,0:0:0:0:
192,192,7855,1,0,0:0:0:0:
320,192,8005,1,0,0:0:0:0:
64,192,8155,1,0,0:0:0:0:
320,192,8155,1,0,0:0:0:0:
192,192,8305,1,0,0:0:0:0:
448,192,8455,1,0,0:0:0:0:
64,192,8455,1,0,0:0:0:0:
64,192,8605,1,0,0:0:0:0:
320,192,8605,1,0,0:0:0:0:
192,192,8755,1,0,0:0:0:0:
320,192,8905,1,0,0:0:0:0:
448,192,9055,1,0,0:0:0:0:
192,192,9055,1,0,0:0:0:0:
64,192,9055,1,0,0:0:0:0:
192,192,9205,1,0,0:0:0:0:
448,192,9355,1,0,0:0:0:0:
320,192,9355,1,0,0:0:0:0:
64,192,9355,1,0,0:0:0:0:
320,192,9505,1,0,0:0:0:0:
64,192,9655,1,0,0:0:0:0:
192,192,9655,1,0,0:0:0:0:
320,192,9655,1,0,0:0:0:0:
64,192,9955,1,0,0:0:0:0:
192,192,9955,1,0,0:0:0:0:
448,192,10255,1,0,0:0:0:0:
448,192,10705,1,0,0:0:0:0:
320,192,10780,1,0,0:0:0:0:
192,192,10855,1,0,0:0:0:0:
64,192,10855,1,0,0:0:0:0:
320,192,11155,1,0,0:0:0:0:
64,192,11155,1,0,0:0:0:0:
192,192,11455,1,0,0:0:0:0:
448,192,11455,1,0,0:0:0:0:
448,192,11905,1,0,0:0:0:0:
320,192,11905,1,0,0:0:0:0:
192,192,12055,1,0,0:0:0:0:
64,192,12055,1,0,0:0:0:0:
64,192,12355,1,0,0:0:0:0:
192,192,12655,1,0,0:0:0:0:
320,192,12655,1,0,0:0:0:0:
448,192,12655,1,0,0:0:0:0:
320,192,13105,1,0,0:0:0:0:
192,192,13180,1,0,0:0:0:0:
64,192,13255,1,0,0:0:0:0:
320,192,13255,1,0,0:0:0:0:
448,192,13255,1,0,0:0:0:0:
64,192,13555,1,0,0:0:0:0:
192,192,13555,1,0,0:0:0:0:
320,192,13555,1,0,0:0:0:0:
64,192,13855,1,0,0:0:0:0:
192,192,13855,1,0,0:0:0:0:
320,192,13855,1,0,0:0:0:0:
448,192,13855,1,0,0:0:0:0:
64,192,14455,1,0,0:0:0:0:
192,192,14755,1,0,0:0:0:0:
448,192,14755,1,0,0:0:0:0:
320,192,14755,1,0,0:0:0:0:
448,192,14905,1,0,0:0:0:0:
320,192,14980,1,0,0:0:0:0:
192,192,15055,1,0,0:0:0:0:
192,192,15205,1,0,0:0:0:0:
448,192,15355,1,0,0:0:0:0:
320,192,15355,1,0,0:0:0:0:
64,192,15355,1,0,0:0:0:0:
192,192,15505,1,0,0:0:0:0:
64,192,15655,1,0,0:0:0:0:
64,192,15805,1,0,0:0:0:0:
448,192,15955,1,0,0:0:0:0:
320,192,15955,1,0,0:0:0:0:
192,192,15955,1,0,0:0:0:0:
320,192,16105,1,0,0:0:0:0:
448,192,16255,1,0,0:0:0:0:
320,192,16330,1,0,0:0:0:0:
192,192,16405,1,0,0:0:0:0:
64,192,16555,1,0,0:0:0:0:
192,192,16555,1,0,0:0:0:0:
448,192,16555,1,0,0:0:0:0:
320,192,16705,1,0,0:0:0:0:
192,192,16855,1,0,0:0:0:0:
64,192,16855,1,0,0:0:0:0:
64,192,17005,1,0,0:0:0:0:
448,192,17155,1,0,0:0:0:0:
320,192,17155,1,0,0:0:0:0:
192,192,17155,1,0,0:0:0:0:
64,192,17305,1,0,0:0:0:0:
448,192,17455,1,0,0:0:0:0:
320,192,17530,1,0,0:0:0:0:
192,192,17605,1,0,0:0:0:0:
320,192,17755,1,0,0:0:0:0:
64,192,17755,1,0,0:0:0:0:
448,192,17755,1,0,0:0:0:0:
192,192,17905,1,0,0:0:0:0:
320,192,18055,1,0,0:0:0:0:
192,192,18055,1,0,0:0:0:0:
192,192,18205,1,0,0:0:0:0:
320,192,18205,1,0,0:0:0:0:
448,192,18355,1,0,0:0:0:0:
320,192,18355,1,0,0:0:0:0:
192,192,18355,1,0,0:0:0:0:
64,192,18355,1,0,0:0:0:0:
64,192,18655,1,0,0:0:0:0:
192,192,18655,1,0,0:0:0:0:
320,192,18655,1,0,0:0:0:0:
448,192,18655,1,0,0:0:0:0:
64,192,18805,1,0,0:0:0:0:
192,192,18805,1,0,0:0:0:0:
320,192,18805,1,0,0:0:0:0:
448,192,18805,1,0,0:0:0:0:
448,192,19255,1,0,0:0:0:0:
320,192,19255,1,0,0:0:0:0:
64,192,19330,1,0,0:0:0:0:
320,192,19405,1,0,0:0:0:0:
192,192,19480,1,0,0:0:0:0:
448,192,19555,1,0,0:0:0:0:
64,192,19555,1,0,0:0:0:0:
320,192,19630,1,0,0:0:0:0:
64,192,19705,1,0,0:0:0:0:
192,192,19780,1,0,0:0:0:0:
448,192,19855,1,0,0:0:0:0:
320,192,19855,1,0,0:0:0:0:
192,192,19930,1,0,0:0:0:0:
320,192,20005,1,0,0:0:0:0:
64,192,20080,1,0,0:0:0:0:
448,192,20155,1,0,0:0:0:0:
192,192,20155,1,0,0:0:0:0:
320,192,20230,1,0,0:0:0:0:
192,192,20305,1,0,0:0:0:0:
64,192,20380,1,0,0:0:0:0:
320,192,20455,1,0,0:0:0:0:
448,192,20455,1,0,0:0:0:0:
64,192,20530,1,0,0:0:0:0:
448,192,20605,1,0,0:0:0:0:
192,192,20680,1,0,0:0:0:0:
448,192,20755,1,0,0:0:0:0:
320,192,20755,1,0,0:0:0:0:
64,192,20830,1,0,0:0:0:0:
192,192,20905,1,0,0:0:0:0:
64,192,20980,1,0,0:0:0:0:
320,192,21055,1,0,0:0:0:0:
192,192,21055,1,0,0:0:0:0:
448,192,21130,1,0,0:0:0:0:
192,192,21205,1,0,0:0:0:0:
448,192,21280,1,0,0:0:0:0:
64,192,21355,1,0,0:0:0:0:
320,192,21355,1,0,0:0:0:0:
192,192,21430,1,0,0:0:0:0:
320,192,21505,1,0,0:0:0:0:
448,192,21580,1,0,0:0:0:0:
320,192,21655,1,0,0:0:0:0:
64,192,21655,1,0,0:0:0:0:
192,192,21730,1,0,0:0:0:0:
448,192,21805,1,0,0:0:0:0:
64,192,21880,1,0,0:0:0:0:
320,192,21955,1,0,0:0:0:0:
448,192,21955,1,0,0:0:0:0:
64,192,22030,1,0,0:0:0:0:
448,192,22105,1,0,0:0:0:0:
192,192,22180,1,0,0:0:0:0:
448,192,22255,1,0,0:0:0:0:
64,192,22255,1,0,0:0:0:0:
320,192,22330,1,0,0:0:0:0:
64,192,22405,1,0,0:0:0:0:
192,192,22480,1,0,0:0:0:0:
448,192,22555,1,0,0:0:0:0:
64,192,22555,1,0,0:0:0:0:
320,192,22630,1,0,0:0:0:0:
448,192,22705,1,0,0:0:0:0:
64,192,22780,1,0,0:0:0:0:
448,192,22855,1,0,0:0:0:0:
192,192,22855,1,0,0:0:0:0:
320,192,22930,1,0,0:0:0:0:
448,192,23005,1,0,0:0:0:0:
320,192,23080,1,0,0:0:0:0:
64,192,23155,1,0,0:0:0:0:
448,192,23155,1,0,0:0:0:0:
192,192,23230,1,0,0:0:0:0:
448,192,23305,1,0,0:0:0:0:
64,192,23305,1,0,0:0:0:0:
320,192,23380,1,0,0:0:0:0:
64,192,23455,1,0,0:0:0:0:
192,192,23530,1,0,0:0:0:0:
64,192,23605,1,0,0:0:0:0:
448,192,23605,1,0,0:0:0:0:
320,192,23680,1,0,0:0:0:0:
448,192,23755,1,0,0:0:0:0:
192,192,23755,1,0,0:0:0:0:
320,192,23830,1,0,0:0:0:0:
192,192,23905,1,0,0:0:0:0:
64,192,23980,1,0,0:0:0:0:
448,192,24055,1,0,0:0:0:0:
320,192,24055,1,0,0:0:0:0:
192,192,24055,1,0,0:0:0:0:
64,192,24130,1,0,0:0:0:0:
448,192,24205,1,0,0:0:0:0:
192,192,24280,1,0,0:0:0:0:
320,192,24355,1,0,0:0:0:0:
448,192,24355,1,0,0:0:0:0:
64,192,24430,1,0,0:0:0:0:
448,192,24505,1,0,0:0:0:0:
320,192,24580,1,0,0:0:0:0:
192,192,24655,1,0,0:0:0:0:
64,192,24655,1,0,0:0:0:0:
448,192,24655,1,0,0:0:0:0:
320,192,24730,1,0,0:0:0:0:
64,192,24805,1,0,0:0:0:0:
320,192,24880,1,0,0:0:0:0:
448,192,24955,1,0,0:0:0:0:
192,192,24955,1,0,0:0:0:0:
320,192,25030,1,0,0:0:0:0:
192,192,25105,1,0,0:0:0:0:
64,192,25180,1,0,0:0:0:0:
448,192,25255,1,0,0:0:0:0:
320,192,25255,1,0,0:0:0:0:
192,192,25255,1,0,0:0:0:0:
64,192,25330,1,0,0:0:0:0:
192,192,25405,1,0,0:0:0:0:
64,192,25480,1,0,0:0:0:0:
448,192,25555,1,0,0:0:0:0:
320,192,25555,1,0,0:0:0:0:
64,192,25630,1,0,0:0:0:0:
320,192,25705,1,0,0:0:0:0:
192,192,25780,1,0,0:0:0:0:
448,192,25855,1,0,0:0:0:0:
320,192,25855,1,0,0:0:0:0:
64,192,25855,1,0,0:0:0:0:
192,192,25930,1,0,0:0:0:0:
448,192,26005,1,0,0:0:0:0:
320,192,26080,1,0,0:0:0:0:
64,192,26155,1,0,0:0:0:0:
448,192,26155,1,0,0:0:0:0:
192,192,26230,1,0,0:0:0:0:
320,192,26305,1,0,0:0:0:0:
448,192,26380,1,0,0:0:0:0:
64,192,26455,1,0,0:0:0:0:
192,192,26455,1,0,0:0:0:0:
320,192,26455,1,0,0:0:0:0:
448,192,26530,1,0,0:0:0:0:
320,192,26605,1,0,0:0:0:0:
448,192,26680,1,0,0:0:0:0:
64,192,26755,1,0,0:0:0:0:
192,192,26755,1,0,0:0:0:0:
320,192,26830,1,0,0:0:0:0:
192,192,26905,1,0,0:0:0:0:
448,192,26980,1,0,0:0:0:0:
64,192,27055,1,0,0:0:0:0:
320,192,27055,1,0,0:0:0:0:
192,192,27055,1,0,0:0:0:0:
448,192,27130,1,0,0:0:0:0:
64,192,27205,1,0,0:0:0:0:
192,192,27280,1,0,0:0:0:0:
448,192,27355,1,0,0:0:0:0:
64,192,27355,1,0,0:0:0:0:
320,192,27430,1,0,0:0:0:0:
192,192,27505,1,0,0:0:0:0:
64,192,27580,1,0,0:0:0:0:
192,192,27655,1,0,0:0:0:0:
320,192,27655,1,0,0:0:0:0:
448,192,27655,1,0,0:0:0:0:
64,192,27955,1,0,0:0:0:0:
320,192,27955,1,0,0:0:0:0:
192,192,27955,1,0,0:0:0:0:
320,192,28255,128,0,28405:0:0:0:0:
448,192,28255,128,0,28555:0:0:0:0:
192,192,28255,128,0,28705:0:0:0:0:
64,192,28255,128,0,28855:0:0:0:0:
448,192,28855,1,0,0:0:0:0:
320,192,28855,1,0,0:0:0:0:
192,192,28930,1,0,0:0:0:0:
320,192,29005,1,0,0:0:0:0:
448,192,29005,1,0,0:0:0:0:
64,192,29080,1,0,0:0:0:0:
448,192,29155,1,0,0:0:0:0:
192,192,29155,1,0,0:0:0:0:
64,192,29230,1,0,0:0:0:0:
192,192,29305,1,0,0:0:0:0:
320,192,29305,1,0,0:0:0:0:
64,192,29380,1,0,0:0:0:0:
448,192,29455,1,0,0:0:0:0:
320,192,29455,1,0,0:0:0:0:
64,192,29530,1,0,0:0:0:0:
320,192,29605,1,0,0:0:0:0:
448,192,29605,1,0,0:0:0:0:
192,192,29680,1,0,0:0:0:0:
448,192,29755,1,0,0:0:0:0:
64,192,29755,1,0,0:0:0:0:
320,192,29830,1,0,0:0:0:0:
192,192,29905,1,0,0:0:0:0:
448,192,29905,1,0,0:0:0:0:
64,192,29980,1,0,0:0:0:0:
448,192,30055,1,0,0:0:0:0:
320,192,30055,1,0,0:0:0:0:
192,192,30130,1,0,0:0:0:0:
64,192,30205,1,0,0:0:0:0:
320,192,30205,1,0,0:0:0:0:
192,192,30280,1,0,0:0:0:0:
448,192,30355,1,0,0:0:0:0:
320,192,30355,1,0,0:0:0:0:
64,192,30430,1,0,0:0:0:0:
320,192,30505,1,0,0:0:0:0:
448,192,30505,1,0,0:0:0:0:
192,192,30580,1,0,0:0:0:0:
448,192,30655,1,0,0:0:0:0:
320,192,30655,1,0,0:0:0:0:
64,192,30730,1,0,0:0:0:0:
448,192,30805,1,0,0:0:0:0:
192,192,30805,1,0,0:0:0:0:
320,192,30880,1,0,0:0:0:0:
64,192,30955,1,0,0:0:0:0:
448,192,30955,1,0,0:0:0:0:
192,192,31030,1,0,0:0:0:0:
320,192,31105,1,0,0:0:0:0:
64,192,31105,1,0,0:0:0:0:
448,192,31180,1,0,0:0:0:0:
320,192,31255,1,0,0:0:0:0:
192,192,31255,1,0,0:0:0:0:
64,192,31330,1,0,0:0:0:0:
320,192,31405,1,0,0:0:0:0:
448,192,31405,1,0,0:0:0:0:
192,192,31480,1,0,0:0:0:0:
448,192,31555,1,0,0:0:0:0:
64,192,31555,1,0,0:0:0:0:
320,192,31630,1,0,0:0:0:0:
192,192,31705,1,0,0:0:0:0:
64,192,31705,1,0,0:0:0:0:
448,192,31780,1,0,0:0:0:0:
320,192,31855,1,0,0:0:0:0:
64,192,31855,1,0,0:0:0:0:
192,192,31930,1,0,0:0:0:0:
448,192,32005,1,0,0:0:0:0:
320,192,32005,1,0,0:0:0:0:
64,192,32080,1,0,0:0:0:0:
448,192,32155,1,0,0:0:0:0:
192,192,32155,1,0,0:0:0:0:
320,192,32230,1,0,0:0:0:0:
192,192,32305,1,0,0:0:0:0:
448,192,32305,1,0,0:0:0:0:
64,192,32380,1,0,0:0:0:0:
448,192,32455,1,0,0:0:0:0:
192,192,32455,1,0,0:0:0:0:
320,192,32455,1,0,0:0:0:0:
64,192,32530,1,0,0:0:0:0:
448,192,32605,1,0,0:0:0:0:
192,192,32605,1,0,0:0:0:0:
320,192,32680,1,0,0:0:0:0:
64,192,32755,1,0,0:0:0:0:
448,192,32755,1,0,0:0:0:0:
192,192,32755,1,0,0:0:0:0:
320,192,32830,1,0,0:0:0:0:
448,192,32905,1,0,0:0:0:0:
64,192,32905,1,0,0:0:0:0:
192,192,32905,1,0,0:0:0:0:
320,192,32980,1,0,0:0:0:0:
448,192,33055,1,0,0:0:0:0:
64,192,33055,1,0,0:0:0:0:
192,192,33130,1,0,0:0:0:0:
320,192,33205,1,0,0:0:0:0:
448,192,33205,1,0,0:0:0:0:
64,192,33205,1,0,0:0:0:0:
192,192,33280,1,0,0:0:0:0:
448,192,33355,1,0,0:0:0:0:
64,192,33355,1,0,0:0:0:0:
320,192,33355,1,0,0:0:0:0:
192,192,33430,1,0,0:0:0:0:
448,192,33505,1,0,0:0:0:0:
64,192,33505,1,0,0:0:0:0:
192,192,33580,1,0,0:0:0:0:
448,192,33655,1,0,0:0:0:0:
320,192,33655,1,0,0:0:0:0:
64,192,33730,1,0,0:0:0:0:
320,192,33805,1,0,0:0:0:0:
448,192,33805,1,0,0:0:0:0:
192,192,33880,1,0,0:0:0:0:
64,192,33955,1,0,0:0:0:0:
320,192,33955,1,0,0:0:0:0:
192,192,34030,1,0,0:0:0:0:
320,192,34105,1,0,0:0:0:0:
448,192,34105,1,0,0:0:0:0:
64,192,34180,1,0,0:0:0:0:
320,192,34255,1,0,0:0:0:0:
448,192,34255,1,0,0:0:0:0:
192,192,34330,1,0,0:0:0:0:
320,192,34405,1,0,0:0:0:0:
64,192,34405,1,0,0:0:0:0:
192,192,34480,1,0,0:0:0:0:
448,192,34555,1,0,0:0:0:0:
64,192,34555,1,0,0:0:0:0:
320,192,34630,1,0,0:0:0:0:
192,192,34705,1,0,0:0:0:0:
448,192,34705,1,0,0:0:0:0:
64,192,34780,1,0,0:0:0:0:
448,192,34855,1,0,0:0:0:0:
192,192,34855,1,0,0:0:0:0:
64,192,34930,1,0,0:0:0:0:
192,192,35005,1,0,0:0:0:0:
320,192,35005,1,0,0:0:0:0:
64,192,35080,1,0,0:0:0:0:
448,192,35155,1,0,0:0:0:0:
320,192,35155,1,0,0:0:0:0:
64,192,35230,1,0,0:0:0:0:
320,192,35305,1,0,0:0:0:0:
448,192,35305,1,0,0:0:0:0:
192,192,35380,1,0,0:0:0:0:
448,192,35455,1,0,0:0:0:0:
320,192,35455,1,0,0:0:0:0:
192,192,35530,1,0,0:0:0:0:
320,192,35605,1,0,0:0:0:0:
64,192,35605,1,0,0:0:0:0:
192,192,35680,1,0,0:0:0:0:
64,192,35755,1,0,0:0:0:0:
448,192,35755,1,0,0:0:0:0:
192,192,35830,1,0,0:0:0:0:
320,192,35905,1,0,0:0:0:0:
64,192,35905,1,0,0:0:0:0:
448,192,35980,1,0,0:0:0:0:
320,192,36055,1,0,0:0:0:0:
64,192,36055,1,0,0:0:0:0:
192,192,36130,1,0,0:0:0:0:
320,192,36205,1,0,0:0:0:0:
448,192,36205,1,0,0:0:0:0:
192,192,36280,1,0,0:0:0:0:
448,192,36355,1,0,0:0:0:0:
320,192,36355,1,0,0:0:0:0:
64,192,36430,1,0,0:0:0:0:
320,192,36505,1,0,0:0:0:0:
448,192,36505,1,0,0:0:0:0:
192,192,36580,1,0,0:0:0:0:
64,192,36655,1,0,0:0:0:0:
320,192,36655,1,0,0:0:0:0:
192,192,36730,1,0,0:0:0:0:
320,192,36805,1,0,0:0:0:0:
448,192,36805,1,0,0:0:0:0:
192,192,36880,1,0,0:0:0:0:
320,192,36955,1,0,0:0:0:0:
64,192,36955,1,0,0:0:0:0:
192,192,37030,1,0,0:0:0:0:
448,192,37105,1,0,0:0:0:0:
192,192,37180,1,0,0:0:0:0:
448,192,37255,1,0,0:0:0:0:
64,192,37330,1,0,0:0:0:0:
320,192,37405,1,0,0:0:0:0:
64,192,37480,1,0,0:0:0:0:
320,192,37555,1,0,0:0:0:0:
192,192,37630,1,0,0:0:0:0:
448,192,37705,1,0,0:0:0:0:
64,192,37780,1,0,0:0:0:0:
320,192,37855,128,0,38305:0:0:0:0:
192,192,38005,128,0,38305:0:0:0:0:
64,192,38155,128,0,38305:0:0:0:0:
448,192,38455,1,0,0:0:0:0:
64,192,38605,1,0,0:0:0:0:
192,192,38680,1,0,0:0:0:0:
320,192,38755,1,0,0:0:0:0:
192,192,38905,1,0,0:0:0:0:
64,192,38980,1,0,0:0:0:0:
448,192,39055,1,0,0:0:0:0:
320,192,39205,1,0,0:0:0:0:
192,192,39280,1,0,0:0:0:0:
64,192,39355,1,0,0:0:0:0:
192,192,39505,1,0,0:0:0:0:
320,192,39580,1,0,0:0:0:0:
448,192,39655,128,0,39805:0:0:0:0:
320,192,39805,1,0,0:0:0:0:
192,192,39880,1,0,0:0:0:0:
64,192,39955,128,0,40105:0:0:0:0:
192,192,40105,128,0,40255:0:0:0:0:
448,192,40255,128,0,40405:0:0:0:0:
320,192,40405,128,0,40555:0:0:0:0:
192,192,40555,128,0,40705:0:0:0:0:
448,192,40705,128,0,40855:0:0:0:0:
64,192,40855,128,0,41005:0:0:0:0:
320,192,41005,1,0,0:0:0:0:
192,192,41080,1,0,0:0:0:0:
448,192,41155,128,0,41305:0:0:0:0:
192,192,41305,1,0,0:0:0:0:
320,192,41380,1,0,0:0:0:0:
64,192,41455,128,0,41605:0:0:0:0:
320,192,41605,1,0,0:0:0:0:
192,192,41680,1,0,0:0:0:0:
448,192,41755,128,0,41905:0:0:0:0:
192,192,41905,1,0,0:0:0:0:
320,192,41980,1,0,0:0:0:0:
64,192,42055,128,0,42205:0:0:0:0:
192,192,42205,128,0,42355:0:0:0:0:
448,192,42205,128,0,42355:0:0:0:0:
320,192,42355,128,0,42505:0:0:0:0:
64,192,42505,128,0,42655:0:0:0:0:
448,192,42655,128,0,42955:0:0:0:0:
192,192,42655,128,0,42955:0:0:0:0:
64,192,42955,128,0,43105:0:0:0:0:
320,192,42955,128,0,43105:0:0:0:0:
192,192,43105,128,0,43255:0:0:0:0:
448,192,43255,128,0,43405:0:0:0:0:
320,192,43255,128,0,43405:0:0:0:0:
64,192,43255,128,0,43405:0:0:0:0:
64,192,43555,128,0,43855:0:0:0:0:
320,192,43555,128,0,43855:0:0:0:0:
192,192,43555,128,0,43855:0:0:0:0:
448,192,43855,128,0,44005:0:0:0:0:
320,192,44005,128,0,44305:0:0:0:0:
64,192,44005,128,0,44305:0:0:0:0:
448,192,44305,128,0,44455:0:0:0:0:
192,192,44455,128,0,44755:0:0:0:0:
320,192,44455,128,0,44755:0:0:0:0:
64,192,44755,128,0,44905:0:0:0:0:
192,192,44905,128,0,45055:0:0:0:0:
448,192,45055,128,0,45355:0:0:0:0:
320,192,45055,128,0,45355:0:0:0:0:
64,192,45355,128,0,45655:0:0:0:0:
192,192,45655,128,0,45805:0:0:0:0:
320,192,45655,128,0,45805:0:0:0:0:
448,192,45805,1,0,0:0:0:0:
64,192,45955,128,0,46105:0:0:0:0:
192,192,45955,128,0,46105:0:0:0:0:
320,192,46105,1,0,0:0:0:0:
448,192,46255,128,0,46405:0:0:0:0:
320,192,46255,128,0,46405:0:0:0:0:
192,192,46405,1,0,0:0:0:0:
64,192,46405,1,0,0:0:0:0:
64,192,46555,128,0,46705:0:0:0:0:
192,192,46555,128,0,46705:0:0:0:0:
320,192,46705,1,0,0:0:0:0:
448,192,46705,1,0,0:0:0:0:
192,192,46855,128,0,47005:0:0:0:0:
320,192,46855,128,0,47005:0:0:0:0:
448,192,47005,1,0,0:0:0:0:
64,192,47005,1,0,0:0:0:0:
448,192,47155,128,0,47605:0:0:0:0:
64,192,47155,128,0,47605:0:0:0:0:
192,192,47755,128,0,48055:0:0:0:0:
320,192,47755,128,0,48055:0:0:0:0:
64,192,47905,1,0,0:0:0:0:
448,192,48055,1,0,0:0:0:0:
192,192,48205,128,0,48505:0:0:0:0:
64,192,48205,128,0,48505:0:0:0:0:
320,192,48355,1,0,0:0:0:0:
448,192,48505,1,0,0:0:0:0:
192,192,48655,128,0,48805:0:0:0:0:
320,192,48655,128,0,48805:0:0:0:0:
64,192,48805,1,0,0:0:0:0:
448,192,48955,1,0,0:0:0:0:
64,192,49105,128,0,49405:0:0:0:0:
192,192,49105,128,0,49405:0:0:0:0:
320,192,49255,1,0,0:0:0:0:
448,192,49405,1,0,0:0:0:0:
64,192,49555,128,0,50005:0:0:0:0:
192,192,49705,128,0,50005:0:0:0:0:
320,192,49780,128,0,50005:0:0:0:0:
448,192,49855,128,0,50005:0:0:0:0:
192,192,50155,128,0,50230:0:0:0:0:
320,192,50155,128,0,50230:0:0:0:0:
64,192,50305,128,0,50380:0:0:0:0:
192,192,50305,128,0,50380:0:0:0:0:
448,192,50455,128,0,50530:0:0:0:0:
320,192,50455,128,0,50530:0:0:0:0:
192,192,50605,128,0,50680:0:0:0:0:
64,192,50605,128,0,50680:0:0:0:0:
320,192,50755,128,0,50830:0:0:0:0:
192,192,50755,128,0,50830:0:0:0:0:
448,192,50905,128,0,50980:0:0:0:0:
320,192,50905,128,0,50980:0:0:0:0:
192,192,51055,128,0,51130:0:0:0:0:
320,192,51055,128,0,51130:0:0:0:0:
64,192,51205,128,0,51280:0:0:0:0:
192,192,51205,128,0,51280:0:0:0:0:
320,192,51355,128,0,51430:0:0:0:0:
448,192,51355,128,0,51430:0:0:0:0:
192,192,51505,128,0,51580:0:0:0:0:
64,192,51505,128,0,51580:0:0:0:0:
320,192,51655,128,0,51730:0:0:0:0:
192,192,51655,128,0,51730:0:0:0:0:
448,192,51805,128,0,51880:0:0:0:0:
320,192,51805,128,0,51880:0:0:0:0:
64,192,51955,128,0,52405:0:0:0:0:
192,192,52105,128,0,52405:0:0:0:0:
320,192,52180,128,0,52405:0:0:0:0:
448,192,52255,128,0,52405:0:0:0:0:
64,192,52555,1,0,0:0:0:0:
192,192,52555,1,0,0:0:0:0:
64,192,52855,1,0,0:0:0:0:
192,192,52855,1,0,0:0:0:0:
320,192,53155,1,0,0:0:0:0:
448,192,53155,1,0,0:0:0:0:
448,192,53605,1,0,0:0:0:0:
64,192,53605,1,0,0:0:0:0:
320,192,53755,1,0,0:0:0:0:
192,192,53755,1,0,0:0:0:0:
320,192,54055,1,0,0:0:0:0:
448,192,54355,1,0,0:0:0:0:
64,192,54355,1,0,0:0:0:0:
448,192,54805,1,0,0:0:0:0:
320,192,54805,1,0,0:0:0:0:
192,192,54955,1,0,0:0:0:0:
64,192,54955,1,0,0:0:0:0:
64,192,55255,1,0,0:0:0:0:
192,192,55255,1,0,0:0:0:0:
320,192,55555,1,0,0:0:0:0:
448,192,55555,1,0,0:0:0:0:
448,192,55930,1,0,0:0:0:0:
320,192,56005,1,0,0:0:0:0:
192,192,56080,1,0,0:0:0:0:
64,192,56155,1,0,0:0:0:0:
64,192,56455,1,0,0:0:0:0:
448,192,56755,1,0,0:0:0:0:
192,192,56755,1,0,0:0:0:0:
320,192,56755,1,0,0:0:0:0:
64,192,57355,1,0,0:0:0:0:
192,192,57355,1,0,0:0:0:0:
320,192,57355,1,0,0:0:0:0:
64,192,57655,1,0,0:0:0:0:
448,192,57955,1,0,0:0:0:0:
320,192,57955,1,0,0:0:0:0:
64,192,57955,1,0,0:0:0:0:
192,192,58405,1,0,0:0:0:0:
320,192,58405,1,0,0:0:0:0:
320,192,58555,1,0,0:0:0:0:
448,192,58555,1,0,0:0:0:0:
64,192,58555,1,0,0:0:0:0:
320,192,58855,1,0,0:0:0:0:
448,192,59155,1,0,0:0:0:0:
64,192,59155,1,0,0:0:0:0:
192,192,59155,1,0,0:0:0:0:
448,192,59605,1,0,0:0:0:0:
64,192,59605,1,0,0:0:0:0:
320,192,59755,1,0,0:0:0:0:
192,192,59755,1,0,0:0:0:0:
320,192,60055,1,0,0:0:0:0:
192,192,60055,1,0,0:0:0:0:
448,192,60355,1,0,0:0:0:0:
64,192,60355,1,0,0:0:0:0:
448,192,60730,1,0,0:0:0:0:
320,192,60805,1,0,0:0:0:0:
192,192,60880,1,0,0:0:0:0:
64,192,60955,1,0,0:0:0:0:
320,192,60955,1,0,0:0:0:0:
448,192,60955,1,0,0:0:0:0:
192,192,61255,1,0,0:0:0:0:
448,192,61555,1,0,0:0:0:0:
320,192,61555,1,0,0:0:0:0:
64,192,61555,1,0,0:0:0:0:
192,192,61855,1,0,0:0:0:0:
320,192,62155,1,0,0:0:0:0:
64,192,62155,1,0,0:0:0:0:
320,192,62305,1,0,0:0:0:0:
448,192,62455,1,0,0:0:0:0:
64,192,62455,1,0,0:0:0:0:
320,192,62605,1,0,0:0:0:0:
192,192,62605,1,0,0:0:0:0:
192,192,62755,1,0,0:0:0:0:
192,192,62905,1,0,0:0:0:0:
448,192,63055,1,0,0:0:0:0:
320,192,63055,1,0,0:0:0:0:
64,192,63205,1,0,0:0:0:0:
192,192,63205,1,0,0:0:0:0:
320,192,63355,1,0,0:0:0:0:
448,192,63355,1,0,0:0:0:0:
448,192,63505,5,0,0:0:0:0:
64,192,63655,1,0,0:0:0:0:
192,192,63655,1,0,0:0:0:0:
64,192,63805,1,0,0:0:0:0:
64,192,63955,1,0,0:0:0:0:
192,192,64030,1,0,0:0:0:0:
320,192,64105,1,0,0:0:0:0:
448,192,64180,1,0,0:0:0:0:
64,192,64255,1,0,0:0:0:0:
192,192,64330,1,0,0:0:0:0:
320,192,64405,1,0,0:0:0:0:
448,192,64480,1,0,0:0:0:0:
192,192,64555,5,0,0:0:0:0:
64,192,64555,1,0,0:0:0:0:
320,192,64555,1,0,0:0:0:0:
64,192,64705,1,0,0:0:0:0:
192,192,64705,1,0,0:0:0:0:
320,192,64705,1,0,0:0:0:0:
448,192,64855,1,0,0:0:0:0:
320,192,64855,1,0,0:0:0:0:
64,192,64855,1,0,0:0:0:0:
320,192,65155,1,0,0:0:0:0:
192,192,65155,1,0,0:0:0:0:
64,192,65455,1,0,0:0:0:0:
192,192,65455,1,0,0:0:0:0:
448,192,65455,1,0,0:0:0:0:
64,192,65605,1,0,0:0:0:0:
192,192,65605,1,0,0:0:0:0:
448,192,65605,1,0,0:0:0:0:
448,192,65755,1,0,0:0:0:0:
320,192,65830,1,0,0:0:0:0:
192,192,65905,1,0,0:0:0:0:
64,192,65980,1,0,0:0:0:0:
448,192,66055,1,0,0:0:0:0:
320,192,66130,1,0,0:0:0:0:
192,192,66205,1,0,0:0:0:0:
64,192,66280,1,0,0:0:0:0:
448,192,66355,1,0,0:0:0:0:
320,192,66455,1,0,0:0:0:0:
192,192,66555,1,0,0:0:0:0:
64,192,66655,1,0,0:0:0:0:
448,192,66655,1,0,0:0:0:0:
320,192,66655,1,0,0:0:0:0:
192,192,66805,1,0,0:0:0:0:
320,192,66805,1,0,0:0:0:0:
448,192,66955,1,0,0:0:0:0:
64,192,66955,1,0,0:0:0:0:
320,192,66955,1,0,0:0:0:0:
320,192,67105,1,0,0:0:0:0:
448,192,67255,1,0,0:0:0:0:
192,192,67255,1,0,0:0:0:0:
64,192,67405,1,0,0:0:0:0:
448,192,67555,1,0,0:0:0:0:
320,192,67555,1,0,0:0:0:0:
64,192,67705,1,0,0:0:0:0:
192,192,67705,1,0,0:0:0:0:
320,192,67855,1,0,0:0:0:0:
192,192,68005,1,0,0:0:0:0:
320,192,68155,1,0,0:0:0:0:
64,192,68155,1,0,0:0:0:0:
448,192,68305,1,0,0:0:0:0:
192,192,68305,1,0,0:0:0:0:
64,192,68455,1,0,0:0:0:0:
320,192,68455,1,0,0:0:0:0:
448,192,68605,128,0,68905:0:0:0:0:
192,192,68605,128,0,68905:0:0:0:0:
320,192,68605,1,0,0:0:0:0:
320,192,68755,1,0,0:0:0:0:
64,192,68905,1,0,0:0:0:0:
320,192,69055,1,0,0:0:0:0:
192,192,69205,1,0,0:0:0:0:
64,192,69355,128,0,69655:0:0:0:0:
320,192,69355,128,0,69655:0:0:0:0:
192,192,69505,1,0,0:0:0:0:
448,192,69655,1,0,0:0:0:0:
64,192,69805,128,0,70105:0:0:0:0:
320,192,69805,128,0,70105:0:0:0:0:
192,192,69955,1,0,0:0:0:0:
448,192,70105,1,0,0:0:0:0:
320,192,70255,1,0,0:0:0:0:
192,192,70405,128,0,70705:0:0:0:0:
448,192,70405,128,0,70705:0:0:0:0:
320,192,70555,1,0,0:0:0:0:
64,192,70705,1,0,0:0:0:0:
320,192,70855,128,0,71605:0:0:0:0:
192,192,71155,128,0,71605:0:0:0:0:
64,192,71455,128,0,71605:0:0:0:0:
448,192,71455,128,0,71605:0:0:0:0:
64,192,71755,1,0,0:0:0:0:
192,192,71755,1,0,0:0:0:0:
64,192,71905,1,0,0:0:0:0:
192,192,71905,1,0,0:0:0:0:
320,192,72055,1,0,0:0:0:0:
448,192,72055,1,0,0:0:0:0:
64,192,72205,128,0,72805:0:0:0:0:
192,192,72355,1,0,0:0:0:0:
320,192,72505,128,0,72805:0:0:0:0:
448,192,72655,1,0,0:0:0:0:
192,192,72805,1,0,0:0:0:0:
448,192,72805,1,0,0:0:0:0:
320,192,72955,1,0,0:0:0:0:
448,192,73105,1,0,0:0:0:0:
192,192,73105,1,0,0:0:0:0:
64,192,73255,1,0,0:0:0:0:
448,192,73405,1,0,0:0:0:0:
192,192,73405,1,0,0:0:0:0:
320,192,73555,128,0,74155:0:0:0:0:
64,192,73855,128,0,74155:0:0:0:0:
448,192,73855,128,0,74455:0:0:0:0:
192,192,74155,128,0,74455:0:0:0:0:
64,192,74455,128,0,74605:0:0:0:0:
320,192,74455,128,0,74605:0:0:0:0:
448,192,74605,128,0,74905:0:0:0:0:
192,192,74755,1,0,0:0:0:0:
320,192,74905,1,0,0:0:0:0:
192,192,74980,1,0,0:0:0:0:
64,192,75055,1,0,0:0:0:0:
320,192,75205,1,0,0:0:0:0:
320,192,75280,1,0,0:0:0:0:
448,192,75355,1,0,0:0:0:0:
64,192,75355,1,0,0:0:0:0:
320,192,75505,1,0,0:0:0:0:
192,192,75505,1,0,0:0:0:0:
448,192,75655,1,0,0:0:0:0:
64,192,75805,1,0,0:0:0:0:
192,192,75805,1,0,0:0:0:0:
320,192,75805,1,0,0:0:0:0:
64,192,75955,1,0,0:0:0:0:
448,192,76105,1,0,0:0:0:0:
320,192,76105,1,0,0:0:0:0:
192,192,76105,1,0,0:0:0:0:
448,192,76255,1,0,0:0:0:0:
320,192,76405,1,0,0:0:0:0:
192,192,76405,1,0,0:0:0:0:
448,192,76555,128,0,77005:0:0:0:0:
320,192,76555,128,0,76705:0:0:0:0:
192,192,76555,128,0,77005:0:0:0:0:
64,192,76555,128,0,76855:0:0:0:0:
320,192,76855,128,0,77155:0:0:0:0:
64,192,77005,128,0,77155:0:0:0:0:
192,192,77155,128,0,77455:0:0:0:0:
448,192,77155,128,0,77305:0:0:0:0:
320,192,77305,128,0,77455:0:0:0:0:
64,192,77305,128,0,77605:0:0:0:0:
448,192,77455,128,0,77605:0:0:0:0:
320,192,77605,128,0,77755:0:0:0:0:
64,192,77755,1,0,0:0:0:0:
192,192,77755,1,0,0:0:0:0:
448,192,77905,1,0,0:0:0:0:
64,192,78055,1,0,0:0:0:0:
320,192,78055,1,0,0:0:0:0:
192,192,78205,1,0,0:0:0:0:
448,192,78355,1,0,0:0:0:0:
64,192,78355,1,0,0:0:0:0:
320,192,78505,1,0,0:0:0:0:
192,192,78505,1,0,0:0:0:0:
448,192,78655,1,0,0:0:0:0:
320,192,78655,1,0,0:0:0:0:
192,192,78805,1,0,0:0:0:0:
64,192,78805,1,0,0:0:0:0:
64,192,78955,128,0,79255:0:0:0:0:
192,192,78955,128,0,79255:0:0:0:0:
320,192,79105,1,0,0:0:0:0:
448,192,79255,1,0,0:0:0:0:
64,192,79405,128,0,79705:0:0:0:0:
192,192,79405,128,0,79705:0:0:0:0:
320,192,79405,128,0,79705:0:0:0:0:
448,192,79705,1,0,0:0:0:0:
320,192,79780,1,0,0:0:0:0:
192,192,79855,1,0,0:0:0:0:
64,192,80005,128,0,80305:0:0:0:0:
192,192,80005,128,0,80305:0:0:0:0:
448,192,80305,1,0,0:0:0:0:
320,192,80305,1,0,0:0:0:0:
64,192,80455,1,0,0:0:0:0:
192,192,80455,1,0,0:0:0:0:
448,192,80455,1,0,0:0:0:0:
320,192,80530,1,0,0:0:0:0:
192,192,80605,1,0,0:0:0:0:
448,192,80755,1,0,0:0:0:0:
320,192,80755,1,0,0:0:0:0:
64,192,80755,1,0,0:0:0:0:
448,192,80905,1,0,0:0:0:0:
320,192,81055,1,0,0:0:0:0:
64,192,81055,1,0,0:0:0:0:
192,192,81055,1,0,0:0:0:0:
64,192,81205,1,0,0:0:0:0:
448,192,81355,1,0,0:0:0:0:
320,192,81355,1,0,0:0:0:0:
192,192,81505,1,0,0:0:0:0:
320,192,81655,1,0,0:0:0:0:
64,192,81655,1,0,0:0:0:0:
192,192,81805,1,0,0:0:0:0:
448,192,81955,1,0,0:0:0:0:
320,192,81955,1,0,0:0:0:0:
64,192,81955,1,0,0:0:0:0:
192,192,82105,1,0,0:0:0:0:
448,192,82255,1,0,0:0:0:0:
320,192,82255,1,0,0:0:0:0:
192,192,82405,1,0,0:0:0:0:
64,192,82405,1,0,0:0:0:0:
448,192,82555,128,0,83755:0:0:0:0:
320,192,82555,1,0,0:0:0:0:
64,192,82555,1,0,0:0:0:0:
320,192,82705,1,0,0:0:0:0:
192,192,82855,1,0,0:0:0:0:
64,192,82855,1,0,0:0:0:0:
64,192,83005,1,0,0:0:0:0:
320,192,83155,1,0,0:0:0:0:
192,192,83155,1,0,0:0:0:0:
192,192,83305,1,0,0:0:0:0:
64,192,83455,1,0,0:0:0:0:
320,192,83455,1,0,0:0:0:0:
320,192,83605,1,0,0:0:0:0:
192,192,83755,1,0,0:0:0:0:
320,192,83755,1,0,0:0:0:0:
64,192,83755,128,0,84955:0:0:0:0:
320,192,83905,1,0,0:0:0:0:
448,192,84055,1,0,0:0:0:0:
192,192,84055,1,0,0:0:0:0:
448,192,84205,1,0,0:0:0:0:
192,192,84355,1,0,0:0:0:0:
320,192,84355,1,0,0:0:0:0:
320,192,84505,1,0,0:0:0:0:
448,192,84655,1,0,0:0:0:0:
192,192,84655,1,0,0:0:0:0:
448,192,84805,1,0,0:0:0:0:
448,192,84955,1,0,0:0:0:0:
192,192,84955,1,0,0:0:0:0:
320,192,85030,5,0,0:0:0:0:
448,192,85105,1,0,0:0:0:0:
64,192,85105,1,0,0:0:0:0:
192,192,85405,1,0,0:0:0:0:
320,192,85405,1,0,0:0:0:0:
64,192,85405,1,0,0:0:0:0:
448,192,85555,1,0,0:0:0:0:
320,192,85555,1,0,0:0:0:0:
448,192,85855,1,0,0:0:0:0:
192,192,85855,1,0,0:0:0:0:
320,192,85855,1,0,0:0:0:0:
64,192,86155,5,0,0:0:0:0:
192,192,86155,1,0,0:0:0:0:
320,192,86155,1,0,0:0:0:0:
64,192,86455,1,0,0:0:0:0:
448,192,86755,1,0,0:0:0:0:
320,192,86755,1,0,0:0:0:0:
64,192,87355,1,0,0:0:0:0:
64,192,87655,1,0,0:0:0:0:
448,192,87955,1,0,0:0:0:0:
320,192,87955,1,0,0:0:0:0:
64,192,88555,1,0,0:0:0:0:
64,192,88855,1,0,0:0:0:0:
448,192,89155,1,0,0:0:0:0:
320,192,89155,1,0,0:0:0:0:
64,192,89755,1,0,0:0:0:0:
64,192,90055,1,0,0:0:0:0:
320,192,90355,1,0,0:0:0:0:
448,192,90355,1,0,0:0:0:0:
64,192,90955,1,0,0:0:0:0:
64,192,91255,1,0,0:0:0:0:
448,192,91555,1,0,0:0:0:0:
320,192,91555,1,0,0:0:0:0:
64,192,92155,1,0,0:0:0:0:
64,192,92455,1,0,0:0:0:0:
320,192,92755,1,0,0:0:0:0:
448,192,92755,1,0,0:0:0:0:
64,192,93355,1,0,0:0:0:0:
64,192,93655,1,0,0:0:0:0:
320,192,93955,1,0,0:0:0:0:
448,192,93955,1,0,0:0:0:0:
64,192,94555,1,0,0:0:0:0:
64,192,94855,1,0,0:0:0:0:
448,192,95155,1,0,0:0:0:0:
320,192,95155,1,0,0:0:0:0:
320,192,95755,128,0,95905:0:0:0:0:
448,192,95755,128,0,96055:0:0:0:0:
192,192,95905,128,0,96055:0:0:0:0:
320,192,96055,128,0,96205:0:0:0:0:
64,192,96055,128,0,96505:0:0:0:0:
192,192,96205,128,0,96355:0:0:0:0:
448,192,96355,128,0,96505:0:0:0:0:
192,192,96505,128,0,96655:0:0:0:0:
320,192,96505,128,0,96655:0:0:0:0:
448,192,96655,128,0,96805:0:0:0:0:
192,192,96805,128,0,96955:0:0:0:0:
64,192,96805,128,0,96955:0:0:0:0:
448,192,96955,128,0,97255:0:0:0:0:
320,192,96955,128,0,97255:0:0:0:0:
192,192,97105,128,0,97255:0:0:0:0:
64,192,97255,128,0,97405:0:0:0:0:
320,192,97405,128,0,97555:0:0:0:0:
192,192,97405,128,0,97555:0:0:0:0:
64,192,97555,128,0,97705:0:0:0:0:
448,192,97705,128,0,97855:0:0:0:0:
192,192,97705,128,0,97855:0:0:0:0:
320,192,97855,128,0,98005:0:0:0:0:
64,192,98005,128,0,98155:0:0:0:0:
192,192,98005,128,0,98155:0:0:0:0:
448,192,98155,128,0,98455:0:0:0:0:
320,192,98155,128,0,98455:0:0:0:0:
192,192,98305,128,0,98455:0:0:0:0:
64,192,98455,128,0,98605:0:0:0:0:
192,192,98605,128,0,98755:0:0:0:0:
320,192,98605,128,0,98755:0:0:0:0:
64,192,98755,128,0,98905:0:0:0:0:
448,192,98905,128,0,99055:0:0:0:0:
192,192,98905,128,0,99055:0:0:0:0:
320,192,99055,128,0,99205:0:0:0:0:
64,192,99205,128,0,99355:0:0:0:0:
192,192,99205,128,0,99355:0:0:0:0:
320,192,99355,128,0,99655:0:0:0:0:
448,192,99355,128,0,99655:0:0:0:0:
192,192,99505,128,0,99655:0:0:0:0:
64,192,99655,128,0,99805:0:0:0:0:
320,192,99805,128,0,99955:0:0:0:0:
192,192,99805,128,0,99955:0:0:0:0:
64,192,99955,128,0,100105:0:0:0:0:
192,192,100105,128,0,100255:0:0:0:0:
448,192,100105,128,0,100255:0:0:0:0:
320,192,100255,128,0,100405:0:0:0:0:
192,192,100405,128,0,100555:0:0:0:0:
64,192,100405,128,0,100555:0:0:0:0:
448,192,100555,128,0,100855:0:0:0:0:
320,192,100555,128,0,100855:0:0:0:0:
192,192,100705,128,0,100855:0:0:0:0:
64,192,100855,128,0,101005:0:0:0:0:
192,192,101005,128,0,101155:0:0:0:0:
320,192,101005,128,0,101155:0:0:0:0:
64,192,101155,128,0,101305:0:0:0:0:
448,192,101305,128,0,101455:0:0:0:0:
192,192,101305,128,0,101455:0:0:0:0:
320,192,101455,128,0,101605:0:0:0:0:
64,192,101605,128,0,101755:0:0:0:0:
192,192,101605,128,0,101755:0:0:0:0:
320,192,101755,128,0,102055:0:0:0:0:
448,192,101755,128,0,102055:0:0:0:0:
192,192,101905,128,0,102055:0:0:0:0:
64,192,102055,128,0,102205:0:0:0:0:
320,192,102205,128,0,102355:0:0:0:0:
192,192,102205,128,0,102355:0:0:0:0:
64,192,102355,128,0,102505:0:0:0:0:
192,192,102505,128,0,102655:0:0:0:0:
448,192,102505,128,0,102655:0:0:0:0:
320,192,102655,128,0,102805:0:0:0:0:
192,192,102805,128,0,102955:0:0:0:0:
64,192,102805,128,0,102955:0:0:0:0:
448,192,102955,128,0,103255:0:0:0:0:
320,192,102955,128,0,103255:0:0:0:0:
192,192,103105,128,0,103255:0:0:0:0:
64,192,103255,128,0,103405:0:0:0:0:
192,192,103405,128,0,103555:0:0:0:0:
320,192,103405,128,0,103555:0:0:0:0:
64,192,103555,128,0,103705:0:0:0:0:
448,192,103705,128,0,103855:0:0:0:0:
192,192,103705,128,0,103855:0:0:0:0:
320,192,103855,128,0,104005:0:0:0:0:
64,192,104005,128,0,104155:0:0:0:0:
192,192,104155,1,0,0:0:0:0:
320,192,104155,1,0,0:0:0:0:
448,192,104155,1,0,0:0:0:0:
64,192,104455,1,0,0:0:0:0:
320,192,104455,1,0,0:0:0:0:
448,192,104455,1,0,0:0:0:0:
64,192,104755,1,0,0:0:0:0:
192,192,104755,1,0,0:0:0:0:
320,192,104755,1,0,0:0:0:0:
192,192,105055,128,0,105355:0:0:0:0:
448,192,105055,128,0,105355:0:0:0:0:
64,192,105355,5,0,0:0:0:0:
320,192,105355,1,0,0:0:0:0:
64,192,105505,1,0,0:0:0:0:
320,192,105505,1,0,0:0:0:0:
448,192,105655,1,0,0:0:0:0:
192,192,105655,1,0,0:0:0:0:
192,192,105805,1,0,0:0:0:0:
448,192,105805,1,0,0:0:0:0:
64,192,105955,1,0,0:0:0:0:
192,192,105955,1,0,0:0:0:0:
64,192,106105,1,0,0:0:0:0:
192,192,106105,1,0,0:0:0:0:
320,192,106255,1,0,0:0:0:0:
448,192,106255,1,0,0:0:0:0:
448,192,106405,1,0,0:0:0:0:
320,192,106405,1,0,0:0:0:0:
64,192,106555,1,0,0:0:0:0:
192,192,106555,1,0,0:0:0:0:
64,192,106705,1,0,0:0:0:0:
320,192,106705,1,0,0:0:0:0:
192,192,106855,1,0,0:0:0:0:
320,192,106855,1,0,0:0:0:0:
192,192,107005,1,0,0:0:0:0:
448,192,107005,1,0,0:0:0:0:
448,192,107155,1,0,0:0:0:0:
320,192,107155,1,0,0:0:0:0:
448,192,107305,1,0,0:0:0:0:
192,192,107305,1,0,0:0:0:0:
320,192,107455,1,0,0:0:0:0:
192,192,107455,1,0,0:0:0:0:
320,192,107605,1,0,0:0:0:0:
64,192,107605,1,0,0:0:0:0:
64,192,107755,1,0,0:0:0:0:
192,192,107755,1,0,0:0:0:0:
64,192,107905,1,0,0:0:0:0:
192,192,107905,1,0,0:0:0:0:
320,192,108055,1,0,0:0:0:0:
448,192,108055,1,0,0:0:0:0:
320,192,108205,1,0,0:0:0:0:
448,192,108205,1,0,0:0:0:0:
64,192,108355,1,0,0:0:0:0:
320,192,108355,1,0,0:0:0:0:
64,192,108505,1,0,0:0:0:0:
320,192,108505,1,0,0:0:0:0:
448,192,108655,1,0,0:0:0:0:
192,192,108655,1,0,0:0:0:0:
448,192,108805,1,0,0:0:0:0:
192,192,108805,1,0,0:0:0:0:
64,192,108955,1,0,0:0:0:0:
192,192,108955,1,0,0:0:0:0:
64,192,109105,1,0,0:0:0:0:
448,192,109255,1,0,0:0:0:0:
320,192,109255,1,0,0:0:0:0:
192,192,109255,1,0,0:0:0:0:
448,192,109405,1,0,0:0:0:0:
320,192,109405,1,0,0:0:0:0:
448,192,109555,1,0,0:0:0:0:
192,192,109555,1,0,0:0:0:0:
320,192,109705,1,0,0:0:0:0:
192,192,109705,1,0,0:0:0:0:
192,192,109855,1,0,0:0:0:0:
64,192,109855,1,0,0:0:0:0:
192,192,110005,1,0,0:0:0:0:
320,192,110155,1,0,0:0:0:0:
64,192,110155,1,0,0:0:0:0:
192,192,110305,1,0,0:0:0:0:
64,192,110305,1,0,0:0:0:0:
448,192,110455,1,0,0:0:0:0:
320,192,110455,1,0,0:0:0:0:
448,192,110605,1,0,0:0:0:0:
192,192,110605,1,0,0:0:0:0:
320,192,110755,1,0,0:0:0:0:
64,192,110755,1,0,0:0:0:0:
192,192,110905,1,0,0:0:0:0:
64,192,110905,1,0,0:0:0:0:
448,192,111055,1,0,0:0:0:0:
320,192,111055,1,0,0:0:0:0:
448,192,111205,1,0,0:0:0:0:
192,192,111205,1,0,0:0:0:0:
64,192,111355,1,0,0:0:0:0:
320,192,111355,1,0,0:0:0:0:
448,192,111505,1,0,0:0:0:0:
64,192,111655,1,0,0:0:0:0:
320,192,111655,1,0,0:0:0:0:
448,192,111805,1,0,0:0:0:0:
320,192,111955,1,0,0:0:0:0:
192,192,111955,1,0,0:0:0:0:
64,192,112105,1,0,0:0:0:0:
320,192,112255,1,0,0:0:0:0:
192,192,112255,1,0,0:0:0:0:
64,192,112405,1,0,0:0:0:0:
192,192,112555,1,0,0:0:0:0:
320,192,112555,1,0,0:0:0:0:
192,192,112705,1,0,0:0:0:0:
320,192,112705,1,0,0:0:0:0:
448,192,112855,1,0,0:0:0:0:
64,192,112855,1,0,0:0:0:0:
448,192,113005,1,0,0:0:0:0:
64,192,113005,1,0,0:0:0:0:
192,192,113155,1,0,0:0:0:0:
320,192,113155,1,0,0:0:0:0:
192,192,113305,1,0,0:0:0:0:
320,192,113305,1,0,0:0:0:0:
64,192,113455,1,0,0:0:0:0:
448,192,113455,1,0,0:0:0:0:
448,192,113605,1,0,0:0:0:0:
64,192,113605,1,0,0:0:0:0:
64,192,113755,1,0,0:0:0:0:
192,192,113755,1,0,0:0:0:0:
320,192,113755,1,0,0:0:0:0:
64,192,113905,1,0,0:0:0:0:
448,192,114055,1,0,0:0:0:0:
320,192,114055,1,0,0:0:0:0:
192,192,114055,1,0,0:0:0:0:
448,192,114205,1,0,0:0:0:0:
64,192,114355,1,0,0:0:0:0:
192,192,114355,1,0,0:0:0:0:
320,192,114355,1,0,0:0:0:0:
64,192,114505,1,0,0:0:0:0:
448,192,114655,1,0,0:0:0:0:
320,192,114655,1,0,0:0:0:0:
192,192,114655,1,0,0:0:0:0:
448,192,114805,1,0,0:0:0:0:
64,192,114955,1,0,0:0:0:0:
320,192,114955,1,0,0:0:0:0:
64,192,115105,1,0,0:0:0:0:
448,192,115105,1,0,0:0:0:0:
448,192,115255,1,0,0:0:0:0:
192,192,115255,1,0,0:0:0:0:
448,192,115405,1,0,0:0:0:0:
64,192,115405,1,0,0:0:0:0:
64,192,115555,1,0,0:0:0:0:
320,192,115555,1,0,0:0:0:0:
64,192,115705,1,0,0:0:0:0:
448,192,115705,1,0,0:0:0:0:
448,192,115855,1,0,0:0:0:0:
192,192,115855,1,0,0:0:0:0:
64,192,116005,1,0,0:0:0:0:
448,192,116005,1,0,0:0:0:0:
192,192,116155,128,0,116305:0:0:0:0:
320,192,116155,128,0,116305:0:0:0:0:
448,192,116305,1,0,0:0:0:0:
64,192,116455,128,0,116605:0:0:0:0:
192,192,116455,128,0,116605:0:0:0:0:
320,192,116455,128,0,116605:0:0:0:0:
448,192,116605,1,0,0:0:0:0:
192,192,116755,128,0,116905:0:0:0:0:
320,192,116755,128,0,116905:0:0:0:0:
64,192,116905,1,0,0:0:0:0:
320,192,117055,128,0,117205:0:0:0:0:
448,192,117055,128,0,117205:0:0:0:0:
192,192,117055,128,0,117205:0:0:0:0:
64,192,117205,1,0,0:0:0:0:
448,192,117355,1,0,0:0:0:0:
320,192,117355,1,0,0:0:0:0:
192,192,117355,1,0,0:0:0:0:
64,192,117505,1,0,0:0:0:0:
192,192,117505,1,0,0:0:0:0:
448,192,117655,1,0,0:0:0:0:
320,192,117655,1,0,0:0:0:0:
64,192,117655,1,0,0:0:0:0:
192,192,117805,1,0,0:0:0:0:
448,192,117955,1,0,0:0:0:0:
192,192,117955,1,0,0:0:0:0:
320,192,117955,1,0,0:0:0:0:
64,192,118105,1,0,0:0:0:0:
192,192,118105,1,0,0:0:0:0:
320,192,118105,1,0,0:0:0:0:
448,192,118255,1,0,0:0:0:0:
320,192,118255,1,0,0:0:0:0:
192,192,118405,1,0,0:0:0:0:
64,192,118405,1,0,0:0:0:0:
320,192,118555,128,0,118705:0:0:0:0:
192,192,118555,128,0,118705:0:0:0:0:
448,192,118705,1,0,0:0:0:0:
448,192,118855,1,0,0:0:0:0:
192,192,118855,1,0,0:0:0:0:
64,192,119005,1,0,0:0:0:0:
192,192,119005,1,0,0:0:0:0:
320,192,119155,1,0,0:0:0:0:
448,192,119155,1,0,0:0:0:0:
192,192,119155,1,0,0:0:0:0:
64,192,119305,1,0,0:0:0:0:
192,192,119305,1,0,0:0:0:0:
448,192,119455,1,0,0:0:0:0:
320,192,119455,1,0,0:0:0:0:
64,192,119455,1,0,0:0:0:0:
192,192,119605,1,0,0:0:0:0:
320,192,119605,1,0,0:0:0:0:
64,192,119755,5,0,0:0:0:0:
64,192,119905,1,0,0:0:0:0:
448,192,120055,1,0,0:0:0:0:
448,192,120205,1,0,0:0:0:0:
192,192,120355,1,0,0:0:0:0:
192,192,120505,1,0,0:0:0:0:
320,192,120655,1,0,0:0:0:0:
320,192,120805,1,0,0:0:0:0:
64,192,120955,1,0,0:0:0:0:
64,192,121105,1,0,0:0:0:0:
192,192,121255,1,0,0:0:0:0:
192,192,121405,1,0,0:0:0:0:
448,192,121555,1,0,0:0:0:0:
448,192,121705,1,0,0:0:0:0:
320,192,121855,1,0,0:0:0:0:
320,192,122005,1,0,0:0:0:0:
64,192,122155,1,0,0:0:0:0:
192,192,122155,1,0,0:0:0:0:
64,192,122305,5,0,0:0:0:0:
448,192,122455,1,0,0:0:0:0:
320,192,122455,1,0,0:0:0:0:
448,192,122605,1,0,0:0:0:0:
320,192,122755,5,0,0:0:0:0:
192,192,122830,1,0,0:0:0:0:
320,192,122905,5,0,0:0:0:0:
192,192,122980,1,0,0:0:0:0:
320,192,123055,5,0,0:0:0:0:
448,192,123055,1,0,0:0:0:0:
192,192,123130,1,0,0:0:0:0:
64,192,123130,1,0,0:0:0:0:
320,192,123205,1,0,0:0:0:0:
448,192,123205,1,0,0:0:0:0:
192,192,123280,1,0,0:0:0:0:
64,192,123280,1,0,0:0:0:0:
320,192,123355,1,0,0:0:0:0:
192,192,123430,1,0,0:0:0:0:
320,192,123505,1,0,0:0:0:0:
192,192,123580,1,0,0:0:0:0:
448,192,123655,1,0,0:0:0:0:
320,192,123655,1,0,0:0:0:0:
192,192,123730,1,0,0:0:0:0:
64,192,123730,1,0,0:0:0:0:
320,192,123805,1,0,0:0:0:0:
192,192,123880,1,0,0:0:0:0:
448,192,123955,1,0,0:0:0:0:
320,192,123955,1,0,0:0:0:0:
192,192,124030,1,0,0:0:0:0:
64,192,124030,1,0,0:0:0:0:
448,192,124105,1,0,0:0:0:0:
320,192,124105,1,0,0:0:0:0:
192,192,124180,1,0,0:0:0:0:
64,192,124180,1,0,0:0:0:0:
320,192,124255,1,0,0:0:0:0:
320,192,124405,1,0,0:0:0:0:
64,192,124555,1,0,0:0:0:0:
192,192,124555,1,0,0:0:0:0:
320,192,124555,1,0,0:0:0:0:
448,192,124555,1,0,0:0:0:0:
