osu file format v14

[General]
AudioFilename: audio.mp3
AudioLeadIn: 0
PreviewTime: 83412
Countdown: 0
SampleSet: Soft
StackLeniency: 0.7
Mode: 3
LetterboxInBreaks: 0
SpecialStyle: 0
WidescreenStoryboard: 1

[Editor]
DistanceSpacing: 1
BeatDivisor: 4
GridSize: 8
TimelineZoom: 2.7

[Metadata]
Title:Holding out for a Hero
TitleUnicode:Holding out for a Hero
Artist:Helblinde
ArtistUnicode:Helblinde
Creator:NikoSek
Version:H
Source:
Tags:featured artist fa electronic instrumental stamina Bonnie Tyler Ephemerality jumpstream speed rates
BeatmapID:2182359
BeatmapSetID:1040735

[Difficulty]
HPDrainRate:8
CircleSize:4
OverallDifficulty:8
ApproachRate:5
SliderMultiplier:1.4
SliderTickRate:1

[Events]
//Background and Video events
0,0,"bg2 tst.jpg",0,0
//Break Periods
//Storyboard Layer 0 (Background)
//Storyboard Layer 1 (Fail)
//Storyboard Layer 2 (Pass)
//Storyboard Layer 3 (Foreground)
//Storyboard Layer 4 (Overlay)
//Storyboard Sound Samples

[TimingPoints]
15824,300,4,2,0,10,1,0

[HitObjects]
64,192,15824,5,0,0:0:0:0:
192,192,15824,1,0,0:0:0:0:
320,192,15974,1,0,0:0:0:0:
64,192,16124,1,0,0:0:0:0:
192,192,16124,1,0,0:0:0:0:
448,192,16124,1,0,0:0:0:0:
320,192,16274,1,0,0:0:0:0:
192,192,16424,1,0,0:0:0:0:
448,192,16424,1,0,0:0:0:0:
64,192,16574,1,0,0:0:0:0:
320,192,16724,1,0,0:0:0:0:
448,192,16724,1,0,0:0:0:0:
192,192,16724,1,0,0:0:0:0:
64,192,16874,1,0,0:0:0:0:
448,192,17024,1,0,0:0:0:0:
320,192,17024,1,0,0:0:0:0:
192,192,17174,1,0,0:0:0:0:
448,192,17324,1,0,0:0:0:0:
320,192,17324,1,0,0:0:0:0:
64,192,17324,1,0,0:0:0:0:
192,192,17474,1,0,0:0:0:0:
448,192,17624,1,0,0:0:0:0:
64,192,17624,1,0,0:0:0:0:
320,192,17774,1,0,0:0:0:0:
448,192,17924,1,0,0:0:0:0:
64,192,17924,1,0,0:0:0:0:
192,192,17924,1,0,0:0:0:0:
64,192,18074,1,0,0:0:0:0:
192,192,18074,1,0,0:0:0:0:
64,192,18224,1,0,0:0:0:0:
320,192,18224,1,0,0:0:0:0:
192,192,18374,1,0,0:0:0:0:
448,192,18524,1,0,0:0:0:0:
320,192,18524,1,0,0:0:0:0:
64,192,18524,1,0,0:0:0:0:
192,192,18674,1,0,0:0:0:0:
64,192,18824,1,0,0:0:0:0:
320,192,18824,1,0,0:0:0:0:
448,192,18974,1,0,0:0:0:0:
320,192,19124,1,0,0:0:0:0:
64,192,19124,1,0,0:0:0:0:
192,192,19124,1,0,0:0:0:0:
448,192,19274,1,0,0:0:0:0:
192,192,19424,1,0,0:0:0:0:
64,192,19424,1,0,0:0:0:0:
192,192,19574,1,0,0:0:0:0:
320,192,19724,1,0,0:0:0:0:
64,192,19724,1,0,0:0:0:0:
192,192,19874,1,0,0:0:0:0:
192,192,20024,1,0,0:0:0:0:
320,192,20099,1,0,0:0:0:0:
448,192,20174,1,0,0:0:0:0:
448,192,20324,1,0,0:0:0:0:
320,192,20399,1,0,0:0:0:0:
64,192,20474,1,0,0:0:0:0:
192,192,20474,1,0,0:0:0:0:
448,192,20549,1,0,0:0:0:0:
192,192,20624,1,0,0:0:0:0:
320,192,20624,1,0,0:0:0:0:
64,192,20624,1,0,0:0:0:0:
448,192,20774,1,0,0:0:0:0:
64,192,20924,1,0,0:0:0:0:
192,192,20924,1,0,0:0:0:0:
320,192,20924,1,0,0:0:0:0:
448,192,21074,1,0,0:0:0:0:
64,192,21224,1,0,0:0:0:0:
192,192,21224,1,0,0:0:0:0:
320,192,21374,1,0,0:0:0:0:
64,192,21524,1,0,0:0:0:0:
192,192,21524,1,0,0:0:0:0:
448,192,21524,1,0,0:0:0:0:
320,192,21674,1,0,0:0:0:0:
64,192,21824,1,0,0:0:0:0:
448,192,21824,1,0,0:0:0:0:
192,192,21974,1,0,0:0:0:0:
64,192,22124,1,0,0:0:0:0:
448,192,22124,1,0,0:0:0:0:
320,192,22124,1,0,0:0:0:0:
192,192,22274,1,0,0:0:0:0:
448,192,22424,1,0,0:0:0:0:
320,192,22424,1,0,0:0:0:0:
192,192,22574,1,0,0:0:0:0:
448,192,22724,1,0,0:0:0:0:
320,192,22724,1,0,0:0:0:0:
64,192,22724,1,0,0:0:0:0:
320,192,22874,1,0,0:0:0:0:
448,192,22874,1,0,0:0:0:0:
448,192,23024,1,0,0:0:0:0:
192,192,23024,1,0,0:0:0:0:
320,192,23174,1,0,0:0:0:0:
64,192,23324,1,0,0:0:0:0:
192,192,23324,1,0,0:0:0:0:
448,192,23324,1,0,0:0:0:0:
320,192,23474,1,0,0:0:0:0:
448,192,23624,1,0,0:0:0:0:
64,192,23624,1,0,0:0:0:0:
192,192,23774,1,0,0:0:0:0:
320,192,23924,1,0,0:0:0:0:
448,192,23924,1,0,0:0:0:0:
64,192,23924,1,0,0:0:0:0:
192,192,24074,1,0,0:0:0:0:
320,192,24224,1,0,0:0:0:0:
64,192,24224,1,0,0:0:0:0:
320,192,24374,1,0,0:0:0:0:
64,192,24524,1,0,0:0:0:0:
192,192,24524,1,0,0:0:0:0:
448,192,24524,1,0,0:0:0:0:
448,192,24674,1,0,0:0:0:0:
64,192,24674,1,0,0:0:0:0:
192,192,24674,1,0,0:0:0:0:
320,192,24824,1,0,0:0:0:0:
192,192,24899,1,0,0:0:0:0:
64,192,24974,1,0,0:0:0:0:
448,192,24974,1,0,0:0:0:0:
320,192,24974,1,0,0:0:0:0:
64,192,25124,1,0,0:0:0:0:
320,192,25124,1,0,0:0:0:0:
448,192,25124,1,0,0:0:0:0:
64,192,25424,1,0,0:0:0:0:
448,192,25424,1,0,0:0:0:0:
320,192,25424,1,0,0:0:0:0:
192,192,25499,1,0,0:0:0:0:
320,192,25574,1,0,0:0:0:0:
192,192,25649,1,0,0:0:0:0:
448,192,25724,1,0,0:0:0:0:
64,192,25724,1,0,0:0:0:0:
320,192,25799,1,0,0:0:0:0:
192,192,25874,1,0,0:0:0:0:
64,192,25949,1,0,0:0:0:0:
448,192,26024,1,0,0:0:0:0:
320,192,26024,1,0,0:0:0:0:
64,192,26099,1,0,0:0:0:0:
192,192,26174,1,0,0:0:0:0:
320,192,26249,1,0,0:0:0:0:
448,192,26324,1,0,0:0:0:0:
64,192,26324,1,0,0:0:0:0:
192,192,26399,1,0,0:0:0:0:
320,192,26474,1,0,0:0:0:0:
192,192,26549,1,0,0:0:0:0:
320,192,26624,1,0,0:0:0:0:
64,192,26624,1,0,0:0:0:0:
448,192,26699,1,0,0:0:0:0:
64,192,26774,1,0,0:0:0:0:
448,192,26849,1,0,0:0:0:0:
192,192,26924,1,0,0:0:0:0:
320,192,26924,1,0,0:0:0:0:
64,192,26999,1,0,0:0:0:0:
448,192,27074,1,0,0:0:0:0:
64,192,27149,1,0,0:0:0:0:
320,192,27224,1,0,0:0:0:0:
192,192,27224,1,0,0:0:0:0:
448,192,27299,1,0,0:0:0:0:
192,192,27374,1,0,0:0:0:0:
448,192,27449,1,0,0:0:0:0:
192,192,27524,1,0,0:0:0:0:
320,192,27524,1,0,0:0:0:0:
64,192,27599,1,0,0:0:0:0:
448,192,27674,1,0,0:0:0:0:
320,192,27749,1,0,0:0:0:0:
192,192,27824,1,0,0:0:0:0:
64,192,27824,1,0,0:0:0:0:
320,192,27899,1,0,0:0:0:0:
448,192,27974,1,0,0:0:0:0:
64,192,28049,1,0,0:0:0:0:
192,192,28124,1,0,0:0:0:0:
448,192,28124,1,0,0:0:0:0:
320,192,28199,1,0,0:0:0:0:
192,192,28274,1,0,0:0:0:0:
64,192,28349,1,0,0:0:0:0:
320,192,28424,1,0,0:0:0:0:
448,192,28424,1,0,0:0:0:0:
64,192,28499,1,0,0:0:0:0:
192,192,28574,1,0,0:0:0:0:
320,192,28649,1,0,0:0:0:0:
448,192,28724,1,0,0:0:0:0:
192,192,28724,1,0,0:0:0:0:
64,192,28799,1,0,0:0:0:0:
448,192,28874,1,0,0:0:0:0:
64,192,28949,1,0,0:0:0:0:
320,192,29024,1,0,0:0:0:0:
192,192,29024,1,0,0:0:0:0:
448,192,29099,1,0,0:0:0:0:
64,192,29174,1,0,0:0:0:0:
448,192,29249,1,0,0:0:0:0:
192,192,29324,1,0,0:0:0:0:
320,192,29324,1,0,0:0:0:0:
64,192,29399,1,0,0:0:0:0:
192,192,29474,1,0,0:0:0:0:
320,192,29549,1,0,0:0:0:0:
64,192,29624,1,0,0:0:0:0:
448,192,29624,1,0,0:0:0:0:
192,192,29699,1,0,0:0:0:0:
448,192,29774,1,0,0:0:0:0:
192,192,29849,1,0,0:0:0:0:
448,192,29924,1,0,0:0:0:0:
320,192,29924,1,0,0:0:0:0:
64,192,29999,1,0,0:0:0:0:
192,192,30074,1,0,0:0:0:0:
320,192,30149,1,0,0:0:0:0:
192,192,30224,1,0,0:0:0:0:
448,192,30224,1,0,0:0:0:0:
64,192,30299,1,0,0:0:0:0:
448,192,30374,1,0,0:0:0:0:
320,192,30449,1,0,0:0:0:0:
192,192,30524,1,0,0:0:0:0:
64,192,30524,1,0,0:0:0:0:
320,192,30599,1,0,0:0:0:0:
448,192,30674,1,0,0:0:0:0:
64,192,30749,1,0,0:0:0:0:
192,192,30824,1,0,0:0:0:0:
448,192,30824,1,0,0:0:0:0:
320,192,30899,1,0,0:0:0:0:
192,192,30974,1,0,0:0:0:0:
64,192,31049,1,0,0:0:0:0:
448,192,31124,1,0,0:0:0:0:
320,192,31124,1,0,0:0:0:0:
192,192,31199,1,0,0:0:0:0:
320,192,31274,1,0,0:0:0:0:
448,192,31349,1,0,0:0:0:0:
64,192,31424,1,0,0:0:0:0:
192,192,31424,1,0,0:0:0:0:
448,192,31499,1,0,0:0:0:0:
320,192,31574,1,0,0:0:0:0:
192,192,31649,1,0,0:0:0:0:
320,192,31724,1,0,0:0:0:0:
448,192,31724,1,0,0:0:0:0:
64,192,31799,1,0,0:0:0:0:
192,192,31874,1,0,0:0:0:0:
320,192,31949,1,0,0:0:0:0:
192,192,32024,1,0,0:0:0:0:
448,192,32024,1,0,0:0:0:0:
64,192,32099,1,0,0:0:0:0:
448,192,32174,1,0,0:0:0:0:
64,192,32249,1,0,0:0:0:0:
320,192,32324,1,0,0:0:0:0:
192,192,32324,1,0,0:0:0:0:
448,192,32399,1,0,0:0:0:0:
320,192,32474,1,0,0:0:0:0:
192,192,32549,1,0,0:0:0:0:
448,192,32624,1,0,0:0:0:0:
64,192,32624,1,0,0:0:0:0:
320,192,32699,1,0,0:0:0:0:
64,192,32774,1,0,0:0:0:0:
192,192,32849,1,0,0:0:0:0:
448,192,32924,1,0,0:0:0:0:
320,192,32924,1,0,0:0:0:0:
64,192,32999,1,0,0:0:0:0:
448,192,33074,1,0,0:0:0:0:
320,192,33149,1,0,0:0:0:0:
192,192,33224,1,0,0:0:0:0:
64,192,33224,1,0,0:0:0:0:
320,192,33299,1,0,0:0:0:0:
448,192,33374,1,0,0:0:0:0:
64,192,33449,1,0,0:0:0:0:
192,192,33524,1,0,0:0:0:0:
448,192,33524,1,0,0:0:0:0:
320,192,33599,1,0,0:0:0:0:
192,192,33674,1,0,0:0:0:0:
320,192,33749,1,0,0:0:0:0:
448,192,33824,1,0,0:0:0:0:
64,192,33824,1,0,0:0:0:0:
64,192,34124,1,0,0:0:0:0:
320,192,34124,1,0,0:0:0:0:
192,192,34424,1,0,0:0:0:0:
64,192,34724,1,0,0:0:0:0:
320,192,34724,1,0,0:0:0:0:
448,192,35024,1,0,0:0:0:0:
64,192,35024,1,0,0:0:0:0:
192,192,35024,1,0,0:0:0:0:
320,192,35099,1,0,0:0:0:0:
192,192,35174,1,0,0:0:0:0:
64,192,35249,1,0,0:0:0:0:
448,192,35324,1,0,0:0:0:0:
320,192,35324,1,0,0:0:0:0:
192,192,35399,1,0,0:0:0:0:
320,192,35474,1,0,0:0:0:0:
192,192,35549,1,0,0:0:0:0:
320,192,35624,1,0,0:0:0:0:
64,192,35624,1,0,0:0:0:0:
448,192,35699,1,0,0:0:0:0:
64,192,35774,1,0,0:0:0:0:
192,192,35849,1,0,0:0:0:0:
448,192,35924,1,0,0:0:0:0:
320,192,35924,1,0,0:0:0:0:
64,192,35999,1,0,0:0:0:0:
448,192,36074,1,0,0:0:0:0:
320,192,36074,1,0,0:0:0:0:
192,192,36149,1,0,0:0:0:0:
448,192,36224,1,0,0:0:0:0:
64,192,36224,1,0,0:0:0:0:
320,192,36299,1,0,0:0:0:0:
192,192,36374,1,0,0:0:0:0:
64,192,36374,1,0,0:0:0:0:
320,192,36449,1,0,0:0:0:0:
64,192,36524,1,0,0:0:0:0:
448,192,36524,1,0,0:0:0:0:
192,192,36599,1,0,0:0:0:0:
320,192,36674,1,0,0:0:0:0:
448,192,36674,1,0,0:0:0:0:
192,192,36749,1,0,0:0:0:0:
320,192,36824,1,0,0:0:0:0:
64,192,36824,1,0,0:0:0:0:
192,192,36899,1,0,0:0:0:0:
320,192,36974,1,0,0:0:0:0:
448,192,37049,1,0,0:0:0:0:
64,192,37124,1,0,0:0:0:0:
192,192,37124,1,0,0:0:0:0:
448,192,37199,1,0,0:0:0:0:
320,192,37274,1,0,0:0:0:0:
192,192,37349,1,0,0:0:0:0:
64,192,37424,1,0,0:0:0:0:
448,192,37424,1,0,0:0:0:0:
320,192,37499,1,0,0:0:0:0:
64,192,37574,1,0,0:0:0:0:
192,192,37649,1,0,0:0:0:0:
320,192,37724,1,0,0:0:0:0:
448,192,37724,1,0,0:0:0:0:
64,192,37799,1,0,0:0:0:0:
448,192,37874,1,0,0:0:0:0:
320,192,37874,1,0,0:0:0:0:
192,192,37949,1,0,0:0:0:0:
64,192,38024,1,0,0:0:0:0:
448,192,38024,1,0,0:0:0:0:
320,192,38099,1,0,0:0:0:0:
64,192,38174,1,0,0:0:0:0:
192,192,38249,1,0,0:0:0:0:
448,192,38324,1,0,0:0:0:0:
320,192,38324,1,0,0:0:0:0:
192,192,38399,1,0,0:0:0:0:
64,192,38474,1,0,0:0:0:0:
448,192,38474,1,0,0:0:0:0:
320,192,38549,1,0,0:0:0:0:
64,192,38624,1,0,0:0:0:0:
192,192,38624,1,0,0:0:0:0:
64,192,38774,1,0,0:0:0:0:
192,192,38774,1,0,0:0:0:0:
448,192,38924,1,0,0:0:0:0:
320,192,38924,1,0,0:0:0:0:
64,192,38924,1,0,0:0:0:0:
448,192,39074,1,0,0:0:0:0:
192,192,39074,1,0,0:0:0:0:
320,192,39224,1,0,0:0:0:0:
192,192,39224,1,0,0:0:0:0:
448,192,39374,1,0,0:0:0:0:
192,192,39374,1,0,0:0:0:0:
320,192,39524,1,0,0:0:0:0:
64,192,39524,1,0,0:0:0:0:
448,192,39524,1,0,0:0:0:0:
64,192,39674,1,0,0:0:0:0:
320,192,39674,1,0,0:0:0:0:
192,192,39824,1,0,0:0:0:0:
64,192,39824,1,0,0:0:0:0:
448,192,39824,1,0,0:0:0:0:
320,192,39899,1,0,0:0:0:0:
192,192,39974,1,0,0:0:0:0:
64,192,40049,1,0,0:0:0:0:
448,192,40124,1,0,0:0:0:0:
320,192,40124,1,0,0:0:0:0:
64,192,40199,1,0,0:0:0:0:
448,192,40274,1,0,0:0:0:0:
192,192,40274,1,0,0:0:0:0:
320,192,40349,1,0,0:0:0:0:
64,192,40424,1,0,0:0:0:0:
192,192,40424,1,0,0:0:0:0:
448,192,40499,1,0,0:0:0:0:
64,192,40574,1,0,0:0:0:0:
320,192,40574,1,0,0:0:0:0:
192,192,40649,1,0,0:0:0:0:
448,192,40724,1,0,0:0:0:0:
320,192,40724,1,0,0:0:0:0:
64,192,40799,1,0,0:0:0:0:
448,192,40874,1,0,0:0:0:0:
192,192,40874,1,0,0:0:0:0:
320,192,40949,1,0,0:0:0:0:
64,192,41024,1,0,0:0:0:0:
192,192,41024,1,0,0:0:0:0:
448,192,41099,1,0,0:0:0:0:
192,192,41174,1,0,0:0:0:0:
320,192,41174,1,0,0:0:0:0:
64,192,41249,1,0,0:0:0:0:
448,192,41324,1,0,0:0:0:0:
320,192,41324,1,0,0:0:0:0:
192,192,41399,1,0,0:0:0:0:
448,192,41474,1,0,0:0:0:0:
320,192,41474,1,0,0:0:0:0:
192,192,41549,1,0,0:0:0:0:
448,192,41624,1,0,0:0:0:0:
64,192,41624,1,0,0:0:0:0:
320,192,41699,1,0,0:0:0:0:
192,192,41774,1,0,0:0:0:0:
64,192,41849,1,0,0:0:0:0:
448,192,41924,1,0,0:0:0:0:
320,192,41924,1,0,0:0:0:0:
192,192,41999,1,0,0:0:0:0:
448,192,42074,1,0,0:0:0:0:
320,192,42074,1,0,0:0:0:0:
192,192,42149,1,0,0:0:0:0:
448,192,42224,1,0,0:0:0:0:
64,192,42224,1,0,0:0:0:0:
320,192,42299,1,0,0:0:0:0:
64,192,42374,1,0,0:0:0:0:
192,192,42449,1,0,0:0:0:0:
448,192,42524,1,0,0:0:0:0:
320,192,42524,1,0,0:0:0:0:
192,192,42599,1,0,0:0:0:0:
448,192,42674,1,0,0:0:0:0:
64,192,42674,1,0,0:0:0:0:
320,192,42749,1,0,0:0:0:0:
64,192,42824,1,0,0:0:0:0:
192,192,42824,1,0,0:0:0:0:
320,192,42899,1,0,0:0:0:0:
448,192,42974,1,0,0:0:0:0:
192,192,43049,1,0,0:0:0:0:
448,192,43124,1,0,0:0:0:0:
320,192,43124,1,0,0:0:0:0:
192,192,43199,1,0,0:0:0:0:
320,192,43274,1,0,0:0:0:0:
64,192,43274,1,0,0:0:0:0:
448,192,43349,1,0,0:0:0:0:
64,192,43424,1,0,0:0:0:0:
192,192,43424,1,0,0:0:0:0:
320,192,44324,1,0,0:0:0:0:
192,192,44324,1,0,0:0:0:0:
320,192,44474,1,0,0:0:0:0:
192,192,44474,1,0,0:0:0:0:
320,192,44624,1,0,0:0:0:0:
64,192,44624,1,0,0:0:0:0:
448,192,44624,1,0,0:0:0:0:
192,192,44699,1,0,0:0:0:0:
448,192,44774,1,0,0:0:0:0:
320,192,44849,1,0,0:0:0:0:
64,192,44924,1,0,0:0:0:0:
192,192,44924,1,0,0:0:0:0:
320,192,44999,1,0,0:0:0:0:
64,192,45074,1,0,0:0:0:0:
192,192,45074,1,0,0:0:0:0:
320,192,45149,1,0,0:0:0:0:
64,192,45224,1,0,0:0:0:0:
448,192,45224,1,0,0:0:0:0:
192,192,45299,1,0,0:0:0:0:
320,192,45374,1,0,0:0:0:0:
192,192,45449,1,0,0:0:0:0:
448,192,45524,1,0,0:0:0:0:
320,192,45524,1,0,0:0:0:0:
64,192,45599,1,0,0:0:0:0:
448,192,45674,1,0,0:0:0:0:
320,192,45674,1,0,0:0:0:0:
64,192,45749,1,0,0:0:0:0:
320,192,45824,1,0,0:0:0:0:
192,192,45824,1,0,0:0:0:0:
448,192,45899,1,0,0:0:0:0:
64,192,45974,1,0,0:0:0:0:
192,192,46049,1,0,0:0:0:0:
448,192,46124,1,0,0:0:0:0:
320,192,46124,1,0,0:0:0:0:
192,192,46199,1,0,0:0:0:0:
320,192,46274,1,0,0:0:0:0:
192,192,46349,1,0,0:0:0:0:
320,192,46424,1,0,0:0:0:0:
64,192,46424,1,0,0:0:0:0:
448,192,46499,1,0,0:0:0:0:
64,192,46574,1,0,0:0:0:0:
192,192,46574,1,0,0:0:0:0:
448,192,46649,1,0,0:0:0:0:
320,192,46649,1,0,0:0:0:0:
64,192,46724,1,0,0:0:0:0:
192,192,46724,1,0,0:0:0:0:
448,192,46799,1,0,0:0:0:0:
320,192,46874,1,0,0:0:0:0:
64,192,46874,1,0,0:0:0:0:
192,192,46949,1,0,0:0:0:0:
448,192,47024,1,0,0:0:0:0:
320,192,47024,1,0,0:0:0:0:
64,192,47099,1,0,0:0:0:0:
192,192,47174,1,0,0:0:0:0:
320,192,47249,1,0,0:0:0:0:
64,192,47324,1,0,0:0:0:0:
448,192,47324,1,0,0:0:0:0:
192,192,47399,1,0,0:0:0:0:
448,192,47474,1,0,0:0:0:0:
320,192,47474,1,0,0:0:0:0:
192,192,47549,1,0,0:0:0:0:
448,192,47624,1,0,0:0:0:0:
64,192,47624,1,0,0:0:0:0:
320,192,47699,1,0,0:0:0:0:
192,192,47774,1,0,0:0:0:0:
64,192,47849,1,0,0:0:0:0:
320,192,47924,1,0,0:0:0:0:
448,192,47924,1,0,0:0:0:0:
192,192,47999,1,0,0:0:0:0:
448,192,48074,1,0,0:0:0:0:
320,192,48074,1,0,0:0:0:0:
192,192,48149,1,0,0:0:0:0:
448,192,48224,1,0,0:0:0:0:
64,192,48224,1,0,0:0:0:0:
320,192,48299,1,0,0:0:0:0:
64,192,48374,1,0,0:0:0:0:
192,192,48449,1,0,0:0:0:0:
320,192,48524,1,0,0:0:0:0:
448,192,48524,1,0,0:0:0:0:
192,192,48599,1,0,0:0:0:0:
64,192,48674,1,0,0:0:0:0:
320,192,48749,1,0,0:0:0:0:
192,192,48824,1,0,0:0:0:0:
64,192,48824,1,0,0:0:0:0:
320,192,48899,1,0,0:0:0:0:
448,192,48974,1,0,0:0:0:0:
64,192,49049,1,0,0:0:0:0:
320,192,49124,1,0,0:0:0:0:
448,192,49124,1,0,0:0:0:0:
192,192,49199,1,0,0:0:0:0:
64,192,49274,1,0,0:0:0:0:
320,192,49349,1,0,0:0:0:0:
448,192,49424,1,0,0:0:0:0:
192,192,49424,1,0,0:0:0:0:
64,192,49424,1,0,0:0:0:0:
320,192,49574,1,0,0:0:0:0:
64,192,49724,1,0,0:0:0:0:
192,192,49724,1,0,0:0:0:0:
448,192,49724,1,0,0:0:0:0:
448,192,49874,1,0,0:0:0:0:
192,192,49874,1,0,0:0:0:0:
64,192,50024,1,0,0:0:0:0:
320,192,50024,1,0,0:0:0:0:
448,192,50024,1,0,0:0:0:0:
192,192,50174,1,0,0:0:0:0:
320,192,50249,1,0,0:0:0:0:
448,192,50249,1,0,0:0:0:0:
192,192,50324,1,0,0:0:0:0:
64,192,50324,1,0,0:0:0:0:
320,192,50474,1,0,0:0:0:0:
448,192,50474,1,0,0:0:0:0:
192,192,50624,1,0,0:0:0:0:
448,192,50624,1,0,0:0:0:0:
320,192,50624,1,0,0:0:0:0:
192,192,50774,1,0,0:0:0:0:
64,192,50924,1,0,0:0:0:0:
448,192,50924,1,0,0:0:0:0:
320,192,50924,1,0,0:0:0:0:
320,192,51074,1,0,0:0:0:0:
64,192,51224,1,0,0:0:0:0:
448,192,51224,1,0,0:0:0:0:
192,192,51224,1,0,0:0:0:0:
64,192,51374,1,0,0:0:0:0:
320,192,51374,1,0,0:0:0:0:
192,192,51524,1,0,0:0:0:0:
64,192,51524,1,0,0:0:0:0:
448,192,51524,1,0,0:0:0:0:
192,192,51674,1,0,0:0:0:0:
64,192,51824,1,0,0:0:0:0:
448,192,51824,1,0,0:0:0:0:
320,192,51824,1,0,0:0:0:0:
320,192,51974,1,0,0:0:0:0:
448,192,51974,1,0,0:0:0:0:
192,192,52124,1,0,0:0:0:0:
64,192,52124,1,0,0:0:0:0:
448,192,52124,1,0,0:0:0:0:
192,192,52274,1,0,0:0:0:0:
64,192,52274,1,0,0:0:0:0:
320,192,52424,1,0,0:0:0:0:
448,192,52424,1,0,0:0:0:0:
64,192,52424,1,0,0:0:0:0:
320,192,52574,1,0,0:0:0:0:
448,192,52574,1,0,0:0:0:0:
192,192,52649,1,0,0:0:0:0:
320,192,52724,1,0,0:0:0:0:
64,192,52724,1,0,0:0:0:0:
448,192,52724,1,0,0:0:0:0:
192,192,52874,1,0,0:0:0:0:
64,192,52874,1,0,0:0:0:0:
448,192,53024,1,0,0:0:0:0:
320,192,53024,1,0,0:0:0:0:
64,192,53099,1,0,0:0:0:0:
192,192,53099,1,0,0:0:0:0:
448,192,53174,1,0,0:0:0:0:
320,192,53174,1,0,0:0:0:0:
64,192,53249,1,0,0:0:0:0:
192,192,53249,1,0,0:0:0:0:
448,192,53324,1,0,0:0:0:0:
320,192,53324,1,0,0:0:0:0:
64,192,53399,1,0,0:0:0:0:
192,192,53399,1,0,0:0:0:0:
448,192,53474,1,0,0:0:0:0:
320,192,53474,1,0,0:0:0:0:
64,192,53549,1,0,0:0:0:0:
192,192,53549,1,0,0:0:0:0:
448,192,53624,1,0,0:0:0:0:
320,192,53624,1,0,0:0:0:0:
64,192,53699,1,0,0:0:0:0:
192,192,53699,1,0,0:0:0:0:
448,192,53774,1,0,0:0:0:0:
320,192,53774,1,0,0:0:0:0:
64,192,53849,1,0,0:0:0:0:
192,192,53849,1,0,0:0:0:0:
448,192,53924,1,0,0:0:0:0:
320,192,53924,1,0,0:0:0:0:
192,192,53999,1,0,0:0:0:0:
64,192,53999,1,0,0:0:0:0:
448,192,54074,1,0,0:0:0:0:
320,192,54074,1,0,0:0:0:0:
192,192,54149,1,0,0:0:0:0:
64,192,54149,1,0,0:0:0:0:
448,192,54224,1,0,0:0:0:0:
320,192,54224,1,0,0:0:0:0:
448,192,54524,128,0,55124:0:0:0:0:
320,192,54524,128,0,55124:0:0:0:0:
320,192,55574,1,0,0:0:0:0:
192,192,55724,1,0,0:0:0:0:
448,192,55874,1,0,0:0:0:0:
64,192,56024,1,0,0:0:0:0:
320,192,56174,1,0,0:0:0:0:
64,192,56324,1,0,0:0:0:0:
192,192,56474,128,0,56774:0:0:0:0:
448,192,56474,128,0,56774:0:0:0:0:
320,192,56774,1,0,0:0:0:0:
192,192,56924,1,0,0:0:0:0:
192,192,57074,1,0,0:0:0:0:
320,192,57224,1,0,0:0:0:0:
64,192,57374,1,0,0:0:0:0:
320,192,57524,1,0,0:0:0:0:
192,192,57674,128,0,57974:0:0:0:0:
448,192,57974,1,0,0:0:0:0:
320,192,58724,1,0,0:0:0:0:
320,192,58874,128,0,59174:0:0:0:0:
64,192,59174,1,0,0:0:0:0:
192,192,59324,1,0,0:0:0:0:
192,192,59474,128,0,59774:0:0:0:0:
448,192,59774,1,0,0:0:0:0:
320,192,59924,1,0,0:0:0:0:
320,192,60074,128,0,60374:0:0:0:0:
64,192,60374,1,0,0:0:0:0:
448,192,60374,1,0,0:0:0:0:
192,192,60524,1,0,0:0:0:0:
448,192,60674,1,0,0:0:0:0:
192,192,60674,1,0,0:0:0:0:
192,192,60974,1,0,0:0:0:0:
448,192,60974,1,0,0:0:0:0:
64,192,61124,1,0,0:0:0:0:
320,192,61124,1,0,0:0:0:0:
64,192,61274,128,0,61574:0:0:0:0:
320,192,61274,128,0,61574:0:0:0:0:
192,192,61574,1,0,0:0:0:0:
192,192,61724,1,0,0:0:0:0:
320,192,61874,1,0,0:0:0:0:
320,192,62174,1,0,0:0:0:0:
192,192,62324,1,0,0:0:0:0:
64,192,62474,128,0,62774:0:0:0:0:
320,192,62624,1,0,0:0:0:0:
448,192,62624,1,0,0:0:0:0:
320,192,62774,1,0,0:0:0:0:
448,192,62774,1,0,0:0:0:0:
448,192,63074,1,0,0:0:0:0:
320,192,63074,1,0,0:0:0:0:
448,192,63374,1,0,0:0:0:0:
320,192,63374,1,0,0:0:0:0:
448,192,63524,1,0,0:0:0:0:
192,192,63524,1,0,0:0:0:0:
64,192,63674,1,0,0:0:0:0:
192,192,63674,1,0,0:0:0:0:
64,192,63824,1,0,0:0:0:0:
448,192,63824,1,0,0:0:0:0:
320,192,63824,1,0,0:0:0:0:
320,192,64124,1,0,0:0:0:0:
64,192,64124,1,0,0:0:0:0:
448,192,64124,1,0,0:0:0:0:
64,192,64424,1,0,0:0:0:0:
448,192,64424,1,0,0:0:0:0:
320,192,64424,1,0,0:0:0:0:
320,192,64649,1,0,0:0:0:0:
448,192,64649,1,0,0:0:0:0:
64,192,64724,1,0,0:0:0:0:
192,192,64724,1,0,0:0:0:0:
64,192,64874,1,0,0:0:0:0:
320,192,64874,1,0,0:0:0:0:
192,192,64874,1,0,0:0:0:0:
448,192,65024,1,0,0:0:0:0:
64,192,65024,1,0,0:0:0:0:
192,192,65024,1,0,0:0:0:0:
448,192,65324,1,0,0:0:0:0:
64,192,65324,1,0,0:0:0:0:
192,192,65324,1,0,0:0:0:0:
192,192,65624,1,0,0:0:0:0:
64,192,65624,1,0,0:0:0:0:
448,192,65624,1,0,0:0:0:0:
64,192,65849,1,0,0:0:0:0:
192,192,65849,1,0,0:0:0:0:
448,192,65924,1,0,0:0:0:0:
320,192,65924,1,0,0:0:0:0:
64,192,66074,1,0,0:0:0:0:
320,192,66074,1,0,0:0:0:0:
448,192,66074,1,0,0:0:0:0:
320,192,66224,1,0,0:0:0:0:
448,192,66224,1,0,0:0:0:0:
192,192,66224,1,0,0:0:0:0:
448,192,66524,1,0,0:0:0:0:
192,192,66524,1,0,0:0:0:0:
320,192,66524,1,0,0:0:0:0:
192,192,66824,1,0,0:0:0:0:
448,192,66824,1,0,0:0:0:0:
320,192,66824,1,0,0:0:0:0:
320,192,67049,1,0,0:0:0:0:
448,192,67049,1,0,0:0:0:0:
192,192,67124,1,0,0:0:0:0:
64,192,67124,1,0,0:0:0:0:
320,192,67274,1,0,0:0:0:0:
64,192,67274,1,0,0:0:0:0:
192,192,67274,1,0,0:0:0:0:
320,192,67424,1,0,0:0:0:0:
448,192,67424,1,0,0:0:0:0:
64,192,67424,1,0,0:0:0:0:
320,192,67724,1,0,0:0:0:0:
448,192,67724,1,0,0:0:0:0:
64,192,67724,1,0,0:0:0:0:
320,192,68024,1,0,0:0:0:0:
64,192,68024,1,0,0:0:0:0:
448,192,68024,1,0,0:0:0:0:
448,192,68249,1,0,0:0:0:0:
320,192,68249,1,0,0:0:0:0:
192,192,68324,1,0,0:0:0:0:
64,192,68324,1,0,0:0:0:0:
320,192,68474,1,0,0:0:0:0:
64,192,68474,1,0,0:0:0:0:
192,192,68474,1,0,0:0:0:0:
64,192,68624,1,0,0:0:0:0:
448,192,68624,1,0,0:0:0:0:
320,192,68624,1,0,0:0:0:0:
448,192,68774,1,0,0:0:0:0:
192,192,68774,1,0,0:0:0:0:
192,192,68924,1,0,0:0:0:0:
64,192,68924,1,0,0:0:0:0:
448,192,69074,1,0,0:0:0:0:
64,192,69074,1,0,0:0:0:0:
320,192,69074,1,0,0:0:0:0:
320,192,69224,1,0,0:0:0:0:
448,192,69224,1,0,0:0:0:0:
64,192,69374,1,0,0:0:0:0:
192,192,69374,1,0,0:0:0:0:
448,192,69374,1,0,0:0:0:0:
320,192,69449,1,0,0:0:0:0:
64,192,69524,1,0,0:0:0:0:
192,192,69524,1,0,0:0:0:0:
64,192,69674,1,0,0:0:0:0:
448,192,69674,1,0,0:0:0:0:
320,192,69674,1,0,0:0:0:0:
64,192,69824,1,0,0:0:0:0:
448,192,69824,1,0,0:0:0:0:
320,192,69824,1,0,0:0:0:0:
448,192,69974,1,0,0:0:0:0:
192,192,69974,1,0,0:0:0:0:
64,192,70124,1,0,0:0:0:0:
192,192,70124,1,0,0:0:0:0:
448,192,70274,1,0,0:0:0:0:
64,192,70274,1,0,0:0:0:0:
320,192,70274,1,0,0:0:0:0:
320,192,70424,1,0,0:0:0:0:
448,192,70424,1,0,0:0:0:0:
192,192,70574,1,0,0:0:0:0:
64,192,70574,1,0,0:0:0:0:
448,192,70574,1,0,0:0:0:0:
320,192,70649,1,0,0:0:0:0:
64,192,70724,1,0,0:0:0:0:
192,192,70724,1,0,0:0:0:0:
64,192,70874,1,0,0:0:0:0:
192,192,70874,1,0,0:0:0:0:
448,192,71024,1,0,0:0:0:0:
320,192,71024,1,0,0:0:0:0:
64,192,71099,1,0,0:0:0:0:
192,192,71099,1,0,0:0:0:0:
448,192,71174,1,0,0:0:0:0:
320,192,71174,1,0,0:0:0:0:
64,192,71249,1,0,0:0:0:0:
192,192,71249,1,0,0:0:0:0:
448,192,71324,1,0,0:0:0:0:
320,192,71324,1,0,0:0:0:0:
64,192,71399,1,0,0:0:0:0:
192,192,71399,1,0,0:0:0:0:
448,192,71474,1,0,0:0:0:0:
320,192,71474,1,0,0:0:0:0:
64,192,71549,1,0,0:0:0:0:
192,192,71549,1,0,0:0:0:0:
448,192,71624,1,0,0:0:0:0:
320,192,71624,1,0,0:0:0:0:
64,192,71699,1,0,0:0:0:0:
192,192,71699,1,0,0:0:0:0:
320,192,71774,1,0,0:0:0:0:
448,192,71774,1,0,0:0:0:0:
64,192,71849,1,0,0:0:0:0:
192,192,71849,1,0,0:0:0:0:
448,192,71924,1,0,0:0:0:0:
320,192,71924,1,0,0:0:0:0:
64,192,71999,1,0,0:0:0:0:
192,192,71999,1,0,0:0:0:0:
448,192,72074,1,0,0:0:0:0:
320,192,72074,1,0,0:0:0:0:
64,192,72149,1,0,0:0:0:0:
192,192,72149,1,0,0:0:0:0:
448,192,72224,1,0,0:0:0:0:
320,192,72224,1,0,0:0:0:0:
64,192,72299,1,0,0:0:0:0:
192,192,72299,1,0,0:0:0:0:
448,192,72374,1,0,0:0:0:0:
320,192,72374,1,0,0:0:0:0:
64,192,72449,1,0,0:0:0:0:
192,192,72449,1,0,0:0:0:0:
448,192,72524,1,0,0:0:0:0:
320,192,72524,1,0,0:0:0:0:
64,192,72599,1,0,0:0:0:0:
192,192,72599,1,0,0:0:0:0:
448,192,72674,1,0,0:0:0:0:
320,192,72674,1,0,0:0:0:0:
64,192,72749,1,0,0:0:0:0:
192,192,72749,1,0,0:0:0:0:
448,192,72824,1,0,0:0:0:0:
320,192,72824,1,0,0:0:0:0:
64,192,72899,1,0,0:0:0:0:
192,192,72899,1,0,0:0:0:0:
448,192,72974,1,0,0:0:0:0:
320,192,72974,1,0,0:0:0:0:
64,192,73049,1,0,0:0:0:0:
192,192,73049,1,0,0:0:0:0:
448,192,73124,1,0,0:0:0:0:
320,192,73124,1,0,0:0:0:0:
192,192,73199,1,0,0:0:0:0:
64,192,73199,1,0,0:0:0:0:
448,192,73274,1,0,0:0:0:0:
320,192,73274,1,0,0:0:0:0:
192,192,73349,1,0,0:0:0:0:
64,192,73349,1,0,0:0:0:0:
448,192,73424,1,0,0:0:0:0:
320,192,73424,1,0,0:0:0:0:
448,192,73724,1,0,0:0:0:0:
64,192,73724,1,0,0:0:0:0:
192,192,73724,1,0,0:0:0:0:
192,192,74024,1,0,0:0:0:0:
64,192,74024,1,0,0:0:0:0:
320,192,74024,1,0,0:0:0:0:
64,192,74249,1,0,0:0:0:0:
192,192,74249,1,0,0:0:0:0:
448,192,74324,1,0,0:0:0:0:
320,192,74324,1,0,0:0:0:0:
64,192,74474,1,0,0:0:0:0:
320,192,74474,1,0,0:0:0:0:
448,192,74474,1,0,0:0:0:0:
64,192,74624,1,0,0:0:0:0:
448,192,74624,1,0,0:0:0:0:
320,192,74624,1,0,0:0:0:0:
448,192,74924,1,0,0:0:0:0:
320,192,74924,1,0,0:0:0:0:
192,192,74924,1,0,0:0:0:0:
64,192,75224,1,0,0:0:0:0:
192,192,75224,1,0,0:0:0:0:
448,192,75224,1,0,0:0:0:0:
320,192,75449,1,0,0:0:0:0:
448,192,75449,1,0,0:0:0:0:
64,192,75524,1,0,0:0:0:0:
192,192,75524,1,0,0:0:0:0:
448,192,75674,1,0,0:0:0:0:
64,192,75674,1,0,0:0:0:0:
192,192,75674,1,0,0:0:0:0:
448,192,75824,1,0,0:0:0:0:
192,192,75824,1,0,0:0:0:0:
64,192,75824,1,0,0:0:0:0:
64,192,76124,1,0,0:0:0:0:
320,192,76124,1,0,0:0:0:0:
448,192,76124,1,0,0:0:0:0:
448,192,76424,1,0,0:0:0:0:
192,192,76424,1,0,0:0:0:0:
320,192,76424,1,0,0:0:0:0:
64,192,76649,1,0,0:0:0:0:
192,192,76649,1,0,0:0:0:0:
448,192,76724,1,0,0:0:0:0:
320,192,76724,1,0,0:0:0:0:
64,192,76874,1,0,0:0:0:0:
448,192,76874,1,0,0:0:0:0:
320,192,76874,1,0,0:0:0:0:
320,192,77024,1,0,0:0:0:0:
64,192,77024,1,0,0:0:0:0:
448,192,77024,1,0,0:0:0:0:
64,192,77324,1,0,0:0:0:0:
192,192,77324,1,0,0:0:0:0:
320,192,77324,1,0,0:0:0:0:
64,192,77624,1,0,0:0:0:0:
320,192,77624,1,0,0:0:0:0:
448,192,77624,1,0,0:0:0:0:
320,192,77849,1,0,0:0:0:0:
448,192,77849,1,0,0:0:0:0:
64,192,77924,1,0,0:0:0:0:
192,192,77924,1,0,0:0:0:0:
448,192,78074,1,0,0:0:0:0:
64,192,78074,1,0,0:0:0:0:
192,192,78074,1,0,0:0:0:0:
448,192,78224,1,0,0:0:0:0:
192,192,78224,1,0,0:0:0:0:
64,192,78224,1,0,0:0:0:0:
448,192,78374,1,0,0:0:0:0:
320,192,78374,1,0,0:0:0:0:
64,192,78524,1,0,0:0:0:0:
320,192,78524,1,0,0:0:0:0:
64,192,78674,1,0,0:0:0:0:
192,192,78674,1,0,0:0:0:0:
192,192,78824,1,0,0:0:0:0:
448,192,78824,1,0,0:0:0:0:
320,192,78824,1,0,0:0:0:0:
448,192,78974,1,0,0:0:0:0:
320,192,78974,1,0,0:0:0:0:
64,192,79049,1,0,0:0:0:0:
192,192,79049,1,0,0:0:0:0:
320,192,79124,1,0,0:0:0:0:
448,192,79124,1,0,0:0:0:0:
64,192,79274,1,0,0:0:0:0:
192,192,79274,1,0,0:0:0:0:
320,192,79424,1,0,0:0:0:0:
448,192,79424,1,0,0:0:0:0:
64,192,79424,1,0,0:0:0:0:
320,192,79574,1,0,0:0:0:0:
448,192,79574,1,0,0:0:0:0:
64,192,79724,1,0,0:0:0:0:
320,192,79724,1,0,0:0:0:0:
192,192,79874,1,0,0:0:0:0:
64,192,79874,1,0,0:0:0:0:
192,192,80024,1,0,0:0:0:0:
320,192,80024,1,0,0:0:0:0:
448,192,80024,1,0,0:0:0:0:
448,192,80174,1,0,0:0:0:0:
320,192,80174,1,0,0:0:0:0:
64,192,80249,1,0,0:0:0:0:
192,192,80249,1,0,0:0:0:0:
448,192,80324,1,0,0:0:0:0:
320,192,80324,1,0,0:0:0:0:
192,192,80474,1,0,0:0:0:0:
64,192,80474,1,0,0:0:0:0:
320,192,80624,1,0,0:0:0:0:
448,192,80624,1,0,0:0:0:0:
64,192,80699,1,0,0:0:0:0:
192,192,80699,1,0,0:0:0:0:
448,192,80774,1,0,0:0:0:0:
320,192,80774,1,0,0:0:0:0:
64,192,80849,1,0,0:0:0:0:
192,192,80849,1,0,0:0:0:0:
320,192,80924,1,0,0:0:0:0:
448,192,80924,1,0,0:0:0:0:
192,192,80999,1,0,0:0:0:0:
64,192,80999,1,0,0:0:0:0:
448,192,81074,1,0,0:0:0:0:
320,192,81074,1,0,0:0:0:0:
64,192,81149,1,0,0:0:0:0:
192,192,81149,1,0,0:0:0:0:
448,192,81224,1,0,0:0:0:0:
320,192,81224,1,0,0:0:0:0:
64,192,81299,1,0,0:0:0:0:
192,192,81299,1,0,0:0:0:0:
448,192,81374,1,0,0:0:0:0:
320,192,81374,1,0,0:0:0:0:
64,192,81449,1,0,0:0:0:0:
192,192,81449,1,0,0:0:0:0:
448,192,81524,1,0,0:0:0:0:
320,192,81524,1,0,0:0:0:0:
64,192,81599,1,0,0:0:0:0:
192,192,81599,1,0,0:0:0:0:
448,192,81674,1,0,0:0:0:0:
320,192,81674,1,0,0:0:0:0:
64,192,81749,1,0,0:0:0:0:
192,192,81749,1,0,0:0:0:0:
448,192,81824,1,0,0:0:0:0:
320,192,81824,1,0,0:0:0:0:
64,192,83024,1,0,0:0:0:0:
448,192,83024,1,0,0:0:0:0:
64,192,83174,1,0,0:0:0:0:
448,192,83174,1,0,0:0:0:0:
64,192,83474,1,0,0:0:0:0:
448,192,83474,1,0,0:0:0:0:
320,192,83774,1,0,0:0:0:0:
64,192,83774,1,0,0:0:0:0:
64,192,83924,1,0,0:0:0:0:
320,192,83924,1,0,0:0:0:0:
64,192,84074,1,0,0:0:0:0:
192,192,84074,1,0,0:0:0:0:
320,192,84224,1,0,0:0:0:0:
448,192,84224,1,0,0:0:0:0:
192,192,84299,1,0,0:0:0:0:
64,192,84374,1,0,0:0:0:0:
320,192,84374,1,0,0:0:0:0:
448,192,84449,1,0,0:0:0:0:
192,192,84524,1,0,0:0:0:0:
64,192,84524,1,0,0:0:0:0:
320,192,84599,1,0,0:0:0:0:
192,192,84674,1,0,0:0:0:0:
448,192,84674,1,0,0:0:0:0:
64,192,84749,1,0,0:0:0:0:
320,192,84824,1,0,0:0:0:0:
448,192,84824,1,0,0:0:0:0:
192,192,84899,1,0,0:0:0:0:
448,192,84974,1,0,0:0:0:0:
64,192,84974,1,0,0:0:0:0:
320,192,85049,1,0,0:0:0:0:
192,192,85124,1,0,0:0:0:0:
64,192,85124,1,0,0:0:0:0:
320,192,85199,1,0,0:0:0:0:
448,192,85274,1,0,0:0:0:0:
64,192,85274,1,0,0:0:0:0:
192,192,85349,1,0,0:0:0:0:
320,192,85424,1,0,0:0:0:0:
448,192,85424,1,0,0:0:0:0:
192,192,85499,1,0,0:0:0:0:
448,192,85574,1,0,0:0:0:0:
64,192,85574,1,0,0:0:0:0:
320,192,85649,1,0,0:0:0:0:
192,192,85724,1,0,0:0:0:0:
64,192,85724,1,0,0:0:0:0:
448,192,85799,1,0,0:0:0:0:
64,192,85874,1,0,0:0:0:0:
192,192,85874,1,0,0:0:0:0:
448,192,85949,1,0,0:0:0:0:
192,192,86024,1,0,0:0:0:0:
320,192,86024,1,0,0:0:0:0:
64,192,86099,1,0,0:0:0:0:
448,192,86174,1,0,0:0:0:0:
320,192,86174,1,0,0:0:0:0:
192,192,86249,1,0,0:0:0:0:
64,192,86324,1,0,0:0:0:0:
320,192,86324,1,0,0:0:0:0:
448,192,86399,1,0,0:0:0:0:
64,192,86474,1,0,0:0:0:0:
192,192,86474,1,0,0:0:0:0:
320,192,86549,1,0,0:0:0:0:
64,192,86624,1,0,0:0:0:0:
448,192,86624,1,0,0:0:0:0:
192,192,86699,1,0,0:0:0:0:
448,192,86774,1,0,0:0:0:0:
320,192,86774,1,0,0:0:0:0:
192,192,86849,1,0,0:0:0:0:
64,192,86924,1,0,0:0:0:0:
448,192,86924,1,0,0:0:0:0:
320,192,86999,1,0,0:0:0:0:
192,192,87074,1,0,0:0:0:0:
64,192,87074,1,0,0:0:0:0:
320,192,87149,1,0,0:0:0:0:
192,192,87224,1,0,0:0:0:0:
448,192,87224,1,0,0:0:0:0:
64,192,87299,1,0,0:0:0:0:
448,192,87374,1,0,0:0:0:0:
320,192,87374,1,0,0:0:0:0:
192,192,87449,1,0,0:0:0:0:
320,192,87524,1,0,0:0:0:0:
448,192,87524,1,0,0:0:0:0:
192,192,87599,1,0,0:0:0:0:
64,192,87674,1,0,0:0:0:0:
320,192,87674,1,0,0:0:0:0:
448,192,87749,1,0,0:0:0:0:
192,192,87824,1,0,0:0:0:0:
64,192,87824,1,0,0:0:0:0:
320,192,87899,1,0,0:0:0:0:
192,192,87974,1,0,0:0:0:0:
448,192,87974,1,0,0:0:0:0:
64,192,88049,1,0,0:0:0:0:
320,192,88124,1,0,0:0:0:0:
448,192,88124,1,0,0:0:0:0:
192,192,88199,1,0,0:0:0:0:
64,192,88274,1,0,0:0:0:0:
320,192,88349,1,0,0:0:0:0:
64,192,88424,1,0,0:0:0:0:
448,192,88424,1,0,0:0:0:0:
192,192,88499,1,0,0:0:0:0:
448,192,88574,1,0,0:0:0:0:
320,192,88649,1,0,0:0:0:0:
64,192,88724,1,0,0:0:0:0:
192,192,88724,1,0,0:0:0:0:
448,192,88799,1,0,0:0:0:0:
64,192,88874,1,0,0:0:0:0:
192,192,88874,1,0,0:0:0:0:
320,192,88949,1,0,0:0:0:0:
448,192,89024,1,0,0:0:0:0:
64,192,89024,1,0,0:0:0:0:
192,192,89099,1,0,0:0:0:0:
320,192,89174,1,0,0:0:0:0:
448,192,89249,1,0,0:0:0:0:
64,192,89324,1,0,0:0:0:0:
192,192,89324,1,0,0:0:0:0:
320,192,89399,1,0,0:0:0:0:
64,192,89474,1,0,0:0:0:0:
192,192,89474,1,0,0:0:0:0:
320,192,89549,1,0,0:0:0:0:
64,192,89624,1,0,0:0:0:0:
448,192,89624,1,0,0:0:0:0:
192,192,89699,1,0,0:0:0:0:
448,192,89774,1,0,0:0:0:0:
320,192,89774,1,0,0:0:0:0:
192,192,89849,1,0,0:0:0:0:
448,192,89924,1,0,0:0:0:0:
320,192,89924,1,0,0:0:0:0:
192,192,89999,1,0,0:0:0:0:
448,192,90074,1,0,0:0:0:0:
64,192,90074,1,0,0:0:0:0:
320,192,90149,1,0,0:0:0:0:
192,192,90224,1,0,0:0:0:0:
64,192,90224,1,0,0:0:0:0:
320,192,90299,1,0,0:0:0:0:
448,192,90374,1,0,0:0:0:0:
64,192,90374,1,0,0:0:0:0:
192,192,90449,1,0,0:0:0:0:
448,192,90524,1,0,0:0:0:0:
320,192,90524,1,0,0:0:0:0:
64,192,90599,1,0,0:0:0:0:
448,192,90674,1,0,0:0:0:0:
320,192,90674,1,0,0:0:0:0:
64,192,90749,1,0,0:0:0:0:
320,192,90824,1,0,0:0:0:0:
192,192,90824,1,0,0:0:0:0:
448,192,90899,1,0,0:0:0:0:
64,192,90974,1,0,0:0:0:0:
192,192,91049,1,0,0:0:0:0:
448,192,91124,1,0,0:0:0:0:
320,192,91124,1,0,0:0:0:0:
192,192,91199,1,0,0:0:0:0:
448,192,91274,1,0,0:0:0:0:
320,192,91274,1,0,0:0:0:0:
192,192,91349,1,0,0:0:0:0:
64,192,91424,1,0,0:0:0:0:
448,192,91424,1,0,0:0:0:0:
320,192,91499,1,0,0:0:0:0:
192,192,91574,1,0,0:0:0:0:
64,192,91649,1,0,0:0:0:0:
320,192,91724,1,0,0:0:0:0:
448,192,91724,1,0,0:0:0:0:
192,192,91799,1,0,0:0:0:0:
448,192,91874,1,0,0:0:0:0:
320,192,91874,1,0,0:0:0:0:
192,192,91949,1,0,0:0:0:0:
448,192,92024,1,0,0:0:0:0:
64,192,92024,1,0,0:0:0:0:
320,192,92099,1,0,0:0:0:0:
64,192,92174,1,0,0:0:0:0:
192,192,92174,1,0,0:0:0:0:
448,192,92249,1,0,0:0:0:0:
64,192,92324,1,0,0:0:0:0:
192,192,92324,1,0,0:0:0:0:
448,192,92399,1,0,0:0:0:0:
64,192,92474,1,0,0:0:0:0:
320,192,92474,1,0,0:0:0:0:
192,192,92549,1,0,0:0:0:0:
448,192,92624,1,0,0:0:0:0:
320,192,92624,1,0,0:0:0:0:
64,192,92699,1,0,0:0:0:0:
448,192,92774,1,0,0:0:0:0:
192,192,92774,1,0,0:0:0:0:
320,192,92849,1,0,0:0:0:0:
64,192,92924,1,0,0:0:0:0:
192,192,92924,1,0,0:0:0:0:
448,192,92999,1,0,0:0:0:0:
320,192,93074,1,0,0:0:0:0:
192,192,93149,1,0,0:0:0:0:
64,192,93224,1,0,0:0:0:0:
448,192,93224,1,0,0:0:0:0:
320,192,93299,1,0,0:0:0:0:
192,192,93374,1,0,0:0:0:0:
64,192,93374,1,0,0:0:0:0:
320,192,93449,1,0,0:0:0:0:
192,192,93524,1,0,0:0:0:0:
64,192,93524,1,0,0:0:0:0:
320,192,93599,1,0,0:0:0:0:
64,192,93674,1,0,0:0:0:0:
448,192,93674,1,0,0:0:0:0:
192,192,93749,1,0,0:0:0:0:
64,192,93824,1,0,0:0:0:0:
448,192,93824,1,0,0:0:0:0:
192,192,93899,1,0,0:0:0:0:
320,192,93974,1,0,0:0:0:0:
448,192,94049,1,0,0:0:0:0:
192,192,94124,1,0,0:0:0:0:
64,192,94124,1,0,0:0:0:0:
320,192,94199,1,0,0:0:0:0:
448,192,94199,1,0,0:0:0:0:
64,192,94274,1,0,0:0:0:0:
192,192,94349,1,0,0:0:0:0:
320,192,94424,1,0,0:0:0:0:
448,192,94424,1,0,0:0:0:0:
64,192,94499,1,0,0:0:0:0:
192,192,94499,1,0,0:0:0:0:
448,192,94574,1,0,0:0:0:0:
320,192,94574,1,0,0:0:0:0:
192,192,94649,1,0,0:0:0:0:
448,192,94724,1,0,0:0:0:0:
64,192,94724,1,0,0:0:0:0:
320,192,94799,1,0,0:0:0:0:
192,192,94874,1,0,0:0:0:0:
64,192,94949,1,0,0:0:0:0:
320,192,95024,1,0,0:0:0:0:
448,192,95024,1,0,0:0:0:0:
64,192,95099,1,0,0:0:0:0:
320,192,95174,1,0,0:0:0:0:
192,192,95174,1,0,0:0:0:0:
448,192,95249,1,0,0:0:0:0:
192,192,95324,1,0,0:0:0:0:
64,192,95324,1,0,0:0:0:0:
320,192,95399,1,0,0:0:0:0:
192,192,95474,1,0,0:0:0:0:
448,192,95474,1,0,0:0:0:0:
64,192,95549,1,0,0:0:0:0:
448,192,95624,1,0,0:0:0:0:
320,192,95624,1,0,0:0:0:0:
64,192,95699,1,0,0:0:0:0:
320,192,95774,1,0,0:0:0:0:
192,192,95774,1,0,0:0:0:0:
448,192,95849,1,0,0:0:0:0:
64,192,95924,1,0,0:0:0:0:
192,192,95924,1,0,0:0:0:0:
448,192,95999,1,0,0:0:0:0:
320,192,96074,1,0,0:0:0:0:
64,192,96074,1,0,0:0:0:0:
192,192,96149,1,0,0:0:0:0:
448,192,96224,1,0,0:0:0:0:
320,192,96224,1,0,0:0:0:0:
64,192,96299,1,0,0:0:0:0:
448,192,96374,1,0,0:0:0:0:
192,192,96374,1,0,0:0:0:0:
320,192,96449,1,0,0:0:0:0:
64,192,96524,1,0,0:0:0:0:
192,192,96524,1,0,0:0:0:0:
448,192,96599,1,0,0:0:0:0:
192,192,96674,1,0,0:0:0:0:
64,192,96674,1,0,0:0:0:0:
320,192,96749,1,0,0:0:0:0:
192,192,96824,1,0,0:0:0:0:
448,192,96824,1,0,0:0:0:0:
64,192,96899,1,0,0:0:0:0:
448,192,96974,1,0,0:0:0:0:
320,192,97049,1,0,0:0:0:0:
64,192,97124,1,0,0:0:0:0:
192,192,97124,1,0,0:0:0:0:
320,192,97199,1,0,0:0:0:0:
64,192,97274,1,0,0:0:0:0:
448,192,97274,1,0,0:0:0:0:
192,192,97349,1,0,0:0:0:0:
448,192,97424,1,0,0:0:0:0:
320,192,97424,1,0,0:0:0:0:
192,192,97499,1,0,0:0:0:0:
64,192,97574,1,0,0:0:0:0:
320,192,97574,1,0,0:0:0:0:
448,192,97649,1,0,0:0:0:0:
64,192,97724,1,0,0:0:0:0:
192,192,97724,1,0,0:0:0:0:
320,192,97799,1,0,0:0:0:0:
192,192,97874,1,0,0:0:0:0:
64,192,97949,1,0,0:0:0:0:
320,192,98024,1,0,0:0:0:0:
448,192,98024,1,0,0:0:0:0:
64,192,98099,1,0,0:0:0:0:
192,192,98174,1,0,0:0:0:0:
320,192,98249,1,0,0:0:0:0:
192,192,98324,1,0,0:0:0:0:
64,192,98324,1,0,0:0:0:0:
320,192,98399,1,0,0:0:0:0:
192,192,98474,1,0,0:0:0:0:
448,192,98474,1,0,0:0:0:0:
64,192,98549,1,0,0:0:0:0:
320,192,98624,1,0,0:0:0:0:
448,192,98624,1,0,0:0:0:0:
64,192,98699,1,0,0:0:0:0:
320,192,98774,1,0,0:0:0:0:
192,192,98774,1,0,0:0:0:0:
448,192,98849,1,0,0:0:0:0:
64,192,98924,1,0,0:0:0:0:
192,192,98924,1,0,0:0:0:0:
320,192,98999,1,0,0:0:0:0:
192,192,99074,1,0,0:0:0:0:
448,192,99074,1,0,0:0:0:0:
64,192,99149,1,0,0:0:0:0:
448,192,99224,1,0,0:0:0:0:
320,192,99224,1,0,0:0:0:0:
64,192,99299,1,0,0:0:0:0:
192,192,99374,1,0,0:0:0:0:
320,192,99449,1,0,0:0:0:0:
192,192,99524,1,0,0:0:0:0:
448,192,99524,1,0,0:0:0:0:
64,192,99599,1,0,0:0:0:0:
320,192,99674,1,0,0:0:0:0:
448,192,99674,1,0,0:0:0:0:
192,192,99749,1,0,0:0:0:0:
320,192,99824,1,0,0:0:0:0:
64,192,99824,1,0,0:0:0:0:
448,192,99899,1,0,0:0:0:0:
192,192,99974,1,0,0:0:0:0:
64,192,99974,1,0,0:0:0:0:
448,192,100049,1,0,0:0:0:0:
192,192,100124,1,0,0:0:0:0:
320,192,100124,1,0,0:0:0:0:
64,192,100199,1,0,0:0:0:0:
448,192,100274,1,0,0:0:0:0:
320,192,100274,1,0,0:0:0:0:
192,192,100349,1,0,0:0:0:0:
64,192,100424,1,0,0:0:0:0:
320,192,100424,1,0,0:0:0:0:
448,192,100499,1,0,0:0:0:0:
192,192,100574,1,0,0:0:0:0:
64,192,100574,1,0,0:0:0:0:
448,192,100649,1,0,0:0:0:0:
64,192,100724,1,0,0:0:0:0:
192,192,100724,1,0,0:0:0:0:
320,192,100799,1,0,0:0:0:0:
448,192,100874,1,0,0:0:0:0:
192,192,100949,1,0,0:0:0:0:
448,192,101024,1,0,0:0:0:0:
64,192,101024,1,0,0:0:0:0:
320,192,101099,1,0,0:0:0:0:
192,192,101174,1,0,0:0:0:0:
64,192,101174,1,0,0:0:0:0:
448,192,101249,1,0,0:0:0:0:
192,192,101324,1,0,0:0:0:0:
64,192,101324,1,0,0:0:0:0:
448,192,101399,1,0,0:0:0:0:
192,192,101474,1,0,0:0:0:0:
64,192,101474,1,0,0:0:0:0:
320,192,101549,1,0,0:0:0:0:
64,192,101624,1,0,0:0:0:0:
448,192,101624,1,0,0:0:0:0:
192,192,101699,1,0,0:0:0:0:
448,192,101774,1,0,0:0:0:0:
192,192,101849,1,0,0:0:0:0:
448,192,101924,1,0,0:0:0:0:
64,192,101924,1,0,0:0:0:0:
320,192,101999,1,0,0:0:0:0:
192,192,102074,1,0,0:0:0:0:
64,192,102074,1,0,0:0:0:0:
320,192,102149,1,0,0:0:0:0:
64,192,102224,1,0,0:0:0:0:
448,192,102224,1,0,0:0:0:0:
192,192,102299,1,0,0:0:0:0:
320,192,102374,1,0,0:0:0:0:
448,192,102449,1,0,0:0:0:0:
64,192,102524,1,0,0:0:0:0:
192,192,102524,1,0,0:0:0:0:
448,192,102599,1,0,0:0:0:0:
320,192,102674,1,0,0:0:0:0:
192,192,102749,1,0,0:0:0:0:
448,192,102824,1,0,0:0:0:0:
64,192,102824,1,0,0:0:0:0:
448,192,103049,1,0,0:0:0:0:
64,192,103049,1,0,0:0:0:0:
320,192,103124,1,0,0:0:0:0:
192,192,103124,1,0,0:0:0:0:
320,192,103424,1,0,0:0:0:0:
448,192,103424,1,0,0:0:0:0:
64,192,103424,1,0,0:0:0:0:
192,192,103499,1,0,0:0:0:0:
320,192,103574,1,0,0:0:0:0:
448,192,103574,1,0,0:0:0:0:
192,192,103649,1,0,0:0:0:0:
448,192,103724,1,0,0:0:0:0:
64,192,103724,1,0,0:0:0:0:
320,192,103799,1,0,0:0:0:0:
64,192,103874,1,0,0:0:0:0:
192,192,103949,1,0,0:0:0:0:
448,192,104024,1,0,0:0:0:0:
320,192,104024,1,0,0:0:0:0:
64,192,104099,1,0,0:0:0:0:
448,192,104174,1,0,0:0:0:0:
320,192,104249,1,0,0:0:0:0:
64,192,104324,1,0,0:0:0:0:
192,192,104324,1,0,0:0:0:0:
320,192,104399,1,0,0:0:0:0:
64,192,104474,1,0,0:0:0:0:
448,192,104474,1,0,0:0:0:0:
192,192,104549,1,0,0:0:0:0:
448,192,104624,1,0,0:0:0:0:
320,192,104624,1,0,0:0:0:0:
64,192,104699,1,0,0:0:0:0:
448,192,104774,1,0,0:0:0:0:
320,192,104849,1,0,0:0:0:0:
64,192,104924,1,0,0:0:0:0:
192,192,104924,1,0,0:0:0:0:
448,192,104999,1,0,0:0:0:0:
64,192,105074,1,0,0:0:0:0:
192,192,105149,1,0,0:0:0:0:
448,192,105224,1,0,0:0:0:0:
320,192,105224,1,0,0:0:0:0:
192,192,105299,1,0,0:0:0:0:
64,192,105374,1,0,0:0:0:0:
448,192,105374,1,0,0:0:0:0:
320,192,105449,1,0,0:0:0:0:
192,192,105524,1,0,0:0:0:0:
64,192,105524,1,0,0:0:0:0:
448,192,105599,1,0,0:0:0:0:
192,192,105674,1,0,0:0:0:0:
64,192,105674,1,0,0:0:0:0:
448,192,105749,1,0,0:0:0:0:
192,192,105824,1,0,0:0:0:0:
64,192,105824,1,0,0:0:0:0:
448,192,105899,1,0,0:0:0:0:
320,192,105974,1,0,0:0:0:0:
192,192,106049,1,0,0:0:0:0:
320,192,106124,1,0,0:0:0:0:
64,192,106124,1,0,0:0:0:0:
448,192,106199,1,0,0:0:0:0:
192,192,106274,1,0,0:0:0:0:
320,192,106349,1,0,0:0:0:0:
192,192,106424,1,0,0:0:0:0:
64,192,106424,1,0,0:0:0:0:
320,192,106499,1,0,0:0:0:0:
64,192,106574,1,0,0:0:0:0:
448,192,106574,1,0,0:0:0:0:
192,192,106649,1,0,0:0:0:0:
448,192,106724,1,0,0:0:0:0:
320,192,106724,1,0,0:0:0:0:
192,192,106799,1,0,0:0:0:0:
448,192,106874,1,0,0:0:0:0:
320,192,106874,1,0,0:0:0:0:
192,192,106949,1,0,0:0:0:0:
448,192,107024,1,0,0:0:0:0:
320,192,107024,1,0,0:0:0:0:
192,192,107099,1,0,0:0:0:0:
448,192,107174,1,0,0:0:0:0:
64,192,107174,1,0,0:0:0:0:
320,192,107249,1,0,0:0:0:0:
64,192,107324,1,0,0:0:0:0:
192,192,107324,1,0,0:0:0:0:
320,192,107399,1,0,0:0:0:0:
192,192,107474,1,0,0:0:0:0:
448,192,107474,1,0,0:0:0:0:
64,192,107549,1,0,0:0:0:0:
320,192,107624,1,0,0:0:0:0:
448,192,107624,1,0,0:0:0:0:
192,192,107699,1,0,0:0:0:0:
448,192,107774,1,0,0:0:0:0:
320,192,107774,1,0,0:0:0:0:
192,192,107849,1,0,0:0:0:0:
320,192,107924,1,0,0:0:0:0:
64,192,107924,1,0,0:0:0:0:
448,192,107999,1,0,0:0:0:0:
64,192,108074,1,0,0:0:0:0:
192,192,108149,1,0,0:0:0:0:
448,192,108224,1,0,0:0:0:0:
320,192,108224,1,0,0:0:0:0:
192,192,108299,1,0,0:0:0:0:
64,192,108374,1,0,0:0:0:0:
448,192,108374,1,0,0:0:0:0:
320,192,108449,1,0,0:0:0:0:
64,192,108524,1,0,0:0:0:0:
192,192,108524,1,0,0:0:0:0:
320,192,108599,1,0,0:0:0:0:
448,192,108674,1,0,0:0:0:0:
64,192,108674,1,0,0:0:0:0:
192,192,108749,1,0,0:0:0:0:
448,192,108824,1,0,0:0:0:0:
320,192,108824,1,0,0:0:0:0:
192,192,108899,1,0,0:0:0:0:
448,192,108974,1,0,0:0:0:0:
64,192,108974,1,0,0:0:0:0:
320,192,109049,1,0,0:0:0:0:
192,192,109124,1,0,0:0:0:0:
64,192,109124,1,0,0:0:0:0:
448,192,109199,1,0,0:0:0:0:
64,192,109274,1,0,0:0:0:0:
192,192,109274,1,0,0:0:0:0:
448,192,109349,1,0,0:0:0:0:
64,192,109424,1,0,0:0:0:0:
320,192,109424,1,0,0:0:0:0:
192,192,109499,1,0,0:0:0:0:
448,192,109574,1,0,0:0:0:0:
320,192,109574,1,0,0:0:0:0:
64,192,109649,1,0,0:0:0:0:
448,192,109724,1,0,0:0:0:0:
192,192,109724,1,0,0:0:0:0:
320,192,109799,1,0,0:0:0:0:
64,192,109874,1,0,0:0:0:0:
192,192,109874,1,0,0:0:0:0:
448,192,109949,1,0,0:0:0:0:
320,192,110024,1,0,0:0:0:0:
192,192,110024,1,0,0:0:0:0:
64,192,110099,1,0,0:0:0:0:
320,192,110174,1,0,0:0:0:0:
448,192,110174,1,0,0:0:0:0:
192,192,110249,1,0,0:0:0:0:
64,192,110324,1,0,0:0:0:0:
320,192,110324,1,0,0:0:0:0:
448,192,110399,1,0,0:0:0:0:
64,192,110474,1,0,0:0:0:0:
192,192,110549,1,0,0:0:0:0:
448,192,110624,1,0,0:0:0:0:
320,192,110624,1,0,0:0:0:0:
192,192,110699,1,0,0:0:0:0:
448,192,110774,1,0,0:0:0:0:
64,192,110774,1,0,0:0:0:0:
320,192,110849,1,0,0:0:0:0:
192,192,110924,1,0,0:0:0:0:
64,192,110924,1,0,0:0:0:0:
320,192,110999,1,0,0:0:0:0:
448,192,111074,1,0,0:0:0:0:
192,192,111149,1,0,0:0:0:0:
448,192,111224,1,0,0:0:0:0:
320,192,111224,1,0,0:0:0:0:
192,192,111299,1,0,0:0:0:0:
64,192,111374,1,0,0:0:0:0:
320,192,111449,1,0,0:0:0:0:
64,192,111524,1,0,0:0:0:0:
192,192,111524,1,0,0:0:0:0:
320,192,111599,1,0,0:0:0:0:
448,192,111674,1,0,0:0:0:0:
192,192,111749,1,0,0:0:0:0:
64,192,111824,1,0,0:0:0:0:
448,192,111824,1,0,0:0:0:0:
320,192,112124,1,0,0:0:0:0:
320,192,112424,1,0,0:0:0:0:
64,192,112724,1,0,0:0:0:0:
192,192,112724,1,0,0:0:0:0:
320,192,112799,1,0,0:0:0:0:
192,192,112874,1,0,0:0:0:0:
320,192,112949,1,0,0:0:0:0:
448,192,113024,1,0,0:0:0:0:
192,192,113024,1,0,0:0:0:0:
64,192,113099,1,0,0:0:0:0:
320,192,113174,1,0,0:0:0:0:
448,192,113174,1,0,0:0:0:0:
64,192,113249,1,0,0:0:0:0:
448,192,113324,1,0,0:0:0:0:
320,192,113324,1,0,0:0:0:0:
64,192,113399,1,0,0:0:0:0:
320,192,113474,1,0,0:0:0:0:
192,192,113474,1,0,0:0:0:0:
448,192,113549,1,0,0:0:0:0:
64,192,113624,1,0,0:0:0:0:
192,192,113624,1,0,0:0:0:0:
320,192,113699,1,0,0:0:0:0:
448,192,113774,1,0,0:0:0:0:
192,192,113849,1,0,0:0:0:0:
448,192,113924,1,0,0:0:0:0:
64,192,113924,1,0,0:0:0:0:
320,192,113999,1,0,0:0:0:0:
64,192,114074,1,0,0:0:0:0:
192,192,114074,1,0,0:0:0:0:
320,192,114149,1,0,0:0:0:0:
64,192,114224,1,0,0:0:0:0:
448,192,114224,1,0,0:0:0:0:
192,192,114299,1,0,0:0:0:0:
448,192,114374,1,0,0:0:0:0:
320,192,114449,1,0,0:0:0:0:
192,192,114524,1,0,0:0:0:0:
64,192,114524,1,0,0:0:0:0:
448,192,114599,1,0,0:0:0:0:
192,192,114674,1,0,0:0:0:0:
64,192,114674,1,0,0:0:0:0:
320,192,114749,1,0,0:0:0:0:
64,192,114824,1,0,0:0:0:0:
448,192,114824,1,0,0:0:0:0:
192,192,114899,1,0,0:0:0:0:
448,192,114974,1,0,0:0:0:0:
320,192,115049,1,0,0:0:0:0:
192,192,115124,1,0,0:0:0:0:
64,192,115124,1,0,0:0:0:0:
320,192,115199,1,0,0:0:0:0:
448,192,115274,1,0,0:0:0:0:
64,192,115274,1,0,0:0:0:0:
192,192,115349,1,0,0:0:0:0:
448,192,115424,1,0,0:0:0:0:
320,192,115424,1,0,0:0:0:0:
64,192,115499,1,0,0:0:0:0:
448,192,115574,1,0,0:0:0:0:
320,192,115649,1,0,0:0:0:0:
192,192,115724,1,0,0:0:0:0:
64,192,115724,1,0,0:0:0:0:
320,192,115799,1,0,0:0:0:0:
448,192,115874,1,0,0:0:0:0:
64,192,115874,1,0,0:0:0:0:
192,192,115949,1,0,0:0:0:0:
448,192,116024,1,0,0:0:0:0:
320,192,116024,1,0,0:0:0:0:
64,192,116099,1,0,0:0:0:0:
448,192,116174,1,0,0:0:0:0:
320,192,116249,1,0,0:0:0:0:
64,192,116324,1,0,0:0:0:0:
192,192,116324,1,0,0:0:0:0:
448,192,116399,1,0,0:0:0:0:
192,192,116474,1,0,0:0:0:0:
64,192,116474,1,0,0:0:0:0:
320,192,116549,1,0,0:0:0:0:
64,192,116624,1,0,0:0:0:0:
448,192,116624,1,0,0:0:0:0:
192,192,116699,1,0,0:0:0:0:
448,192,116774,1,0,0:0:0:0:
320,192,116849,1,0,0:0:0:0:
64,192,116924,1,0,0:0:0:0:
192,192,116924,1,0,0:0:0:0:
320,192,116999,1,0,0:0:0:0:
64,192,117074,1,0,0:0:0:0:
448,192,117074,1,0,0:0:0:0:
192,192,117149,1,0,0:0:0:0:
448,192,117224,1,0,0:0:0:0:
320,192,117224,1,0,0:0:0:0:
192,192,117299,1,0,0:0:0:0:
320,192,117374,1,0,0:0:0:0:
448,192,117374,1,0,0:0:0:0:
192,192,117449,1,0,0:0:0:0:
448,192,117524,1,0,0:0:0:0:
64,192,117524,1,0,0:0:0:0:
320,192,117599,1,0,0:0:0:0:
64,192,117674,1,0,0:0:0:0:
192,192,117749,1,0,0:0:0:0:
448,192,117824,1,0,0:0:0:0:
320,192,117824,1,0,0:0:0:0:
64,192,117899,1,0,0:0:0:0:
448,192,117974,1,0,0:0:0:0:
320,192,118049,1,0,0:0:0:0:
192,192,118124,1,0,0:0:0:0:
64,192,118124,1,0,0:0:0:0:
320,192,118199,1,0,0:0:0:0:
448,192,118274,1,0,0:0:0:0:
64,192,118274,1,0,0:0:0:0:
192,192,118349,1,0,0:0:0:0:
320,192,118424,1,0,0:0:0:0:
448,192,118424,1,0,0:0:0:0:
64,192,118499,1,0,0:0:0:0:
448,192,118574,1,0,0:0:0:0:
320,192,118649,1,0,0:0:0:0:
64,192,118724,1,0,0:0:0:0:
192,192,118724,1,0,0:0:0:0:
320,192,118799,1,0,0:0:0:0:
64,192,118874,1,0,0:0:0:0:
448,192,118874,1,0,0:0:0:0:
192,192,118949,1,0,0:0:0:0:
448,192,119024,1,0,0:0:0:0:
320,192,119024,1,0,0:0:0:0:
192,192,119099,1,0,0:0:0:0:
64,192,119174,1,0,0:0:0:0:
320,192,119249,1,0,0:0:0:0:
448,192,119324,1,0,0:0:0:0:
64,192,119324,1,0,0:0:0:0:
192,192,119399,1,0,0:0:0:0:
320,192,119474,1,0,0:0:0:0:
64,192,119549,1,0,0:0:0:0:
320,192,119624,1,0,0:0:0:0:
448,192,119624,1,0,0:0:0:0:
64,192,119699,1,0,0:0:0:0:
448,192,119774,1,0,0:0:0:0:
320,192,119849,1,0,0:0:0:0:
64,192,119924,1,0,0:0:0:0:
192,192,119924,1,0,0:0:0:0:
448,192,119999,1,0,0:0:0:0:
64,192,120074,1,0,0:0:0:0:
192,192,120149,1,0,0:0:0:0:
448,192,120224,1,0,0:0:0:0:
320,192,120224,1,0,0:0:0:0:
192,192,120299,1,0,0:0:0:0:
448,192,120374,1,0,0:0:0:0:
320,192,120374,1,0,0:0:0:0:
192,192,120449,1,0,0:0:0:0:
448,192,120524,1,0,0:0:0:0:
320,192,120524,1,0,0:0:0:0:
192,192,120599,1,0,0:0:0:0:
448,192,120674,1,0,0:0:0:0:
320,192,120674,1,0,0:0:0:0:
192,192,120749,1,0,0:0:0:0:
448,192,120824,1,0,0:0:0:0:
64,192,120824,1,0,0:0:0:0:
320,192,120899,1,0,0:0:0:0:
192,192,120974,1,0,0:0:0:0:
64,192,120974,1,0,0:0:0:0:
448,192,121049,1,0,0:0:0:0:
192,192,121124,1,0,0:0:0:0:
320,192,121124,1,0,0:0:0:0:
64,192,121199,1,0,0:0:0:0:
448,192,121274,1,0,0:0:0:0:
320,192,121274,1,0,0:0:0:0:
64,192,121349,1,0,0:0:0:0:
320,192,121424,1,0,0:0:0:0:
448,192,121424,1,0,0:0:0:0:
320,192,122024,1,0,0:0:0:0:
448,192,122024,1,0,0:0:0:0:
192,192,122249,1,0,0:0:0:0:
320,192,122249,1,0,0:0:0:0:
192,192,122474,1,0,0:0:0:0:
64,192,122474,1,0,0:0:0:0:
448,192,122624,1,0,0:0:0:0:
320,192,122624,1,0,0:0:0:0:
320,192,122924,1,0,0:0:0:0:
448,192,122924,1,0,0:0:0:0:
64,192,123374,1,0,0:0:0:0:
192,192,123374,1,0,0:0:0:0:
448,192,123674,1,0,0:0:0:0:
320,192,123674,1,0,0:0:0:0:
192,192,123824,1,0,0:0:0:0:
64,192,123824,1,0,0:0:0:0:
320,192,123974,1,0,0:0:0:0:
448,192,124124,1,0,0:0:0:0:
64,192,124124,1,0,0:0:0:0:
192,192,124274,1,0,0:0:0:0:
320,192,124424,1,0,0:0:0:0:
448,192,124424,1,0,0:0:0:0:
192,192,124574,1,0,0:0:0:0:
64,192,124724,1,0,0:0:0:0:
448,192,124724,1,0,0:0:0:0:
320,192,124874,1,0,0:0:0:0:
192,192,125024,1,0,0:0:0:0:
64,192,125024,1,0,0:0:0:0:
320,192,125174,1,0,0:0:0:0:
448,192,125324,1,0,0:0:0:0:
64,192,125324,1,0,0:0:0:0:
192,192,125474,1,0,0:0:0:0:
320,192,125624,1,0,0:0:0:0:
448,192,125624,1,0,0:0:0:0:
192,192,125774,1,0,0:0:0:0:
64,192,125924,1,0,0:0:0:0:
448,192,125924,1,0,0:0:0:0:
320,192,126074,1,0,0:0:0:0:
64,192,126224,1,0,0:0:0:0:
192,192,126224,1,0,0:0:0:0:
192,192,126374,1,0,0:0:0:0:
448,192,126524,1,0,0:0:0:0:
64,192,126524,1,0,0:0:0:0:
320,192,126674,1,0,0:0:0:0:
320,192,126824,1,0,0:0:0:0:
192,192,126899,1,0,0:0:0:0:
64,192,126974,1,0,0:0:0:0:
448,192,127124,1,0,0:0:0:0:
192,192,127124,1,0,0:0:0:0:
448,192,127274,1,0,0:0:0:0:
192,192,127274,1,0,0:0:0:0:
64,192,127424,1,0,0:0:0:0:
320,192,127424,1,0,0:0:0:0:
320,192,127724,1,0,0:0:0:0:
64,192,127724,1,0,0:0:0:0:
192,192,128174,1,0,0:0:0:0:
448,192,128174,1,0,0:0:0:0:
64,192,128474,1,0,0:0:0:0:
320,192,128474,1,0,0:0:0:0:
192,192,128624,1,0,0:0:0:0:
448,192,128624,1,0,0:0:0:0:
320,192,128774,1,0,0:0:0:0:
192,192,128924,1,0,0:0:0:0:
64,192,128924,1,0,0:0:0:0:
448,192,129074,1,0,0:0:0:0:
64,192,129224,1,0,0:0:0:0:
320,192,129224,1,0,0:0:0:0:
192,192,129374,1,0,0:0:0:0:
448,192,129524,1,0,0:0:0:0:
320,192,129524,1,0,0:0:0:0:
64,192,129674,1,0,0:0:0:0:
448,192,129824,1,0,0:0:0:0:
192,192,129824,1,0,0:0:0:0:
320,192,129974,1,0,0:0:0:0:
192,192,130124,1,0,0:0:0:0:
64,192,130124,1,0,0:0:0:0:
448,192,130274,1,0,0:0:0:0:
64,192,130424,1,0,0:0:0:0:
320,192,130424,1,0,0:0:0:0:
192,192,130574,1,0,0:0:0:0:
448,192,130724,1,0,0:0:0:0:
320,192,130724,1,0,0:0:0:0:
64,192,130874,1,0,0:0:0:0:
448,192,131024,1,0,0:0:0:0:
192,192,131024,1,0,0:0:0:0:
320,192,131174,1,0,0:0:0:0:
192,192,131324,1,0,0:0:0:0:
64,192,131324,1,0,0:0:0:0:
448,192,131474,1,0,0:0:0:0:
64,192,131624,1,0,0:0:0:0:
320,192,131624,1,0,0:0:0:0:
192,192,131774,1,0,0:0:0:0:
320,192,131924,1,0,0:0:0:0:
448,192,131924,1,0,0:0:0:0:
192,192,132074,1,0,0:0:0:0:
64,192,132074,1,0,0:0:0:0:
64,192,132224,1,0,0:0:0:0:
448,192,132224,1,0,0:0:0:0:
448,192,132524,1,0,0:0:0:0:
64,192,132524,1,0,0:0:0:0:
320,192,132974,1,0,0:0:0:0:
192,192,132974,1,0,0:0:0:0:
64,192,133274,1,0,0:0:0:0:
448,192,133274,1,0,0:0:0:0:
192,192,133424,1,0,0:0:0:0:
320,192,133424,1,0,0:0:0:0:
448,192,133574,1,0,0:0:0:0:
64,192,133724,1,0,0:0:0:0:
192,192,133724,1,0,0:0:0:0:
448,192,133874,1,0,0:0:0:0:
320,192,134024,1,0,0:0:0:0:
192,192,134024,1,0,0:0:0:0:
64,192,134174,1,0,0:0:0:0:
448,192,134324,1,0,0:0:0:0:
320,192,134324,1,0,0:0:0:0:
64,192,134474,1,0,0:0:0:0:
192,192,134624,1,0,0:0:0:0:
320,192,134624,1,0,0:0:0:0:
448,192,134774,1,0,0:0:0:0:
64,192,134924,1,0,0:0:0:0:
192,192,134924,1,0,0:0:0:0:
448,192,135074,1,0,0:0:0:0:
320,192,135224,1,0,0:0:0:0:
192,192,135224,1,0,0:0:0:0:
64,192,135374,1,0,0:0:0:0:
320,192,135524,1,0,0:0:0:0:
448,192,135524,1,0,0:0:0:0:
64,192,135674,1,0,0:0:0:0:
192,192,135824,1,0,0:0:0:0:
320,192,135824,1,0,0:0:0:0:
320,192,135974,1,0,0:0:0:0:
192,192,136124,1,0,0:0:0:0:
448,192,136124,1,0,0:0:0:0:
64,192,136274,1,0,0:0:0:0:
192,192,136274,1,0,0:0:0:0:
64,192,136424,1,0,0:0:0:0:
448,192,136424,1,0,0:0:0:0:
192,192,136499,1,0,0:0:0:0:
320,192,136574,1,0,0:0:0:0:
64,192,136724,1,0,0:0:0:0:
192,192,136724,1,0,0:0:0:0:
448,192,136799,1,0,0:0:0:0:
64,192,136874,1,0,0:0:0:0:
192,192,136874,1,0,0:0:0:0:
448,192,136949,1,0,0:0:0:0:
320,192,137024,1,0,0:0:0:0:
64,192,137024,1,0,0:0:0:0:
64,192,137324,1,0,0:0:0:0:
320,192,137324,1,0,0:0:0:0:
448,192,137774,1,0,0:0:0:0:
192,192,137774,1,0,0:0:0:0:
64,192,138074,1,0,0:0:0:0:
320,192,138074,1,0,0:0:0:0:
448,192,138224,1,0,0:0:0:0:
192,192,138224,1,0,0:0:0:0:
64,192,138374,1,0,0:0:0:0:
448,192,138524,1,0,0:0:0:0:
320,192,138524,1,0,0:0:0:0:
192,192,138674,1,0,0:0:0:0:
320,192,138824,1,0,0:0:0:0:
64,192,138824,1,0,0:0:0:0:
448,192,138974,1,0,0:0:0:0:
64,192,139124,1,0,0:0:0:0:
192,192,139124,1,0,0:0:0:0:
320,192,139274,1,0,0:0:0:0:
192,192,139424,1,0,0:0:0:0:
448,192,139424,1,0,0:0:0:0:
64,192,139574,1,0,0:0:0:0:
448,192,139724,1,0,0:0:0:0:
320,192,139724,1,0,0:0:0:0:
192,192,139874,1,0,0:0:0:0:
320,192,140024,1,0,0:0:0:0:
64,192,140024,1,0,0:0:0:0:
448,192,140174,1,0,0:0:0:0:
64,192,140324,1,0,0:0:0:0:
192,192,140324,1,0,0:0:0:0:
320,192,140474,1,0,0:0:0:0:
448,192,140624,1,0,0:0:0:0:
192,192,140624,1,0,0:0:0:0:
448,192,140774,1,0,0:0:0:0:
192,192,140774,1,0,0:0:0:0:
64,192,140924,1,0,0:0:0:0:
320,192,140924,1,0,0:0:0:0:
448,192,141074,1,0,0:0:0:0:
192,192,141074,1,0,0:0:0:0:
192,192,141224,1,0,0:0:0:0:
320,192,141299,1,0,0:0:0:0:
448,192,141374,1,0,0:0:0:0:
64,192,141449,1,0,0:0:0:0:
448,192,141524,1,0,0:0:0:0:
64,192,141599,1,0,0:0:0:0:
320,192,141674,1,0,0:0:0:0:
448,192,141674,1,0,0:0:0:0:
192,192,141749,1,0,0:0:0:0:
448,192,141824,1,0,0:0:0:0:
64,192,141824,1,0,0:0:0:0:
320,192,141899,1,0,0:0:0:0:
192,192,141974,1,0,0:0:0:0:
64,192,142049,1,0,0:0:0:0:
448,192,142124,1,0,0:0:0:0:
320,192,142124,1,0,0:0:0:0:
64,192,142199,1,0,0:0:0:0:
192,192,142274,1,0,0:0:0:0:
320,192,142349,1,0,0:0:0:0:
192,192,142424,1,0,0:0:0:0:
448,192,142424,1,0,0:0:0:0:
64,192,142499,1,0,0:0:0:0:
448,192,142574,1,0,0:0:0:0:
320,192,142649,1,0,0:0:0:0:
64,192,142724,1,0,0:0:0:0:
192,192,142724,1,0,0:0:0:0:
448,192,142799,1,0,0:0:0:0:
64,192,142874,1,0,0:0:0:0:
448,192,142949,1,0,0:0:0:0:
320,192,143024,1,0,0:0:0:0:
192,192,143024,1,0,0:0:0:0:
64,192,143099,1,0,0:0:0:0:
448,192,143174,1,0,0:0:0:0:
64,192,143249,1,0,0:0:0:0:
320,192,143324,1,0,0:0:0:0:
192,192,143324,1,0,0:0:0:0:
448,192,143399,1,0,0:0:0:0:
320,192,143474,1,0,0:0:0:0:
192,192,143549,1,0,0:0:0:0:
64,192,143624,1,0,0:0:0:0:
448,192,143624,1,0,0:0:0:0:
320,192,143699,1,0,0:0:0:0:
64,192,143774,1,0,0:0:0:0:
192,192,143849,1,0,0:0:0:0:
448,192,143924,1,0,0:0:0:0:
320,192,143924,1,0,0:0:0:0:
64,192,143999,1,0,0:0:0:0:
448,192,144074,1,0,0:0:0:0:
320,192,144149,1,0,0:0:0:0:
64,192,144224,1,0,0:0:0:0:
192,192,144224,1,0,0:0:0:0:
448,192,144299,1,0,0:0:0:0:
320,192,144374,1,0,0:0:0:0:
192,192,144449,1,0,0:0:0:0:
448,192,144524,1,0,0:0:0:0:
64,192,144524,1,0,0:0:0:0:
320,192,144599,1,0,0:0:0:0:
64,192,144674,1,0,0:0:0:0:
192,192,144749,1,0,0:0:0:0:
320,192,144824,1,0,0:0:0:0:
448,192,144824,1,0,0:0:0:0:
192,192,144899,1,0,0:0:0:0:
64,192,144974,1,0,0:0:0:0:
448,192,145049,1,0,0:0:0:0:
64,192,145124,1,0,0:0:0:0:
320,192,145124,1,0,0:0:0:0:
192,192,145199,1,0,0:0:0:0:
320,192,145274,1,0,0:0:0:0:
192,192,145349,1,0,0:0:0:0:
448,192,145424,1,0,0:0:0:0:
64,192,145424,1,0,0:0:0:0:
320,192,145499,1,0,0:0:0:0:
64,192,145574,1,0,0:0:0:0:
192,192,145649,1,0,0:0:0:0:
320,192,145724,1,0,0:0:0:0:
448,192,145724,1,0,0:0:0:0:
64,192,145799,1,0,0:0:0:0:
448,192,145874,1,0,0:0:0:0:
320,192,145949,1,0,0:0:0:0:
64,192,146024,1,0,0:0:0:0:
192,192,146024,1,0,0:0:0:0:
192,192,146174,1,0,0:0:0:0:
64,192,146174,1,0,0:0:0:0:
320,192,146324,1,0,0:0:0:0:
448,192,146324,1,0,0:0:0:0:
320,192,146474,1,0,0:0:0:0:
64,192,146474,1,0,0:0:0:0:
64,192,146624,1,0,0:0:0:0:
192,192,146624,1,0,0:0:0:0:
320,192,146699,1,0,0:0:0:0:
192,192,146774,1,0,0:0:0:0:
320,192,146849,1,0,0:0:0:0:
448,192,146924,1,0,0:0:0:0:
64,192,146924,1,0,0:0:0:0:
192,192,146999,1,0,0:0:0:0:
448,192,147074,1,0,0:0:0:0:
320,192,147149,1,0,0:0:0:0:
64,192,147224,1,0,0:0:0:0:
192,192,147224,1,0,0:0:0:0:
320,192,147299,1,0,0:0:0:0:
448,192,147374,1,0,0:0:0:0:
192,192,147449,1,0,0:0:0:0:
320,192,147524,1,0,0:0:0:0:
448,192,147524,1,0,0:0:0:0:
192,192,147599,1,0,0:0:0:0:
64,192,147674,1,0,0:0:0:0:
320,192,147749,1,0,0:0:0:0:
64,192,147824,1,0,0:0:0:0:
192,192,147824,1,0,0:0:0:0:
448,192,147899,1,0,0:0:0:0:
64,192,147974,1,0,0:0:0:0:
192,192,148049,1,0,0:0:0:0:
320,192,148124,1,0,0:0:0:0:
448,192,148124,1,0,0:0:0:0:
64,192,148199,1,0,0:0:0:0:
448,192,148274,1,0,0:0:0:0:
320,192,148349,1,0,0:0:0:0:
64,192,148424,1,0,0:0:0:0:
192,192,148424,1,0,0:0:0:0:
448,192,148499,1,0,0:0:0:0:
64,192,148574,1,0,0:0:0:0:
192,192,148649,1,0,0:0:0:0:
448,192,148724,1,0,0:0:0:0:
320,192,148724,1,0,0:0:0:0:
64,192,148799,1,0,0:0:0:0:
448,192,148874,1,0,0:0:0:0:
320,192,148949,1,0,0:0:0:0:
64,192,149024,1,0,0:0:0:0:
192,192,149024,1,0,0:0:0:0:
448,192,149099,5,0,0:0:0:0:
64,192,149174,1,0,0:0:0:0:
192,192,149249,1,0,0:0:0:0:
448,192,149324,1,0,0:0:0:0:
320,192,149324,1,0,0:0:0:0:
192,192,149399,1,0,0:0:0:0:
64,192,149474,1,0,0:0:0:0:
448,192,149549,1,0,0:0:0:0:
192,192,149624,1,0,0:0:0:0:
64,192,149624,1,0,0:0:0:0:
448,192,149699,1,0,0:0:0:0:
320,192,149774,1,0,0:0:0:0:
192,192,149849,1,0,0:0:0:0:
64,192,149924,1,0,0:0:0:0:
448,192,149924,1,0,0:0:0:0:
320,192,149999,1,0,0:0:0:0:
192,192,150074,1,0,0:0:0:0:
448,192,150149,1,0,0:0:0:0:
64,192,150224,1,0,0:0:0:0:
192,192,150224,1,0,0:0:0:0:
64,192,150374,1,0,0:0:0:0:
320,192,150374,1,0,0:0:0:0:
448,192,150524,1,0,0:0:0:0:
192,192,150524,1,0,0:0:0:0:
320,192,150674,1,0,0:0:0:0:
320,192,150824,1,0,0:0:0:0:
192,192,150899,1,0,0:0:0:0:
64,192,150974,1,0,0:0:0:0:
64,192,151124,1,0,0:0:0:0:
320,192,151124,1,0,0:0:0:0:
192,192,151274,1,0,0:0:0:0:
320,192,151274,1,0,0:0:0:0:
64,192,151424,1,0,0:0:0:0:
448,192,151424,1,0,0:0:0:0:
192,192,151499,1,0,0:0:0:0:
320,192,151574,1,0,0:0:0:0:
64,192,151649,1,0,0:0:0:0:
320,192,151724,1,0,0:0:0:0:
448,192,151724,1,0,0:0:0:0:
64,192,151799,1,0,0:0:0:0:
448,192,151874,1,0,0:0:0:0:
320,192,151949,1,0,0:0:0:0:
192,192,152024,1,0,0:0:0:0:
64,192,152024,1,0,0:0:0:0:
448,192,152099,1,0,0:0:0:0:
64,192,152174,1,0,0:0:0:0:
192,192,152249,1,0,0:0:0:0:
448,192,152324,1,0,0:0:0:0:
320,192,152324,1,0,0:0:0:0:
64,192,152399,1,0,0:0:0:0:
192,192,152474,1,0,0:0:0:0:
320,192,152549,1,0,0:0:0:0:
448,192,152624,1,0,0:0:0:0:
192,192,152624,1,0,0:0:0:0:
64,192,152699,1,0,0:0:0:0:
448,192,152774,1,0,0:0:0:0:
64,192,152849,1,0,0:0:0:0:
192,192,152924,1,0,0:0:0:0:
320,192,152924,1,0,0:0:0:0:
448,192,152999,1,0,0:0:0:0:
320,192,153074,1,0,0:0:0:0:
192,192,153149,1,0,0:0:0:0:
64,192,153224,1,0,0:0:0:0:
448,192,153224,1,0,0:0:0:0:
320,192,153299,1,0,0:0:0:0:
64,192,153374,1,0,0:0:0:0:
192,192,153374,1,0,0:0:0:0:
448,192,153449,1,0,0:0:0:0:
64,192,153524,1,0,0:0:0:0:
192,192,153524,1,0,0:0:0:0:
320,192,153599,1,0,0:0:0:0:
64,192,153674,1,0,0:0:0:0:
192,192,153674,1,0,0:0:0:0:
320,192,153749,1,0,0:0:0:0:
448,192,153824,1,0,0:0:0:0:
64,192,153824,1,0,0:0:0:0:
192,192,153899,1,0,0:0:0:0:
320,192,153974,1,0,0:0:0:0:
448,192,154049,1,0,0:0:0:0:
192,192,154124,1,0,0:0:0:0:
64,192,154124,1,0,0:0:0:0:
448,192,154199,1,0,0:0:0:0:
64,192,154274,1,0,0:0:0:0:
192,192,154349,1,0,0:0:0:0:
448,192,154424,1,0,0:0:0:0:
320,192,154424,1,0,0:0:0:0:
192,192,154499,1,0,0:0:0:0:
64,192,154574,1,0,0:0:0:0:
320,192,154649,1,0,0:0:0:0:
64,192,154724,1,0,0:0:0:0:
192,192,154724,1,0,0:0:0:0:
320,192,154799,1,0,0:0:0:0:
448,192,154874,1,0,0:0:0:0:
192,192,154949,1,0,0:0:0:0:
320,192,155024,1,0,0:0:0:0:
448,192,155024,1,0,0:0:0:0:
192,192,155099,1,0,0:0:0:0:
64,192,155174,1,0,0:0:0:0:
448,192,155249,1,0,0:0:0:0:
64,192,155324,1,0,0:0:0:0:
320,192,155324,1,0,0:0:0:0:
192,192,155399,1,0,0:0:0:0:
320,192,155474,1,0,0:0:0:0:
192,192,155549,1,0,0:0:0:0:
448,192,155624,1,0,0:0:0:0:
64,192,155624,1,0,0:0:0:0:
320,192,155699,1,0,0:0:0:0:
192,192,155774,1,0,0:0:0:0:
64,192,155849,1,0,0:0:0:0:
320,192,155924,1,0,0:0:0:0:
448,192,155924,1,0,0:0:0:0:
64,192,155999,1,0,0:0:0:0:
192,192,156074,1,0,0:0:0:0:
320,192,156149,1,0,0:0:0:0:
192,192,156224,1,0,0:0:0:0:
448,192,156224,1,0,0:0:0:0:
64,192,156299,1,0,0:0:0:0:
320,192,156374,1,0,0:0:0:0:
192,192,156449,1,0,0:0:0:0:
448,192,156524,1,0,0:0:0:0:
320,192,156524,1,0,0:0:0:0:
64,192,156599,1,0,0:0:0:0:
192,192,156674,1,0,0:0:0:0:
320,192,156749,1,0,0:0:0:0:
448,192,156824,1,0,0:0:0:0:
64,192,156824,1,0,0:0:0:0:
192,192,156899,1,0,0:0:0:0:
448,192,156974,1,0,0:0:0:0:
192,192,157049,1,0,0:0:0:0:
64,192,157124,1,0,0:0:0:0:
448,192,157124,1,0,0:0:0:0:
320,192,157199,1,0,0:0:0:0:
192,192,157274,1,0,0:0:0:0:
64,192,157349,1,0,0:0:0:0:
320,192,157424,1,0,0:0:0:0:
448,192,157424,1,0,0:0:0:0:
192,192,157499,1,0,0:0:0:0:
320,192,157574,1,0,0:0:0:0:
192,192,157649,1,0,0:0:0:0:
320,192,157724,1,0,0:0:0:0:
64,192,157724,1,0,0:0:0:0:
448,192,157799,1,0,0:0:0:0:
64,192,157874,1,0,0:0:0:0:
192,192,157949,1,0,0:0:0:0:
320,192,158024,1,0,0:0:0:0:
448,192,158024,1,0,0:0:0:0:
64,192,158099,1,0,0:0:0:0:
192,192,158174,1,0,0:0:0:0:
320,192,158249,1,0,0:0:0:0:
64,192,158324,1,0,0:0:0:0:
320,192,158399,1,0,0:0:0:0:
64,192,158474,1,0,0:0:0:0:
192,192,158474,1,0,0:0:0:0:
320,192,158549,1,0,0:0:0:0:
448,192,158624,1,0,0:0:0:0:
64,192,158624,1,0,0:0:0:0:
192,192,158924,1,0,0:0:0:0:
64,192,159224,1,0,0:0:0:0:
320,192,159374,1,0,0:0:0:0:
320,192,159674,1,0,0:0:0:0:
320,192,159824,1,0,0:0:0:0:
64,192,159974,1,0,0:0:0:0:
192,192,160274,1,0,0:0:0:0:
448,192,160424,1,0,0:0:0:0:
448,192,160574,1,0,0:0:0:0:
320,192,160724,1,0,0:0:0:0:
192,192,160874,1,0,0:0:0:0:
64,192,161024,1,0,0:0:0:0:
448,192,161024,1,0,0:0:0:0:
320,192,161024,1,0,0:0:0:0:
64,192,161174,1,0,0:0:0:0:
192,192,161174,1,0,0:0:0:0:
192,192,161324,1,0,0:0:0:0:
448,192,161324,1,0,0:0:0:0:
448,192,161474,1,0,0:0:0:0:
320,192,161474,1,0,0:0:0:0:
320,192,161624,1,0,0:0:0:0:
192,192,161699,1,0,0:0:0:0:
448,192,161774,1,0,0:0:0:0:
64,192,161774,1,0,0:0:0:0:
320,192,161924,1,0,0:0:0:0:
64,192,161924,1,0,0:0:0:0:
192,192,162074,1,0,0:0:0:0:
320,192,162074,1,0,0:0:0:0:
64,192,162224,1,0,0:0:0:0:
320,192,162224,1,0,0:0:0:0:
64,192,162374,1,0,0:0:0:0:
192,192,162374,1,0,0:0:0:0:
448,192,162524,1,0,0:0:0:0:
320,192,162524,1,0,0:0:0:0:
320,192,162674,1,0,0:0:0:0:
64,192,162674,1,0,0:0:0:0:
192,192,162974,1,0,0:0:0:0:
448,192,162974,1,0,0:0:0:0:
320,192,163124,1,0,0:0:0:0:
192,192,163124,1,0,0:0:0:0:
320,192,163274,1,0,0:0:0:0:
192,192,163349,1,0,0:0:0:0:
64,192,163424,1,0,0:0:0:0:
448,192,163424,1,0,0:0:0:0:
320,192,163574,1,0,0:0:0:0:
64,192,163574,1,0,0:0:0:0:
320,192,163724,1,0,0:0:0:0:
448,192,163724,1,0,0:0:0:0:
448,192,163874,1,0,0:0:0:0:
320,192,163949,1,0,0:0:0:0:
64,192,164024,1,0,0:0:0:0:
192,192,164024,1,0,0:0:0:0:
320,192,164174,1,0,0:0:0:0:
64,192,164174,1,0,0:0:0:0:
192,192,164324,1,0,0:0:0:0:
448,192,164324,1,0,0:0:0:0:
64,192,164474,1,0,0:0:0:0:
192,192,164474,1,0,0:0:0:0:
320,192,164624,1,0,0:0:0:0:
448,192,164624,1,0,0:0:0:0:
192,192,164924,1,0,0:0:0:0:
64,192,164924,1,0,0:0:0:0:
64,192,165074,1,0,0:0:0:0:
192,192,165149,1,0,0:0:0:0:
320,192,165224,1,0,0:0:0:0:
192,192,165374,1,0,0:0:0:0:
320,192,165374,1,0,0:0:0:0:
192,192,165524,1,0,0:0:0:0:
448,192,165524,1,0,0:0:0:0:
448,192,165674,1,0,0:0:0:0:
320,192,165749,1,0,0:0:0:0:
64,192,165824,1,0,0:0:0:0:
192,192,165824,1,0,0:0:0:0:
320,192,165974,1,0,0:0:0:0:
448,192,165974,1,0,0:0:0:0:
64,192,166124,1,0,0:0:0:0:
320,192,166124,1,0,0:0:0:0:
64,192,166274,1,0,0:0:0:0:
192,192,166274,1,0,0:0:0:0:
320,192,166349,1,0,0:0:0:0:
192,192,166424,1,0,0:0:0:0:
320,192,166499,1,0,0:0:0:0:
64,192,166574,1,0,0:0:0:0:
448,192,166574,1,0,0:0:0:0:
64,192,166724,1,0,0:0:0:0:
320,192,166724,1,0,0:0:0:0:
448,192,166874,1,0,0:0:0:0:
320,192,166874,1,0,0:0:0:0:
64,192,167024,1,0,0:0:0:0:
192,192,167024,1,0,0:0:0:0:
448,192,167174,1,0,0:0:0:0:
320,192,167174,1,0,0:0:0:0:
64,192,167324,1,0,0:0:0:0:
320,192,167324,1,0,0:0:0:0:
192,192,167474,1,0,0:0:0:0:
64,192,167474,1,0,0:0:0:0:
320,192,167549,1,0,0:0:0:0:
192,192,167624,1,0,0:0:0:0:
320,192,167699,1,0,0:0:0:0:
64,192,167774,1,0,0:0:0:0:
448,192,167774,1,0,0:0:0:0:
64,192,167924,1,0,0:0:0:0:
320,192,167924,1,0,0:0:0:0:
448,192,168074,1,0,0:0:0:0:
320,192,168074,1,0,0:0:0:0:
448,192,168224,1,0,0:0:0:0:
64,192,168224,1,0,0:0:0:0:
64,192,168374,1,0,0:0:0:0:
192,192,168449,1,0,0:0:0:0:
448,192,168524,1,0,0:0:0:0:
320,192,168524,1,0,0:0:0:0:
448,192,168674,1,0,0:0:0:0:
320,192,168749,1,0,0:0:0:0:
64,192,168824,1,0,0:0:0:0:
192,192,168824,1,0,0:0:0:0:
448,192,168974,1,0,0:0:0:0:
320,192,168974,1,0,0:0:0:0:
64,192,169124,1,0,0:0:0:0:
320,192,169124,1,0,0:0:0:0:
192,192,169274,1,0,0:0:0:0:
320,192,169424,1,0,0:0:0:0:
64,192,169424,1,0,0:0:0:0:
448,192,169574,1,0,0:0:0:0:
320,192,169724,1,0,0:0:0:0:
448,192,169724,1,0,0:0:0:0:
192,192,169874,1,0,0:0:0:0:
64,192,169874,1,0,0:0:0:0:
448,192,169949,1,0,0:0:0:0:
192,192,170024,1,0,0:0:0:0:
320,192,170174,1,0,0:0:0:0:
192,192,170249,1,0,0:0:0:0:
192,192,170474,1,0,0:0:0:0:
320,192,170549,1,0,0:0:0:0:
64,192,170624,1,0,0:0:0:0:
448,192,170624,1,0,0:0:0:0:
64,192,170774,1,0,0:0:0:0:
320,192,170774,1,0,0:0:0:0:
192,192,170924,1,0,0:0:0:0:
320,192,170924,1,0,0:0:0:0:
64,192,171074,1,0,0:0:0:0:
320,192,171074,1,0,0:0:0:0:
64,192,171224,1,0,0:0:0:0:
192,192,171299,1,0,0:0:0:0:
448,192,171374,1,0,0:0:0:0:
320,192,171374,1,0,0:0:0:0:
448,192,171524,1,0,0:0:0:0:
192,192,171524,1,0,0:0:0:0:
448,192,171674,1,0,0:0:0:0:
320,192,171674,1,0,0:0:0:0:
64,192,171824,1,0,0:0:0:0:
320,192,171824,1,0,0:0:0:0:
64,192,171974,1,0,0:0:0:0:
192,192,171974,1,0,0:0:0:0:
448,192,172124,1,0,0:0:0:0:
320,192,172124,1,0,0:0:0:0:
192,192,172274,1,0,0:0:0:0:
448,192,172274,1,0,0:0:0:0:
192,192,172574,1,0,0:0:0:0:
320,192,172574,1,0,0:0:0:0:
448,192,172724,1,0,0:0:0:0:
192,192,172724,1,0,0:0:0:0:
448,192,172874,1,0,0:0:0:0:
320,192,172949,1,0,0:0:0:0:
64,192,173024,1,0,0:0:0:0:
192,192,173024,1,0,0:0:0:0:
64,192,173174,1,0,0:0:0:0:
320,192,173174,1,0,0:0:0:0:
320,192,173324,1,0,0:0:0:0:
192,192,173324,1,0,0:0:0:0:
192,192,173474,1,0,0:0:0:0:
320,192,173549,1,0,0:0:0:0:
448,192,173624,1,0,0:0:0:0:
64,192,173624,1,0,0:0:0:0:
320,192,173774,1,0,0:0:0:0:
64,192,173774,1,0,0:0:0:0:
320,192,173924,1,0,0:0:0:0:
192,192,173924,1,0,0:0:0:0:
448,192,174074,1,0,0:0:0:0:
64,192,174074,1,0,0:0:0:0:
320,192,174224,1,0,0:0:0:0:
192,192,174224,1,0,0:0:0:0:
320,192,174524,1,0,0:0:0:0:
64,192,174524,1,0,0:0:0:0:
320,192,174674,1,0,0:0:0:0:
192,192,174749,1,0,0:0:0:0:
64,192,174824,1,0,0:0:0:0:
320,192,174974,1,0,0:0:0:0:
64,192,174974,1,0,0:0:0:0:
448,192,175124,1,0,0:0:0:0:
192,192,175124,1,0,0:0:0:0:
192,192,175274,1,0,0:0:0:0:
320,192,175349,1,0,0:0:0:0:
448,192,175424,1,0,0:0:0:0:
64,192,175424,1,0,0:0:0:0:
64,192,175574,1,0,0:0:0:0:
192,192,175574,1,0,0:0:0:0:
192,192,175724,1,0,0:0:0:0:
448,192,175724,1,0,0:0:0:0:
320,192,175874,1,0,0:0:0:0:
448,192,175874,1,0,0:0:0:0:
192,192,175949,1,0,0:0:0:0:
320,192,176024,1,0,0:0:0:0:
192,192,176099,1,0,0:0:0:0:
448,192,176174,1,0,0:0:0:0:
64,192,176174,1,0,0:0:0:0:
64,192,176324,1,0,0:0:0:0:
192,192,176324,1,0,0:0:0:0:
192,192,176474,1,0,0:0:0:0:
448,192,176474,1,0,0:0:0:0:
64,192,176624,1,0,0:0:0:0:
320,192,176624,1,0,0:0:0:0:
64,192,176774,1,0,0:0:0:0:
192,192,176774,1,0,0:0:0:0:
192,192,176924,1,0,0:0:0:0:
448,192,176924,1,0,0:0:0:0:
320,192,177074,1,0,0:0:0:0:
448,192,177074,1,0,0:0:0:0:
192,192,177149,1,0,0:0:0:0:
320,192,177224,1,0,0:0:0:0:
192,192,177299,1,0,0:0:0:0:
448,192,177374,1,0,0:0:0:0:
64,192,177374,1,0,0:0:0:0:
64,192,177524,1,0,0:0:0:0:
192,192,177524,1,0,0:0:0:0:
448,192,177674,1,0,0:0:0:0:
192,192,177674,1,0,0:0:0:0:
64,192,177824,1,0,0:0:0:0:
320,192,177824,1,0,0:0:0:0:
64,192,177974,1,0,0:0:0:0:
192,192,178049,1,0,0:0:0:0:
448,192,178124,1,0,0:0:0:0:
320,192,178124,1,0,0:0:0:0:
320,192,178274,1,0,0:0:0:0:
192,192,178349,1,0,0:0:0:0:
64,192,178424,1,0,0:0:0:0:
64,192,178574,1,0,0:0:0:0:
320,192,178574,1,0,0:0:0:0:
448,192,178724,1,0,0:0:0:0:
192,192,178724,1,0,0:0:0:0:
448,192,178874,1,0,0:0:0:0:
320,192,178949,1,0,0:0:0:0:
192,192,179024,1,0,0:0:0:0:
64,192,179024,1,0,0:0:0:0:
192,192,179174,1,0,0:0:0:0:
320,192,179324,1,0,0:0:0:0:
448,192,179324,1,0,0:0:0:0:
192,192,179474,1,0,0:0:0:0:
64,192,179474,1,0,0:0:0:0:
320,192,179549,1,0,0:0:0:0:
448,192,179624,1,0,0:0:0:0:
448,192,179774,1,0,0:0:0:0:
320,192,179774,1,0,0:0:0:0:
192,192,179849,1,0,0:0:0:0:
64,192,179924,1,0,0:0:0:0:
320,192,179924,1,0,0:0:0:0:
448,192,179999,1,0,0:0:0:0:
64,192,180074,1,0,0:0:0:0:
192,192,180149,1,0,0:0:0:0:
320,192,180224,1,0,0:0:0:0:
448,192,180224,1,0,0:0:0:0:
320,192,180374,1,0,0:0:0:0:
192,192,180524,1,0,0:0:0:0:
448,192,180524,1,0,0:0:0:0:
64,192,180674,1,0,0:0:0:0:
192,192,180674,1,0,0:0:0:0:
448,192,180824,1,0,0:0:0:0:
320,192,180824,1,0,0:0:0:0:
64,192,180899,1,0,0:0:0:0:
192,192,180899,1,0,0:0:0:0:
448,192,180974,1,0,0:0:0:0:
320,192,180974,1,0,0:0:0:0:
64,192,181049,1,0,0:0:0:0:
448,192,181124,1,0,0:0:0:0:
320,192,181124,1,0,0:0:0:0:
192,192,181199,1,0,0:0:0:0:
64,192,181199,1,0,0:0:0:0:
448,192,181274,1,0,0:0:0:0:
192,192,181349,1,0,0:0:0:0:
448,192,181424,1,0,0:0:0:0:
320,192,181424,1,0,0:0:0:0:
192,192,181574,1,0,0:0:0:0:
320,192,181724,1,0,0:0:0:0:
192,192,181724,1,0,0:0:0:0:
320,192,181874,1,0,0:0:0:0:
64,192,181874,1,0,0:0:0:0:
64,192,182024,1,0,0:0:0:0:
192,192,182099,1,0,0:0:0:0:
448,192,182174,1,0,0:0:0:0:
320,192,182174,1,0,0:0:0:0:
64,192,182249,1,0,0:0:0:0:
320,192,182324,1,0,0:0:0:0:
448,192,182324,1,0,0:0:0:0:
192,192,182399,1,0,0:0:0:0:
64,192,182399,1,0,0:0:0:0:
448,192,182474,1,0,0:0:0:0:
320,192,182549,1,0,0:0:0:0:
64,192,182624,1,0,0:0:0:0:
192,192,182624,1,0,0:0:0:0:
192,192,182774,1,0,0:0:0:0:
320,192,182924,1,0,0:0:0:0:
64,192,182924,1,0,0:0:0:0:
320,192,183074,1,0,0:0:0:0:
448,192,183074,1,0,0:0:0:0:
192,192,183224,1,0,0:0:0:0:
64,192,183224,1,0,0:0:0:0:
448,192,183299,1,0,0:0:0:0:
320,192,183299,1,0,0:0:0:0:
64,192,183374,1,0,0:0:0:0:
192,192,183374,1,0,0:0:0:0:
448,192,183449,1,0,0:0:0:0:
64,192,183524,1,0,0:0:0:0:
192,192,183524,1,0,0:0:0:0:
448,192,183599,1,0,0:0:0:0:
320,192,183599,1,0,0:0:0:0:
64,192,183674,1,0,0:0:0:0:
320,192,183749,1,0,0:0:0:0:
64,192,183824,1,0,0:0:0:0:
192,192,183824,1,0,0:0:0:0:
320,192,183974,1,0,0:0:0:0:
192,192,184124,1,0,0:0:0:0:
320,192,184124,1,0,0:0:0:0:
448,192,184274,1,0,0:0:0:0:
192,192,184274,1,0,0:0:0:0:
448,192,184424,1,0,0:0:0:0:
320,192,184499,1,0,0:0:0:0:
64,192,184574,1,0,0:0:0:0:
192,192,184574,1,0,0:0:0:0:
448,192,184649,1,0,0:0:0:0:
192,192,184724,1,0,0:0:0:0:
64,192,184724,1,0,0:0:0:0:
320,192,184799,1,0,0:0:0:0:
448,192,184799,1,0,0:0:0:0:
64,192,184874,1,0,0:0:0:0:
192,192,184949,1,0,0:0:0:0:
448,192,185024,1,0,0:0:0:0:
320,192,185024,1,0,0:0:0:0:
448,192,185174,1,0,0:0:0:0:
320,192,185174,1,0,0:0:0:0:
192,192,185324,1,0,0:0:0:0:
448,192,185324,1,0,0:0:0:0:
64,192,185474,1,0,0:0:0:0:
192,192,185474,1,0,0:0:0:0:
320,192,185624,1,0,0:0:0:0:
448,192,185624,1,0,0:0:0:0:
64,192,185699,1,0,0:0:0:0:
192,192,185699,1,0,0:0:0:0:
448,192,185774,1,0,0:0:0:0:
320,192,185774,1,0,0:0:0:0:
64,192,185849,1,0,0:0:0:0:
448,192,185924,1,0,0:0:0:0:
320,192,185924,1,0,0:0:0:0:
64,192,185999,1,0,0:0:0:0:
192,192,185999,1,0,0:0:0:0:
448,192,186074,1,0,0:0:0:0:
192,192,186149,1,0,0:0:0:0:
448,192,186224,1,0,0:0:0:0:
320,192,186224,1,0,0:0:0:0:
320,192,186374,1,0,0:0:0:0:
448,192,186374,1,0,0:0:0:0:
192,192,186524,1,0,0:0:0:0:
448,192,186524,1,0,0:0:0:0:
192,192,186674,1,0,0:0:0:0:
64,192,186674,1,0,0:0:0:0:
448,192,186824,1,0,0:0:0:0:
320,192,186824,1,0,0:0:0:0:
192,192,186974,1,0,0:0:0:0:
448,192,186974,1,0,0:0:0:0:
192,192,187124,1,0,0:0:0:0:
64,192,187124,1,0,0:0:0:0:
448,192,187199,1,0,0:0:0:0:
320,192,187274,1,0,0:0:0:0:
64,192,187274,1,0,0:0:0:0:
192,192,187349,1,0,0:0:0:0:
448,192,187424,1,0,0:0:0:0:
320,192,187424,1,0,0:0:0:0:
192,192,187499,1,0,0:0:0:0:
64,192,187499,1,0,0:0:0:0:
448,192,187574,1,0,0:0:0:0:
320,192,187574,1,0,0:0:0:0:
192,192,187649,1,0,0:0:0:0:
64,192,187649,1,0,0:0:0:0:
448,192,187724,1,0,0:0:0:0:
320,192,187724,1,0,0:0:0:0:
64,192,187799,1,0,0:0:0:0:
192,192,187799,1,0,0:0:0:0:
448,192,187874,1,0,0:0:0:0:
320,192,187874,1,0,0:0:0:0:
64,192,187949,1,0,0:0:0:0:
192,192,187949,1,0,0:0:0:0:
448,192,188024,1,0,0:0:0:0:
320,192,188024,1,0,0:0:0:0:
64,192,188099,1,0,0:0:0:0:
192,192,188099,1,0,0:0:0:0:
448,192,188174,1,0,0:0:0:0:
320,192,188174,1,0,0:0:0:0:
64,192,188249,1,0,0:0:0:0:
192,192,188249,1,0,0:0:0:0:
448,192,188324,1,0,0:0:0:0:
320,192,188324,1,0,0:0:0:0:
64,192,188399,1,0,0:0:0:0:
192,192,188399,1,0,0:0:0:0:
448,192,188474,1,0,0:0:0:0:
320,192,188474,1,0,0:0:0:0:
64,192,188549,1,0,0:0:0:0:
192,192,188549,1,0,0:0:0:0:
448,192,188624,1,0,0:0:0:0:
320,192,188624,1,0,0:0:0:0:
448,192,188774,1,0,0:0:0:0:
320,192,188774,1,0,0:0:0:0:
448,192,189074,1,0,0:0:0:0:
320,192,189074,1,0,0:0:0:0:
448,192,189374,1,0,0:0:0:0:
320,192,189374,1,0,0:0:0:0:
64,192,189524,1,0,0:0:0:0:
192,192,189524,1,0,0:0:0:0:
64,192,189674,1,0,0:0:0:0:
192,192,189674,1,0,0:0:0:0:
448,192,189824,1,0,0:0:0:0:
320,192,189824,1,0,0:0:0:0:
64,192,189899,1,0,0:0:0:0:
192,192,189974,1,0,0:0:0:0:
448,192,189974,1,0,0:0:0:0:
320,192,190049,1,0,0:0:0:0:
64,192,190124,1,0,0:0:0:0:
192,192,190124,1,0,0:0:0:0:
448,192,190199,1,0,0:0:0:0:
320,192,190274,1,0,0:0:0:0:
192,192,190274,1,0,0:0:0:0:
64,192,190349,1,0,0:0:0:0:
448,192,190424,1,0,0:0:0:0:
320,192,190424,1,0,0:0:0:0:
192,192,190499,1,0,0:0:0:0:
448,192,190574,1,0,0:0:0:0:
64,192,190574,1,0,0:0:0:0:
320,192,190649,1,0,0:0:0:0:
64,192,190724,1,0,0:0:0:0:
192,192,190724,1,0,0:0:0:0:
320,192,190799,1,0,0:0:0:0:
64,192,190874,1,0,0:0:0:0:
448,192,190874,1,0,0:0:0:0:
192,192,190949,1,0,0:0:0:0:
448,192,191024,1,0,0:0:0:0:
320,192,191024,1,0,0:0:0:0:
192,192,191099,1,0,0:0:0:0:
448,192,191174,1,0,0:0:0:0:
64,192,191174,1,0,0:0:0:0:
320,192,191249,1,0,0:0:0:0:
64,192,191324,1,0,0:0:0:0:
192,192,191324,1,0,0:0:0:0:
448,192,191399,1,0,0:0:0:0:
64,192,191474,1,0,0:0:0:0:
192,192,191474,1,0,0:0:0:0:
448,192,191549,1,0,0:0:0:0:
320,192,191624,1,0,0:0:0:0:
192,192,191624,1,0,0:0:0:0:
64,192,191699,1,0,0:0:0:0:
448,192,191774,1,0,0:0:0:0:
320,192,191774,1,0,0:0:0:0:
192,192,191849,1,0,0:0:0:0:
320,192,191924,1,0,0:0:0:0:
64,192,191924,1,0,0:0:0:0:
448,192,191999,1,0,0:0:0:0:
192,192,192074,1,0,0:0:0:0:
64,192,192074,1,0,0:0:0:0:
320,192,192149,1,0,0:0:0:0:
64,192,192224,1,0,0:0:0:0:
448,192,192224,1,0,0:0:0:0:
192,192,192299,1,0,0:0:0:0:
320,192,192374,1,0,0:0:0:0:
448,192,192374,1,0,0:0:0:0:
192,192,192449,1,0,0:0:0:0:
320,192,192524,1,0,0:0:0:0:
64,192,192524,1,0,0:0:0:0:
448,192,192599,1,0,0:0:0:0:
64,192,192674,1,0,0:0:0:0:
192,192,192674,1,0,0:0:0:0:
320,192,192749,1,0,0:0:0:0:
192,192,192824,1,0,0:0:0:0:
448,192,192824,1,0,0:0:0:0:
64,192,192899,1,0,0:0:0:0:
448,192,192974,1,0,0:0:0:0:
320,192,192974,1,0,0:0:0:0:
192,192,193049,1,0,0:0:0:0:
448,192,193124,1,0,0:0:0:0:
320,192,193124,1,0,0:0:0:0:
192,192,193199,1,0,0:0:0:0:
320,192,193274,1,0,0:0:0:0:
64,192,193274,1,0,0:0:0:0:
448,192,193349,1,0,0:0:0:0:
64,192,193424,1,0,0:0:0:0:
192,192,193424,1,0,0:0:0:0:
320,192,193499,1,0,0:0:0:0:
192,192,193574,1,0,0:0:0:0:
448,192,193574,1,0,0:0:0:0:
64,192,193649,1,0,0:0:0:0:
448,192,193724,1,0,0:0:0:0:
320,192,193724,1,0,0:0:0:0:
64,192,193799,1,0,0:0:0:0:
192,192,193874,1,0,0:0:0:0:
320,192,193949,1,0,0:0:0:0:
192,192,194024,1,0,0:0:0:0:
448,192,194024,1,0,0:0:0:0:
64,192,194099,1,0,0:0:0:0:
448,192,194174,1,0,0:0:0:0:
320,192,194249,1,0,0:0:0:0:
192,192,194324,1,0,0:0:0:0:
64,192,194324,1,0,0:0:0:0:
448,192,194399,1,0,0:0:0:0:
64,192,194474,1,0,0:0:0:0:
192,192,194474,1,0,0:0:0:0:
320,192,194549,1,0,0:0:0:0:
64,192,194624,1,0,0:0:0:0:
448,192,194624,1,0,0:0:0:0:
192,192,194699,1,0,0:0:0:0:
320,192,194774,1,0,0:0:0:0:
448,192,194849,1,0,0:0:0:0:
64,192,194924,1,0,0:0:0:0:
192,192,194924,1,0,0:0:0:0:
320,192,194999,1,0,0:0:0:0:
64,192,195074,1,0,0:0:0:0:
192,192,195074,1,0,0:0:0:0:
320,192,195149,1,0,0:0:0:0:
192,192,195224,1,0,0:0:0:0:
448,192,195224,1,0,0:0:0:0:
64,192,195299,1,0,0:0:0:0:
448,192,195374,1,0,0:0:0:0:
320,192,195374,1,0,0:0:0:0:
192,192,195449,1,0,0:0:0:0:
448,192,195524,1,0,0:0:0:0:
320,192,195524,1,0,0:0:0:0:
192,192,195599,1,0,0:0:0:0:
448,192,195674,1,0,0:0:0:0:
64,192,195674,1,0,0:0:0:0:
320,192,195749,1,0,0:0:0:0:
64,192,195824,1,0,0:0:0:0:
192,192,195824,1,0,0:0:0:0:
320,192,195899,1,0,0:0:0:0:
192,192,195974,1,0,0:0:0:0:
448,192,195974,1,0,0:0:0:0:
64,192,196049,1,0,0:0:0:0:
448,192,196124,1,0,0:0:0:0:
320,192,196124,1,0,0:0:0:0:
192,192,196199,1,0,0:0:0:0:
448,192,196274,1,0,0:0:0:0:
320,192,196274,1,0,0:0:0:0:
192,192,196349,1,0,0:0:0:0:
320,192,196424,1,0,0:0:0:0:
64,192,196424,1,0,0:0:0:0:
448,192,196499,1,0,0:0:0:0:
64,192,196574,1,0,0:0:0:0:
192,192,196649,1,0,0:0:0:0:
448,192,196724,1,0,0:0:0:0:
320,192,196724,1,0,0:0:0:0:
192,192,196799,1,0,0:0:0:0:
448,192,196874,1,0,0:0:0:0:
320,192,196874,1,0,0:0:0:0:
192,192,196949,1,0,0:0:0:0:
448,192,197024,1,0,0:0:0:0:
64,192,197024,1,0,0:0:0:0:
320,192,197099,1,0,0:0:0:0:
192,192,197174,1,0,0:0:0:0:
64,192,197249,1,0,0:0:0:0:
448,192,197324,1,0,0:0:0:0:
320,192,197324,1,0,0:0:0:0:
192,192,197399,1,0,0:0:0:0:
448,192,197474,1,0,0:0:0:0:
320,192,197474,1,0,0:0:0:0:
192,192,197549,1,0,0:0:0:0:
448,192,197624,1,0,0:0:0:0:
64,192,197624,1,0,0:0:0:0:
320,192,197699,1,0,0:0:0:0:
192,192,197774,1,0,0:0:0:0:
64,192,197774,1,0,0:0:0:0:
448,192,197849,1,0,0:0:0:0:
64,192,197924,1,0,0:0:0:0:
192,192,197924,1,0,0:0:0:0:
320,192,197999,1,0,0:0:0:0:
448,192,198074,1,0,0:0:0:0:
64,192,198074,1,0,0:0:0:0:
192,192,198149,1,0,0:0:0:0:
448,192,198224,1,0,0:0:0:0:
320,192,198224,1,0,0:0:0:0:
192,192,198299,1,0,0:0:0:0:
64,192,198374,1,0,0:0:0:0:
448,192,198374,1,0,0:0:0:0:
320,192,198449,1,0,0:0:0:0:
64,192,198524,1,0,0:0:0:0:
192,192,198524,1,0,0:0:0:0:
448,192,198599,1,0,0:0:0:0:
320,192,198674,1,0,0:0:0:0:
192,192,198749,1,0,0:0:0:0:
320,192,198824,1,0,0:0:0:0:
64,192,198824,1,0,0:0:0:0:
448,192,198899,1,0,0:0:0:0:
64,192,198974,1,0,0:0:0:0:
192,192,198974,1,0,0:0:0:0:
448,192,199049,1,0,0:0:0:0:
64,192,199124,1,0,0:0:0:0:
192,192,199124,1,0,0:0:0:0:
320,192,199199,1,0,0:0:0:0:
192,192,199274,1,0,0:0:0:0:
64,192,199274,1,0,0:0:0:0:
320,192,199349,1,0,0:0:0:0:
448,192,199424,1,0,0:0:0:0:
64,192,199424,1,0,0:0:0:0:
192,192,199499,1,0,0:0:0:0:
320,192,199574,1,0,0:0:0:0:
448,192,199649,1,0,0:0:0:0:
64,192,199724,1,0,0:0:0:0:
192,192,199724,1,0,0:0:0:0:
448,192,199799,1,0,0:0:0:0:
320,192,199799,1,0,0:0:0:0:
64,192,199874,1,0,0:0:0:0:
192,192,199949,1,0,0:0:0:0:
448,192,200024,1,0,0:0:0:0:
320,192,200024,1,0,0:0:0:0:
64,192,200099,1,0,0:0:0:0:
192,192,200099,1,0,0:0:0:0:
448,192,200174,1,0,0:0:0:0:
320,192,200174,1,0,0:0:0:0:
192,192,200249,1,0,0:0:0:0:
448,192,200324,1,0,0:0:0:0:
64,192,200324,1,0,0:0:0:0:
320,192,200399,1,0,0:0:0:0:
192,192,200474,1,0,0:0:0:0:
64,192,200549,1,0,0:0:0:0:
448,192,200624,1,0,0:0:0:0:
320,192,200624,1,0,0:0:0:0:
192,192,200699,1,0,0:0:0:0:
64,192,200774,1,0,0:0:0:0:
320,192,200774,1,0,0:0:0:0:
448,192,200849,1,0,0:0:0:0:
64,192,200924,1,0,0:0:0:0:
192,192,200924,1,0,0:0:0:0:
320,192,200999,1,0,0:0:0:0:
64,192,201074,1,0,0:0:0:0:
192,192,201074,1,0,0:0:0:0:
320,192,201149,1,0,0:0:0:0:
64,192,201224,1,0,0:0:0:0:
448,192,201224,1,0,0:0:0:0:
192,192,201299,1,0,0:0:0:0:
448,192,201374,1,0,0:0:0:0:
320,192,201374,1,0,0:0:0:0:
192,192,201449,1,0,0:0:0:0:
448,192,201524,1,0,0:0:0:0:
320,192,201524,1,0,0:0:0:0:
192,192,201599,1,0,0:0:0:0:
64,192,201674,1,0,0:0:0:0:
448,192,201674,1,0,0:0:0:0:
320,192,201749,1,0,0:0:0:0:
64,192,201824,1,0,0:0:0:0:
192,192,201824,1,0,0:0:0:0:
320,192,201899,1,0,0:0:0:0:
448,192,201974,1,0,0:0:0:0:
64,192,201974,1,0,0:0:0:0:
192,192,202049,1,0,0:0:0:0:
448,192,202124,1,0,0:0:0:0:
320,192,202124,1,0,0:0:0:0:
192,192,202199,1,0,0:0:0:0:
448,192,202274,1,0,0:0:0:0:
320,192,202274,1,0,0:0:0:0:
192,192,202349,1,0,0:0:0:0:
320,192,202424,1,0,0:0:0:0:
64,192,202424,1,0,0:0:0:0:
448,192,202499,1,0,0:0:0:0:
64,192,202574,1,0,0:0:0:0:
192,192,202649,1,0,0:0:0:0:
448,192,202724,1,0,0:0:0:0:
320,192,202724,1,0,0:0:0:0:
192,192,202799,1,0,0:0:0:0:
448,192,202874,1,0,0:0:0:0:
64,192,202874,1,0,0:0:0:0:
320,192,202949,1,0,0:0:0:0:
64,192,203024,1,0,0:0:0:0:
192,192,203024,1,0,0:0:0:0:
320,192,203099,1,0,0:0:0:0:
192,192,203174,1,0,0:0:0:0:
448,192,203174,1,0,0:0:0:0:
64,192,203249,1,0,0:0:0:0:
448,192,203324,1,0,0:0:0:0:
320,192,203324,1,0,0:0:0:0:
64,192,203399,1,0,0:0:0:0:
192,192,203474,1,0,0:0:0:0:
320,192,203549,1,0,0:0:0:0:
64,192,203624,1,0,0:0:0:0:
448,192,203624,1,0,0:0:0:0:
192,192,203699,1,0,0:0:0:0:
320,192,203774,1,0,0:0:0:0:
192,192,203849,1,0,0:0:0:0:
320,192,203924,1,0,0:0:0:0:
64,192,203924,1,0,0:0:0:0:
448,192,203999,1,0,0:0:0:0:
64,192,204074,1,0,0:0:0:0:
192,192,204074,1,0,0:0:0:0:
448,192,204149,1,0,0:0:0:0:
192,192,204224,1,0,0:0:0:0:
64,192,204224,1,0,0:0:0:0:
320,192,204299,1,0,0:0:0:0:
64,192,204374,1,0,0:0:0:0:
448,192,204374,1,0,0:0:0:0:
192,192,204449,1,0,0:0:0:0:
448,192,204524,1,0,0:0:0:0:
320,192,204524,1,0,0:0:0:0:
192,192,204599,1,0,0:0:0:0:
320,192,204674,1,0,0:0:0:0:
64,192,204674,1,0,0:0:0:0:
448,192,204749,1,0,0:0:0:0:
64,192,204824,1,0,0:0:0:0:
192,192,204824,1,0,0:0:0:0:
448,192,204899,1,0,0:0:0:0:
320,192,204974,1,0,0:0:0:0:
192,192,205049,1,0,0:0:0:0:
64,192,205124,1,0,0:0:0:0:
448,192,205124,1,0,0:0:0:0:
320,192,205199,1,0,0:0:0:0:
64,192,205274,1,0,0:0:0:0:
192,192,205274,1,0,0:0:0:0:
320,192,205349,1,0,0:0:0:0:
64,192,205424,1,0,0:0:0:0:
448,192,205424,1,0,0:0:0:0:
192,192,205499,1,0,0:0:0:0:
448,192,205574,1,0,0:0:0:0:
320,192,205574,1,0,0:0:0:0:
192,192,205649,1,0,0:0:0:0:
320,192,205724,1,0,0:0:0:0:
64,192,205724,1,0,0:0:0:0:
448,192,205799,1,0,0:0:0:0:
64,192,205874,1,0,0:0:0:0:
192,192,205874,1,0,0:0:0:0:
320,192,205949,1,0,0:0:0:0:
64,192,206024,1,0,0:0:0:0:
448,192,206024,1,0,0:0:0:0:
192,192,206099,1,0,0:0:0:0:
448,192,206174,1,0,0:0:0:0:
320,192,206174,1,0,0:0:0:0:
192,192,206249,1,0,0:0:0:0:
64,192,206324,1,0,0:0:0:0:
448,192,206324,1,0,0:0:0:0:
320,192,206399,1,0,0:0:0:0:
192,192,206474,1,0,0:0:0:0:
64,192,206549,1,0,0:0:0:0:
448,192,206624,1,0,0:0:0:0:
320,192,206624,1,0,0:0:0:0:
64,192,206699,1,0,0:0:0:0:
448,192,206774,1,0,0:0:0:0:
320,192,206774,1,0,0:0:0:0:
192,192,206849,1,0,0:0:0:0:
448,192,206924,1,0,0:0:0:0:
320,192,206924,1,0,0:0:0:0:
192,192,206999,1,0,0:0:0:0:
448,192,207074,1,0,0:0:0:0:
320,192,207074,1,0,0:0:0:0:
192,192,207149,1,0,0:0:0:0:
64,192,207224,1,0,0:0:0:0:
448,192,207224,1,0,0:0:0:0:
320,192,207299,1,0,0:0:0:0:
64,192,207374,1,0,0:0:0:0:
192,192,207449,1,0,0:0:0:0:
448,192,207524,1,0,0:0:0:0:
320,192,207524,1,0,0:0:0:0:
192,192,207599,1,0,0:0:0:0:
448,192,207674,1,0,0:0:0:0:
64,192,207674,1,0,0:0:0:0:
320,192,207749,1,0,0:0:0:0:
64,192,207824,1,0,0:0:0:0:
192,192,207824,1,0,0:0:0:0:
320,192,208424,1,0,0:0:0:0:
448,192,208424,1,0,0:0:0:0:
192,192,208649,1,0,0:0:0:0:
320,192,208649,1,0,0:0:0:0:
192,192,208874,1,0,0:0:0:0:
64,192,208874,1,0,0:0:0:0:
448,192,209024,1,0,0:0:0:0:
320,192,209024,1,0,0:0:0:0:
192,192,209174,1,0,0:0:0:0:
320,192,209324,1,0,0:0:0:0:
448,192,209324,1,0,0:0:0:0:
64,192,209324,1,0,0:0:0:0:
192,192,209474,1,0,0:0:0:0:
448,192,209624,1,0,0:0:0:0:
64,192,209624,1,0,0:0:0:0:
320,192,209774,1,0,0:0:0:0:
448,192,209924,1,0,0:0:0:0:
192,192,209924,1,0,0:0:0:0:
64,192,209924,1,0,0:0:0:0:
64,192,210074,1,0,0:0:0:0:
192,192,210074,1,0,0:0:0:0:
64,192,210224,1,0,0:0:0:0:
320,192,210224,1,0,0:0:0:0:
192,192,210374,1,0,0:0:0:0:
448,192,210524,1,0,0:0:0:0:
320,192,210524,1,0,0:0:0:0:
64,192,210524,1,0,0:0:0:0:
192,192,210674,1,0,0:0:0:0:
320,192,210824,1,0,0:0:0:0:
64,192,210824,1,0,0:0:0:0:
192,192,210974,1,0,0:0:0:0:
320,192,211124,1,0,0:0:0:0:
448,192,211124,1,0,0:0:0:0:
64,192,211124,1,0,0:0:0:0:
192,192,211274,1,0,0:0:0:0:
64,192,211424,1,0,0:0:0:0:
320,192,211424,1,0,0:0:0:0:
192,192,211574,1,0,0:0:0:0:
64,192,211724,1,0,0:0:0:0:
320,192,211724,1,0,0:0:0:0:
448,192,211724,1,0,0:0:0:0:
192,192,211874,1,0,0:0:0:0:
320,192,212024,1,0,0:0:0:0:
64,192,212024,1,0,0:0:0:0:
192,192,212174,1,0,0:0:0:0:
320,192,212324,1,0,0:0:0:0:
448,192,212324,1,0,0:0:0:0:
64,192,212324,1,0,0:0:0:0:
320,192,212474,1,0,0:0:0:0:
448,192,212474,1,0,0:0:0:0:
448,192,212624,1,0,0:0:0:0:
192,192,212624,1,0,0:0:0:0:
320,192,212774,1,0,0:0:0:0:
192,192,212924,1,0,0:0:0:0:
64,192,212924,1,0,0:0:0:0:
448,192,212924,1,0,0:0:0:0:
320,192,213074,1,0,0:0:0:0:
64,192,213224,1,0,0:0:0:0:
192,192,213224,1,0,0:0:0:0:
448,192,213374,1,0,0:0:0:0:
320,192,213524,1,0,0:0:0:0:
192,192,213524,1,0,0:0:0:0:
64,192,213524,1,0,0:0:0:0:
448,192,213674,1,0,0:0:0:0:
64,192,213824,1,0,0:0:0:0:
320,192,213824,1,0,0:0:0:0:
192,192,213974,1,0,0:0:0:0:
320,192,214124,1,0,0:0:0:0:
448,192,214124,1,0,0:0:0:0:
64,192,214124,1,0,0:0:0:0:
192,192,214274,1,0,0:0:0:0:
320,192,214424,1,0,0:0:0:0:
64,192,214424,1,0,0:0:0:0:
192,192,214574,1,0,0:0:0:0:
320,192,214724,1,0,0:0:0:0:
64,192,214724,1,0,0:0:0:0:
448,192,214724,1,0,0:0:0:0:
320,192,214874,1,0,0:0:0:0:
64,192,214874,1,0,0:0:0:0:
192,192,215024,1,0,0:0:0:0:
64,192,215024,1,0,0:0:0:0:
320,192,215174,1,0,0:0:0:0:
192,192,215324,1,0,0:0:0:0:
448,192,215324,1,0,0:0:0:0:
64,192,215324,1,0,0:0:0:0:
320,192,215474,1,0,0:0:0:0:
192,192,215624,1,0,0:0:0:0:
448,192,215624,1,0,0:0:0:0:
320,192,215774,1,0,0:0:0:0:
192,192,215924,1,0,0:0:0:0:
64,192,215924,1,0,0:0:0:0:
448,192,215924,1,0,0:0:0:0:
320,192,216074,1,0,0:0:0:0:
192,192,216224,1,0,0:0:0:0:
64,192,216224,1,0,0:0:0:0:
320,192,216374,1,0,0:0:0:0:
448,192,216524,1,0,0:0:0:0:
192,192,216524,1,0,0:0:0:0:
64,192,216524,1,0,0:0:0:0:
320,192,216674,1,0,0:0:0:0:
448,192,216824,1,0,0:0:0:0:
192,192,216824,1,0,0:0:0:0:
320,192,216974,1,0,0:0:0:0:
64,192,217124,1,0,0:0:0:0:
448,192,217124,1,0,0:0:0:0:
192,192,217124,1,0,0:0:0:0:
64,192,217274,1,0,0:0:0:0:
192,192,217274,1,0,0:0:0:0:
320,192,217424,1,0,0:0:0:0:
64,192,217424,1,0,0:0:0:0:
320,192,217574,1,0,0:0:0:0:
192,192,217724,1,0,0:0:0:0:
448,192,217724,1,0,0:0:0:0:
64,192,217874,1,0,0:0:0:0:
320,192,217874,1,0,0:0:0:0:
320,192,218024,1,0,0:0:0:0:
192,192,218099,1,0,0:0:0:0:
64,192,218174,1,0,0:0:0:0:
448,192,218249,1,0,0:0:0:0:
64,192,218324,1,0,0:0:0:0:
448,192,218399,1,0,0:0:0:0:
320,192,218474,1,0,0:0:0:0:
192,192,218549,1,0,0:0:0:0:
320,192,218624,1,0,0:0:0:0:
448,192,218624,1,0,0:0:0:0:
64,192,218624,1,0,0:0:0:0:
192,192,218774,1,0,0:0:0:0:
320,192,218924,1,0,0:0:0:0:
448,192,218924,1,0,0:0:0:0:
64,192,218924,1,0,0:0:0:0:
192,192,219074,1,0,0:0:0:0:
448,192,219224,1,0,0:0:0:0:
320,192,219224,1,0,0:0:0:0:
192,192,219374,1,0,0:0:0:0:
448,192,219524,1,0,0:0:0:0:
320,192,219524,1,0,0:0:0:0:
64,192,219524,1,0,0:0:0:0:
64,192,219674,1,0,0:0:0:0:
320,192,219674,1,0,0:0:0:0:
448,192,219824,1,0,0:0:0:0:
320,192,219824,1,0,0:0:0:0:
192,192,219974,1,0,0:0:0:0:
320,192,220124,1,0,0:0:0:0:
64,192,220124,1,0,0:0:0:0:
448,192,220124,1,0,0:0:0:0:
192,192,220274,1,0,0:0:0:0:
320,192,220424,1,0,0:0:0:0:
448,192,220424,1,0,0:0:0:0:
192,192,220574,1,0,0:0:0:0:
448,192,220724,1,0,0:0:0:0:
320,192,220724,1,0,0:0:0:0:
64,192,220724,1,0,0:0:0:0:
192,192,220874,1,0,0:0:0:0:
448,192,221024,1,0,0:0:0:0:
320,192,221024,1,0,0:0:0:0:
192,192,221174,1,0,0:0:0:0:
64,192,221324,1,0,0:0:0:0:
448,192,221324,1,0,0:0:0:0:
320,192,221324,1,0,0:0:0:0:
192,192,221474,1,0,0:0:0:0:
448,192,221624,1,0,0:0:0:0:
320,192,221624,1,0,0:0:0:0:
192,192,221774,1,0,0:0:0:0:
448,192,221924,1,0,0:0:0:0:
320,192,221924,1,0,0:0:0:0:
64,192,221924,1,0,0:0:0:0:
448,192,222074,1,0,0:0:0:0:
320,192,222074,1,0,0:0:0:0:
448,192,222224,1,0,0:0:0:0:
64,192,222224,1,0,0:0:0:0:
320,192,222374,1,0,0:0:0:0:
448,192,222524,1,0,0:0:0:0:
192,192,222524,1,0,0:0:0:0:
64,192,222524,1,0,0:0:0:0:
320,192,222674,1,0,0:0:0:0:
448,192,222824,1,0,0:0:0:0:
64,192,222824,1,0,0:0:0:0:
320,192,222974,1,0,0:0:0:0:
192,192,223124,1,0,0:0:0:0:
448,192,223124,1,0,0:0:0:0:
64,192,223124,1,0,0:0:0:0:
320,192,223274,1,0,0:0:0:0:
64,192,223424,1,0,0:0:0:0:
192,192,223424,1,0,0:0:0:0:
320,192,223574,1,0,0:0:0:0:
64,192,223724,1,0,0:0:0:0:
448,192,223724,1,0,0:0:0:0:
192,192,223724,1,0,0:0:0:0:
320,192,223874,1,0,0:0:0:0:
64,192,224024,1,0,0:0:0:0:
192,192,224024,1,0,0:0:0:0:
320,192,224174,1,0,0:0:0:0:
448,192,224324,1,0,0:0:0:0:
192,192,224324,1,0,0:0:0:0:
64,192,224324,1,0,0:0:0:0:
192,192,224474,1,0,0:0:0:0:
64,192,224474,1,0,0:0:0:0:
448,192,224624,1,0,0:0:0:0:
64,192,224624,1,0,0:0:0:0:
320,192,224774,1,0,0:0:0:0:
64,192,224924,1,0,0:0:0:0:
192,192,224924,1,0,0:0:0:0:
448,192,224924,1,0,0:0:0:0:
320,192,225074,1,0,0:0:0:0:
64,192,225224,1,0,0:0:0:0:
192,192,225224,1,0,0:0:0:0:
320,192,225374,1,0,0:0:0:0:
64,192,225524,1,0,0:0:0:0:
192,192,225524,1,0,0:0:0:0:
448,192,225524,1,0,0:0:0:0:
320,192,225674,1,0,0:0:0:0:
192,192,225824,1,0,0:0:0:0:
448,192,225824,1,0,0:0:0:0:
64,192,225974,1,0,0:0:0:0:
448,192,226124,1,0,0:0:0:0:
320,192,226124,1,0,0:0:0:0:
192,192,226124,1,0,0:0:0:0:
64,192,226274,1,0,0:0:0:0:
448,192,226424,1,0,0:0:0:0:
320,192,226424,1,0,0:0:0:0:
192,192,226574,1,0,0:0:0:0:
320,192,226724,1,0,0:0:0:0:
64,192,226724,1,0,0:0:0:0:
448,192,226724,1,0,0:0:0:0:
320,192,226874,1,0,0:0:0:0:
448,192,226874,1,0,0:0:0:0:
192,192,227024,1,0,0:0:0:0:
448,192,227024,1,0,0:0:0:0:
320,192,227174,1,0,0:0:0:0:
192,192,227324,1,0,0:0:0:0:
448,192,227324,1,0,0:0:0:0:
64,192,227324,1,0,0:0:0:0:
320,192,227474,1,0,0:0:0:0:
64,192,227624,1,0,0:0:0:0:
192,192,227624,1,0,0:0:0:0:
320,192,227774,1,0,0:0:0:0:
192,192,227924,1,0,0:0:0:0:
448,192,227924,1,0,0:0:0:0:
64,192,227924,1,0,0:0:0:0:
320,192,228074,1,0,0:0:0:0:
192,192,228224,1,0,0:0:0:0:
64,192,228224,1,0,0:0:0:0:
448,192,228224,1,0,0:0:0:0:
