osu file format v14

[General]
AudioFilename: audio125.mp3
AudioLeadIn: 0
PreviewTime: 66730
Countdown: 0
SampleSet: Soft
StackLeniency: 0.7
Mode: 3
LetterboxInBreaks: 0
SpecialStyle: 0
WidescreenStoryboard: 1

[Editor]
DistanceSpacing: 1
BeatDivisor: 4
GridSize: 8
TimelineZoom: 2.7

[Metadata]
Title:Holding out for a Hero
TitleUnicode:Holding out for a Hero
Artist:Helblinde
ArtistUnicode:Helblinde
Creator:NikoSek
Version:H [x1.25]
Source:
Tags:featured artist fa electronic instrumental stamina Bonnie Tyler Ephemerality jumpstream speed rates
BeatmapID:2182355
BeatmapSetID:1040735

[Difficulty]
HPDrainRate:8
CircleSize:4
OverallDifficulty:8
ApproachRate:5
SliderMultiplier:1.4
SliderTickRate:1

[Events]
//Background and Video events
0,0,"bg2 tst.jpg",0,0
//Break Periods
//Storyboard Layer 0 (Background)
//Storyboard Layer 1 (Fail)
//Storyboard Layer 2 (Pass)
//Storyboard Layer 3 (Foreground)
//Storyboard Layer 4 (Overlay)
//Storyboard Sound Samples

[TimingPoints]
12739,240,4,2,0,10,1,0

[HitObjects]
64,192,12739,5,0,0:0:0:0:
192,192,12739,1,0,0:0:0:0:
320,192,12859,1,0,0:0:0:0:
64,192,12979,1,0,0:0:0:0:
192,192,12979,1,0,0:0:0:0:
448,192,12979,1,0,0:0:0:0:
320,192,13099,1,0,0:0:0:0:
192,192,13219,1,0,0:0:0:0:
448,192,13219,1,0,0:0:0:0:
64,192,13339,1,0,0:0:0:0:
320,192,13459,1,0,0:0:0:0:
448,192,13459,1,0,0:0:0:0:
192,192,13459,1,0,0:0:0:0:
64,192,13579,1,0,0:0:0:0:
448,192,13699,1,0,0:0:0:0:
320,192,13699,1,0,0:0:0:0:
192,192,13819,1,0,0:0:0:0:
448,192,13939,1,0,0:0:0:0:
320,192,13939,1,0,0:0:0:0:
64,192,13939,1,0,0:0:0:0:
192,192,14059,1,0,0:0:0:0:
448,192,14179,1,0,0:0:0:0:
64,192,14179,1,0,0:0:0:0:
320,192,14299,1,0,0:0:0:0:
448,192,14419,1,0,0:0:0:0:
64,192,14419,1,0,0:0:0:0:
192,192,14419,1,0,0:0:0:0:
64,192,14539,1,0,0:0:0:0:
192,192,14539,1,0,0:0:0:0:
64,192,14659,1,0,0:0:0:0:
320,192,14659,1,0,0:0:0:0:
192,192,14779,1,0,0:0:0:0:
448,192,14899,1,0,0:0:0:0:
320,192,14899,1,0,0:0:0:0:
64,192,14899,1,0,0:0:0:0:
192,192,15019,1,0,0:0:0:0:
64,192,15139,1,0,0:0:0:0:
320,192,15139,1,0,0:0:0:0:
448,192,15259,1,0,0:0:0:0:
320,192,15379,1,0,0:0:0:0:
64,192,15379,1,0,0:0:0:0:
192,192,15379,1,0,0:0:0:0:
448,192,15499,1,0,0:0:0:0:
192,192,15619,1,0,0:0:0:0:
64,192,15619,1,0,0:0:0:0:
192,192,15739,1,0,0:0:0:0:
320,192,15859,1,0,0:0:0:0:
64,192,15859,1,0,0:0:0:0:
192,192,15979,1,0,0:0:0:0:
192,192,16099,1,0,0:0:0:0:
320,192,16159,1,0,0:0:0:0:
448,192,16219,1,0,0:0:0:0:
448,192,16339,1,0,0:0:0:0:
320,192,16399,1,0,0:0:0:0:
64,192,16459,1,0,0:0:0:0:
192,192,16459,1,0,0:0:0:0:
448,192,16519,1,0,0:0:0:0:
192,192,16579,1,0,0:0:0:0:
320,192,16579,1,0,0:0:0:0:
64,192,16579,1,0,0:0:0:0:
448,192,16699,1,0,0:0:0:0:
64,192,16819,1,0,0:0:0:0:
192,192,16819,1,0,0:0:0:0:
320,192,16819,1,0,0:0:0:0:
448,192,16939,1,0,0:0:0:0:
64,192,17059,1,0,0:0:0:0:
192,192,17059,1,0,0:0:0:0:
320,192,17179,1,0,0:0:0:0:
64,192,17299,1,0,0:0:0:0:
192,192,17299,1,0,0:0:0:0:
448,192,17299,1,0,0:0:0:0:
320,192,17419,1,0,0:0:0:0:
64,192,17539,1,0,0:0:0:0:
448,192,17539,1,0,0:0:0:0:
192,192,17659,1,0,0:0:0:0:
64,192,17779,1,0,0:0:0:0:
448,192,17779,1,0,0:0:0:0:
320,192,17779,1,0,0:0:0:0:
192,192,17899,1,0,0:0:0:0:
448,192,18019,1,0,0:0:0:0:
320,192,18019,1,0,0:0:0:0:
192,192,18139,1,0,0:0:0:0:
448,192,18259,1,0,0:0:0:0:
320,192,18259,1,0,0:0:0:0:
64,192,18259,1,0,0:0:0:0:
320,192,18379,1,0,0:0:0:0:
448,192,18379,1,0,0:0:0:0:
448,192,18499,1,0,0:0:0:0:
192,192,18499,1,0,0:0:0:0:
320,192,18619,1,0,0:0:0:0:
64,192,18739,1,0,0:0:0:0:
192,192,18739,1,0,0:0:0:0:
448,192,18739,1,0,0:0:0:0:
320,192,18859,1,0,0:0:0:0:
448,192,18979,1,0,0:0:0:0:
64,192,18979,1,0,0:0:0:0:
192,192,19099,1,0,0:0:0:0:
320,192,19219,1,0,0:0:0:0:
448,192,19219,1,0,0:0:0:0:
64,192,19219,1,0,0:0:0:0:
192,192,19339,1,0,0:0:0:0:
320,192,19459,1,0,0:0:0:0:
64,192,19459,1,0,0:0:0:0:
320,192,19579,1,0,0:0:0:0:
64,192,19699,1,0,0:0:0:0:
192,192,19699,1,0,0:0:0:0:
448,192,19699,1,0,0:0:0:0:
448,192,19819,1,0,0:0:0:0:
64,192,19819,1,0,0:0:0:0:
192,192,19819,1,0,0:0:0:0:
320,192,19939,1,0,0:0:0:0:
192,192,19999,1,0,0:0:0:0:
64,192,20059,1,0,0:0:0:0:
448,192,20059,1,0,0:0:0:0:
320,192,20059,1,0,0:0:0:0:
64,192,20179,1,0,0:0:0:0:
320,192,20179,1,0,0:0:0:0:
448,192,20179,1,0,0:0:0:0:
64,192,20419,1,0,0:0:0:0:
448,192,20419,1,0,0:0:0:0:
320,192,20419,1,0,0:0:0:0:
192,192,20479,1,0,0:0:0:0:
320,192,20539,1,0,0:0:0:0:
192,192,20599,1,0,0:0:0:0:
448,192,20659,1,0,0:0:0:0:
64,192,20659,1,0,0:0:0:0:
320,192,20719,1,0,0:0:0:0:
192,192,20779,1,0,0:0:0:0:
64,192,20839,1,0,0:0:0:0:
448,192,20899,1,0,0:0:0:0:
320,192,20899,1,0,0:0:0:0:
64,192,20959,1,0,0:0:0:0:
192,192,21019,1,0,0:0:0:0:
320,192,21079,1,0,0:0:0:0:
448,192,21139,1,0,0:0:0:0:
64,192,21139,1,0,0:0:0:0:
192,192,21199,1,0,0:0:0:0:
320,192,21259,1,0,0:0:0:0:
192,192,21319,1,0,0:0:0:0:
320,192,21379,1,0,0:0:0:0:
64,192,21379,1,0,0:0:0:0:
448,192,21439,1,0,0:0:0:0:
64,192,21499,1,0,0:0:0:0:
448,192,21559,1,0,0:0:0:0:
192,192,21619,1,0,0:0:0:0:
320,192,21619,1,0,0:0:0:0:
64,192,21679,1,0,0:0:0:0:
448,192,21739,1,0,0:0:0:0:
64,192,21799,1,0,0:0:0:0:
320,192,21859,1,0,0:0:0:0:
192,192,21859,1,0,0:0:0:0:
448,192,21919,1,0,0:0:0:0:
192,192,21979,1,0,0:0:0:0:
448,192,22039,1,0,0:0:0:0:
192,192,22099,1,0,0:0:0:0:
320,192,22099,1,0,0:0:0:0:
64,192,22159,1,0,0:0:0:0:
448,192,22219,1,0,0:0:0:0:
320,192,22279,1,0,0:0:0:0:
192,192,22339,1,0,0:0:0:0:
64,192,22339,1,0,0:0:0:0:
320,192,22399,1,0,0:0:0:0:
448,192,22459,1,0,0:0:0:0:
64,192,22519,1,0,0:0:0:0:
192,192,22579,1,0,0:0:0:0:
448,192,22579,1,0,0:0:0:0:
320,192,22639,1,0,0:0:0:0:
192,192,22699,1,0,0:0:0:0:
64,192,22759,1,0,0:0:0:0:
320,192,22819,1,0,0:0:0:0:
448,192,22819,1,0,0:0:0:0:
64,192,22879,1,0,0:0:0:0:
192,192,22939,1,0,0:0:0:0:
320,192,22999,1,0,0:0:0:0:
448,192,23059,1,0,0:0:0:0:
192,192,23059,1,0,0:0:0:0:
64,192,23119,1,0,0:0:0:0:
448,192,23179,1,0,0:0:0:0:
64,192,23239,1,0,0:0:0:0:
320,192,23299,1,0,0:0:0:0:
192,192,23299,1,0,0:0:0:0:
448,192,23359,1,0,0:0:0:0:
64,192,23419,1,0,0:0:0:0:
448,192,23479,1,0,0:0:0:0:
192,192,23539,1,0,0:0:0:0:
320,192,23539,1,0,0:0:0:0:
64,192,23599,1,0,0:0:0:0:
192,192,23659,1,0,0:0:0:0:
320,192,23719,1,0,0:0:0:0:
64,192,23779,1,0,0:0:0:0:
448,192,23779,1,0,0:0:0:0:
192,192,23839,1,0,0:0:0:0:
448,192,23899,1,0,0:0:0:0:
192,192,23959,1,0,0:0:0:0:
448,192,24019,1,0,0:0:0:0:
320,192,24019,1,0,0:0:0:0:
64,192,24079,1,0,0:0:0:0:
192,192,24139,1,0,0:0:0:0:
320,192,24199,1,0,0:0:0:0:
192,192,24259,1,0,0:0:0:0:
448,192,24259,1,0,0:0:0:0:
64,192,24319,1,0,0:0:0:0:
448,192,24379,1,0,0:0:0:0:
320,192,24439,1,0,0:0:0:0:
192,192,24499,1,0,0:0:0:0:
64,192,24499,1,0,0:0:0:0:
320,192,24559,1,0,0:0:0:0:
448,192,24619,1,0,0:0:0:0:
64,192,24679,1,0,0:0:0:0:
192,192,24739,1,0,0:0:0:0:
448,192,24739,1,0,0:0:0:0:
320,192,24799,1,0,0:0:0:0:
192,192,24859,1,0,0:0:0:0:
64,192,24919,1,0,0:0:0:0:
448,192,24979,1,0,0:0:0:0:
320,192,24979,1,0,0:0:0:0:
192,192,25039,1,0,0:0:0:0:
320,192,25099,1,0,0:0:0:0:
448,192,25159,1,0,0:0:0:0:
64,192,25219,1,0,0:0:0:0:
192,192,25219,1,0,0:0:0:0:
448,192,25279,1,0,0:0:0:0:
320,192,25339,1,0,0:0:0:0:
192,192,25399,1,0,0:0:0:0:
320,192,25459,1,0,0:0:0:0:
448,192,25459,1,0,0:0:0:0:
64,192,25519,1,0,0:0:0:0:
192,192,25579,1,0,0:0:0:0:
320,192,25639,1,0,0:0:0:0:
192,192,25699,1,0,0:0:0:0:
448,192,25699,1,0,0:0:0:0:
64,192,25759,1,0,0:0:0:0:
448,192,25819,1,0,0:0:0:0:
64,192,25879,1,0,0:0:0:0:
320,192,25939,1,0,0:0:0:0:
192,192,25939,1,0,0:0:0:0:
448,192,25999,1,0,0:0:0:0:
320,192,26059,1,0,0:0:0:0:
192,192,26119,1,0,0:0:0:0:
448,192,26179,1,0,0:0:0:0:
64,192,26179,1,0,0:0:0:0:
320,192,26239,1,0,0:0:0:0:
64,192,26299,1,0,0:0:0:0:
192,192,26359,1,0,0:0:0:0:
448,192,26419,1,0,0:0:0:0:
320,192,26419,1,0,0:0:0:0:
64,192,26479,1,0,0:0:0:0:
448,192,26539,1,0,0:0:0:0:
320,192,26599,1,0,0:0:0:0:
192,192,26659,1,0,0:0:0:0:
64,192,26659,1,0,0:0:0:0:
320,192,26719,1,0,0:0:0:0:
448,192,26779,1,0,0:0:0:0:
64,192,26839,1,0,0:0:0:0:
192,192,26899,1,0,0:0:0:0:
448,192,26899,1,0,0:0:0:0:
320,192,26959,1,0,0:0:0:0:
192,192,27019,1,0,0:0:0:0:
320,192,27079,1,0,0:0:0:0:
448,192,27139,1,0,0:0:0:0:
64,192,27139,1,0,0:0:0:0:
64,192,27379,1,0,0:0:0:0:
320,192,27379,1,0,0:0:0:0:
192,192,27619,1,0,0:0:0:0:
64,192,27859,1,0,0:0:0:0:
320,192,27859,1,0,0:0:0:0:
448,192,28099,1,0,0:0:0:0:
64,192,28099,1,0,0:0:0:0:
192,192,28099,1,0,0:0:0:0:
320,192,28159,1,0,0:0:0:0:
192,192,28219,1,0,0:0:0:0:
64,192,28279,1,0,0:0:0:0:
448,192,28339,1,0,0:0:0:0:
320,192,28339,1,0,0:0:0:0:
192,192,28399,1,0,0:0:0:0:
320,192,28459,1,0,0:0:0:0:
192,192,28519,1,0,0:0:0:0:
320,192,28579,1,0,0:0:0:0:
64,192,28579,1,0,0:0:0:0:
448,192,28639,1,0,0:0:0:0:
64,192,28699,1,0,0:0:0:0:
192,192,28759,1,0,0:0:0:0:
448,192,28819,1,0,0:0:0:0:
320,192,28819,1,0,0:0:0:0:
64,192,28879,1,0,0:0:0:0:
448,192,28939,1,0,0:0:0:0:
320,192,28939,1,0,0:0:0:0:
192,192,28999,1,0,0:0:0:0:
448,192,29059,1,0,0:0:0:0:
64,192,29059,1,0,0:0:0:0:
320,192,29119,1,0,0:0:0:0:
192,192,29179,1,0,0:0:0:0:
64,192,29179,1,0,0:0:0:0:
320,192,29239,1,0,0:0:0:0:
64,192,29299,1,0,0:0:0:0:
448,192,29299,1,0,0:0:0:0:
192,192,29359,1,0,0:0:0:0:
320,192,29419,1,0,0:0:0:0:
448,192,29419,1,0,0:0:0:0:
192,192,29479,1,0,0:0:0:0:
320,192,29539,1,0,0:0:0:0:
64,192,29539,1,0,0:0:0:0:
192,192,29599,1,0,0:0:0:0:
320,192,29659,1,0,0:0:0:0:
448,192,29719,1,0,0:0:0:0:
64,192,29779,1,0,0:0:0:0:
192,192,29779,1,0,0:0:0:0:
448,192,29839,1,0,0:0:0:0:
320,192,29899,1,0,0:0:0:0:
192,192,29959,1,0,0:0:0:0:
64,192,30019,1,0,0:0:0:0:
448,192,30019,1,0,0:0:0:0:
320,192,30079,1,0,0:0:0:0:
64,192,30139,1,0,0:0:0:0:
192,192,30199,1,0,0:0:0:0:
320,192,30259,1,0,0:0:0:0:
448,192,30259,1,0,0:0:0:0:
64,192,30319,1,0,0:0:0:0:
448,192,30379,1,0,0:0:0:0:
320,192,30379,1,0,0:0:0:0:
192,192,30439,1,0,0:0:0:0:
64,192,30499,1,0,0:0:0:0:
448,192,30499,1,0,0:0:0:0:
320,192,30559,1,0,0:0:0:0:
64,192,30619,1,0,0:0:0:0:
192,192,30679,1,0,0:0:0:0:
448,192,30739,1,0,0:0:0:0:
320,192,30739,1,0,0:0:0:0:
192,192,30799,1,0,0:0:0:0:
64,192,30859,1,0,0:0:0:0:
448,192,30859,1,0,0:0:0:0:
320,192,30919,1,0,0:0:0:0:
64,192,30979,1,0,0:0:0:0:
192,192,30979,1,0,0:0:0:0:
64,192,31099,1,0,0:0:0:0:
192,192,31099,1,0,0:0:0:0:
448,192,31219,1,0,0:0:0:0:
320,192,31219,1,0,0:0:0:0:
64,192,31219,1,0,0:0:0:0:
448,192,31339,1,0,0:0:0:0:
192,192,31339,1,0,0:0:0:0:
320,192,31459,1,0,0:0:0:0:
192,192,31459,1,0,0:0:0:0:
448,192,31579,1,0,0:0:0:0:
192,192,31579,1,0,0:0:0:0:
320,192,31699,1,0,0:0:0:0:
64,192,31699,1,0,0:0:0:0:
448,192,31699,1,0,0:0:0:0:
64,192,31819,1,0,0:0:0:0:
320,192,31819,1,0,0:0:0:0:
192,192,31939,1,0,0:0:0:0:
64,192,31939,1,0,0:0:0:0:
448,192,31939,1,0,0:0:0:0:
320,192,31999,1,0,0:0:0:0:
192,192,32059,1,0,0:0:0:0:
64,192,32119,1,0,0:0:0:0:
448,192,32179,1,0,0:0:0:0:
320,192,32179,1,0,0:0:0:0:
64,192,32239,1,0,0:0:0:0:
448,192,32299,1,0,0:0:0:0:
192,192,32299,1,0,0:0:0:0:
320,192,32359,1,0,0:0:0:0:
64,192,32419,1,0,0:0:0:0:
192,192,32419,1,0,0:0:0:0:
448,192,32479,1,0,0:0:0:0:
64,192,32539,1,0,0:0:0:0:
320,192,32539,1,0,0:0:0:0:
192,192,32599,1,0,0:0:0:0:
448,192,32659,1,0,0:0:0:0:
320,192,32659,1,0,0:0:0:0:
64,192,32719,1,0,0:0:0:0:
448,192,32779,1,0,0:0:0:0:
192,192,32779,1,0,0:0:0:0:
320,192,32839,1,0,0:0:0:0:
64,192,32899,1,0,0:0:0:0:
192,192,32899,1,0,0:0:0:0:
448,192,32959,1,0,0:0:0:0:
192,192,33019,1,0,0:0:0:0:
320,192,33019,1,0,0:0:0:0:
64,192,33079,1,0,0:0:0:0:
448,192,33139,1,0,0:0:0:0:
320,192,33139,1,0,0:0:0:0:
192,192,33199,1,0,0:0:0:0:
448,192,33259,1,0,0:0:0:0:
320,192,33259,1,0,0:0:0:0:
192,192,33319,1,0,0:0:0:0:
448,192,33379,1,0,0:0:0:0:
64,192,33379,1,0,0:0:0:0:
320,192,33439,1,0,0:0:0:0:
192,192,33499,1,0,0:0:0:0:
64,192,33559,1,0,0:0:0:0:
448,192,33619,1,0,0:0:0:0:
320,192,33619,1,0,0:0:0:0:
192,192,33679,1,0,0:0:0:0:
448,192,33739,1,0,0:0:0:0:
320,192,33739,1,0,0:0:0:0:
192,192,33799,1,0,0:0:0:0:
448,192,33859,1,0,0:0:0:0:
64,192,33859,1,0,0:0:0:0:
320,192,33919,1,0,0:0:0:0:
64,192,33979,1,0,0:0:0:0:
192,192,34039,1,0,0:0:0:0:
448,192,34099,1,0,0:0:0:0:
320,192,34099,1,0,0:0:0:0:
192,192,34159,1,0,0:0:0:0:
448,192,34219,1,0,0:0:0:0:
64,192,34219,1,0,0:0:0:0:
320,192,34279,1,0,0:0:0:0:
64,192,34339,1,0,0:0:0:0:
192,192,34339,1,0,0:0:0:0:
320,192,34399,1,0,0:0:0:0:
448,192,34459,1,0,0:0:0:0:
192,192,34519,1,0,0:0:0:0:
448,192,34579,1,0,0:0:0:0:
320,192,34579,1,0,0:0:0:0:
192,192,34639,1,0,0:0:0:0:
320,192,34699,1,0,0:0:0:0:
64,192,34699,1,0,0:0:0:0:
448,192,34759,1,0,0:0:0:0:
64,192,34819,1,0,0:0:0:0:
192,192,34819,1,0,0:0:0:0:
320,192,35539,1,0,0:0:0:0:
192,192,35539,1,0,0:0:0:0:
320,192,35659,1,0,0:0:0:0:
192,192,35659,1,0,0:0:0:0:
320,192,35779,1,0,0:0:0:0:
64,192,35779,1,0,0:0:0:0:
448,192,35779,1,0,0:0:0:0:
192,192,35839,1,0,0:0:0:0:
448,192,35899,1,0,0:0:0:0:
320,192,35959,1,0,0:0:0:0:
64,192,36019,1,0,0:0:0:0:
192,192,36019,1,0,0:0:0:0:
320,192,36079,1,0,0:0:0:0:
64,192,36139,1,0,0:0:0:0:
192,192,36139,1,0,0:0:0:0:
320,192,36199,1,0,0:0:0:0:
64,192,36259,1,0,0:0:0:0:
448,192,36259,1,0,0:0:0:0:
192,192,36319,1,0,0:0:0:0:
320,192,36379,1,0,0:0:0:0:
192,192,36439,1,0,0:0:0:0:
448,192,36499,1,0,0:0:0:0:
320,192,36499,1,0,0:0:0:0:
64,192,36559,1,0,0:0:0:0:
448,192,36619,1,0,0:0:0:0:
320,192,36619,1,0,0:0:0:0:
64,192,36679,1,0,0:0:0:0:
320,192,36739,1,0,0:0:0:0:
192,192,36739,1,0,0:0:0:0:
448,192,36799,1,0,0:0:0:0:
64,192,36859,1,0,0:0:0:0:
192,192,36919,1,0,0:0:0:0:
448,192,36979,1,0,0:0:0:0:
320,192,36979,1,0,0:0:0:0:
192,192,37039,1,0,0:0:0:0:
320,192,37099,1,0,0:0:0:0:
192,192,37159,1,0,0:0:0:0:
320,192,37219,1,0,0:0:0:0:
64,192,37219,1,0,0:0:0:0:
448,192,37279,1,0,0:0:0:0:
64,192,37339,1,0,0:0:0:0:
192,192,37339,1,0,0:0:0:0:
448,192,37399,1,0,0:0:0:0:
320,192,37399,1,0,0:0:0:0:
64,192,37459,1,0,0:0:0:0:
192,192,37459,1,0,0:0:0:0:
448,192,37519,1,0,0:0:0:0:
320,192,37579,1,0,0:0:0:0:
64,192,37579,1,0,0:0:0:0:
192,192,37639,1,0,0:0:0:0:
448,192,37699,1,0,0:0:0:0:
320,192,37699,1,0,0:0:0:0:
64,192,37759,1,0,0:0:0:0:
192,192,37819,1,0,0:0:0:0:
320,192,37879,1,0,0:0:0:0:
64,192,37939,1,0,0:0:0:0:
448,192,37939,1,0,0:0:0:0:
192,192,37999,1,0,0:0:0:0:
448,192,38059,1,0,0:0:0:0:
320,192,38059,1,0,0:0:0:0:
192,192,38119,1,0,0:0:0:0:
448,192,38179,1,0,0:0:0:0:
64,192,38179,1,0,0:0:0:0:
320,192,38239,1,0,0:0:0:0:
192,192,38299,1,0,0:0:0:0:
64,192,38359,1,0,0:0:0:0:
320,192,38419,1,0,0:0:0:0:
448,192,38419,1,0,0:0:0:0:
192,192,38479,1,0,0:0:0:0:
448,192,38539,1,0,0:0:0:0:
320,192,38539,1,0,0:0:0:0:
192,192,38599,1,0,0:0:0:0:
448,192,38659,1,0,0:0:0:0:
64,192,38659,1,0,0:0:0:0:
320,192,38719,1,0,0:0:0:0:
64,192,38779,1,0,0:0:0:0:
192,192,38839,1,0,0:0:0:0:
320,192,38899,1,0,0:0:0:0:
448,192,38899,1,0,0:0:0:0:
192,192,38959,1,0,0:0:0:0:
64,192,39019,1,0,0:0:0:0:
320,192,39079,1,0,0:0:0:0:
192,192,39139,1,0,0:0:0:0:
64,192,39139,1,0,0:0:0:0:
320,192,39199,1,0,0:0:0:0:
448,192,39259,1,0,0:0:0:0:
64,192,39319,1,0,0:0:0:0:
320,192,39379,1,0,0:0:0:0:
448,192,39379,1,0,0:0:0:0:
192,192,39439,1,0,0:0:0:0:
64,192,39499,1,0,0:0:0:0:
320,192,39559,1,0,0:0:0:0:
448,192,39619,1,0,0:0:0:0:
192,192,39619,1,0,0:0:0:0:
64,192,39619,1,0,0:0:0:0:
320,192,39739,1,0,0:0:0:0:
64,192,39859,1,0,0:0:0:0:
192,192,39859,1,0,0:0:0:0:
448,192,39859,1,0,0:0:0:0:
448,192,39979,1,0,0:0:0:0:
192,192,39979,1,0,0:0:0:0:
64,192,40099,1,0,0:0:0:0:
320,192,40099,1,0,0:0:0:0:
448,192,40099,1,0,0:0:0:0:
192,192,40219,1,0,0:0:0:0:
320,192,40279,1,0,0:0:0:0:
448,192,40279,1,0,0:0:0:0:
192,192,40339,1,0,0:0:0:0:
64,192,40339,1,0,0:0:0:0:
320,192,40459,1,0,0:0:0:0:
448,192,40459,1,0,0:0:0:0:
192,192,40579,1,0,0:0:0:0:
448,192,40579,1,0,0:0:0:0:
320,192,40579,1,0,0:0:0:0:
192,192,40699,1,0,0:0:0:0:
64,192,40819,1,0,0:0:0:0:
448,192,40819,1,0,0:0:0:0:
320,192,40819,1,0,0:0:0:0:
320,192,40939,1,0,0:0:0:0:
64,192,41059,1,0,0:0:0:0:
448,192,41059,1,0,0:0:0:0:
192,192,41059,1,0,0:0:0:0:
64,192,41179,1,0,0:0:0:0:
320,192,41179,1,0,0:0:0:0:
192,192,41299,1,0,0:0:0:0:
64,192,41299,1,0,0:0:0:0:
448,192,41299,1,0,0:0:0:0:
192,192,41419,1,0,0:0:0:0:
64,192,41539,1,0,0:0:0:0:
448,192,41539,1,0,0:0:0:0:
320,192,41539,1,0,0:0:0:0:
320,192,41659,1,0,0:0:0:0:
448,192,41659,1,0,0:0:0:0:
192,192,41779,1,0,0:0:0:0:
64,192,41779,1,0,0:0:0:0:
448,192,41779,1,0,0:0:0:0:
192,192,41899,1,0,0:0:0:0:
64,192,41899,1,0,0:0:0:0:
320,192,42019,1,0,0:0:0:0:
448,192,42019,1,0,0:0:0:0:
64,192,42019,1,0,0:0:0:0:
320,192,42139,1,0,0:0:0:0:
448,192,42139,1,0,0:0:0:0:
192,192,42199,1,0,0:0:0:0:
320,192,42259,1,0,0:0:0:0:
64,192,42259,1,0,0:0:0:0:
448,192,42259,1,0,0:0:0:0:
192,192,42379,1,0,0:0:0:0:
64,192,42379,1,0,0:0:0:0:
448,192,42499,1,0,0:0:0:0:
320,192,42499,1,0,0:0:0:0:
64,192,42559,1,0,0:0:0:0:
192,192,42559,1,0,0:0:0:0:
448,192,42619,1,0,0:0:0:0:
320,192,42619,1,0,0:0:0:0:
64,192,42679,1,0,0:0:0:0:
192,192,42679,1,0,0:0:0:0:
448,192,42739,1,0,0:0:0:0:
320,192,42739,1,0,0:0:0:0:
64,192,42799,1,0,0:0:0:0:
192,192,42799,1,0,0:0:0:0:
448,192,42859,1,0,0:0:0:0:
320,192,42859,1,0,0:0:0:0:
64,192,42919,1,0,0:0:0:0:
192,192,42919,1,0,0:0:0:0:
448,192,42979,1,0,0:0:0:0:
320,192,42979,1,0,0:0:0:0:
64,192,43039,1,0,0:0:0:0:
192,192,43039,1,0,0:0:0:0:
448,192,43099,1,0,0:0:0:0:
320,192,43099,1,0,0:0:0:0:
64,192,43159,1,0,0:0:0:0:
192,192,43159,1,0,0:0:0:0:
448,192,43219,1,0,0:0:0:0:
320,192,43219,1,0,0:0:0:0:
192,192,43279,1,0,0:0:0:0:
64,192,43279,1,0,0:0:0:0:
448,192,43339,1,0,0:0:0:0:
320,192,43339,1,0,0:0:0:0:
192,192,43399,1,0,0:0:0:0:
64,192,43399,1,0,0:0:0:0:
448,192,43459,1,0,0:0:0:0:
320,192,43459,1,0,0:0:0:0:
448,192,43699,128,0,44179:0:0:0:0:
320,192,43699,128,0,44179:0:0:0:0:
320,192,44539,1,0,0:0:0:0:
192,192,44659,1,0,0:0:0:0:
448,192,44779,1,0,0:0:0:0:
64,192,44899,1,0,0:0:0:0:
320,192,45019,1,0,0:0:0:0:
64,192,45139,1,0,0:0:0:0:
192,192,45259,128,0,45499:0:0:0:0:
448,192,45259,128,0,45499:0:0:0:0:
320,192,45499,1,0,0:0:0:0:
192,192,45619,1,0,0:0:0:0:
192,192,45739,1,0,0:0:0:0:
320,192,45859,1,0,0:0:0:0:
64,192,45979,1,0,0:0:0:0:
320,192,46099,1,0,0:0:0:0:
192,192,46219,128,0,46459:0:0:0:0:
448,192,46459,1,0,0:0:0:0:
320,192,47059,1,0,0:0:0:0:
320,192,47179,128,0,47419:0:0:0:0:
64,192,47419,1,0,0:0:0:0:
192,192,47539,1,0,0:0:0:0:
192,192,47659,128,0,47899:0:0:0:0:
448,192,47899,1,0,0:0:0:0:
320,192,48019,1,0,0:0:0:0:
320,192,48139,128,0,48379:0:0:0:0:
64,192,48379,1,0,0:0:0:0:
448,192,48379,1,0,0:0:0:0:
192,192,48499,1,0,0:0:0:0:
448,192,48619,1,0,0:0:0:0:
192,192,48619,1,0,0:0:0:0:
192,192,48859,1,0,0:0:0:0:
448,192,48859,1,0,0:0:0:0:
64,192,48979,1,0,0:0:0:0:
320,192,48979,1,0,0:0:0:0:
64,192,49099,128,0,49339:0:0:0:0:
320,192,49099,128,0,49339:0:0:0:0:
192,192,49339,1,0,0:0:0:0:
192,192,49459,1,0,0:0:0:0:
320,192,49579,1,0,0:0:0:0:
320,192,49819,1,0,0:0:0:0:
192,192,49939,1,0,0:0:0:0:
64,192,50059,128,0,50299:0:0:0:0:
320,192,50179,1,0,0:0:0:0:
448,192,50179,1,0,0:0:0:0:
320,192,50299,1,0,0:0:0:0:
448,192,50299,1,0,0:0:0:0:
448,192,50539,1,0,0:0:0:0:
320,192,50539,1,0,0:0:0:0:
448,192,50779,1,0,0:0:0:0:
320,192,50779,1,0,0:0:0:0:
448,192,50899,1,0,0:0:0:0:
192,192,50899,1,0,0:0:0:0:
64,192,51019,1,0,0:0:0:0:
192,192,51019,1,0,0:0:0:0:
64,192,51139,1,0,0:0:0:0:
448,192,51139,1,0,0:0:0:0:
320,192,51139,1,0,0:0:0:0:
320,192,51379,1,0,0:0:0:0:
64,192,51379,1,0,0:0:0:0:
448,192,51379,1,0,0:0:0:0:
64,192,51619,1,0,0:0:0:0:
448,192,51619,1,0,0:0:0:0:
320,192,51619,1,0,0:0:0:0:
320,192,51799,1,0,0:0:0:0:
448,192,51799,1,0,0:0:0:0:
64,192,51859,1,0,0:0:0:0:
192,192,51859,1,0,0:0:0:0:
64,192,51979,1,0,0:0:0:0:
320,192,51979,1,0,0:0:0:0:
192,192,51979,1,0,0:0:0:0:
448,192,52099,1,0,0:0:0:0:
64,192,52099,1,0,0:0:0:0:
192,192,52099,1,0,0:0:0:0:
448,192,52339,1,0,0:0:0:0:
64,192,52339,1,0,0:0:0:0:
192,192,52339,1,0,0:0:0:0:
192,192,52579,1,0,0:0:0:0:
64,192,52579,1,0,0:0:0:0:
448,192,52579,1,0,0:0:0:0:
64,192,52759,1,0,0:0:0:0:
192,192,52759,1,0,0:0:0:0:
448,192,52819,1,0,0:0:0:0:
320,192,52819,1,0,0:0:0:0:
64,192,52939,1,0,0:0:0:0:
320,192,52939,1,0,0:0:0:0:
448,192,52939,1,0,0:0:0:0:
320,192,53059,1,0,0:0:0:0:
448,192,53059,1,0,0:0:0:0:
192,192,53059,1,0,0:0:0:0:
448,192,53299,1,0,0:0:0:0:
192,192,53299,1,0,0:0:0:0:
320,192,53299,1,0,0:0:0:0:
192,192,53539,1,0,0:0:0:0:
448,192,53539,1,0,0:0:0:0:
320,192,53539,1,0,0:0:0:0:
320,192,53719,1,0,0:0:0:0:
448,192,53719,1,0,0:0:0:0:
192,192,53779,1,0,0:0:0:0:
64,192,53779,1,0,0:0:0:0:
320,192,53899,1,0,0:0:0:0:
64,192,53899,1,0,0:0:0:0:
192,192,53899,1,0,0:0:0:0:
320,192,54019,1,0,0:0:0:0:
448,192,54019,1,0,0:0:0:0:
64,192,54019,1,0,0:0:0:0:
320,192,54259,1,0,0:0:0:0:
448,192,54259,1,0,0:0:0:0:
64,192,54259,1,0,0:0:0:0:
320,192,54499,1,0,0:0:0:0:
64,192,54499,1,0,0:0:0:0:
448,192,54499,1,0,0:0:0:0:
448,192,54679,1,0,0:0:0:0:
320,192,54679,1,0,0:0:0:0:
192,192,54739,1,0,0:0:0:0:
64,192,54739,1,0,0:0:0:0:
320,192,54859,1,0,0:0:0:0:
64,192,54859,1,0,0:0:0:0:
192,192,54859,1,0,0:0:0:0:
64,192,54979,1,0,0:0:0:0:
448,192,54979,1,0,0:0:0:0:
320,192,54979,1,0,0:0:0:0:
448,192,55099,1,0,0:0:0:0:
192,192,55099,1,0,0:0:0:0:
192,192,55219,1,0,0:0:0:0:
64,192,55219,1,0,0:0:0:0:
448,192,55339,1,0,0:0:0:0:
64,192,55339,1,0,0:0:0:0:
320,192,55339,1,0,0:0:0:0:
320,192,55459,1,0,0:0:0:0:
448,192,55459,1,0,0:0:0:0:
64,192,55579,1,0,0:0:0:0:
192,192,55579,1,0,0:0:0:0:
448,192,55579,1,0,0:0:0:0:
320,192,55639,1,0,0:0:0:0:
64,192,55699,1,0,0:0:0:0:
192,192,55699,1,0,0:0:0:0:
64,192,55819,1,0,0:0:0:0:
448,192,55819,1,0,0:0:0:0:
320,192,55819,1,0,0:0:0:0:
64,192,55939,1,0,0:0:0:0:
448,192,55939,1,0,0:0:0:0:
320,192,55939,1,0,0:0:0:0:
448,192,56059,1,0,0:0:0:0:
192,192,56059,1,0,0:0:0:0:
64,192,56179,1,0,0:0:0:0:
192,192,56179,1,0,0:0:0:0:
448,192,56299,1,0,0:0:0:0:
64,192,56299,1,0,0:0:0:0:
320,192,56299,1,0,0:0:0:0:
320,192,56419,1,0,0:0:0:0:
448,192,56419,1,0,0:0:0:0:
192,192,56539,1,0,0:0:0:0:
64,192,56539,1,0,0:0:0:0:
448,192,56539,1,0,0:0:0:0:
320,192,56599,1,0,0:0:0:0:
64,192,56659,1,0,0:0:0:0:
192,192,56659,1,0,0:0:0:0:
64,192,56779,1,0,0:0:0:0:
192,192,56779,1,0,0:0:0:0:
448,192,56899,1,0,0:0:0:0:
320,192,56899,1,0,0:0:0:0:
64,192,56959,1,0,0:0:0:0:
192,192,56959,1,0,0:0:0:0:
448,192,57019,1,0,0:0:0:0:
320,192,57019,1,0,0:0:0:0:
64,192,57079,1,0,0:0:0:0:
192,192,57079,1,0,0:0:0:0:
448,192,57139,1,0,0:0:0:0:
320,192,57139,1,0,0:0:0:0:
64,192,57199,1,0,0:0:0:0:
192,192,57199,1,0,0:0:0:0:
448,192,57259,1,0,0:0:0:0:
320,192,57259,1,0,0:0:0:0:
64,192,57319,1,0,0:0:0:0:
192,192,57319,1,0,0:0:0:0:
448,192,57379,1,0,0:0:0:0:
320,192,57379,1,0,0:0:0:0:
64,192,57439,1,0,0:0:0:0:
192,192,57439,1,0,0:0:0:0:
320,192,57499,1,0,0:0:0:0:
448,192,57499,1,0,0:0:0:0:
64,192,57559,1,0,0:0:0:0:
192,192,57559,1,0,0:0:0:0:
448,192,57619,1,0,0:0:0:0:
320,192,57619,1,0,0:0:0:0:
64,192,57679,1,0,0:0:0:0:
192,192,57679,1,0,0:0:0:0:
448,192,57739,1,0,0:0:0:0:
320,192,57739,1,0,0:0:0:0:
64,192,57799,1,0,0:0:0:0:
192,192,57799,1,0,0:0:0:0:
448,192,57859,1,0,0:0:0:0:
320,192,57859,1,0,0:0:0:0:
64,192,57919,1,0,0:0:0:0:
192,192,57919,1,0,0:0:0:0:
448,192,57979,1,0,0:0:0:0:
320,192,57979,1,0,0:0:0:0:
64,192,58039,1,0,0:0:0:0:
192,192,58039,1,0,0:0:0:0:
448,192,58099,1,0,0:0:0:0:
320,192,58099,1,0,0:0:0:0:
64,192,58159,1,0,0:0:0:0:
192,192,58159,1,0,0:0:0:0:
448,192,58219,1,0,0:0:0:0:
320,192,58219,1,0,0:0:0:0:
64,192,58279,1,0,0:0:0:0:
192,192,58279,1,0,0:0:0:0:
448,192,58339,1,0,0:0:0:0:
320,192,58339,1,0,0:0:0:0:
64,192,58399,1,0,0:0:0:0:
192,192,58399,1,0,0:0:0:0:
448,192,58459,1,0,0:0:0:0:
320,192,58459,1,0,0:0:0:0:
64,192,58519,1,0,0:0:0:0:
192,192,58519,1,0,0:0:0:0:
448,192,58579,1,0,0:0:0:0:
320,192,58579,1,0,0:0:0:0:
192,192,58639,1,0,0:0:0:0:
64,192,58639,1,0,0:0:0:0:
448,192,58699,1,0,0:0:0:0:
320,192,58699,1,0,0:0:0:0:
192,192,58759,1,0,0:0:0:0:
64,192,58759,1,0,0:0:0:0:
448,192,58819,1,0,0:0:0:0:
320,192,58819,1,0,0:0:0:0:
448,192,59059,1,0,0:0:0:0:
64,192,59059,1,0,0:0:0:0:
192,192,59059,1,0,0:0:0:0:
192,192,59299,1,0,0:0:0:0:
64,192,59299,1,0,0:0:0:0:
320,192,59299,1,0,0:0:0:0:
64,192,59479,1,0,0:0:0:0:
192,192,59479,1,0,0:0:0:0:
448,192,59539,1,0,0:0:0:0:
320,192,59539,1,0,0:0:0:0:
64,192,59659,1,0,0:0:0:0:
320,192,59659,1,0,0:0:0:0:
448,192,59659,1,0,0:0:0:0:
64,192,59779,1,0,0:0:0:0:
448,192,59779,1,0,0:0:0:0:
320,192,59779,1,0,0:0:0:0:
448,192,60019,1,0,0:0:0:0:
320,192,60019,1,0,0:0:0:0:
192,192,60019,1,0,0:0:0:0:
64,192,60259,1,0,0:0:0:0:
192,192,60259,1,0,0:0:0:0:
448,192,60259,1,0,0:0:0:0:
320,192,60439,1,0,0:0:0:0:
448,192,60439,1,0,0:0:0:0:
64,192,60499,1,0,0:0:0:0:
192,192,60499,1,0,0:0:0:0:
448,192,60619,1,0,0:0:0:0:
64,192,60619,1,0,0:0:0:0:
192,192,60619,1,0,0:0:0:0:
448,192,60739,1,0,0:0:0:0:
192,192,60739,1,0,0:0:0:0:
64,192,60739,1,0,0:0:0:0:
64,192,60979,1,0,0:0:0:0:
320,192,60979,1,0,0:0:0:0:
448,192,60979,1,0,0:0:0:0:
448,192,61219,1,0,0:0:0:0:
192,192,61219,1,0,0:0:0:0:
320,192,61219,1,0,0:0:0:0:
64,192,61399,1,0,0:0:0:0:
192,192,61399,1,0,0:0:0:0:
448,192,61459,1,0,0:0:0:0:
320,192,61459,1,0,0:0:0:0:
64,192,61579,1,0,0:0:0:0:
448,192,61579,1,0,0:0:0:0:
320,192,61579,1,0,0:0:0:0:
320,192,61699,1,0,0:0:0:0:
64,192,61699,1,0,0:0:0:0:
448,192,61699,1,0,0:0:0:0:
64,192,61939,1,0,0:0:0:0:
192,192,61939,1,0,0:0:0:0:
320,192,61939,1,0,0:0:0:0:
64,192,62179,1,0,0:0:0:0:
320,192,62179,1,0,0:0:0:0:
448,192,62179,1,0,0:0:0:0:
320,192,62359,1,0,0:0:0:0:
448,192,62359,1,0,0:0:0:0:
64,192,62419,1,0,0:0:0:0:
192,192,62419,1,0,0:0:0:0:
448,192,62539,1,0,0:0:0:0:
64,192,62539,1,0,0:0:0:0:
192,192,62539,1,0,0:0:0:0:
448,192,62659,1,0,0:0:0:0:
192,192,62659,1,0,0:0:0:0:
64,192,62659,1,0,0:0:0:0:
448,192,62779,1,0,0:0:0:0:
320,192,62779,1,0,0:0:0:0:
64,192,62899,1,0,0:0:0:0:
320,192,62899,1,0,0:0:0:0:
64,192,63019,1,0,0:0:0:0:
192,192,63019,1,0,0:0:0:0:
192,192,63139,1,0,0:0:0:0:
448,192,63139,1,0,0:0:0:0:
320,192,63139,1,0,0:0:0:0:
448,192,63259,1,0,0:0:0:0:
320,192,63259,1,0,0:0:0:0:
64,192,63319,1,0,0:0:0:0:
192,192,63319,1,0,0:0:0:0:
320,192,63379,1,0,0:0:0:0:
448,192,63379,1,0,0:0:0:0:
64,192,63499,1,0,0:0:0:0:
192,192,63499,1,0,0:0:0:0:
320,192,63619,1,0,0:0:0:0:
448,192,63619,1,0,0:0:0:0:
64,192,63619,1,0,0:0:0:0:
320,192,63739,1,0,0:0:0:0:
448,192,63739,1,0,0:0:0:0:
64,192,63859,1,0,0:0:0:0:
320,192,63859,1,0,0:0:0:0:
192,192,63979,1,0,0:0:0:0:
64,192,63979,1,0,0:0:0:0:
192,192,64099,1,0,0:0:0:0:
320,192,64099,1,0,0:0:0:0:
448,192,64099,1,0,0:0:0:0:
448,192,64219,1,0,0:0:0:0:
320,192,64219,1,0,0:0:0:0:
64,192,64279,1,0,0:0:0:0:
192,192,64279,1,0,0:0:0:0:
448,192,64339,1,0,0:0:0:0:
320,192,64339,1,0,0:0:0:0:
192,192,64459,1,0,0:0:0:0:
64,192,64459,1,0,0:0:0:0:
320,192,64579,1,0,0:0:0:0:
448,192,64579,1,0,0:0:0:0:
64,192,64639,1,0,0:0:0:0:
192,192,64639,1,0,0:0:0:0:
448,192,64699,1,0,0:0:0:0:
320,192,64699,1,0,0:0:0:0:
64,192,64759,1,0,0:0:0:0:
192,192,64759,1,0,0:0:0:0:
320,192,64819,1,0,0:0:0:0:
448,192,64819,1,0,0:0:0:0:
192,192,64879,1,0,0:0:0:0:
64,192,64879,1,0,0:0:0:0:
448,192,64939,1,0,0:0:0:0:
320,192,64939,1,0,0:0:0:0:
64,192,64999,1,0,0:0:0:0:
192,192,64999,1,0,0:0:0:0:
448,192,65059,1,0,0:0:0:0:
320,192,65059,1,0,0:0:0:0:
64,192,65119,1,0,0:0:0:0:
192,192,65119,1,0,0:0:0:0:
448,192,65179,1,0,0:0:0:0:
320,192,65179,1,0,0:0:0:0:
64,192,65239,1,0,0:0:0:0:
192,192,65239,1,0,0:0:0:0:
448,192,65299,1,0,0:0:0:0:
320,192,65299,1,0,0:0:0:0:
64,192,65359,1,0,0:0:0:0:
192,192,65359,1,0,0:0:0:0:
448,192,65419,1,0,0:0:0:0:
320,192,65419,1,0,0:0:0:0:
64,192,65479,1,0,0:0:0:0:
192,192,65479,1,0,0:0:0:0:
448,192,65539,1,0,0:0:0:0:
320,192,65539,1,0,0:0:0:0:
64,192,66499,1,0,0:0:0:0:
448,192,66499,1,0,0:0:0:0:
64,192,66619,1,0,0:0:0:0:
448,192,66619,1,0,0:0:0:0:
64,192,66859,1,0,0:0:0:0:
448,192,66859,1,0,0:0:0:0:
320,192,67099,1,0,0:0:0:0:
64,192,67099,1,0,0:0:0:0:
64,192,67219,1,0,0:0:0:0:
320,192,67219,1,0,0:0:0:0:
64,192,67339,1,0,0:0:0:0:
192,192,67339,1,0,0:0:0:0:
320,192,67459,1,0,0:0:0:0:
448,192,67459,1,0,0:0:0:0:
192,192,67519,1,0,0:0:0:0:
64,192,67579,1,0,0:0:0:0:
320,192,67579,1,0,0:0:0:0:
448,192,67639,1,0,0:0:0:0:
192,192,67699,1,0,0:0:0:0:
64,192,67699,1,0,0:0:0:0:
320,192,67759,1,0,0:0:0:0:
192,192,67819,1,0,0:0:0:0:
448,192,67819,1,0,0:0:0:0:
64,192,67879,1,0,0:0:0:0:
320,192,67939,1,0,0:0:0:0:
448,192,67939,1,0,0:0:0:0:
192,192,67999,1,0,0:0:0:0:
448,192,68059,1,0,0:0:0:0:
64,192,68059,1,0,0:0:0:0:
320,192,68119,1,0,0:0:0:0:
192,192,68179,1,0,0:0:0:0:
64,192,68179,1,0,0:0:0:0:
320,192,68239,1,0,0:0:0:0:
448,192,68299,1,0,0:0:0:0:
64,192,68299,1,0,0:0:0:0:
192,192,68359,1,0,0:0:0:0:
320,192,68419,1,0,0:0:0:0:
448,192,68419,1,0,0:0:0:0:
192,192,68479,1,0,0:0:0:0:
448,192,68539,1,0,0:0:0:0:
64,192,68539,1,0,0:0:0:0:
320,192,68599,1,0,0:0:0:0:
192,192,68659,1,0,0:0:0:0:
64,192,68659,1,0,0:0:0:0:
448,192,68719,1,0,0:0:0:0:
64,192,68779,1,0,0:0:0:0:
192,192,68779,1,0,0:0:0:0:
448,192,68839,1,0,0:0:0:0:
192,192,68899,1,0,0:0:0:0:
320,192,68899,1,0,0:0:0:0:
64,192,68959,1,0,0:0:0:0:
448,192,69019,1,0,0:0:0:0:
320,192,69019,1,0,0:0:0:0:
192,192,69079,1,0,0:0:0:0:
64,192,69139,1,0,0:0:0:0:
320,192,69139,1,0,0:0:0:0:
448,192,69199,1,0,0:0:0:0:
64,192,69259,1,0,0:0:0:0:
192,192,69259,1,0,0:0:0:0:
320,192,69319,1,0,0:0:0:0:
64,192,69379,1,0,0:0:0:0:
448,192,69379,1,0,0:0:0:0:
192,192,69439,1,0,0:0:0:0:
448,192,69499,1,0,0:0:0:0:
320,192,69499,1,0,0:0:0:0:
192,192,69559,1,0,0:0:0:0:
64,192,69619,1,0,0:0:0:0:
448,192,69619,1,0,0:0:0:0:
320,192,69679,1,0,0:0:0:0:
192,192,69739,1,0,0:0:0:0:
64,192,69739,1,0,0:0:0:0:
320,192,69799,1,0,0:0:0:0:
192,192,69859,1,0,0:0:0:0:
448,192,69859,1,0,0:0:0:0:
64,192,69919,1,0,0:0:0:0:
448,192,69979,1,0,0:0:0:0:
320,192,69979,1,0,0:0:0:0:
192,192,70039,1,0,0:0:0:0:
320,192,70099,1,0,0:0:0:0:
448,192,70099,1,0,0:0:0:0:
192,192,70159,1,0,0:0:0:0:
64,192,70219,1,0,0:0:0:0:
320,192,70219,1,0,0:0:0:0:
448,192,70279,1,0,0:0:0:0:
192,192,70339,1,0,0:0:0:0:
64,192,70339,1,0,0:0:0:0:
320,192,70399,1,0,0:0:0:0:
192,192,70459,1,0,0:0:0:0:
448,192,70459,1,0,0:0:0:0:
64,192,70519,1,0,0:0:0:0:
320,192,70579,1,0,0:0:0:0:
448,192,70579,1,0,0:0:0:0:
192,192,70639,1,0,0:0:0:0:
64,192,70699,1,0,0:0:0:0:
320,192,70759,1,0,0:0:0:0:
64,192,70819,1,0,0:0:0:0:
448,192,70819,1,0,0:0:0:0:
192,192,70879,1,0,0:0:0:0:
448,192,70939,1,0,0:0:0:0:
320,192,70999,1,0,0:0:0:0:
64,192,71059,1,0,0:0:0:0:
192,192,71059,1,0,0:0:0:0:
448,192,71119,1,0,0:0:0:0:
64,192,71179,1,0,0:0:0:0:
192,192,71179,1,0,0:0:0:0:
320,192,71239,1,0,0:0:0:0:
448,192,71299,1,0,0:0:0:0:
64,192,71299,1,0,0:0:0:0:
192,192,71359,1,0,0:0:0:0:
320,192,71419,1,0,0:0:0:0:
448,192,71479,1,0,0:0:0:0:
64,192,71539,1,0,0:0:0:0:
192,192,71539,1,0,0:0:0:0:
320,192,71599,1,0,0:0:0:0:
64,192,71659,1,0,0:0:0:0:
192,192,71659,1,0,0:0:0:0:
320,192,71719,1,0,0:0:0:0:
64,192,71779,1,0,0:0:0:0:
448,192,71779,1,0,0:0:0:0:
192,192,71839,1,0,0:0:0:0:
448,192,71899,1,0,0:0:0:0:
320,192,71899,1,0,0:0:0:0:
192,192,71959,1,0,0:0:0:0:
448,192,72019,1,0,0:0:0:0:
320,192,72019,1,0,0:0:0:0:
192,192,72079,1,0,0:0:0:0:
448,192,72139,1,0,0:0:0:0:
64,192,72139,1,0,0:0:0:0:
320,192,72199,1,0,0:0:0:0:
192,192,72259,1,0,0:0:0:0:
64,192,72259,1,0,0:0:0:0:
320,192,72319,1,0,0:0:0:0:
448,192,72379,1,0,0:0:0:0:
64,192,72379,1,0,0:0:0:0:
192,192,72439,1,0,0:0:0:0:
448,192,72499,1,0,0:0:0:0:
320,192,72499,1,0,0:0:0:0:
64,192,72559,1,0,0:0:0:0:
448,192,72619,1,0,0:0:0:0:
320,192,72619,1,0,0:0:0:0:
64,192,72679,1,0,0:0:0:0:
320,192,72739,1,0,0:0:0:0:
192,192,72739,1,0,0:0:0:0:
448,192,72799,1,0,0:0:0:0:
64,192,72859,1,0,0:0:0:0:
192,192,72919,1,0,0:0:0:0:
448,192,72979,1,0,0:0:0:0:
320,192,72979,1,0,0:0:0:0:
192,192,73039,1,0,0:0:0:0:
448,192,73099,1,0,0:0:0:0:
320,192,73099,1,0,0:0:0:0:
192,192,73159,1,0,0:0:0:0:
64,192,73219,1,0,0:0:0:0:
448,192,73219,1,0,0:0:0:0:
320,192,73279,1,0,0:0:0:0:
192,192,73339,1,0,0:0:0:0:
64,192,73399,1,0,0:0:0:0:
320,192,73459,1,0,0:0:0:0:
448,192,73459,1,0,0:0:0:0:
192,192,73519,1,0,0:0:0:0:
448,192,73579,1,0,0:0:0:0:
320,192,73579,1,0,0:0:0:0:
192,192,73639,1,0,0:0:0:0:
448,192,73699,1,0,0:0:0:0:
64,192,73699,1,0,0:0:0:0:
320,192,73759,1,0,0:0:0:0:
64,192,73819,1,0,0:0:0:0:
192,192,73819,1,0,0:0:0:0:
448,192,73879,1,0,0:0:0:0:
64,192,73939,1,0,0:0:0:0:
192,192,73939,1,0,0:0:0:0:
448,192,73999,1,0,0:0:0:0:
64,192,74059,1,0,0:0:0:0:
320,192,74059,1,0,0:0:0:0:
192,192,74119,1,0,0:0:0:0:
448,192,74179,1,0,0:0:0:0:
320,192,74179,1,0,0:0:0:0:
64,192,74239,1,0,0:0:0:0:
448,192,74299,1,0,0:0:0:0:
192,192,74299,1,0,0:0:0:0:
320,192,74359,1,0,0:0:0:0:
64,192,74419,1,0,0:0:0:0:
192,192,74419,1,0,0:0:0:0:
448,192,74479,1,0,0:0:0:0:
320,192,74539,1,0,0:0:0:0:
192,192,74599,1,0,0:0:0:0:
64,192,74659,1,0,0:0:0:0:
448,192,74659,1,0,0:0:0:0:
320,192,74719,1,0,0:0:0:0:
192,192,74779,1,0,0:0:0:0:
64,192,74779,1,0,0:0:0:0:
320,192,74839,1,0,0:0:0:0:
192,192,74899,1,0,0:0:0:0:
64,192,74899,1,0,0:0:0:0:
320,192,74959,1,0,0:0:0:0:
64,192,75019,1,0,0:0:0:0:
448,192,75019,1,0,0:0:0:0:
192,192,75079,1,0,0:0:0:0:
64,192,75139,1,0,0:0:0:0:
448,192,75139,1,0,0:0:0:0:
192,192,75199,1,0,0:0:0:0:
320,192,75259,1,0,0:0:0:0:
448,192,75319,1,0,0:0:0:0:
192,192,75379,1,0,0:0:0:0:
64,192,75379,1,0,0:0:0:0:
320,192,75439,1,0,0:0:0:0:
448,192,75439,1,0,0:0:0:0:
64,192,75499,1,0,0:0:0:0:
192,192,75559,1,0,0:0:0:0:
320,192,75619,1,0,0:0:0:0:
448,192,75619,1,0,0:0:0:0:
64,192,75679,1,0,0:0:0:0:
192,192,75679,1,0,0:0:0:0:
448,192,75739,1,0,0:0:0:0:
320,192,75739,1,0,0:0:0:0:
192,192,75799,1,0,0:0:0:0:
448,192,75859,1,0,0:0:0:0:
64,192,75859,1,0,0:0:0:0:
320,192,75919,1,0,0:0:0:0:
192,192,75979,1,0,0:0:0:0:
64,192,76039,1,0,0:0:0:0:
320,192,76099,1,0,0:0:0:0:
448,192,76099,1,0,0:0:0:0:
64,192,76159,1,0,0:0:0:0:
320,192,76219,1,0,0:0:0:0:
192,192,76219,1,0,0:0:0:0:
448,192,76279,1,0,0:0:0:0:
192,192,76339,1,0,0:0:0:0:
64,192,76339,1,0,0:0:0:0:
320,192,76399,1,0,0:0:0:0:
192,192,76459,1,0,0:0:0:0:
448,192,76459,1,0,0:0:0:0:
64,192,76519,1,0,0:0:0:0:
448,192,76579,1,0,0:0:0:0:
320,192,76579,1,0,0:0:0:0:
64,192,76639,1,0,0:0:0:0:
320,192,76699,1,0,0:0:0:0:
192,192,76699,1,0,0:0:0:0:
448,192,76759,1,0,0:0:0:0:
64,192,76819,1,0,0:0:0:0:
192,192,76819,1,0,0:0:0:0:
448,192,76879,1,0,0:0:0:0:
320,192,76939,1,0,0:0:0:0:
64,192,76939,1,0,0:0:0:0:
192,192,76999,1,0,0:0:0:0:
448,192,77059,1,0,0:0:0:0:
320,192,77059,1,0,0:0:0:0:
64,192,77119,1,0,0:0:0:0:
448,192,77179,1,0,0:0:0:0:
192,192,77179,1,0,0:0:0:0:
320,192,77239,1,0,0:0:0:0:
64,192,77299,1,0,0:0:0:0:
192,192,77299,1,0,0:0:0:0:
448,192,77359,1,0,0:0:0:0:
192,192,77419,1,0,0:0:0:0:
64,192,77419,1,0,0:0:0:0:
320,192,77479,1,0,0:0:0:0:
192,192,77539,1,0,0:0:0:0:
448,192,77539,1,0,0:0:0:0:
64,192,77599,1,0,0:0:0:0:
448,192,77659,1,0,0:0:0:0:
320,192,77719,1,0,0:0:0:0:
64,192,77779,1,0,0:0:0:0:
192,192,77779,1,0,0:0:0:0:
320,192,77839,1,0,0:0:0:0:
64,192,77899,1,0,0:0:0:0:
448,192,77899,1,0,0:0:0:0:
192,192,77959,1,0,0:0:0:0:
448,192,78019,1,0,0:0:0:0:
320,192,78019,1,0,0:0:0:0:
192,192,78079,1,0,0:0:0:0:
64,192,78139,1,0,0:0:0:0:
320,192,78139,1,0,0:0:0:0:
448,192,78199,1,0,0:0:0:0:
64,192,78259,1,0,0:0:0:0:
192,192,78259,1,0,0:0:0:0:
320,192,78319,1,0,0:0:0:0:
192,192,78379,1,0,0:0:0:0:
64,192,78439,1,0,0:0:0:0:
320,192,78499,1,0,0:0:0:0:
448,192,78499,1,0,0:0:0:0:
64,192,78559,1,0,0:0:0:0:
192,192,78619,1,0,0:0:0:0:
320,192,78679,1,0,0:0:0:0:
192,192,78739,1,0,0:0:0:0:
64,192,78739,1,0,0:0:0:0:
320,192,78799,1,0,0:0:0:0:
192,192,78859,1,0,0:0:0:0:
448,192,78859,1,0,0:0:0:0:
64,192,78919,1,0,0:0:0:0:
320,192,78979,1,0,0:0:0:0:
448,192,78979,1,0,0:0:0:0:
64,192,79039,1,0,0:0:0:0:
320,192,79099,1,0,0:0:0:0:
192,192,79099,1,0,0:0:0:0:
448,192,79159,1,0,0:0:0:0:
64,192,79219,1,0,0:0:0:0:
192,192,79219,1,0,0:0:0:0:
320,192,79279,1,0,0:0:0:0:
192,192,79339,1,0,0:0:0:0:
448,192,79339,1,0,0:0:0:0:
64,192,79399,1,0,0:0:0:0:
448,192,79459,1,0,0:0:0:0:
320,192,79459,1,0,0:0:0:0:
64,192,79519,1,0,0:0:0:0:
192,192,79579,1,0,0:0:0:0:
320,192,79639,1,0,0:0:0:0:
192,192,79699,1,0,0:0:0:0:
448,192,79699,1,0,0:0:0:0:
64,192,79759,1,0,0:0:0:0:
320,192,79819,1,0,0:0:0:0:
448,192,79819,1,0,0:0:0:0:
192,192,79879,1,0,0:0:0:0:
320,192,79939,1,0,0:0:0:0:
64,192,79939,1,0,0:0:0:0:
448,192,79999,1,0,0:0:0:0:
192,192,80059,1,0,0:0:0:0:
64,192,80059,1,0,0:0:0:0:
448,192,80119,1,0,0:0:0:0:
192,192,80179,1,0,0:0:0:0:
320,192,80179,1,0,0:0:0:0:
64,192,80239,1,0,0:0:0:0:
448,192,80299,1,0,0:0:0:0:
320,192,80299,1,0,0:0:0:0:
192,192,80359,1,0,0:0:0:0:
64,192,80419,1,0,0:0:0:0:
320,192,80419,1,0,0:0:0:0:
448,192,80479,1,0,0:0:0:0:
192,192,80539,1,0,0:0:0:0:
64,192,80539,1,0,0:0:0:0:
448,192,80599,1,0,0:0:0:0:
64,192,80659,1,0,0:0:0:0:
192,192,80659,1,0,0:0:0:0:
320,192,80719,1,0,0:0:0:0:
448,192,80779,1,0,0:0:0:0:
192,192,80839,1,0,0:0:0:0:
448,192,80899,1,0,0:0:0:0:
64,192,80899,1,0,0:0:0:0:
320,192,80959,1,0,0:0:0:0:
192,192,81019,1,0,0:0:0:0:
64,192,81019,1,0,0:0:0:0:
448,192,81079,1,0,0:0:0:0:
192,192,81139,1,0,0:0:0:0:
64,192,81139,1,0,0:0:0:0:
448,192,81199,1,0,0:0:0:0:
192,192,81259,1,0,0:0:0:0:
64,192,81259,1,0,0:0:0:0:
320,192,81319,1,0,0:0:0:0:
64,192,81379,1,0,0:0:0:0:
448,192,81379,1,0,0:0:0:0:
192,192,81439,1,0,0:0:0:0:
448,192,81499,1,0,0:0:0:0:
192,192,81559,1,0,0:0:0:0:
448,192,81619,1,0,0:0:0:0:
64,192,81619,1,0,0:0:0:0:
320,192,81679,1,0,0:0:0:0:
192,192,81739,1,0,0:0:0:0:
64,192,81739,1,0,0:0:0:0:
320,192,81799,1,0,0:0:0:0:
64,192,81859,1,0,0:0:0:0:
448,192,81859,1,0,0:0:0:0:
192,192,81919,1,0,0:0:0:0:
320,192,81979,1,0,0:0:0:0:
448,192,82039,1,0,0:0:0:0:
64,192,82099,1,0,0:0:0:0:
192,192,82099,1,0,0:0:0:0:
448,192,82159,1,0,0:0:0:0:
320,192,82219,1,0,0:0:0:0:
192,192,82279,1,0,0:0:0:0:
448,192,82339,1,0,0:0:0:0:
64,192,82339,1,0,0:0:0:0:
448,192,82519,1,0,0:0:0:0:
64,192,82519,1,0,0:0:0:0:
320,192,82579,1,0,0:0:0:0:
192,192,82579,1,0,0:0:0:0:
320,192,82819,1,0,0:0:0:0:
448,192,82819,1,0,0:0:0:0:
64,192,82819,1,0,0:0:0:0:
192,192,82879,1,0,0:0:0:0:
320,192,82939,1,0,0:0:0:0:
448,192,82939,1,0,0:0:0:0:
192,192,82999,1,0,0:0:0:0:
448,192,83059,1,0,0:0:0:0:
64,192,83059,1,0,0:0:0:0:
320,192,83119,1,0,0:0:0:0:
64,192,83179,1,0,0:0:0:0:
192,192,83239,1,0,0:0:0:0:
448,192,83299,1,0,0:0:0:0:
320,192,83299,1,0,0:0:0:0:
64,192,83359,1,0,0:0:0:0:
448,192,83419,1,0,0:0:0:0:
320,192,83479,1,0,0:0:0:0:
64,192,83539,1,0,0:0:0:0:
192,192,83539,1,0,0:0:0:0:
320,192,83599,1,0,0:0:0:0:
64,192,83659,1,0,0:0:0:0:
448,192,83659,1,0,0:0:0:0:
192,192,83719,1,0,0:0:0:0:
448,192,83779,1,0,0:0:0:0:
320,192,83779,1,0,0:0:0:0:
64,192,83839,1,0,0:0:0:0:
448,192,83899,1,0,0:0:0:0:
320,192,83959,1,0,0:0:0:0:
64,192,84019,1,0,0:0:0:0:
192,192,84019,1,0,0:0:0:0:
448,192,84079,1,0,0:0:0:0:
64,192,84139,1,0,0:0:0:0:
192,192,84199,1,0,0:0:0:0:
448,192,84259,1,0,0:0:0:0:
320,192,84259,1,0,0:0:0:0:
192,192,84319,1,0,0:0:0:0:
64,192,84379,1,0,0:0:0:0:
448,192,84379,1,0,0:0:0:0:
320,192,84439,1,0,0:0:0:0:
192,192,84499,1,0,0:0:0:0:
64,192,84499,1,0,0:0:0:0:
448,192,84559,1,0,0:0:0:0:
192,192,84619,1,0,0:0:0:0:
64,192,84619,1,0,0:0:0:0:
448,192,84679,1,0,0:0:0:0:
192,192,84739,1,0,0:0:0:0:
64,192,84739,1,0,0:0:0:0:
448,192,84799,1,0,0:0:0:0:
320,192,84859,1,0,0:0:0:0:
192,192,84919,1,0,0:0:0:0:
320,192,84979,1,0,0:0:0:0:
64,192,84979,1,0,0:0:0:0:
448,192,85039,1,0,0:0:0:0:
192,192,85099,1,0,0:0:0:0:
320,192,85159,1,0,0:0:0:0:
192,192,85219,1,0,0:0:0:0:
64,192,85219,1,0,0:0:0:0:
320,192,85279,1,0,0:0:0:0:
64,192,85339,1,0,0:0:0:0:
448,192,85339,1,0,0:0:0:0:
192,192,85399,1,0,0:0:0:0:
448,192,85459,1,0,0:0:0:0:
320,192,85459,1,0,0:0:0:0:
192,192,85519,1,0,0:0:0:0:
448,192,85579,1,0,0:0:0:0:
320,192,85579,1,0,0:0:0:0:
192,192,85639,1,0,0:0:0:0:
448,192,85699,1,0,0:0:0:0:
320,192,85699,1,0,0:0:0:0:
192,192,85759,1,0,0:0:0:0:
448,192,85819,1,0,0:0:0:0:
64,192,85819,1,0,0:0:0:0:
320,192,85879,1,0,0:0:0:0:
64,192,85939,1,0,0:0:0:0:
192,192,85939,1,0,0:0:0:0:
320,192,85999,1,0,0:0:0:0:
192,192,86059,1,0,0:0:0:0:
448,192,86059,1,0,0:0:0:0:
64,192,86119,1,0,0:0:0:0:
320,192,86179,1,0,0:0:0:0:
448,192,86179,1,0,0:0:0:0:
192,192,86239,1,0,0:0:0:0:
448,192,86299,1,0,0:0:0:0:
320,192,86299,1,0,0:0:0:0:
192,192,86359,1,0,0:0:0:0:
320,192,86419,1,0,0:0:0:0:
64,192,86419,1,0,0:0:0:0:
448,192,86479,1,0,0:0:0:0:
64,192,86539,1,0,0:0:0:0:
192,192,86599,1,0,0:0:0:0:
448,192,86659,1,0,0:0:0:0:
320,192,86659,1,0,0:0:0:0:
192,192,86719,1,0,0:0:0:0:
64,192,86779,1,0,0:0:0:0:
448,192,86779,1,0,0:0:0:0:
320,192,86839,1,0,0:0:0:0:
64,192,86899,1,0,0:0:0:0:
192,192,86899,1,0,0:0:0:0:
320,192,86959,1,0,0:0:0:0:
448,192,87019,1,0,0:0:0:0:
64,192,87019,1,0,0:0:0:0:
192,192,87079,1,0,0:0:0:0:
448,192,87139,1,0,0:0:0:0:
320,192,87139,1,0,0:0:0:0:
192,192,87199,1,0,0:0:0:0:
448,192,87259,1,0,0:0:0:0:
64,192,87259,1,0,0:0:0:0:
320,192,87319,1,0,0:0:0:0:
192,192,87379,1,0,0:0:0:0:
64,192,87379,1,0,0:0:0:0:
448,192,87439,1,0,0:0:0:0:
64,192,87499,1,0,0:0:0:0:
192,192,87499,1,0,0:0:0:0:
448,192,87559,1,0,0:0:0:0:
64,192,87619,1,0,0:0:0:0:
320,192,87619,1,0,0:0:0:0:
192,192,87679,1,0,0:0:0:0:
448,192,87739,1,0,0:0:0:0:
320,192,87739,1,0,0:0:0:0:
64,192,87799,1,0,0:0:0:0:
448,192,87859,1,0,0:0:0:0:
192,192,87859,1,0,0:0:0:0:
320,192,87919,1,0,0:0:0:0:
64,192,87979,1,0,0:0:0:0:
192,192,87979,1,0,0:0:0:0:
448,192,88039,1,0,0:0:0:0:
320,192,88099,1,0,0:0:0:0:
192,192,88099,1,0,0:0:0:0:
64,192,88159,1,0,0:0:0:0:
320,192,88219,1,0,0:0:0:0:
448,192,88219,1,0,0:0:0:0:
192,192,88279,1,0,0:0:0:0:
64,192,88339,1,0,0:0:0:0:
320,192,88339,1,0,0:0:0:0:
448,192,88399,1,0,0:0:0:0:
64,192,88459,1,0,0:0:0:0:
192,192,88519,1,0,0:0:0:0:
448,192,88579,1,0,0:0:0:0:
320,192,88579,1,0,0:0:0:0:
192,192,88639,1,0,0:0:0:0:
448,192,88699,1,0,0:0:0:0:
64,192,88699,1,0,0:0:0:0:
320,192,88759,1,0,0:0:0:0:
192,192,88819,1,0,0:0:0:0:
64,192,88819,1,0,0:0:0:0:
320,192,88879,1,0,0:0:0:0:
448,192,88939,1,0,0:0:0:0:
192,192,88999,1,0,0:0:0:0:
448,192,89059,1,0,0:0:0:0:
320,192,89059,1,0,0:0:0:0:
192,192,89119,1,0,0:0:0:0:
64,192,89179,1,0,0:0:0:0:
320,192,89239,1,0,0:0:0:0:
64,192,89299,1,0,0:0:0:0:
192,192,89299,1,0,0:0:0:0:
320,192,89359,1,0,0:0:0:0:
448,192,89419,1,0,0:0:0:0:
192,192,89479,1,0,0:0:0:0:
64,192,89539,1,0,0:0:0:0:
448,192,89539,1,0,0:0:0:0:
320,192,89779,1,0,0:0:0:0:
320,192,90019,1,0,0:0:0:0:
64,192,90259,1,0,0:0:0:0:
192,192,90259,1,0,0:0:0:0:
320,192,90319,1,0,0:0:0:0:
192,192,90379,1,0,0:0:0:0:
320,192,90439,1,0,0:0:0:0:
448,192,90499,1,0,0:0:0:0:
192,192,90499,1,0,0:0:0:0:
64,192,90559,1,0,0:0:0:0:
320,192,90619,1,0,0:0:0:0:
448,192,90619,1,0,0:0:0:0:
64,192,90679,1,0,0:0:0:0:
448,192,90739,1,0,0:0:0:0:
320,192,90739,1,0,0:0:0:0:
64,192,90799,1,0,0:0:0:0:
320,192,90859,1,0,0:0:0:0:
192,192,90859,1,0,0:0:0:0:
448,192,90919,1,0,0:0:0:0:
64,192,90979,1,0,0:0:0:0:
192,192,90979,1,0,0:0:0:0:
320,192,91039,1,0,0:0:0:0:
448,192,91099,1,0,0:0:0:0:
192,192,91159,1,0,0:0:0:0:
448,192,91219,1,0,0:0:0:0:
64,192,91219,1,0,0:0:0:0:
320,192,91279,1,0,0:0:0:0:
64,192,91339,1,0,0:0:0:0:
192,192,91339,1,0,0:0:0:0:
320,192,91399,1,0,0:0:0:0:
64,192,91459,1,0,0:0:0:0:
448,192,91459,1,0,0:0:0:0:
192,192,91519,1,0,0:0:0:0:
448,192,91579,1,0,0:0:0:0:
320,192,91639,1,0,0:0:0:0:
192,192,91699,1,0,0:0:0:0:
64,192,91699,1,0,0:0:0:0:
448,192,91759,1,0,0:0:0:0:
192,192,91819,1,0,0:0:0:0:
64,192,91819,1,0,0:0:0:0:
320,192,91879,1,0,0:0:0:0:
64,192,91939,1,0,0:0:0:0:
448,192,91939,1,0,0:0:0:0:
192,192,91999,1,0,0:0:0:0:
448,192,92059,1,0,0:0:0:0:
320,192,92119,1,0,0:0:0:0:
192,192,92179,1,0,0:0:0:0:
64,192,92179,1,0,0:0:0:0:
320,192,92239,1,0,0:0:0:0:
448,192,92299,1,0,0:0:0:0:
64,192,92299,1,0,0:0:0:0:
192,192,92359,1,0,0:0:0:0:
448,192,92419,1,0,0:0:0:0:
320,192,92419,1,0,0:0:0:0:
64,192,92479,1,0,0:0:0:0:
448,192,92539,1,0,0:0:0:0:
320,192,92599,1,0,0:0:0:0:
192,192,92659,1,0,0:0:0:0:
64,192,92659,1,0,0:0:0:0:
320,192,92719,1,0,0:0:0:0:
448,192,92779,1,0,0:0:0:0:
64,192,92779,1,0,0:0:0:0:
192,192,92839,1,0,0:0:0:0:
448,192,92899,1,0,0:0:0:0:
320,192,92899,1,0,0:0:0:0:
64,192,92959,1,0,0:0:0:0:
448,192,93019,1,0,0:0:0:0:
320,192,93079,1,0,0:0:0:0:
64,192,93139,1,0,0:0:0:0:
192,192,93139,1,0,0:0:0:0:
448,192,93199,1,0,0:0:0:0:
192,192,93259,1,0,0:0:0:0:
64,192,93259,1,0,0:0:0:0:
320,192,93319,1,0,0:0:0:0:
64,192,93379,1,0,0:0:0:0:
448,192,93379,1,0,0:0:0:0:
192,192,93439,1,0,0:0:0:0:
448,192,93499,1,0,0:0:0:0:
320,192,93559,1,0,0:0:0:0:
64,192,93619,1,0,0:0:0:0:
192,192,93619,1,0,0:0:0:0:
320,192,93679,1,0,0:0:0:0:
64,192,93739,1,0,0:0:0:0:
448,192,93739,1,0,0:0:0:0:
192,192,93799,1,0,0:0:0:0:
448,192,93859,1,0,0:0:0:0:
320,192,93859,1,0,0:0:0:0:
192,192,93919,1,0,0:0:0:0:
320,192,93979,1,0,0:0:0:0:
448,192,93979,1,0,0:0:0:0:
192,192,94039,1,0,0:0:0:0:
448,192,94099,1,0,0:0:0:0:
64,192,94099,1,0,0:0:0:0:
320,192,94159,1,0,0:0:0:0:
64,192,94219,1,0,0:0:0:0:
192,192,94279,1,0,0:0:0:0:
448,192,94339,1,0,0:0:0:0:
320,192,94339,1,0,0:0:0:0:
64,192,94399,1,0,0:0:0:0:
448,192,94459,1,0,0:0:0:0:
320,192,94519,1,0,0:0:0:0:
192,192,94579,1,0,0:0:0:0:
64,192,94579,1,0,0:0:0:0:
320,192,94639,1,0,0:0:0:0:
448,192,94699,1,0,0:0:0:0:
64,192,94699,1,0,0:0:0:0:
192,192,94759,1,0,0:0:0:0:
320,192,94819,1,0,0:0:0:0:
448,192,94819,1,0,0:0:0:0:
64,192,94879,1,0,0:0:0:0:
448,192,94939,1,0,0:0:0:0:
320,192,94999,1,0,0:0:0:0:
64,192,95059,1,0,0:0:0:0:
192,192,95059,1,0,0:0:0:0:
320,192,95119,1,0,0:0:0:0:
64,192,95179,1,0,0:0:0:0:
448,192,95179,1,0,0:0:0:0:
192,192,95239,1,0,0:0:0:0:
448,192,95299,1,0,0:0:0:0:
320,192,95299,1,0,0:0:0:0:
192,192,95359,1,0,0:0:0:0:
64,192,95419,1,0,0:0:0:0:
320,192,95479,1,0,0:0:0:0:
448,192,95539,1,0,0:0:0:0:
64,192,95539,1,0,0:0:0:0:
192,192,95599,1,0,0:0:0:0:
320,192,95659,1,0,0:0:0:0:
64,192,95719,1,0,0:0:0:0:
320,192,95779,1,0,0:0:0:0:
448,192,95779,1,0,0:0:0:0:
64,192,95839,1,0,0:0:0:0:
448,192,95899,1,0,0:0:0:0:
320,192,95959,1,0,0:0:0:0:
64,192,96019,1,0,0:0:0:0:
192,192,96019,1,0,0:0:0:0:
448,192,96079,1,0,0:0:0:0:
64,192,96139,1,0,0:0:0:0:
192,192,96199,1,0,0:0:0:0:
448,192,96259,1,0,0:0:0:0:
320,192,96259,1,0,0:0:0:0:
192,192,96319,1,0,0:0:0:0:
448,192,96379,1,0,0:0:0:0:
320,192,96379,1,0,0:0:0:0:
192,192,96439,1,0,0:0:0:0:
448,192,96499,1,0,0:0:0:0:
320,192,96499,1,0,0:0:0:0:
192,192,96559,1,0,0:0:0:0:
448,192,96619,1,0,0:0:0:0:
320,192,96619,1,0,0:0:0:0:
192,192,96679,1,0,0:0:0:0:
448,192,96739,1,0,0:0:0:0:
64,192,96739,1,0,0:0:0:0:
320,192,96799,1,0,0:0:0:0:
192,192,96859,1,0,0:0:0:0:
64,192,96859,1,0,0:0:0:0:
448,192,96919,1,0,0:0:0:0:
192,192,96979,1,0,0:0:0:0:
320,192,96979,1,0,0:0:0:0:
64,192,97039,1,0,0:0:0:0:
448,192,97099,1,0,0:0:0:0:
320,192,97099,1,0,0:0:0:0:
64,192,97159,1,0,0:0:0:0:
320,192,97219,1,0,0:0:0:0:
448,192,97219,1,0,0:0:0:0:
320,192,97699,1,0,0:0:0:0:
448,192,97699,1,0,0:0:0:0:
192,192,97879,1,0,0:0:0:0:
320,192,97879,1,0,0:0:0:0:
192,192,98059,1,0,0:0:0:0:
64,192,98059,1,0,0:0:0:0:
448,192,98179,1,0,0:0:0:0:
320,192,98179,1,0,0:0:0:0:
320,192,98419,1,0,0:0:0:0:
448,192,98419,1,0,0:0:0:0:
64,192,98779,1,0,0:0:0:0:
192,192,98779,1,0,0:0:0:0:
448,192,99019,1,0,0:0:0:0:
320,192,99019,1,0,0:0:0:0:
192,192,99139,1,0,0:0:0:0:
64,192,99139,1,0,0:0:0:0:
320,192,99259,1,0,0:0:0:0:
448,192,99379,1,0,0:0:0:0:
64,192,99379,1,0,0:0:0:0:
192,192,99499,1,0,0:0:0:0:
320,192,99619,1,0,0:0:0:0:
448,192,99619,1,0,0:0:0:0:
192,192,99739,1,0,0:0:0:0:
64,192,99859,1,0,0:0:0:0:
448,192,99859,1,0,0:0:0:0:
320,192,99979,1,0,0:0:0:0:
192,192,100099,1,0,0:0:0:0:
64,192,100099,1,0,0:0:0:0:
320,192,100219,1,0,0:0:0:0:
448,192,100339,1,0,0:0:0:0:
64,192,100339,1,0,0:0:0:0:
192,192,100459,1,0,0:0:0:0:
320,192,100579,1,0,0:0:0:0:
448,192,100579,1,0,0:0:0:0:
192,192,100699,1,0,0:0:0:0:
64,192,100819,1,0,0:0:0:0:
448,192,100819,1,0,0:0:0:0:
320,192,100939,1,0,0:0:0:0:
64,192,101059,1,0,0:0:0:0:
192,192,101059,1,0,0:0:0:0:
192,192,101179,1,0,0:0:0:0:
448,192,101299,1,0,0:0:0:0:
64,192,101299,1,0,0:0:0:0:
320,192,101419,1,0,0:0:0:0:
320,192,101539,1,0,0:0:0:0:
192,192,101599,1,0,0:0:0:0:
64,192,101659,1,0,0:0:0:0:
448,192,101779,1,0,0:0:0:0:
192,192,101779,1,0,0:0:0:0:
448,192,101899,1,0,0:0:0:0:
192,192,101899,1,0,0:0:0:0:
64,192,102019,1,0,0:0:0:0:
320,192,102019,1,0,0:0:0:0:
320,192,102259,1,0,0:0:0:0:
64,192,102259,1,0,0:0:0:0:
192,192,102619,1,0,0:0:0:0:
448,192,102619,1,0,0:0:0:0:
64,192,102859,1,0,0:0:0:0:
320,192,102859,1,0,0:0:0:0:
192,192,102979,1,0,0:0:0:0:
448,192,102979,1,0,0:0:0:0:
320,192,103099,1,0,0:0:0:0:
192,192,103219,1,0,0:0:0:0:
64,192,103219,1,0,0:0:0:0:
448,192,103339,1,0,0:0:0:0:
64,192,103459,1,0,0:0:0:0:
320,192,103459,1,0,0:0:0:0:
192,192,103579,1,0,0:0:0:0:
448,192,103699,1,0,0:0:0:0:
320,192,103699,1,0,0:0:0:0:
64,192,103819,1,0,0:0:0:0:
448,192,103939,1,0,0:0:0:0:
192,192,103939,1,0,0:0:0:0:
320,192,104059,1,0,0:0:0:0:
192,192,104179,1,0,0:0:0:0:
64,192,104179,1,0,0:0:0:0:
448,192,104299,1,0,0:0:0:0:
64,192,104419,1,0,0:0:0:0:
320,192,104419,1,0,0:0:0:0:
192,192,104539,1,0,0:0:0:0:
448,192,104659,1,0,0:0:0:0:
320,192,104659,1,0,0:0:0:0:
64,192,104779,1,0,0:0:0:0:
448,192,104899,1,0,0:0:0:0:
192,192,104899,1,0,0:0:0:0:
320,192,105019,1,0,0:0:0:0:
192,192,105139,1,0,0:0:0:0:
64,192,105139,1,0,0:0:0:0:
448,192,105259,1,0,0:0:0:0:
64,192,105379,1,0,0:0:0:0:
320,192,105379,1,0,0:0:0:0:
192,192,105499,1,0,0:0:0:0:
320,192,105619,1,0,0:0:0:0:
448,192,105619,1,0,0:0:0:0:
192,192,105739,1,0,0:0:0:0:
64,192,105739,1,0,0:0:0:0:
64,192,105859,1,0,0:0:0:0:
448,192,105859,1,0,0:0:0:0:
448,192,106099,1,0,0:0:0:0:
64,192,106099,1,0,0:0:0:0:
320,192,106459,1,0,0:0:0:0:
192,192,106459,1,0,0:0:0:0:
64,192,106699,1,0,0:0:0:0:
448,192,106699,1,0,0:0:0:0:
192,192,106819,1,0,0:0:0:0:
320,192,106819,1,0,0:0:0:0:
448,192,106939,1,0,0:0:0:0:
64,192,107059,1,0,0:0:0:0:
192,192,107059,1,0,0:0:0:0:
448,192,107179,1,0,0:0:0:0:
320,192,107299,1,0,0:0:0:0:
192,192,107299,1,0,0:0:0:0:
64,192,107419,1,0,0:0:0:0:
448,192,107539,1,0,0:0:0:0:
320,192,107539,1,0,0:0:0:0:
64,192,107659,1,0,0:0:0:0:
192,192,107779,1,0,0:0:0:0:
320,192,107779,1,0,0:0:0:0:
448,192,107899,1,0,0:0:0:0:
64,192,108019,1,0,0:0:0:0:
192,192,108019,1,0,0:0:0:0:
448,192,108139,1,0,0:0:0:0:
320,192,108259,1,0,0:0:0:0:
192,192,108259,1,0,0:0:0:0:
64,192,108379,1,0,0:0:0:0:
320,192,108499,1,0,0:0:0:0:
448,192,108499,1,0,0:0:0:0:
64,192,108619,1,0,0:0:0:0:
192,192,108739,1,0,0:0:0:0:
320,192,108739,1,0,0:0:0:0:
320,192,108859,1,0,0:0:0:0:
192,192,108979,1,0,0:0:0:0:
448,192,108979,1,0,0:0:0:0:
64,192,109099,1,0,0:0:0:0:
192,192,109099,1,0,0:0:0:0:
64,192,109219,1,0,0:0:0:0:
448,192,109219,1,0,0:0:0:0:
192,192,109279,1,0,0:0:0:0:
320,192,109339,1,0,0:0:0:0:
64,192,109459,1,0,0:0:0:0:
192,192,109459,1,0,0:0:0:0:
448,192,109519,1,0,0:0:0:0:
64,192,109579,1,0,0:0:0:0:
192,192,109579,1,0,0:0:0:0:
448,192,109639,1,0,0:0:0:0:
320,192,109699,1,0,0:0:0:0:
64,192,109699,1,0,0:0:0:0:
64,192,109939,1,0,0:0:0:0:
320,192,109939,1,0,0:0:0:0:
448,192,110299,1,0,0:0:0:0:
192,192,110299,1,0,0:0:0:0:
64,192,110539,1,0,0:0:0:0:
320,192,110539,1,0,0:0:0:0:
448,192,110659,1,0,0:0:0:0:
192,192,110659,1,0,0:0:0:0:
64,192,110779,1,0,0:0:0:0:
448,192,110899,1,0,0:0:0:0:
320,192,110899,1,0,0:0:0:0:
192,192,111019,1,0,0:0:0:0:
320,192,111139,1,0,0:0:0:0:
64,192,111139,1,0,0:0:0:0:
448,192,111259,1,0,0:0:0:0:
64,192,111379,1,0,0:0:0:0:
192,192,111379,1,0,0:0:0:0:
320,192,111499,1,0,0:0:0:0:
192,192,111619,1,0,0:0:0:0:
448,192,111619,1,0,0:0:0:0:
64,192,111739,1,0,0:0:0:0:
448,192,111859,1,0,0:0:0:0:
320,192,111859,1,0,0:0:0:0:
192,192,111979,1,0,0:0:0:0:
320,192,112099,1,0,0:0:0:0:
64,192,112099,1,0,0:0:0:0:
448,192,112219,1,0,0:0:0:0:
64,192,112339,1,0,0:0:0:0:
192,192,112339,1,0,0:0:0:0:
320,192,112459,1,0,0:0:0:0:
448,192,112579,1,0,0:0:0:0:
192,192,112579,1,0,0:0:0:0:
448,192,112699,1,0,0:0:0:0:
192,192,112699,1,0,0:0:0:0:
64,192,112819,1,0,0:0:0:0:
320,192,112819,1,0,0:0:0:0:
448,192,112939,1,0,0:0:0:0:
192,192,112939,1,0,0:0:0:0:
192,192,113059,1,0,0:0:0:0:
320,192,113119,1,0,0:0:0:0:
448,192,113179,1,0,0:0:0:0:
64,192,113239,1,0,0:0:0:0:
448,192,113299,1,0,0:0:0:0:
64,192,113359,1,0,0:0:0:0:
320,192,113419,1,0,0:0:0:0:
448,192,113419,1,0,0:0:0:0:
192,192,113479,1,0,0:0:0:0:
448,192,113539,1,0,0:0:0:0:
64,192,113539,1,0,0:0:0:0:
320,192,113599,1,0,0:0:0:0:
192,192,113659,1,0,0:0:0:0:
64,192,113719,1,0,0:0:0:0:
448,192,113779,1,0,0:0:0:0:
320,192,113779,1,0,0:0:0:0:
64,192,113839,1,0,0:0:0:0:
192,192,113899,1,0,0:0:0:0:
320,192,113959,1,0,0:0:0:0:
192,192,114019,1,0,0:0:0:0:
448,192,114019,1,0,0:0:0:0:
64,192,114079,1,0,0:0:0:0:
448,192,114139,1,0,0:0:0:0:
320,192,114199,1,0,0:0:0:0:
64,192,114259,1,0,0:0:0:0:
192,192,114259,1,0,0:0:0:0:
448,192,114319,1,0,0:0:0:0:
64,192,114379,1,0,0:0:0:0:
448,192,114439,1,0,0:0:0:0:
320,192,114499,1,0,0:0:0:0:
192,192,114499,1,0,0:0:0:0:
64,192,114559,1,0,0:0:0:0:
448,192,114619,1,0,0:0:0:0:
64,192,114679,1,0,0:0:0:0:
320,192,114739,1,0,0:0:0:0:
192,192,114739,1,0,0:0:0:0:
448,192,114799,1,0,0:0:0:0:
320,192,114859,1,0,0:0:0:0:
192,192,114919,1,0,0:0:0:0:
64,192,114979,1,0,0:0:0:0:
448,192,114979,1,0,0:0:0:0:
320,192,115039,1,0,0:0:0:0:
64,192,115099,1,0,0:0:0:0:
192,192,115159,1,0,0:0:0:0:
448,192,115219,1,0,0:0:0:0:
320,192,115219,1,0,0:0:0:0:
64,192,115279,1,0,0:0:0:0:
448,192,115339,1,0,0:0:0:0:
320,192,115399,1,0,0:0:0:0:
64,192,115459,1,0,0:0:0:0:
192,192,115459,1,0,0:0:0:0:
448,192,115519,1,0,0:0:0:0:
320,192,115579,1,0,0:0:0:0:
192,192,115639,1,0,0:0:0:0:
448,192,115699,1,0,0:0:0:0:
64,192,115699,1,0,0:0:0:0:
320,192,115759,1,0,0:0:0:0:
64,192,115819,1,0,0:0:0:0:
192,192,115879,1,0,0:0:0:0:
320,192,115939,1,0,0:0:0:0:
448,192,115939,1,0,0:0:0:0:
192,192,115999,1,0,0:0:0:0:
64,192,116059,1,0,0:0:0:0:
448,192,116119,1,0,0:0:0:0:
64,192,116179,1,0,0:0:0:0:
320,192,116179,1,0,0:0:0:0:
192,192,116239,1,0,0:0:0:0:
320,192,116299,1,0,0:0:0:0:
192,192,116359,1,0,0:0:0:0:
448,192,116419,1,0,0:0:0:0:
64,192,116419,1,0,0:0:0:0:
320,192,116479,1,0,0:0:0:0:
64,192,116539,1,0,0:0:0:0:
192,192,116599,1,0,0:0:0:0:
320,192,116659,1,0,0:0:0:0:
448,192,116659,1,0,0:0:0:0:
64,192,116719,1,0,0:0:0:0:
448,192,116779,1,0,0:0:0:0:
320,192,116839,1,0,0:0:0:0:
64,192,116899,1,0,0:0:0:0:
192,192,116899,1,0,0:0:0:0:
192,192,117019,1,0,0:0:0:0:
64,192,117019,1,0,0:0:0:0:
320,192,117139,1,0,0:0:0:0:
448,192,117139,1,0,0:0:0:0:
320,192,117259,1,0,0:0:0:0:
64,192,117259,1,0,0:0:0:0:
64,192,117379,1,0,0:0:0:0:
192,192,117379,1,0,0:0:0:0:
320,192,117439,1,0,0:0:0:0:
192,192,117499,1,0,0:0:0:0:
320,192,117559,1,0,0:0:0:0:
448,192,117619,1,0,0:0:0:0:
64,192,117619,1,0,0:0:0:0:
192,192,117679,1,0,0:0:0:0:
448,192,117739,1,0,0:0:0:0:
320,192,117799,1,0,0:0:0:0:
64,192,117859,1,0,0:0:0:0:
192,192,117859,1,0,0:0:0:0:
320,192,117919,1,0,0:0:0:0:
448,192,117979,1,0,0:0:0:0:
192,192,118039,1,0,0:0:0:0:
320,192,118099,1,0,0:0:0:0:
448,192,118099,1,0,0:0:0:0:
192,192,118159,1,0,0:0:0:0:
64,192,118219,1,0,0:0:0:0:
320,192,118279,1,0,0:0:0:0:
64,192,118339,1,0,0:0:0:0:
192,192,118339,1,0,0:0:0:0:
448,192,118399,1,0,0:0:0:0:
64,192,118459,1,0,0:0:0:0:
192,192,118519,1,0,0:0:0:0:
320,192,118579,1,0,0:0:0:0:
448,192,118579,1,0,0:0:0:0:
64,192,118639,1,0,0:0:0:0:
448,192,118699,1,0,0:0:0:0:
320,192,118759,1,0,0:0:0:0:
64,192,118819,1,0,0:0:0:0:
192,192,118819,1,0,0:0:0:0:
448,192,118879,1,0,0:0:0:0:
64,192,118939,1,0,0:0:0:0:
192,192,118999,1,0,0:0:0:0:
448,192,119059,1,0,0:0:0:0:
320,192,119059,1,0,0:0:0:0:
64,192,119119,1,0,0:0:0:0:
448,192,119179,1,0,0:0:0:0:
320,192,119239,1,0,0:0:0:0:
64,192,119299,1,0,0:0:0:0:
192,192,119299,1,0,0:0:0:0:
448,192,119359,5,0,0:0:0:0:
64,192,119419,1,0,0:0:0:0:
192,192,119479,1,0,0:0:0:0:
448,192,119539,1,0,0:0:0:0:
320,192,119539,1,0,0:0:0:0:
192,192,119599,1,0,0:0:0:0:
64,192,119659,1,0,0:0:0:0:
448,192,119719,1,0,0:0:0:0:
192,192,119779,1,0,0:0:0:0:
64,192,119779,1,0,0:0:0:0:
448,192,119839,1,0,0:0:0:0:
320,192,119899,1,0,0:0:0:0:
192,192,119959,1,0,0:0:0:0:
64,192,120019,1,0,0:0:0:0:
448,192,120019,1,0,0:0:0:0:
320,192,120079,1,0,0:0:0:0:
192,192,120139,1,0,0:0:0:0:
448,192,120199,1,0,0:0:0:0:
64,192,120259,1,0,0:0:0:0:
192,192,120259,1,0,0:0:0:0:
64,192,120379,1,0,0:0:0:0:
320,192,120379,1,0,0:0:0:0:
448,192,120499,1,0,0:0:0:0:
192,192,120499,1,0,0:0:0:0:
320,192,120619,1,0,0:0:0:0:
320,192,120739,1,0,0:0:0:0:
192,192,120799,1,0,0:0:0:0:
64,192,120859,1,0,0:0:0:0:
64,192,120979,1,0,0:0:0:0:
320,192,120979,1,0,0:0:0:0:
192,192,121099,1,0,0:0:0:0:
320,192,121099,1,0,0:0:0:0:
64,192,121219,1,0,0:0:0:0:
448,192,121219,1,0,0:0:0:0:
192,192,121279,1,0,0:0:0:0:
320,192,121339,1,0,0:0:0:0:
64,192,121399,1,0,0:0:0:0:
320,192,121459,1,0,0:0:0:0:
448,192,121459,1,0,0:0:0:0:
64,192,121519,1,0,0:0:0:0:
448,192,121579,1,0,0:0:0:0:
320,192,121639,1,0,0:0:0:0:
192,192,121699,1,0,0:0:0:0:
64,192,121699,1,0,0:0:0:0:
448,192,121759,1,0,0:0:0:0:
64,192,121819,1,0,0:0:0:0:
192,192,121879,1,0,0:0:0:0:
448,192,121939,1,0,0:0:0:0:
320,192,121939,1,0,0:0:0:0:
64,192,121999,1,0,0:0:0:0:
192,192,122059,1,0,0:0:0:0:
320,192,122119,1,0,0:0:0:0:
448,192,122179,1,0,0:0:0:0:
192,192,122179,1,0,0:0:0:0:
64,192,122239,1,0,0:0:0:0:
448,192,122299,1,0,0:0:0:0:
64,192,122359,1,0,0:0:0:0:
192,192,122419,1,0,0:0:0:0:
320,192,122419,1,0,0:0:0:0:
448,192,122479,1,0,0:0:0:0:
320,192,122539,1,0,0:0:0:0:
192,192,122599,1,0,0:0:0:0:
64,192,122659,1,0,0:0:0:0:
448,192,122659,1,0,0:0:0:0:
320,192,122719,1,0,0:0:0:0:
64,192,122779,1,0,0:0:0:0:
192,192,122779,1,0,0:0:0:0:
448,192,122839,1,0,0:0:0:0:
64,192,122899,1,0,0:0:0:0:
192,192,122899,1,0,0:0:0:0:
320,192,122959,1,0,0:0:0:0:
64,192,123019,1,0,0:0:0:0:
192,192,123019,1,0,0:0:0:0:
320,192,123079,1,0,0:0:0:0:
448,192,123139,1,0,0:0:0:0:
64,192,123139,1,0,0:0:0:0:
192,192,123199,1,0,0:0:0:0:
320,192,123259,1,0,0:0:0:0:
448,192,123319,1,0,0:0:0:0:
192,192,123379,1,0,0:0:0:0:
64,192,123379,1,0,0:0:0:0:
448,192,123439,1,0,0:0:0:0:
64,192,123499,1,0,0:0:0:0:
192,192,123559,1,0,0:0:0:0:
448,192,123619,1,0,0:0:0:0:
320,192,123619,1,0,0:0:0:0:
192,192,123679,1,0,0:0:0:0:
64,192,123739,1,0,0:0:0:0:
320,192,123799,1,0,0:0:0:0:
64,192,123859,1,0,0:0:0:0:
192,192,123859,1,0,0:0:0:0:
320,192,123919,1,0,0:0:0:0:
448,192,123979,1,0,0:0:0:0:
192,192,124039,1,0,0:0:0:0:
320,192,124099,1,0,0:0:0:0:
448,192,124099,1,0,0:0:0:0:
192,192,124159,1,0,0:0:0:0:
64,192,124219,1,0,0:0:0:0:
448,192,124279,1,0,0:0:0:0:
64,192,124339,1,0,0:0:0:0:
320,192,124339,1,0,0:0:0:0:
192,192,124399,1,0,0:0:0:0:
320,192,124459,1,0,0:0:0:0:
192,192,124519,1,0,0:0:0:0:
448,192,124579,1,0,0:0:0:0:
64,192,124579,1,0,0:0:0:0:
320,192,124639,1,0,0:0:0:0:
192,192,124699,1,0,0:0:0:0:
64,192,124759,1,0,0:0:0:0:
320,192,124819,1,0,0:0:0:0:
448,192,124819,1,0,0:0:0:0:
64,192,124879,1,0,0:0:0:0:
192,192,124939,1,0,0:0:0:0:
320,192,124999,1,0,0:0:0:0:
192,192,125059,1,0,0:0:0:0:
448,192,125059,1,0,0:0:0:0:
64,192,125119,1,0,0:0:0:0:
320,192,125179,1,0,0:0:0:0:
192,192,125239,1,0,0:0:0:0:
448,192,125299,1,0,0:0:0:0:
320,192,125299,1,0,0:0:0:0:
64,192,125359,1,0,0:0:0:0:
192,192,125419,1,0,0:0:0:0:
320,192,125479,1,0,0:0:0:0:
448,192,125539,1,0,0:0:0:0:
64,192,125539,1,0,0:0:0:0:
192,192,125599,1,0,0:0:0:0:
448,192,125659,1,0,0:0:0:0:
192,192,125719,1,0,0:0:0:0:
64,192,125779,1,0,0:0:0:0:
448,192,125779,1,0,0:0:0:0:
320,192,125839,1,0,0:0:0:0:
192,192,125899,1,0,0:0:0:0:
64,192,125959,1,0,0:0:0:0:
320,192,126019,1,0,0:0:0:0:
448,192,126019,1,0,0:0:0:0:
192,192,126079,1,0,0:0:0:0:
320,192,126139,1,0,0:0:0:0:
192,192,126199,1,0,0:0:0:0:
320,192,126259,1,0,0:0:0:0:
64,192,126259,1,0,0:0:0:0:
448,192,126319,1,0,0:0:0:0:
64,192,126379,1,0,0:0:0:0:
192,192,126439,1,0,0:0:0:0:
320,192,126499,1,0,0:0:0:0:
448,192,126499,1,0,0:0:0:0:
64,192,126559,1,0,0:0:0:0:
192,192,126619,1,0,0:0:0:0:
320,192,126679,1,0,0:0:0:0:
64,192,126739,1,0,0:0:0:0:
320,192,126799,1,0,0:0:0:0:
64,192,126859,1,0,0:0:0:0:
192,192,126859,1,0,0:0:0:0:
320,192,126919,1,0,0:0:0:0:
448,192,126979,1,0,0:0:0:0:
64,192,126979,1,0,0:0:0:0:
192,192,127219,1,0,0:0:0:0:
64,192,127459,1,0,0:0:0:0:
320,192,127579,1,0,0:0:0:0:
320,192,127819,1,0,0:0:0:0:
320,192,127939,1,0,0:0:0:0:
64,192,128059,1,0,0:0:0:0:
192,192,128299,1,0,0:0:0:0:
448,192,128419,1,0,0:0:0:0:
448,192,128539,1,0,0:0:0:0:
320,192,128659,1,0,0:0:0:0:
192,192,128779,1,0,0:0:0:0:
64,192,128899,1,0,0:0:0:0:
448,192,128899,1,0,0:0:0:0:
320,192,128899,1,0,0:0:0:0:
64,192,129019,1,0,0:0:0:0:
192,192,129019,1,0,0:0:0:0:
192,192,129139,1,0,0:0:0:0:
448,192,129139,1,0,0:0:0:0:
448,192,129259,1,0,0:0:0:0:
320,192,129259,1,0,0:0:0:0:
320,192,129379,1,0,0:0:0:0:
192,192,129439,1,0,0:0:0:0:
448,192,129499,1,0,0:0:0:0:
64,192,129499,1,0,0:0:0:0:
320,192,129619,1,0,0:0:0:0:
64,192,129619,1,0,0:0:0:0:
192,192,129739,1,0,0:0:0:0:
320,192,129739,1,0,0:0:0:0:
64,192,129859,1,0,0:0:0:0:
320,192,129859,1,0,0:0:0:0:
64,192,129979,1,0,0:0:0:0:
192,192,129979,1,0,0:0:0:0:
448,192,130099,1,0,0:0:0:0:
320,192,130099,1,0,0:0:0:0:
320,192,130219,1,0,0:0:0:0:
64,192,130219,1,0,0:0:0:0:
192,192,130459,1,0,0:0:0:0:
448,192,130459,1,0,0:0:0:0:
320,192,130579,1,0,0:0:0:0:
192,192,130579,1,0,0:0:0:0:
320,192,130699,1,0,0:0:0:0:
192,192,130759,1,0,0:0:0:0:
64,192,130819,1,0,0:0:0:0:
448,192,130819,1,0,0:0:0:0:
320,192,130939,1,0,0:0:0:0:
64,192,130939,1,0,0:0:0:0:
320,192,131059,1,0,0:0:0:0:
448,192,131059,1,0,0:0:0:0:
448,192,131179,1,0,0:0:0:0:
320,192,131239,1,0,0:0:0:0:
64,192,131299,1,0,0:0:0:0:
192,192,131299,1,0,0:0:0:0:
320,192,131419,1,0,0:0:0:0:
64,192,131419,1,0,0:0:0:0:
192,192,131539,1,0,0:0:0:0:
448,192,131539,1,0,0:0:0:0:
64,192,131659,1,0,0:0:0:0:
192,192,131659,1,0,0:0:0:0:
320,192,131779,1,0,0:0:0:0:
448,192,131779,1,0,0:0:0:0:
192,192,132019,1,0,0:0:0:0:
64,192,132019,1,0,0:0:0:0:
64,192,132139,1,0,0:0:0:0:
192,192,132199,1,0,0:0:0:0:
320,192,132259,1,0,0:0:0:0:
192,192,132379,1,0,0:0:0:0:
320,192,132379,1,0,0:0:0:0:
192,192,132499,1,0,0:0:0:0:
448,192,132499,1,0,0:0:0:0:
448,192,132619,1,0,0:0:0:0:
320,192,132679,1,0,0:0:0:0:
64,192,132739,1,0,0:0:0:0:
192,192,132739,1,0,0:0:0:0:
320,192,132859,1,0,0:0:0:0:
448,192,132859,1,0,0:0:0:0:
64,192,132979,1,0,0:0:0:0:
320,192,132979,1,0,0:0:0:0:
64,192,133099,1,0,0:0:0:0:
192,192,133099,1,0,0:0:0:0:
320,192,133159,1,0,0:0:0:0:
192,192,133219,1,0,0:0:0:0:
320,192,133279,1,0,0:0:0:0:
64,192,133339,1,0,0:0:0:0:
448,192,133339,1,0,0:0:0:0:
64,192,133459,1,0,0:0:0:0:
320,192,133459,1,0,0:0:0:0:
448,192,133579,1,0,0:0:0:0:
320,192,133579,1,0,0:0:0:0:
64,192,133699,1,0,0:0:0:0:
192,192,133699,1,0,0:0:0:0:
448,192,133819,1,0,0:0:0:0:
320,192,133819,1,0,0:0:0:0:
64,192,133939,1,0,0:0:0:0:
320,192,133939,1,0,0:0:0:0:
192,192,134059,1,0,0:0:0:0:
64,192,134059,1,0,0:0:0:0:
320,192,134119,1,0,0:0:0:0:
192,192,134179,1,0,0:0:0:0:
320,192,134239,1,0,0:0:0:0:
64,192,134299,1,0,0:0:0:0:
448,192,134299,1,0,0:0:0:0:
64,192,134419,1,0,0:0:0:0:
320,192,134419,1,0,0:0:0:0:
448,192,134539,1,0,0:0:0:0:
320,192,134539,1,0,0:0:0:0:
448,192,134659,1,0,0:0:0:0:
64,192,134659,1,0,0:0:0:0:
64,192,134779,1,0,0:0:0:0:
192,192,134839,1,0,0:0:0:0:
448,192,134899,1,0,0:0:0:0:
320,192,134899,1,0,0:0:0:0:
448,192,135019,1,0,0:0:0:0:
320,192,135079,1,0,0:0:0:0:
64,192,135139,1,0,0:0:0:0:
192,192,135139,1,0,0:0:0:0:
448,192,135259,1,0,0:0:0:0:
320,192,135259,1,0,0:0:0:0:
64,192,135379,1,0,0:0:0:0:
320,192,135379,1,0,0:0:0:0:
192,192,135499,1,0,0:0:0:0:
320,192,135619,1,0,0:0:0:0:
64,192,135619,1,0,0:0:0:0:
448,192,135739,1,0,0:0:0:0:
320,192,135859,1,0,0:0:0:0:
448,192,135859,1,0,0:0:0:0:
192,192,135979,1,0,0:0:0:0:
64,192,135979,1,0,0:0:0:0:
448,192,136039,1,0,0:0:0:0:
192,192,136099,1,0,0:0:0:0:
320,192,136219,1,0,0:0:0:0:
192,192,136279,1,0,0:0:0:0:
192,192,136459,1,0,0:0:0:0:
320,192,136519,1,0,0:0:0:0:
64,192,136579,1,0,0:0:0:0:
448,192,136579,1,0,0:0:0:0:
64,192,136699,1,0,0:0:0:0:
320,192,136699,1,0,0:0:0:0:
192,192,136819,1,0,0:0:0:0:
320,192,136819,1,0,0:0:0:0:
64,192,136939,1,0,0:0:0:0:
320,192,136939,1,0,0:0:0:0:
64,192,137059,1,0,0:0:0:0:
192,192,137119,1,0,0:0:0:0:
448,192,137179,1,0,0:0:0:0:
320,192,137179,1,0,0:0:0:0:
448,192,137299,1,0,0:0:0:0:
192,192,137299,1,0,0:0:0:0:
448,192,137419,1,0,0:0:0:0:
320,192,137419,1,0,0:0:0:0:
64,192,137539,1,0,0:0:0:0:
320,192,137539,1,0,0:0:0:0:
64,192,137659,1,0,0:0:0:0:
192,192,137659,1,0,0:0:0:0:
448,192,137779,1,0,0:0:0:0:
320,192,137779,1,0,0:0:0:0:
192,192,137899,1,0,0:0:0:0:
448,192,137899,1,0,0:0:0:0:
192,192,138139,1,0,0:0:0:0:
320,192,138139,1,0,0:0:0:0:
448,192,138259,1,0,0:0:0:0:
192,192,138259,1,0,0:0:0:0:
448,192,138379,1,0,0:0:0:0:
320,192,138439,1,0,0:0:0:0:
64,192,138499,1,0,0:0:0:0:
192,192,138499,1,0,0:0:0:0:
64,192,138619,1,0,0:0:0:0:
320,192,138619,1,0,0:0:0:0:
320,192,138739,1,0,0:0:0:0:
192,192,138739,1,0,0:0:0:0:
192,192,138859,1,0,0:0:0:0:
320,192,138919,1,0,0:0:0:0:
448,192,138979,1,0,0:0:0:0:
64,192,138979,1,0,0:0:0:0:
320,192,139099,1,0,0:0:0:0:
64,192,139099,1,0,0:0:0:0:
320,192,139219,1,0,0:0:0:0:
192,192,139219,1,0,0:0:0:0:
448,192,139339,1,0,0:0:0:0:
64,192,139339,1,0,0:0:0:0:
320,192,139459,1,0,0:0:0:0:
192,192,139459,1,0,0:0:0:0:
320,192,139699,1,0,0:0:0:0:
64,192,139699,1,0,0:0:0:0:
320,192,139819,1,0,0:0:0:0:
192,192,139879,1,0,0:0:0:0:
64,192,139939,1,0,0:0:0:0:
320,192,140059,1,0,0:0:0:0:
64,192,140059,1,0,0:0:0:0:
448,192,140179,1,0,0:0:0:0:
192,192,140179,1,0,0:0:0:0:
192,192,140299,1,0,0:0:0:0:
320,192,140359,1,0,0:0:0:0:
448,192,140419,1,0,0:0:0:0:
64,192,140419,1,0,0:0:0:0:
64,192,140539,1,0,0:0:0:0:
192,192,140539,1,0,0:0:0:0:
192,192,140659,1,0,0:0:0:0:
448,192,140659,1,0,0:0:0:0:
320,192,140779,1,0,0:0:0:0:
448,192,140779,1,0,0:0:0:0:
192,192,140839,1,0,0:0:0:0:
320,192,140899,1,0,0:0:0:0:
192,192,140959,1,0,0:0:0:0:
448,192,141019,1,0,0:0:0:0:
64,192,141019,1,0,0:0:0:0:
64,192,141139,1,0,0:0:0:0:
192,192,141139,1,0,0:0:0:0:
192,192,141259,1,0,0:0:0:0:
448,192,141259,1,0,0:0:0:0:
64,192,141379,1,0,0:0:0:0:
320,192,141379,1,0,0:0:0:0:
64,192,141499,1,0,0:0:0:0:
192,192,141499,1,0,0:0:0:0:
192,192,141619,1,0,0:0:0:0:
448,192,141619,1,0,0:0:0:0:
320,192,141739,1,0,0:0:0:0:
448,192,141739,1,0,0:0:0:0:
192,192,141799,1,0,0:0:0:0:
320,192,141859,1,0,0:0:0:0:
192,192,141919,1,0,0:0:0:0:
448,192,141979,1,0,0:0:0:0:
64,192,141979,1,0,0:0:0:0:
64,192,142099,1,0,0:0:0:0:
192,192,142099,1,0,0:0:0:0:
448,192,142219,1,0,0:0:0:0:
192,192,142219,1,0,0:0:0:0:
64,192,142339,1,0,0:0:0:0:
320,192,142339,1,0,0:0:0:0:
64,192,142459,1,0,0:0:0:0:
192,192,142519,1,0,0:0:0:0:
448,192,142579,1,0,0:0:0:0:
320,192,142579,1,0,0:0:0:0:
320,192,142699,1,0,0:0:0:0:
192,192,142759,1,0,0:0:0:0:
64,192,142819,1,0,0:0:0:0:
64,192,142939,1,0,0:0:0:0:
320,192,142939,1,0,0:0:0:0:
448,192,143059,1,0,0:0:0:0:
192,192,143059,1,0,0:0:0:0:
448,192,143179,1,0,0:0:0:0:
320,192,143239,1,0,0:0:0:0:
192,192,143299,1,0,0:0:0:0:
64,192,143299,1,0,0:0:0:0:
192,192,143419,1,0,0:0:0:0:
320,192,143539,1,0,0:0:0:0:
448,192,143539,1,0,0:0:0:0:
192,192,143659,1,0,0:0:0:0:
64,192,143659,1,0,0:0:0:0:
320,192,143719,1,0,0:0:0:0:
448,192,143779,1,0,0:0:0:0:
448,192,143899,1,0,0:0:0:0:
320,192,143899,1,0,0:0:0:0:
192,192,143959,1,0,0:0:0:0:
64,192,144019,1,0,0:0:0:0:
320,192,144019,1,0,0:0:0:0:
448,192,144079,1,0,0:0:0:0:
64,192,144139,1,0,0:0:0:0:
192,192,144199,1,0,0:0:0:0:
320,192,144259,1,0,0:0:0:0:
448,192,144259,1,0,0:0:0:0:
320,192,144379,1,0,0:0:0:0:
192,192,144499,1,0,0:0:0:0:
448,192,144499,1,0,0:0:0:0:
64,192,144619,1,0,0:0:0:0:
192,192,144619,1,0,0:0:0:0:
448,192,144739,1,0,0:0:0:0:
320,192,144739,1,0,0:0:0:0:
64,192,144799,1,0,0:0:0:0:
192,192,144799,1,0,0:0:0:0:
448,192,144859,1,0,0:0:0:0:
320,192,144859,1,0,0:0:0:0:
64,192,144919,1,0,0:0:0:0:
448,192,144979,1,0,0:0:0:0:
320,192,144979,1,0,0:0:0:0:
192,192,145039,1,0,0:0:0:0:
64,192,145039,1,0,0:0:0:0:
448,192,145099,1,0,0:0:0:0:
192,192,145159,1,0,0:0:0:0:
448,192,145219,1,0,0:0:0:0:
320,192,145219,1,0,0:0:0:0:
192,192,145339,1,0,0:0:0:0:
320,192,145459,1,0,0:0:0:0:
192,192,145459,1,0,0:0:0:0:
320,192,145579,1,0,0:0:0:0:
64,192,145579,1,0,0:0:0:0:
64,192,145699,1,0,0:0:0:0:
192,192,145759,1,0,0:0:0:0:
448,192,145819,1,0,0:0:0:0:
320,192,145819,1,0,0:0:0:0:
64,192,145879,1,0,0:0:0:0:
320,192,145939,1,0,0:0:0:0:
448,192,145939,1,0,0:0:0:0:
192,192,145999,1,0,0:0:0:0:
64,192,145999,1,0,0:0:0:0:
448,192,146059,1,0,0:0:0:0:
320,192,146119,1,0,0:0:0:0:
64,192,146179,1,0,0:0:0:0:
192,192,146179,1,0,0:0:0:0:
192,192,146299,1,0,0:0:0:0:
320,192,146419,1,0,0:0:0:0:
64,192,146419,1,0,0:0:0:0:
320,192,146539,1,0,0:0:0:0:
448,192,146539,1,0,0:0:0:0:
192,192,146659,1,0,0:0:0:0:
64,192,146659,1,0,0:0:0:0:
448,192,146719,1,0,0:0:0:0:
320,192,146719,1,0,0:0:0:0:
64,192,146779,1,0,0:0:0:0:
192,192,146779,1,0,0:0:0:0:
448,192,146839,1,0,0:0:0:0:
64,192,146899,1,0,0:0:0:0:
192,192,146899,1,0,0:0:0:0:
448,192,146959,1,0,0:0:0:0:
320,192,146959,1,0,0:0:0:0:
64,192,147019,1,0,0:0:0:0:
320,192,147079,1,0,0:0:0:0:
64,192,147139,1,0,0:0:0:0:
192,192,147139,1,0,0:0:0:0:
320,192,147259,1,0,0:0:0:0:
192,192,147379,1,0,0:0:0:0:
320,192,147379,1,0,0:0:0:0:
448,192,147499,1,0,0:0:0:0:
192,192,147499,1,0,0:0:0:0:
448,192,147619,1,0,0:0:0:0:
320,192,147679,1,0,0:0:0:0:
64,192,147739,1,0,0:0:0:0:
192,192,147739,1,0,0:0:0:0:
448,192,147799,1,0,0:0:0:0:
192,192,147859,1,0,0:0:0:0:
64,192,147859,1,0,0:0:0:0:
320,192,147919,1,0,0:0:0:0:
448,192,147919,1,0,0:0:0:0:
64,192,147979,1,0,0:0:0:0:
192,192,148039,1,0,0:0:0:0:
448,192,148099,1,0,0:0:0:0:
320,192,148099,1,0,0:0:0:0:
448,192,148219,1,0,0:0:0:0:
320,192,148219,1,0,0:0:0:0:
192,192,148339,1,0,0:0:0:0:
448,192,148339,1,0,0:0:0:0:
64,192,148459,1,0,0:0:0:0:
192,192,148459,1,0,0:0:0:0:
320,192,148579,1,0,0:0:0:0:
448,192,148579,1,0,0:0:0:0:
64,192,148639,1,0,0:0:0:0:
192,192,148639,1,0,0:0:0:0:
448,192,148699,1,0,0:0:0:0:
320,192,148699,1,0,0:0:0:0:
64,192,148759,1,0,0:0:0:0:
448,192,148819,1,0,0:0:0:0:
320,192,148819,1,0,0:0:0:0:
64,192,148879,1,0,0:0:0:0:
192,192,148879,1,0,0:0:0:0:
448,192,148939,1,0,0:0:0:0:
192,192,148999,1,0,0:0:0:0:
448,192,149059,1,0,0:0:0:0:
320,192,149059,1,0,0:0:0:0:
320,192,149179,1,0,0:0:0:0:
448,192,149179,1,0,0:0:0:0:
192,192,149299,1,0,0:0:0:0:
448,192,149299,1,0,0:0:0:0:
192,192,149419,1,0,0:0:0:0:
64,192,149419,1,0,0:0:0:0:
448,192,149539,1,0,0:0:0:0:
320,192,149539,1,0,0:0:0:0:
192,192,149659,1,0,0:0:0:0:
448,192,149659,1,0,0:0:0:0:
192,192,149779,1,0,0:0:0:0:
64,192,149779,1,0,0:0:0:0:
448,192,149839,1,0,0:0:0:0:
320,192,149899,1,0,0:0:0:0:
64,192,149899,1,0,0:0:0:0:
192,192,149959,1,0,0:0:0:0:
448,192,150019,1,0,0:0:0:0:
320,192,150019,1,0,0:0:0:0:
192,192,150079,1,0,0:0:0:0:
64,192,150079,1,0,0:0:0:0:
448,192,150139,1,0,0:0:0:0:
320,192,150139,1,0,0:0:0:0:
192,192,150199,1,0,0:0:0:0:
64,192,150199,1,0,0:0:0:0:
448,192,150259,1,0,0:0:0:0:
320,192,150259,1,0,0:0:0:0:
64,192,150319,1,0,0:0:0:0:
192,192,150319,1,0,0:0:0:0:
448,192,150379,1,0,0:0:0:0:
320,192,150379,1,0,0:0:0:0:
64,192,150439,1,0,0:0:0:0:
192,192,150439,1,0,0:0:0:0:
448,192,150499,1,0,0:0:0:0:
320,192,150499,1,0,0:0:0:0:
64,192,150559,1,0,0:0:0:0:
192,192,150559,1,0,0:0:0:0:
448,192,150619,1,0,0:0:0:0:
320,192,150619,1,0,0:0:0:0:
64,192,150679,1,0,0:0:0:0:
192,192,150679,1,0,0:0:0:0:
448,192,150739,1,0,0:0:0:0:
320,192,150739,1,0,0:0:0:0:
64,192,150799,1,0,0:0:0:0:
192,192,150799,1,0,0:0:0:0:
448,192,150859,1,0,0:0:0:0:
320,192,150859,1,0,0:0:0:0:
64,192,150919,1,0,0:0:0:0:
192,192,150919,1,0,0:0:0:0:
448,192,150979,1,0,0:0:0:0:
320,192,150979,1,0,0:0:0:0:
448,192,151099,1,0,0:0:0:0:
320,192,151099,1,0,0:0:0:0:
448,192,151339,1,0,0:0:0:0:
320,192,151339,1,0,0:0:0:0:
448,192,151579,1,0,0:0:0:0:
320,192,151579,1,0,0:0:0:0:
64,192,151699,1,0,0:0:0:0:
192,192,151699,1,0,0:0:0:0:
64,192,151819,1,0,0:0:0:0:
192,192,151819,1,0,0:0:0:0:
448,192,151939,1,0,0:0:0:0:
320,192,151939,1,0,0:0:0:0:
64,192,151999,1,0,0:0:0:0:
192,192,152059,1,0,0:0:0:0:
448,192,152059,1,0,0:0:0:0:
320,192,152119,1,0,0:0:0:0:
64,192,152179,1,0,0:0:0:0:
192,192,152179,1,0,0:0:0:0:
448,192,152239,1,0,0:0:0:0:
320,192,152299,1,0,0:0:0:0:
192,192,152299,1,0,0:0:0:0:
64,192,152359,1,0,0:0:0:0:
448,192,152419,1,0,0:0:0:0:
320,192,152419,1,0,0:0:0:0:
192,192,152479,1,0,0:0:0:0:
448,192,152539,1,0,0:0:0:0:
64,192,152539,1,0,0:0:0:0:
320,192,152599,1,0,0:0:0:0:
64,192,152659,1,0,0:0:0:0:
192,192,152659,1,0,0:0:0:0:
320,192,152719,1,0,0:0:0:0:
64,192,152779,1,0,0:0:0:0:
448,192,152779,1,0,0:0:0:0:
192,192,152839,1,0,0:0:0:0:
448,192,152899,1,0,0:0:0:0:
320,192,152899,1,0,0:0:0:0:
192,192,152959,1,0,0:0:0:0:
448,192,153019,1,0,0:0:0:0:
64,192,153019,1,0,0:0:0:0:
320,192,153079,1,0,0:0:0:0:
64,192,153139,1,0,0:0:0:0:
192,192,153139,1,0,0:0:0:0:
448,192,153199,1,0,0:0:0:0:
64,192,153259,1,0,0:0:0:0:
192,192,153259,1,0,0:0:0:0:
448,192,153319,1,0,0:0:0:0:
320,192,153379,1,0,0:0:0:0:
192,192,153379,1,0,0:0:0:0:
64,192,153439,1,0,0:0:0:0:
448,192,153499,1,0,0:0:0:0:
320,192,153499,1,0,0:0:0:0:
192,192,153559,1,0,0:0:0:0:
320,192,153619,1,0,0:0:0:0:
64,192,153619,1,0,0:0:0:0:
448,192,153679,1,0,0:0:0:0:
192,192,153739,1,0,0:0:0:0:
64,192,153739,1,0,0:0:0:0:
320,192,153799,1,0,0:0:0:0:
64,192,153859,1,0,0:0:0:0:
448,192,153859,1,0,0:0:0:0:
192,192,153919,1,0,0:0:0:0:
320,192,153979,1,0,0:0:0:0:
448,192,153979,1,0,0:0:0:0:
192,192,154039,1,0,0:0:0:0:
320,192,154099,1,0,0:0:0:0:
64,192,154099,1,0,0:0:0:0:
448,192,154159,1,0,0:0:0:0:
64,192,154219,1,0,0:0:0:0:
192,192,154219,1,0,0:0:0:0:
320,192,154279,1,0,0:0:0:0:
192,192,154339,1,0,0:0:0:0:
448,192,154339,1,0,0:0:0:0:
64,192,154399,1,0,0:0:0:0:
448,192,154459,1,0,0:0:0:0:
320,192,154459,1,0,0:0:0:0:
192,192,154519,1,0,0:0:0:0:
448,192,154579,1,0,0:0:0:0:
320,192,154579,1,0,0:0:0:0:
192,192,154639,1,0,0:0:0:0:
320,192,154699,1,0,0:0:0:0:
64,192,154699,1,0,0:0:0:0:
448,192,154759,1,0,0:0:0:0:
64,192,154819,1,0,0:0:0:0:
192,192,154819,1,0,0:0:0:0:
320,192,154879,1,0,0:0:0:0:
192,192,154939,1,0,0:0:0:0:
448,192,154939,1,0,0:0:0:0:
64,192,154999,1,0,0:0:0:0:
448,192,155059,1,0,0:0:0:0:
320,192,155059,1,0,0:0:0:0:
64,192,155119,1,0,0:0:0:0:
192,192,155179,1,0,0:0:0:0:
320,192,155239,1,0,0:0:0:0:
192,192,155299,1,0,0:0:0:0:
448,192,155299,1,0,0:0:0:0:
64,192,155359,1,0,0:0:0:0:
448,192,155419,1,0,0:0:0:0:
320,192,155479,1,0,0:0:0:0:
192,192,155539,1,0,0:0:0:0:
64,192,155539,1,0,0:0:0:0:
448,192,155599,1,0,0:0:0:0:
64,192,155659,1,0,0:0:0:0:
192,192,155659,1,0,0:0:0:0:
320,192,155719,1,0,0:0:0:0:
64,192,155779,1,0,0:0:0:0:
448,192,155779,1,0,0:0:0:0:
192,192,155839,1,0,0:0:0:0:
320,192,155899,1,0,0:0:0:0:
448,192,155959,1,0,0:0:0:0:
64,192,156019,1,0,0:0:0:0:
192,192,156019,1,0,0:0:0:0:
320,192,156079,1,0,0:0:0:0:
64,192,156139,1,0,0:0:0:0:
192,192,156139,1,0,0:0:0:0:
320,192,156199,1,0,0:0:0:0:
192,192,156259,1,0,0:0:0:0:
448,192,156259,1,0,0:0:0:0:
64,192,156319,1,0,0:0:0:0:
448,192,156379,1,0,0:0:0:0:
320,192,156379,1,0,0:0:0:0:
192,192,156439,1,0,0:0:0:0:
448,192,156499,1,0,0:0:0:0:
320,192,156499,1,0,0:0:0:0:
192,192,156559,1,0,0:0:0:0:
448,192,156619,1,0,0:0:0:0:
64,192,156619,1,0,0:0:0:0:
320,192,156679,1,0,0:0:0:0:
64,192,156739,1,0,0:0:0:0:
192,192,156739,1,0,0:0:0:0:
320,192,156799,1,0,0:0:0:0:
192,192,156859,1,0,0:0:0:0:
448,192,156859,1,0,0:0:0:0:
64,192,156919,1,0,0:0:0:0:
448,192,156979,1,0,0:0:0:0:
320,192,156979,1,0,0:0:0:0:
192,192,157039,1,0,0:0:0:0:
448,192,157099,1,0,0:0:0:0:
320,192,157099,1,0,0:0:0:0:
192,192,157159,1,0,0:0:0:0:
320,192,157219,1,0,0:0:0:0:
64,192,157219,1,0,0:0:0:0:
448,192,157279,1,0,0:0:0:0:
64,192,157339,1,0,0:0:0:0:
192,192,157399,1,0,0:0:0:0:
448,192,157459,1,0,0:0:0:0:
320,192,157459,1,0,0:0:0:0:
192,192,157519,1,0,0:0:0:0:
448,192,157579,1,0,0:0:0:0:
320,192,157579,1,0,0:0:0:0:
192,192,157639,1,0,0:0:0:0:
448,192,157699,1,0,0:0:0:0:
64,192,157699,1,0,0:0:0:0:
320,192,157759,1,0,0:0:0:0:
192,192,157819,1,0,0:0:0:0:
64,192,157879,1,0,0:0:0:0:
448,192,157939,1,0,0:0:0:0:
320,192,157939,1,0,0:0:0:0:
192,192,157999,1,0,0:0:0:0:
448,192,158059,1,0,0:0:0:0:
320,192,158059,1,0,0:0:0:0:
192,192,158119,1,0,0:0:0:0:
448,192,158179,1,0,0:0:0:0:
64,192,158179,1,0,0:0:0:0:
320,192,158239,1,0,0:0:0:0:
192,192,158299,1,0,0:0:0:0:
64,192,158299,1,0,0:0:0:0:
448,192,158359,1,0,0:0:0:0:
64,192,158419,1,0,0:0:0:0:
192,192,158419,1,0,0:0:0:0:
320,192,158479,1,0,0:0:0:0:
448,192,158539,1,0,0:0:0:0:
64,192,158539,1,0,0:0:0:0:
192,192,158599,1,0,0:0:0:0:
448,192,158659,1,0,0:0:0:0:
320,192,158659,1,0,0:0:0:0:
192,192,158719,1,0,0:0:0:0:
64,192,158779,1,0,0:0:0:0:
448,192,158779,1,0,0:0:0:0:
320,192,158839,1,0,0:0:0:0:
64,192,158899,1,0,0:0:0:0:
192,192,158899,1,0,0:0:0:0:
448,192,158959,1,0,0:0:0:0:
320,192,159019,1,0,0:0:0:0:
192,192,159079,1,0,0:0:0:0:
320,192,159139,1,0,0:0:0:0:
64,192,159139,1,0,0:0:0:0:
448,192,159199,1,0,0:0:0:0:
64,192,159259,1,0,0:0:0:0:
192,192,159259,1,0,0:0:0:0:
448,192,159319,1,0,0:0:0:0:
64,192,159379,1,0,0:0:0:0:
192,192,159379,1,0,0:0:0:0:
320,192,159439,1,0,0:0:0:0:
192,192,159499,1,0,0:0:0:0:
64,192,159499,1,0,0:0:0:0:
320,192,159559,1,0,0:0:0:0:
448,192,159619,1,0,0:0:0:0:
64,192,159619,1,0,0:0:0:0:
192,192,159679,1,0,0:0:0:0:
320,192,159739,1,0,0:0:0:0:
448,192,159799,1,0,0:0:0:0:
64,192,159859,1,0,0:0:0:0:
192,192,159859,1,0,0:0:0:0:
448,192,159919,1,0,0:0:0:0:
320,192,159919,1,0,0:0:0:0:
64,192,159979,1,0,0:0:0:0:
192,192,160039,1,0,0:0:0:0:
448,192,160099,1,0,0:0:0:0:
320,192,160099,1,0,0:0:0:0:
64,192,160159,1,0,0:0:0:0:
192,192,160159,1,0,0:0:0:0:
448,192,160219,1,0,0:0:0:0:
320,192,160219,1,0,0:0:0:0:
192,192,160279,1,0,0:0:0:0:
448,192,160339,1,0,0:0:0:0:
64,192,160339,1,0,0:0:0:0:
320,192,160399,1,0,0:0:0:0:
192,192,160459,1,0,0:0:0:0:
64,192,160519,1,0,0:0:0:0:
448,192,160579,1,0,0:0:0:0:
320,192,160579,1,0,0:0:0:0:
192,192,160639,1,0,0:0:0:0:
64,192,160699,1,0,0:0:0:0:
320,192,160699,1,0,0:0:0:0:
448,192,160759,1,0,0:0:0:0:
64,192,160819,1,0,0:0:0:0:
192,192,160819,1,0,0:0:0:0:
320,192,160879,1,0,0:0:0:0:
64,192,160939,1,0,0:0:0:0:
192,192,160939,1,0,0:0:0:0:
320,192,160999,1,0,0:0:0:0:
64,192,161059,1,0,0:0:0:0:
448,192,161059,1,0,0:0:0:0:
192,192,161119,1,0,0:0:0:0:
448,192,161179,1,0,0:0:0:0:
320,192,161179,1,0,0:0:0:0:
192,192,161239,1,0,0:0:0:0:
448,192,161299,1,0,0:0:0:0:
320,192,161299,1,0,0:0:0:0:
192,192,161359,1,0,0:0:0:0:
64,192,161419,1,0,0:0:0:0:
448,192,161419,1,0,0:0:0:0:
320,192,161479,1,0,0:0:0:0:
64,192,161539,1,0,0:0:0:0:
192,192,161539,1,0,0:0:0:0:
320,192,161599,1,0,0:0:0:0:
448,192,161659,1,0,0:0:0:0:
64,192,161659,1,0,0:0:0:0:
192,192,161719,1,0,0:0:0:0:
448,192,161779,1,0,0:0:0:0:
320,192,161779,1,0,0:0:0:0:
192,192,161839,1,0,0:0:0:0:
448,192,161899,1,0,0:0:0:0:
320,192,161899,1,0,0:0:0:0:
192,192,161959,1,0,0:0:0:0:
320,192,162019,1,0,0:0:0:0:
64,192,162019,1,0,0:0:0:0:
448,192,162079,1,0,0:0:0:0:
64,192,162139,1,0,0:0:0:0:
192,192,162199,1,0,0:0:0:0:
448,192,162259,1,0,0:0:0:0:
320,192,162259,1,0,0:0:0:0:
192,192,162319,1,0,0:0:0:0:
448,192,162379,1,0,0:0:0:0:
64,192,162379,1,0,0:0:0:0:
320,192,162439,1,0,0:0:0:0:
64,192,162499,1,0,0:0:0:0:
192,192,162499,1,0,0:0:0:0:
320,192,162559,1,0,0:0:0:0:
192,192,162619,1,0,0:0:0:0:
448,192,162619,1,0,0:0:0:0:
64,192,162679,1,0,0:0:0:0:
448,192,162739,1,0,0:0:0:0:
320,192,162739,1,0,0:0:0:0:
64,192,162799,1,0,0:0:0:0:
192,192,162859,1,0,0:0:0:0:
320,192,162919,1,0,0:0:0:0:
64,192,162979,1,0,0:0:0:0:
448,192,162979,1,0,0:0:0:0:
192,192,163039,1,0,0:0:0:0:
320,192,163099,1,0,0:0:0:0:
192,192,163159,1,0,0:0:0:0:
320,192,163219,1,0,0:0:0:0:
64,192,163219,1,0,0:0:0:0:
448,192,163279,1,0,0:0:0:0:
64,192,163339,1,0,0:0:0:0:
192,192,163339,1,0,0:0:0:0:
448,192,163399,1,0,0:0:0:0:
192,192,163459,1,0,0:0:0:0:
64,192,163459,1,0,0:0:0:0:
320,192,163519,1,0,0:0:0:0:
64,192,163579,1,0,0:0:0:0:
448,192,163579,1,0,0:0:0:0:
192,192,163639,1,0,0:0:0:0:
448,192,163699,1,0,0:0:0:0:
320,192,163699,1,0,0:0:0:0:
192,192,163759,1,0,0:0:0:0:
320,192,163819,1,0,0:0:0:0:
64,192,163819,1,0,0:0:0:0:
448,192,163879,1,0,0:0:0:0:
64,192,163939,1,0,0:0:0:0:
192,192,163939,1,0,0:0:0:0:
448,192,163999,1,0,0:0:0:0:
320,192,164059,1,0,0:0:0:0:
192,192,164119,1,0,0:0:0:0:
64,192,164179,1,0,0:0:0:0:
448,192,164179,1,0,0:0:0:0:
320,192,164239,1,0,0:0:0:0:
64,192,164299,1,0,0:0:0:0:
192,192,164299,1,0,0:0:0:0:
320,192,164359,1,0,0:0:0:0:
64,192,164419,1,0,0:0:0:0:
448,192,164419,1,0,0:0:0:0:
192,192,164479,1,0,0:0:0:0:
448,192,164539,1,0,0:0:0:0:
320,192,164539,1,0,0:0:0:0:
192,192,164599,1,0,0:0:0:0:
320,192,164659,1,0,0:0:0:0:
64,192,164659,1,0,0:0:0:0:
448,192,164719,1,0,0:0:0:0:
64,192,164779,1,0,0:0:0:0:
192,192,164779,1,0,0:0:0:0:
320,192,164839,1,0,0:0:0:0:
64,192,164899,1,0,0:0:0:0:
448,192,164899,1,0,0:0:0:0:
192,192,164959,1,0,0:0:0:0:
448,192,165019,1,0,0:0:0:0:
320,192,165019,1,0,0:0:0:0:
192,192,165079,1,0,0:0:0:0:
64,192,165139,1,0,0:0:0:0:
448,192,165139,1,0,0:0:0:0:
320,192,165199,1,0,0:0:0:0:
192,192,165259,1,0,0:0:0:0:
64,192,165319,1,0,0:0:0:0:
448,192,165379,1,0,0:0:0:0:
320,192,165379,1,0,0:0:0:0:
64,192,165439,1,0,0:0:0:0:
448,192,165499,1,0,0:0:0:0:
320,192,165499,1,0,0:0:0:0:
192,192,165559,1,0,0:0:0:0:
448,192,165619,1,0,0:0:0:0:
320,192,165619,1,0,0:0:0:0:
192,192,165679,1,0,0:0:0:0:
448,192,165739,1,0,0:0:0:0:
320,192,165739,1,0,0:0:0:0:
192,192,165799,1,0,0:0:0:0:
64,192,165859,1,0,0:0:0:0:
448,192,165859,1,0,0:0:0:0:
320,192,165919,1,0,0:0:0:0:
64,192,165979,1,0,0:0:0:0:
192,192,166039,1,0,0:0:0:0:
448,192,166099,1,0,0:0:0:0:
320,192,166099,1,0,0:0:0:0:
192,192,166159,1,0,0:0:0:0:
448,192,166219,1,0,0:0:0:0:
64,192,166219,1,0,0:0:0:0:
320,192,166279,1,0,0:0:0:0:
64,192,166339,1,0,0:0:0:0:
192,192,166339,1,0,0:0:0:0:
320,192,166819,1,0,0:0:0:0:
448,192,166819,1,0,0:0:0:0:
192,192,166999,1,0,0:0:0:0:
320,192,166999,1,0,0:0:0:0:
192,192,167179,1,0,0:0:0:0:
64,192,167179,1,0,0:0:0:0:
448,192,167299,1,0,0:0:0:0:
320,192,167299,1,0,0:0:0:0:
192,192,167419,1,0,0:0:0:0:
320,192,167539,1,0,0:0:0:0:
448,192,167539,1,0,0:0:0:0:
64,192,167539,1,0,0:0:0:0:
192,192,167659,1,0,0:0:0:0:
448,192,167779,1,0,0:0:0:0:
64,192,167779,1,0,0:0:0:0:
320,192,167899,1,0,0:0:0:0:
448,192,168019,1,0,0:0:0:0:
192,192,168019,1,0,0:0:0:0:
64,192,168019,1,0,0:0:0:0:
64,192,168139,1,0,0:0:0:0:
192,192,168139,1,0,0:0:0:0:
64,192,168259,1,0,0:0:0:0:
320,192,168259,1,0,0:0:0:0:
192,192,168379,1,0,0:0:0:0:
448,192,168499,1,0,0:0:0:0:
320,192,168499,1,0,0:0:0:0:
64,192,168499,1,0,0:0:0:0:
192,192,168619,1,0,0:0:0:0:
320,192,168739,1,0,0:0:0:0:
64,192,168739,1,0,0:0:0:0:
192,192,168859,1,0,0:0:0:0:
320,192,168979,1,0,0:0:0:0:
448,192,168979,1,0,0:0:0:0:
64,192,168979,1,0,0:0:0:0:
192,192,169099,1,0,0:0:0:0:
64,192,169219,1,0,0:0:0:0:
320,192,169219,1,0,0:0:0:0:
192,192,169339,1,0,0:0:0:0:
64,192,169459,1,0,0:0:0:0:
320,192,169459,1,0,0:0:0:0:
448,192,169459,1,0,0:0:0:0:
192,192,169579,1,0,0:0:0:0:
320,192,169699,1,0,0:0:0:0:
64,192,169699,1,0,0:0:0:0:
192,192,169819,1,0,0:0:0:0:
320,192,169939,1,0,0:0:0:0:
448,192,169939,1,0,0:0:0:0:
64,192,169939,1,0,0:0:0:0:
320,192,170059,1,0,0:0:0:0:
448,192,170059,1,0,0:0:0:0:
448,192,170179,1,0,0:0:0:0:
192,192,170179,1,0,0:0:0:0:
320,192,170299,1,0,0:0:0:0:
192,192,170419,1,0,0:0:0:0:
64,192,170419,1,0,0:0:0:0:
448,192,170419,1,0,0:0:0:0:
320,192,170539,1,0,0:0:0:0:
64,192,170659,1,0,0:0:0:0:
192,192,170659,1,0,0:0:0:0:
448,192,170779,1,0,0:0:0:0:
320,192,170899,1,0,0:0:0:0:
192,192,170899,1,0,0:0:0:0:
64,192,170899,1,0,0:0:0:0:
448,192,171019,1,0,0:0:0:0:
64,192,171139,1,0,0:0:0:0:
320,192,171139,1,0,0:0:0:0:
192,192,171259,1,0,0:0:0:0:
320,192,171379,1,0,0:0:0:0:
448,192,171379,1,0,0:0:0:0:
64,192,171379,1,0,0:0:0:0:
192,192,171499,1,0,0:0:0:0:
320,192,171619,1,0,0:0:0:0:
64,192,171619,1,0,0:0:0:0:
192,192,171739,1,0,0:0:0:0:
320,192,171859,1,0,0:0:0:0:
64,192,171859,1,0,0:0:0:0:
448,192,171859,1,0,0:0:0:0:
320,192,171979,1,0,0:0:0:0:
64,192,171979,1,0,0:0:0:0:
192,192,172099,1,0,0:0:0:0:
64,192,172099,1,0,0:0:0:0:
320,192,172219,1,0,0:0:0:0:
192,192,172339,1,0,0:0:0:0:
448,192,172339,1,0,0:0:0:0:
64,192,172339,1,0,0:0:0:0:
320,192,172459,1,0,0:0:0:0:
192,192,172579,1,0,0:0:0:0:
448,192,172579,1,0,0:0:0:0:
320,192,172699,1,0,0:0:0:0:
192,192,172819,1,0,0:0:0:0:
64,192,172819,1,0,0:0:0:0:
448,192,172819,1,0,0:0:0:0:
320,192,172939,1,0,0:0:0:0:
192,192,173059,1,0,0:0:0:0:
64,192,173059,1,0,0:0:0:0:
320,192,173179,1,0,0:0:0:0:
448,192,173299,1,0,0:0:0:0:
192,192,173299,1,0,0:0:0:0:
64,192,173299,1,0,0:0:0:0:
320,192,173419,1,0,0:0:0:0:
448,192,173539,1,0,0:0:0:0:
192,192,173539,1,0,0:0:0:0:
320,192,173659,1,0,0:0:0:0:
64,192,173779,1,0,0:0:0:0:
448,192,173779,1,0,0:0:0:0:
192,192,173779,1,0,0:0:0:0:
64,192,173899,1,0,0:0:0:0:
192,192,173899,1,0,0:0:0:0:
320,192,174019,1,0,0:0:0:0:
64,192,174019,1,0,0:0:0:0:
320,192,174139,1,0,0:0:0:0:
192,192,174259,1,0,0:0:0:0:
448,192,174259,1,0,0:0:0:0:
64,192,174379,1,0,0:0:0:0:
320,192,174379,1,0,0:0:0:0:
320,192,174499,1,0,0:0:0:0:
192,192,174559,1,0,0:0:0:0:
64,192,174619,1,0,0:0:0:0:
448,192,174679,1,0,0:0:0:0:
64,192,174739,1,0,0:0:0:0:
448,192,174799,1,0,0:0:0:0:
320,192,174859,1,0,0:0:0:0:
192,192,174919,1,0,0:0:0:0:
320,192,174979,1,0,0:0:0:0:
448,192,174979,1,0,0:0:0:0:
64,192,174979,1,0,0:0:0:0:
192,192,175099,1,0,0:0:0:0:
320,192,175219,1,0,0:0:0:0:
448,192,175219,1,0,0:0:0:0:
64,192,175219,1,0,0:0:0:0:
192,192,175339,1,0,0:0:0:0:
448,192,175459,1,0,0:0:0:0:
320,192,175459,1,0,0:0:0:0:
192,192,175579,1,0,0:0:0:0:
448,192,175699,1,0,0:0:0:0:
320,192,175699,1,0,0:0:0:0:
64,192,175699,1,0,0:0:0:0:
64,192,175819,1,0,0:0:0:0:
320,192,175819,1,0,0:0:0:0:
448,192,175939,1,0,0:0:0:0:
320,192,175939,1,0,0:0:0:0:
192,192,176059,1,0,0:0:0:0:
320,192,176179,1,0,0:0:0:0:
64,192,176179,1,0,0:0:0:0:
448,192,176179,1,0,0:0:0:0:
192,192,176299,1,0,0:0:0:0:
320,192,176419,1,0,0:0:0:0:
448,192,176419,1,0,0:0:0:0:
192,192,176539,1,0,0:0:0:0:
448,192,176659,1,0,0:0:0:0:
320,192,176659,1,0,0:0:0:0:
64,192,176659,1,0,0:0:0:0:
192,192,176779,1,0,0:0:0:0:
448,192,176899,1,0,0:0:0:0:
320,192,176899,1,0,0:0:0:0:
192,192,177019,1,0,0:0:0:0:
64,192,177139,1,0,0:0:0:0:
448,192,177139,1,0,0:0:0:0:
320,192,177139,1,0,0:0:0:0:
192,192,177259,1,0,0:0:0:0:
448,192,177379,1,0,0:0:0:0:
320,192,177379,1,0,0:0:0:0:
192,192,177499,1,0,0:0:0:0:
448,192,177619,1,0,0:0:0:0:
320,192,177619,1,0,0:0:0:0:
64,192,177619,1,0,0:0:0:0:
448,192,177739,1,0,0:0:0:0:
320,192,177739,1,0,0:0:0:0:
448,192,177859,1,0,0:0:0:0:
64,192,177859,1,0,0:0:0:0:
320,192,177979,1,0,0:0:0:0:
448,192,178099,1,0,0:0:0:0:
192,192,178099,1,0,0:0:0:0:
64,192,178099,1,0,0:0:0:0:
320,192,178219,1,0,0:0:0:0:
448,192,178339,1,0,0:0:0:0:
64,192,178339,1,0,0:0:0:0:
320,192,178459,1,0,0:0:0:0:
192,192,178579,1,0,0:0:0:0:
448,192,178579,1,0,0:0:0:0:
64,192,178579,1,0,0:0:0:0:
320,192,178699,1,0,0:0:0:0:
64,192,178819,1,0,0:0:0:0:
192,192,178819,1,0,0:0:0:0:
320,192,178939,1,0,0:0:0:0:
64,192,179059,1,0,0:0:0:0:
448,192,179059,1,0,0:0:0:0:
192,192,179059,1,0,0:0:0:0:
320,192,179179,1,0,0:0:0:0:
64,192,179299,1,0,0:0:0:0:
192,192,179299,1,0,0:0:0:0:
320,192,179419,1,0,0:0:0:0:
448,192,179539,1,0,0:0:0:0:
192,192,179539,1,0,0:0:0:0:
64,192,179539,1,0,0:0:0:0:
192,192,179659,1,0,0:0:0:0:
64,192,179659,1,0,0:0:0:0:
448,192,179779,1,0,0:0:0:0:
64,192,179779,1,0,0:0:0:0:
320,192,179899,1,0,0:0:0:0:
64,192,180019,1,0,0:0:0:0:
192,192,180019,1,0,0:0:0:0:
448,192,180019,1,0,0:0:0:0:
320,192,180139,1,0,0:0:0:0:
64,192,180259,1,0,0:0:0:0:
192,192,180259,1,0,0:0:0:0:
320,192,180379,1,0,0:0:0:0:
64,192,180499,1,0,0:0:0:0:
192,192,180499,1,0,0:0:0:0:
448,192,180499,1,0,0:0:0:0:
320,192,180619,1,0,0:0:0:0:
192,192,180739,1,0,0:0:0:0:
448,192,180739,1,0,0:0:0:0:
64,192,180859,1,0,0:0:0:0:
448,192,180979,1,0,0:0:0:0:
320,192,180979,1,0,0:0:0:0:
192,192,180979,1,0,0:0:0:0:
64,192,181099,1,0,0:0:0:0:
448,192,181219,1,0,0:0:0:0:
320,192,181219,1,0,0:0:0:0:
192,192,181339,1,0,0:0:0:0:
320,192,181459,1,0,0:0:0:0:
64,192,181459,1,0,0:0:0:0:
448,192,181459,1,0,0:0:0:0:
320,192,181579,1,0,0:0:0:0:
448,192,181579,1,0,0:0:0:0:
192,192,181699,1,0,0:0:0:0:
448,192,181699,1,0,0:0:0:0:
320,192,181819,1,0,0:0:0:0:
192,192,181939,1,0,0:0:0:0:
448,192,181939,1,0,0:0:0:0:
64,192,181939,1,0,0:0:0:0:
320,192,182059,1,0,0:0:0:0:
64,192,182179,1,0,0:0:0:0:
192,192,182179,1,0,0:0:0:0:
320,192,182299,1,0,0:0:0:0:
192,192,182419,1,0,0:0:0:0:
448,192,182419,1,0,0:0:0:0:
64,192,182419,1,0,0:0:0:0:
320,192,182539,1,0,0:0:0:0:
192,192,182659,1,0,0:0:0:0:
64,192,182659,1,0,0:0:0:0:
448,192,182659,1,0,0:0:0:0:
