osu file format v14

[General]
AudioFilename: audio115.mp3
AudioLeadIn: 0
PreviewTime: 72532
Countdown: 0
SampleSet: Soft
StackLeniency: 0.7
Mode: 3
LetterboxInBreaks: 0
SpecialStyle: 0
WidescreenStoryboard: 1

[Editor]
DistanceSpacing: 1
BeatDivisor: 4
GridSize: 8
TimelineZoom: 2.7

[Metadata]
Title:Holding out for a Hero
TitleUnicode:Holding out for a Hero
Artist:Helblinde
ArtistUnicode:Helblinde
Creator:NikoSek
Version:H [x1.15]
Source:
Tags:featured artist fa electronic instrumental stamina Bonnie Tyler Ephemerality jumpstream speed rates
BeatmapID:2182353
BeatmapSetID:1040735

[Difficulty]
HPDrainRate:8
CircleSize:4
OverallDifficulty:8
ApproachRate:5
SliderMultiplier:1.4
SliderTickRate:1

[Events]
//Background and Video events
0,0,"bg2 tst.jpg",0,0
//Break Periods
//Storyboard Layer 0 (Background)
//Storyboard Layer 1 (Fail)
//Storyboard Layer 2 (Pass)
//Storyboard Layer 3 (Foreground)
//Storyboard Layer 4 (Overlay)
//Storyboard Sound Samples

[TimingPoints]
13840,260.869565217391,4,2,0,10,1,0

[HitObjects]
64,192,13839,5,0,0:0:0:0:
192,192,13839,1,0,0:0:0:0:
320,192,13970,1,0,0:0:0:0:
64,192,14100,1,0,0:0:0:0:
192,192,14100,1,0,0:0:0:0:
448,192,14100,1,0,0:0:0:0:
320,192,14231,1,0,0:0:0:0:
192,192,14361,1,0,0:0:0:0:
448,192,14361,1,0,0:0:0:0:
64,192,14492,1,0,0:0:0:0:
320,192,14622,1,0,0:0:0:0:
448,192,14622,1,0,0:0:0:0:
192,192,14622,1,0,0:0:0:0:
64,192,14753,1,0,0:0:0:0:
448,192,14883,1,0,0:0:0:0:
320,192,14883,1,0,0:0:0:0:
192,192,15013,1,0,0:0:0:0:
448,192,15144,1,0,0:0:0:0:
320,192,15144,1,0,0:0:0:0:
64,192,15144,1,0,0:0:0:0:
192,192,15274,1,0,0:0:0:0:
448,192,15405,1,0,0:0:0:0:
64,192,15405,1,0,0:0:0:0:
320,192,15535,1,0,0:0:0:0:
448,192,15666,1,0,0:0:0:0:
64,192,15666,1,0,0:0:0:0:
192,192,15666,1,0,0:0:0:0:
64,192,15796,1,0,0:0:0:0:
192,192,15796,1,0,0:0:0:0:
64,192,15926,1,0,0:0:0:0:
320,192,15926,1,0,0:0:0:0:
192,192,16057,1,0,0:0:0:0:
448,192,16187,1,0,0:0:0:0:
320,192,16187,1,0,0:0:0:0:
64,192,16187,1,0,0:0:0:0:
192,192,16318,1,0,0:0:0:0:
64,192,16448,1,0,0:0:0:0:
320,192,16448,1,0,0:0:0:0:
448,192,16579,1,0,0:0:0:0:
320,192,16709,1,0,0:0:0:0:
64,192,16709,1,0,0:0:0:0:
192,192,16709,1,0,0:0:0:0:
448,192,16839,1,0,0:0:0:0:
192,192,16970,1,0,0:0:0:0:
64,192,16970,1,0,0:0:0:0:
192,192,17100,1,0,0:0:0:0:
320,192,17231,1,0,0:0:0:0:
64,192,17231,1,0,0:0:0:0:
192,192,17361,1,0,0:0:0:0:
192,192,17492,1,0,0:0:0:0:
320,192,17557,1,0,0:0:0:0:
448,192,17622,1,0,0:0:0:0:
448,192,17753,1,0,0:0:0:0:
320,192,17818,1,0,0:0:0:0:
64,192,17883,1,0,0:0:0:0:
192,192,17883,1,0,0:0:0:0:
448,192,17948,1,0,0:0:0:0:
192,192,18013,1,0,0:0:0:0:
320,192,18013,1,0,0:0:0:0:
64,192,18013,1,0,0:0:0:0:
448,192,18144,1,0,0:0:0:0:
64,192,18274,1,0,0:0:0:0:
192,192,18274,1,0,0:0:0:0:
320,192,18274,1,0,0:0:0:0:
448,192,18405,1,0,0:0:0:0:
64,192,18535,1,0,0:0:0:0:
192,192,18535,1,0,0:0:0:0:
320,192,18666,1,0,0:0:0:0:
64,192,18796,1,0,0:0:0:0:
192,192,18796,1,0,0:0:0:0:
448,192,18796,1,0,0:0:0:0:
320,192,18926,1,0,0:0:0:0:
64,192,19057,1,0,0:0:0:0:
448,192,19057,1,0,0:0:0:0:
192,192,19187,1,0,0:0:0:0:
64,192,19318,1,0,0:0:0:0:
448,192,19318,1,0,0:0:0:0:
320,192,19318,1,0,0:0:0:0:
192,192,19448,1,0,0:0:0:0:
448,192,19579,1,0,0:0:0:0:
320,192,19579,1,0,0:0:0:0:
192,192,19709,1,0,0:0:0:0:
448,192,19839,1,0,0:0:0:0:
320,192,19839,1,0,0:0:0:0:
64,192,19839,1,0,0:0:0:0:
320,192,19970,1,0,0:0:0:0:
448,192,19970,1,0,0:0:0:0:
448,192,20100,1,0,0:0:0:0:
192,192,20100,1,0,0:0:0:0:
320,192,20231,1,0,0:0:0:0:
64,192,20361,1,0,0:0:0:0:
192,192,20361,1,0,0:0:0:0:
448,192,20361,1,0,0:0:0:0:
320,192,20492,1,0,0:0:0:0:
448,192,20622,1,0,0:0:0:0:
64,192,20622,1,0,0:0:0:0:
192,192,20753,1,0,0:0:0:0:
320,192,20883,1,0,0:0:0:0:
448,192,20883,1,0,0:0:0:0:
64,192,20883,1,0,0:0:0:0:
192,192,21013,1,0,0:0:0:0:
320,192,21144,1,0,0:0:0:0:
64,192,21144,1,0,0:0:0:0:
320,192,21274,1,0,0:0:0:0:
64,192,21405,1,0,0:0:0:0:
192,192,21405,1,0,0:0:0:0:
448,192,21405,1,0,0:0:0:0:
448,192,21535,1,0,0:0:0:0:
64,192,21535,1,0,0:0:0:0:
192,192,21535,1,0,0:0:0:0:
320,192,21666,1,0,0:0:0:0:
192,192,21731,1,0,0:0:0:0:
64,192,21796,1,0,0:0:0:0:
448,192,21796,1,0,0:0:0:0:
320,192,21796,1,0,0:0:0:0:
64,192,21926,1,0,0:0:0:0:
320,192,21926,1,0,0:0:0:0:
448,192,21926,1,0,0:0:0:0:
64,192,22187,1,0,0:0:0:0:
448,192,22187,1,0,0:0:0:0:
320,192,22187,1,0,0:0:0:0:
192,192,22253,1,0,0:0:0:0:
320,192,22318,1,0,0:0:0:0:
192,192,22383,1,0,0:0:0:0:
448,192,22448,1,0,0:0:0:0:
64,192,22448,1,0,0:0:0:0:
320,192,22513,1,0,0:0:0:0:
192,192,22579,1,0,0:0:0:0:
64,192,22644,1,0,0:0:0:0:
448,192,22709,1,0,0:0:0:0:
320,192,22709,1,0,0:0:0:0:
64,192,22774,1,0,0:0:0:0:
192,192,22839,1,0,0:0:0:0:
320,192,22905,1,0,0:0:0:0:
448,192,22970,1,0,0:0:0:0:
64,192,22970,1,0,0:0:0:0:
192,192,23035,1,0,0:0:0:0:
320,192,23100,1,0,0:0:0:0:
192,192,23166,1,0,0:0:0:0:
320,192,23231,1,0,0:0:0:0:
64,192,23231,1,0,0:0:0:0:
448,192,23296,1,0,0:0:0:0:
64,192,23361,1,0,0:0:0:0:
448,192,23426,1,0,0:0:0:0:
192,192,23492,1,0,0:0:0:0:
320,192,23492,1,0,0:0:0:0:
64,192,23557,1,0,0:0:0:0:
448,192,23622,1,0,0:0:0:0:
64,192,23687,1,0,0:0:0:0:
320,192,23753,1,0,0:0:0:0:
192,192,23753,1,0,0:0:0:0:
448,192,23818,1,0,0:0:0:0:
192,192,23883,1,0,0:0:0:0:
448,192,23948,1,0,0:0:0:0:
192,192,24013,1,0,0:0:0:0:
320,192,24013,1,0,0:0:0:0:
64,192,24079,1,0,0:0:0:0:
448,192,24144,1,0,0:0:0:0:
320,192,24209,1,0,0:0:0:0:
192,192,24274,1,0,0:0:0:0:
64,192,24274,1,0,0:0:0:0:
320,192,24339,1,0,0:0:0:0:
448,192,24405,1,0,0:0:0:0:
64,192,24470,1,0,0:0:0:0:
192,192,24535,1,0,0:0:0:0:
448,192,24535,1,0,0:0:0:0:
320,192,24600,1,0,0:0:0:0:
192,192,24666,1,0,0:0:0:0:
64,192,24731,1,0,0:0:0:0:
320,192,24796,1,0,0:0:0:0:
448,192,24796,1,0,0:0:0:0:
64,192,24861,1,0,0:0:0:0:
192,192,24926,1,0,0:0:0:0:
320,192,24992,1,0,0:0:0:0:
448,192,25057,1,0,0:0:0:0:
192,192,25057,1,0,0:0:0:0:
64,192,25122,1,0,0:0:0:0:
448,192,25187,1,0,0:0:0:0:
64,192,25253,1,0,0:0:0:0:
320,192,25318,1,0,0:0:0:0:
192,192,25318,1,0,0:0:0:0:
448,192,25383,1,0,0:0:0:0:
64,192,25448,1,0,0:0:0:0:
448,192,25513,1,0,0:0:0:0:
192,192,25579,1,0,0:0:0:0:
320,192,25579,1,0,0:0:0:0:
64,192,25644,1,0,0:0:0:0:
192,192,25709,1,0,0:0:0:0:
320,192,25774,1,0,0:0:0:0:
64,192,25839,1,0,0:0:0:0:
448,192,25839,1,0,0:0:0:0:
192,192,25905,1,0,0:0:0:0:
448,192,25970,1,0,0:0:0:0:
192,192,26035,1,0,0:0:0:0:
448,192,26100,1,0,0:0:0:0:
320,192,26100,1,0,0:0:0:0:
64,192,26166,1,0,0:0:0:0:
192,192,26231,1,0,0:0:0:0:
320,192,26296,1,0,0:0:0:0:
192,192,26361,1,0,0:0:0:0:
448,192,26361,1,0,0:0:0:0:
64,192,26426,1,0,0:0:0:0:
448,192,26492,1,0,0:0:0:0:
320,192,26557,1,0,0:0:0:0:
192,192,26622,1,0,0:0:0:0:
64,192,26622,1,0,0:0:0:0:
320,192,26687,1,0,0:0:0:0:
448,192,26753,1,0,0:0:0:0:
64,192,26818,1,0,0:0:0:0:
192,192,26883,1,0,0:0:0:0:
448,192,26883,1,0,0:0:0:0:
320,192,26948,1,0,0:0:0:0:
192,192,27013,1,0,0:0:0:0:
64,192,27079,1,0,0:0:0:0:
448,192,27144,1,0,0:0:0:0:
320,192,27144,1,0,0:0:0:0:
192,192,27209,1,0,0:0:0:0:
320,192,27274,1,0,0:0:0:0:
448,192,27339,1,0,0:0:0:0:
64,192,27405,1,0,0:0:0:0:
192,192,27405,1,0,0:0:0:0:
448,192,27470,1,0,0:0:0:0:
320,192,27535,1,0,0:0:0:0:
192,192,27600,1,0,0:0:0:0:
320,192,27666,1,0,0:0:0:0:
448,192,27666,1,0,0:0:0:0:
64,192,27731,1,0,0:0:0:0:
192,192,27796,1,0,0:0:0:0:
320,192,27861,1,0,0:0:0:0:
192,192,27926,1,0,0:0:0:0:
448,192,27926,1,0,0:0:0:0:
64,192,27992,1,0,0:0:0:0:
448,192,28057,1,0,0:0:0:0:
64,192,28122,1,0,0:0:0:0:
320,192,28187,1,0,0:0:0:0:
192,192,28187,1,0,0:0:0:0:
448,192,28253,1,0,0:0:0:0:
320,192,28318,1,0,0:0:0:0:
192,192,28383,1,0,0:0:0:0:
448,192,28448,1,0,0:0:0:0:
64,192,28448,1,0,0:0:0:0:
320,192,28513,1,0,0:0:0:0:
64,192,28579,1,0,0:0:0:0:
192,192,28644,1,0,0:0:0:0:
448,192,28709,1,0,0:0:0:0:
320,192,28709,1,0,0:0:0:0:
64,192,28774,1,0,0:0:0:0:
448,192,28839,1,0,0:0:0:0:
320,192,28905,1,0,0:0:0:0:
192,192,28970,1,0,0:0:0:0:
64,192,28970,1,0,0:0:0:0:
320,192,29035,1,0,0:0:0:0:
448,192,29100,1,0,0:0:0:0:
64,192,29166,1,0,0:0:0:0:
192,192,29231,1,0,0:0:0:0:
448,192,29231,1,0,0:0:0:0:
320,192,29296,1,0,0:0:0:0:
192,192,29361,1,0,0:0:0:0:
320,192,29426,1,0,0:0:0:0:
448,192,29492,1,0,0:0:0:0:
64,192,29492,1,0,0:0:0:0:
64,192,29753,1,0,0:0:0:0:
320,192,29753,1,0,0:0:0:0:
192,192,30013,1,0,0:0:0:0:
64,192,30274,1,0,0:0:0:0:
320,192,30274,1,0,0:0:0:0:
448,192,30535,1,0,0:0:0:0:
64,192,30535,1,0,0:0:0:0:
192,192,30535,1,0,0:0:0:0:
320,192,30600,1,0,0:0:0:0:
192,192,30666,1,0,0:0:0:0:
64,192,30731,1,0,0:0:0:0:
448,192,30796,1,0,0:0:0:0:
320,192,30796,1,0,0:0:0:0:
192,192,30861,1,0,0:0:0:0:
320,192,30926,1,0,0:0:0:0:
192,192,30992,1,0,0:0:0:0:
320,192,31057,1,0,0:0:0:0:
64,192,31057,1,0,0:0:0:0:
448,192,31122,1,0,0:0:0:0:
64,192,31187,1,0,0:0:0:0:
192,192,31253,1,0,0:0:0:0:
448,192,31318,1,0,0:0:0:0:
320,192,31318,1,0,0:0:0:0:
64,192,31383,1,0,0:0:0:0:
448,192,31448,1,0,0:0:0:0:
320,192,31448,1,0,0:0:0:0:
192,192,31513,1,0,0:0:0:0:
448,192,31579,1,0,0:0:0:0:
64,192,31579,1,0,0:0:0:0:
320,192,31644,1,0,0:0:0:0:
192,192,31709,1,0,0:0:0:0:
64,192,31709,1,0,0:0:0:0:
320,192,31774,1,0,0:0:0:0:
64,192,31839,1,0,0:0:0:0:
448,192,31839,1,0,0:0:0:0:
192,192,31905,1,0,0:0:0:0:
320,192,31970,1,0,0:0:0:0:
448,192,31970,1,0,0:0:0:0:
192,192,32035,1,0,0:0:0:0:
320,192,32100,1,0,0:0:0:0:
64,192,32100,1,0,0:0:0:0:
192,192,32166,1,0,0:0:0:0:
320,192,32231,1,0,0:0:0:0:
448,192,32296,1,0,0:0:0:0:
64,192,32361,1,0,0:0:0:0:
192,192,32361,1,0,0:0:0:0:
448,192,32426,1,0,0:0:0:0:
320,192,32492,1,0,0:0:0:0:
192,192,32557,1,0,0:0:0:0:
64,192,32622,1,0,0:0:0:0:
448,192,32622,1,0,0:0:0:0:
320,192,32687,1,0,0:0:0:0:
64,192,32753,1,0,0:0:0:0:
192,192,32818,1,0,0:0:0:0:
320,192,32883,1,0,0:0:0:0:
448,192,32883,1,0,0:0:0:0:
64,192,32948,1,0,0:0:0:0:
448,192,33013,1,0,0:0:0:0:
320,192,33013,1,0,0:0:0:0:
192,192,33079,1,0,0:0:0:0:
64,192,33144,1,0,0:0:0:0:
448,192,33144,1,0,0:0:0:0:
320,192,33209,1,0,0:0:0:0:
64,192,33274,1,0,0:0:0:0:
192,192,33339,1,0,0:0:0:0:
448,192,33405,1,0,0:0:0:0:
320,192,33405,1,0,0:0:0:0:
192,192,33470,1,0,0:0:0:0:
64,192,33535,1,0,0:0:0:0:
448,192,33535,1,0,0:0:0:0:
320,192,33600,1,0,0:0:0:0:
64,192,33666,1,0,0:0:0:0:
192,192,33666,1,0,0:0:0:0:
64,192,33796,1,0,0:0:0:0:
192,192,33796,1,0,0:0:0:0:
448,192,33926,1,0,0:0:0:0:
320,192,33926,1,0,0:0:0:0:
64,192,33926,1,0,0:0:0:0:
448,192,34057,1,0,0:0:0:0:
192,192,34057,1,0,0:0:0:0:
320,192,34187,1,0,0:0:0:0:
192,192,34187,1,0,0:0:0:0:
448,192,34318,1,0,0:0:0:0:
192,192,34318,1,0,0:0:0:0:
320,192,34448,1,0,0:0:0:0:
64,192,34448,1,0,0:0:0:0:
448,192,34448,1,0,0:0:0:0:
64,192,34579,1,0,0:0:0:0:
320,192,34579,1,0,0:0:0:0:
192,192,34709,1,0,0:0:0:0:
64,192,34709,1,0,0:0:0:0:
448,192,34709,1,0,0:0:0:0:
320,192,34774,1,0,0:0:0:0:
192,192,34839,1,0,0:0:0:0:
64,192,34905,1,0,0:0:0:0:
448,192,34970,1,0,0:0:0:0:
320,192,34970,1,0,0:0:0:0:
64,192,35035,1,0,0:0:0:0:
448,192,35100,1,0,0:0:0:0:
192,192,35100,1,0,0:0:0:0:
320,192,35166,1,0,0:0:0:0:
64,192,35231,1,0,0:0:0:0:
192,192,35231,1,0,0:0:0:0:
448,192,35296,1,0,0:0:0:0:
64,192,35361,1,0,0:0:0:0:
320,192,35361,1,0,0:0:0:0:
192,192,35426,1,0,0:0:0:0:
448,192,35492,1,0,0:0:0:0:
320,192,35492,1,0,0:0:0:0:
64,192,35557,1,0,0:0:0:0:
448,192,35622,1,0,0:0:0:0:
192,192,35622,1,0,0:0:0:0:
320,192,35687,1,0,0:0:0:0:
64,192,35753,1,0,0:0:0:0:
192,192,35753,1,0,0:0:0:0:
448,192,35818,1,0,0:0:0:0:
192,192,35883,1,0,0:0:0:0:
320,192,35883,1,0,0:0:0:0:
64,192,35948,1,0,0:0:0:0:
448,192,36013,1,0,0:0:0:0:
320,192,36013,1,0,0:0:0:0:
192,192,36079,1,0,0:0:0:0:
448,192,36144,1,0,0:0:0:0:
320,192,36144,1,0,0:0:0:0:
192,192,36209,1,0,0:0:0:0:
448,192,36274,1,0,0:0:0:0:
64,192,36274,1,0,0:0:0:0:
320,192,36339,1,0,0:0:0:0:
192,192,36405,1,0,0:0:0:0:
64,192,36470,1,0,0:0:0:0:
448,192,36535,1,0,0:0:0:0:
320,192,36535,1,0,0:0:0:0:
192,192,36600,1,0,0:0:0:0:
448,192,36666,1,0,0:0:0:0:
320,192,36666,1,0,0:0:0:0:
192,192,36731,1,0,0:0:0:0:
448,192,36796,1,0,0:0:0:0:
64,192,36796,1,0,0:0:0:0:
320,192,36861,1,0,0:0:0:0:
64,192,36926,1,0,0:0:0:0:
192,192,36992,1,0,0:0:0:0:
448,192,37057,1,0,0:0:0:0:
320,192,37057,1,0,0:0:0:0:
192,192,37122,1,0,0:0:0:0:
448,192,37187,1,0,0:0:0:0:
64,192,37187,1,0,0:0:0:0:
320,192,37253,1,0,0:0:0:0:
64,192,37318,1,0,0:0:0:0:
192,192,37318,1,0,0:0:0:0:
320,192,37383,1,0,0:0:0:0:
448,192,37448,1,0,0:0:0:0:
192,192,37513,1,0,0:0:0:0:
448,192,37579,1,0,0:0:0:0:
320,192,37579,1,0,0:0:0:0:
192,192,37644,1,0,0:0:0:0:
320,192,37709,1,0,0:0:0:0:
64,192,37709,1,0,0:0:0:0:
448,192,37774,1,0,0:0:0:0:
64,192,37839,1,0,0:0:0:0:
192,192,37839,1,0,0:0:0:0:
320,192,38622,1,0,0:0:0:0:
192,192,38622,1,0,0:0:0:0:
320,192,38753,1,0,0:0:0:0:
192,192,38753,1,0,0:0:0:0:
320,192,38883,1,0,0:0:0:0:
64,192,38883,1,0,0:0:0:0:
448,192,38883,1,0,0:0:0:0:
192,192,38948,1,0,0:0:0:0:
448,192,39013,1,0,0:0:0:0:
320,192,39079,1,0,0:0:0:0:
64,192,39144,1,0,0:0:0:0:
192,192,39144,1,0,0:0:0:0:
320,192,39209,1,0,0:0:0:0:
64,192,39274,1,0,0:0:0:0:
192,192,39274,1,0,0:0:0:0:
320,192,39339,1,0,0:0:0:0:
64,192,39405,1,0,0:0:0:0:
448,192,39405,1,0,0:0:0:0:
192,192,39470,1,0,0:0:0:0:
320,192,39535,1,0,0:0:0:0:
192,192,39600,1,0,0:0:0:0:
448,192,39666,1,0,0:0:0:0:
320,192,39666,1,0,0:0:0:0:
64,192,39731,1,0,0:0:0:0:
448,192,39796,1,0,0:0:0:0:
320,192,39796,1,0,0:0:0:0:
64,192,39861,1,0,0:0:0:0:
320,192,39926,1,0,0:0:0:0:
192,192,39926,1,0,0:0:0:0:
448,192,39992,1,0,0:0:0:0:
64,192,40057,1,0,0:0:0:0:
192,192,40122,1,0,0:0:0:0:
448,192,40187,1,0,0:0:0:0:
320,192,40187,1,0,0:0:0:0:
192,192,40253,1,0,0:0:0:0:
320,192,40318,1,0,0:0:0:0:
192,192,40383,1,0,0:0:0:0:
320,192,40448,1,0,0:0:0:0:
64,192,40448,1,0,0:0:0:0:
448,192,40513,1,0,0:0:0:0:
64,192,40579,1,0,0:0:0:0:
192,192,40579,1,0,0:0:0:0:
448,192,40644,1,0,0:0:0:0:
320,192,40644,1,0,0:0:0:0:
64,192,40709,1,0,0:0:0:0:
192,192,40709,1,0,0:0:0:0:
448,192,40774,1,0,0:0:0:0:
320,192,40839,1,0,0:0:0:0:
64,192,40839,1,0,0:0:0:0:
192,192,40905,1,0,0:0:0:0:
448,192,40970,1,0,0:0:0:0:
320,192,40970,1,0,0:0:0:0:
64,192,41035,1,0,0:0:0:0:
192,192,41100,1,0,0:0:0:0:
320,192,41166,1,0,0:0:0:0:
64,192,41231,1,0,0:0:0:0:
448,192,41231,1,0,0:0:0:0:
192,192,41296,1,0,0:0:0:0:
448,192,41361,1,0,0:0:0:0:
320,192,41361,1,0,0:0:0:0:
192,192,41426,1,0,0:0:0:0:
448,192,41492,1,0,0:0:0:0:
64,192,41492,1,0,0:0:0:0:
320,192,41557,1,0,0:0:0:0:
192,192,41622,1,0,0:0:0:0:
64,192,41687,1,0,0:0:0:0:
320,192,41753,1,0,0:0:0:0:
448,192,41753,1,0,0:0:0:0:
192,192,41818,1,0,0:0:0:0:
448,192,41883,1,0,0:0:0:0:
320,192,41883,1,0,0:0:0:0:
192,192,41948,1,0,0:0:0:0:
448,192,42013,1,0,0:0:0:0:
64,192,42013,1,0,0:0:0:0:
320,192,42079,1,0,0:0:0:0:
64,192,42144,1,0,0:0:0:0:
192,192,42209,1,0,0:0:0:0:
320,192,42274,1,0,0:0:0:0:
448,192,42274,1,0,0:0:0:0:
192,192,42339,1,0,0:0:0:0:
64,192,42405,1,0,0:0:0:0:
320,192,42470,1,0,0:0:0:0:
192,192,42535,1,0,0:0:0:0:
64,192,42535,1,0,0:0:0:0:
320,192,42600,1,0,0:0:0:0:
448,192,42666,1,0,0:0:0:0:
64,192,42731,1,0,0:0:0:0:
320,192,42796,1,0,0:0:0:0:
448,192,42796,1,0,0:0:0:0:
192,192,42861,1,0,0:0:0:0:
64,192,42926,1,0,0:0:0:0:
320,192,42992,1,0,0:0:0:0:
448,192,43057,1,0,0:0:0:0:
192,192,43057,1,0,0:0:0:0:
64,192,43057,1,0,0:0:0:0:
320,192,43187,1,0,0:0:0:0:
64,192,43318,1,0,0:0:0:0:
192,192,43318,1,0,0:0:0:0:
448,192,43318,1,0,0:0:0:0:
448,192,43448,1,0,0:0:0:0:
192,192,43448,1,0,0:0:0:0:
64,192,43579,1,0,0:0:0:0:
320,192,43579,1,0,0:0:0:0:
448,192,43579,1,0,0:0:0:0:
192,192,43709,1,0,0:0:0:0:
320,192,43774,1,0,0:0:0:0:
448,192,43774,1,0,0:0:0:0:
192,192,43839,1,0,0:0:0:0:
64,192,43839,1,0,0:0:0:0:
320,192,43970,1,0,0:0:0:0:
448,192,43970,1,0,0:0:0:0:
192,192,44100,1,0,0:0:0:0:
448,192,44100,1,0,0:0:0:0:
320,192,44100,1,0,0:0:0:0:
192,192,44231,1,0,0:0:0:0:
64,192,44361,1,0,0:0:0:0:
448,192,44361,1,0,0:0:0:0:
320,192,44361,1,0,0:0:0:0:
320,192,44492,1,0,0:0:0:0:
64,192,44622,1,0,0:0:0:0:
448,192,44622,1,0,0:0:0:0:
192,192,44622,1,0,0:0:0:0:
64,192,44753,1,0,0:0:0:0:
320,192,44753,1,0,0:0:0:0:
192,192,44883,1,0,0:0:0:0:
64,192,44883,1,0,0:0:0:0:
448,192,44883,1,0,0:0:0:0:
192,192,45013,1,0,0:0:0:0:
64,192,45144,1,0,0:0:0:0:
448,192,45144,1,0,0:0:0:0:
320,192,45144,1,0,0:0:0:0:
320,192,45274,1,0,0:0:0:0:
448,192,45274,1,0,0:0:0:0:
192,192,45405,1,0,0:0:0:0:
64,192,45405,1,0,0:0:0:0:
448,192,45405,1,0,0:0:0:0:
192,192,45535,1,0,0:0:0:0:
64,192,45535,1,0,0:0:0:0:
320,192,45666,1,0,0:0:0:0:
448,192,45666,1,0,0:0:0:0:
64,192,45666,1,0,0:0:0:0:
320,192,45796,1,0,0:0:0:0:
448,192,45796,1,0,0:0:0:0:
192,192,45861,1,0,0:0:0:0:
320,192,45926,1,0,0:0:0:0:
64,192,45926,1,0,0:0:0:0:
448,192,45926,1,0,0:0:0:0:
192,192,46057,1,0,0:0:0:0:
64,192,46057,1,0,0:0:0:0:
448,192,46187,1,0,0:0:0:0:
320,192,46187,1,0,0:0:0:0:
64,192,46253,1,0,0:0:0:0:
192,192,46253,1,0,0:0:0:0:
448,192,46318,1,0,0:0:0:0:
320,192,46318,1,0,0:0:0:0:
64,192,46383,1,0,0:0:0:0:
192,192,46383,1,0,0:0:0:0:
448,192,46448,1,0,0:0:0:0:
320,192,46448,1,0,0:0:0:0:
64,192,46513,1,0,0:0:0:0:
192,192,46513,1,0,0:0:0:0:
448,192,46579,1,0,0:0:0:0:
320,192,46579,1,0,0:0:0:0:
64,192,46644,1,0,0:0:0:0:
192,192,46644,1,0,0:0:0:0:
448,192,46709,1,0,0:0:0:0:
320,192,46709,1,0,0:0:0:0:
64,192,46774,1,0,0:0:0:0:
192,192,46774,1,0,0:0:0:0:
448,192,46839,1,0,0:0:0:0:
320,192,46839,1,0,0:0:0:0:
64,192,46905,1,0,0:0:0:0:
192,192,46905,1,0,0:0:0:0:
448,192,46970,1,0,0:0:0:0:
320,192,46970,1,0,0:0:0:0:
192,192,47035,1,0,0:0:0:0:
64,192,47035,1,0,0:0:0:0:
448,192,47100,1,0,0:0:0:0:
320,192,47100,1,0,0:0:0:0:
192,192,47166,1,0,0:0:0:0:
64,192,47166,1,0,0:0:0:0:
448,192,47231,1,0,0:0:0:0:
320,192,47231,1,0,0:0:0:0:
448,192,47492,128,0,48013:0:0:0:0:
320,192,47492,128,0,48013:0:0:0:0:
320,192,48405,1,0,0:0:0:0:
192,192,48535,1,0,0:0:0:0:
448,192,48666,1,0,0:0:0:0:
64,192,48796,1,0,0:0:0:0:
320,192,48926,1,0,0:0:0:0:
64,192,49057,1,0,0:0:0:0:
192,192,49187,128,0,49448:0:0:0:0:
448,192,49187,128,0,49448:0:0:0:0:
320,192,49448,1,0,0:0:0:0:
192,192,49579,1,0,0:0:0:0:
192,192,49709,1,0,0:0:0:0:
320,192,49839,1,0,0:0:0:0:
64,192,49970,1,0,0:0:0:0:
320,192,50100,1,0,0:0:0:0:
192,192,50231,128,0,50492:0:0:0:0:
448,192,50492,1,0,0:0:0:0:
320,192,51144,1,0,0:0:0:0:
320,192,51274,128,0,51535:0:0:0:0:
64,192,51535,1,0,0:0:0:0:
192,192,51666,1,0,0:0:0:0:
192,192,51796,128,0,52057:0:0:0:0:
448,192,52057,1,0,0:0:0:0:
320,192,52187,1,0,0:0:0:0:
320,192,52318,128,0,52579:0:0:0:0:
64,192,52579,1,0,0:0:0:0:
448,192,52579,1,0,0:0:0:0:
192,192,52709,1,0,0:0:0:0:
448,192,52839,1,0,0:0:0:0:
192,192,52839,1,0,0:0:0:0:
192,192,53100,1,0,0:0:0:0:
448,192,53100,1,0,0:0:0:0:
64,192,53231,1,0,0:0:0:0:
320,192,53231,1,0,0:0:0:0:
64,192,53361,128,0,53622:0:0:0:0:
320,192,53361,128,0,53622:0:0:0:0:
192,192,53622,1,0,0:0:0:0:
192,192,53753,1,0,0:0:0:0:
320,192,53883,1,0,0:0:0:0:
320,192,54144,1,0,0:0:0:0:
192,192,54274,1,0,0:0:0:0:
64,192,54405,128,0,54666:0:0:0:0:
320,192,54535,1,0,0:0:0:0:
448,192,54535,1,0,0:0:0:0:
320,192,54666,1,0,0:0:0:0:
448,192,54666,1,0,0:0:0:0:
448,192,54926,1,0,0:0:0:0:
320,192,54926,1,0,0:0:0:0:
448,192,55187,1,0,0:0:0:0:
320,192,55187,1,0,0:0:0:0:
448,192,55318,1,0,0:0:0:0:
192,192,55318,1,0,0:0:0:0:
64,192,55448,1,0,0:0:0:0:
192,192,55448,1,0,0:0:0:0:
64,192,55579,1,0,0:0:0:0:
448,192,55579,1,0,0:0:0:0:
320,192,55579,1,0,0:0:0:0:
320,192,55839,1,0,0:0:0:0:
64,192,55839,1,0,0:0:0:0:
448,192,55839,1,0,0:0:0:0:
64,192,56100,1,0,0:0:0:0:
448,192,56100,1,0,0:0:0:0:
320,192,56100,1,0,0:0:0:0:
320,192,56296,1,0,0:0:0:0:
448,192,56296,1,0,0:0:0:0:
64,192,56361,1,0,0:0:0:0:
192,192,56361,1,0,0:0:0:0:
64,192,56492,1,0,0:0:0:0:
320,192,56492,1,0,0:0:0:0:
192,192,56492,1,0,0:0:0:0:
448,192,56622,1,0,0:0:0:0:
64,192,56622,1,0,0:0:0:0:
192,192,56622,1,0,0:0:0:0:
448,192,56883,1,0,0:0:0:0:
64,192,56883,1,0,0:0:0:0:
192,192,56883,1,0,0:0:0:0:
192,192,57144,1,0,0:0:0:0:
64,192,57144,1,0,0:0:0:0:
448,192,57144,1,0,0:0:0:0:
64,192,57339,1,0,0:0:0:0:
192,192,57339,1,0,0:0:0:0:
448,192,57405,1,0,0:0:0:0:
320,192,57405,1,0,0:0:0:0:
64,192,57535,1,0,0:0:0:0:
320,192,57535,1,0,0:0:0:0:
448,192,57535,1,0,0:0:0:0:
320,192,57666,1,0,0:0:0:0:
448,192,57666,1,0,0:0:0:0:
192,192,57666,1,0,0:0:0:0:
448,192,57926,1,0,0:0:0:0:
192,192,57926,1,0,0:0:0:0:
320,192,57926,1,0,0:0:0:0:
192,192,58187,1,0,0:0:0:0:
448,192,58187,1,0,0:0:0:0:
320,192,58187,1,0,0:0:0:0:
320,192,58383,1,0,0:0:0:0:
448,192,58383,1,0,0:0:0:0:
192,192,58448,1,0,0:0:0:0:
64,192,58448,1,0,0:0:0:0:
320,192,58579,1,0,0:0:0:0:
64,192,58579,1,0,0:0:0:0:
192,192,58579,1,0,0:0:0:0:
320,192,58709,1,0,0:0:0:0:
448,192,58709,1,0,0:0:0:0:
64,192,58709,1,0,0:0:0:0:
320,192,58970,1,0,0:0:0:0:
448,192,58970,1,0,0:0:0:0:
64,192,58970,1,0,0:0:0:0:
320,192,59231,1,0,0:0:0:0:
64,192,59231,1,0,0:0:0:0:
448,192,59231,1,0,0:0:0:0:
448,192,59426,1,0,0:0:0:0:
320,192,59426,1,0,0:0:0:0:
192,192,59492,1,0,0:0:0:0:
64,192,59492,1,0,0:0:0:0:
320,192,59622,1,0,0:0:0:0:
64,192,59622,1,0,0:0:0:0:
192,192,59622,1,0,0:0:0:0:
64,192,59753,1,0,0:0:0:0:
448,192,59753,1,0,0:0:0:0:
320,192,59753,1,0,0:0:0:0:
448,192,59883,1,0,0:0:0:0:
192,192,59883,1,0,0:0:0:0:
192,192,60013,1,0,0:0:0:0:
64,192,60013,1,0,0:0:0:0:
448,192,60144,1,0,0:0:0:0:
64,192,60144,1,0,0:0:0:0:
320,192,60144,1,0,0:0:0:0:
320,192,60274,1,0,0:0:0:0:
448,192,60274,1,0,0:0:0:0:
64,192,60405,1,0,0:0:0:0:
192,192,60405,1,0,0:0:0:0:
448,192,60405,1,0,0:0:0:0:
320,192,60470,1,0,0:0:0:0:
64,192,60535,1,0,0:0:0:0:
192,192,60535,1,0,0:0:0:0:
64,192,60666,1,0,0:0:0:0:
448,192,60666,1,0,0:0:0:0:
320,192,60666,1,0,0:0:0:0:
64,192,60796,1,0,0:0:0:0:
448,192,60796,1,0,0:0:0:0:
320,192,60796,1,0,0:0:0:0:
448,192,60926,1,0,0:0:0:0:
192,192,60926,1,0,0:0:0:0:
64,192,61057,1,0,0:0:0:0:
192,192,61057,1,0,0:0:0:0:
448,192,61187,1,0,0:0:0:0:
64,192,61187,1,0,0:0:0:0:
320,192,61187,1,0,0:0:0:0:
320,192,61318,1,0,0:0:0:0:
448,192,61318,1,0,0:0:0:0:
192,192,61448,1,0,0:0:0:0:
64,192,61448,1,0,0:0:0:0:
448,192,61448,1,0,0:0:0:0:
320,192,61513,1,0,0:0:0:0:
64,192,61579,1,0,0:0:0:0:
192,192,61579,1,0,0:0:0:0:
64,192,61709,1,0,0:0:0:0:
192,192,61709,1,0,0:0:0:0:
448,192,61839,1,0,0:0:0:0:
320,192,61839,1,0,0:0:0:0:
64,192,61905,1,0,0:0:0:0:
192,192,61905,1,0,0:0:0:0:
448,192,61970,1,0,0:0:0:0:
320,192,61970,1,0,0:0:0:0:
64,192,62035,1,0,0:0:0:0:
192,192,62035,1,0,0:0:0:0:
448,192,62100,1,0,0:0:0:0:
320,192,62100,1,0,0:0:0:0:
64,192,62166,1,0,0:0:0:0:
192,192,62166,1,0,0:0:0:0:
448,192,62231,1,0,0:0:0:0:
320,192,62231,1,0,0:0:0:0:
64,192,62296,1,0,0:0:0:0:
192,192,62296,1,0,0:0:0:0:
448,192,62361,1,0,0:0:0:0:
320,192,62361,1,0,0:0:0:0:
64,192,62426,1,0,0:0:0:0:
192,192,62426,1,0,0:0:0:0:
320,192,62492,1,0,0:0:0:0:
448,192,62492,1,0,0:0:0:0:
64,192,62557,1,0,0:0:0:0:
192,192,62557,1,0,0:0:0:0:
448,192,62622,1,0,0:0:0:0:
320,192,62622,1,0,0:0:0:0:
64,192,62687,1,0,0:0:0:0:
192,192,62687,1,0,0:0:0:0:
448,192,62753,1,0,0:0:0:0:
320,192,62753,1,0,0:0:0:0:
64,192,62818,1,0,0:0:0:0:
192,192,62818,1,0,0:0:0:0:
448,192,62883,1,0,0:0:0:0:
320,192,62883,1,0,0:0:0:0:
64,192,62948,1,0,0:0:0:0:
192,192,62948,1,0,0:0:0:0:
448,192,63013,1,0,0:0:0:0:
320,192,63013,1,0,0:0:0:0:
64,192,63079,1,0,0:0:0:0:
192,192,63079,1,0,0:0:0:0:
448,192,63144,1,0,0:0:0:0:
320,192,63144,1,0,0:0:0:0:
64,192,63209,1,0,0:0:0:0:
192,192,63209,1,0,0:0:0:0:
448,192,63274,1,0,0:0:0:0:
320,192,63274,1,0,0:0:0:0:
64,192,63339,1,0,0:0:0:0:
192,192,63339,1,0,0:0:0:0:
448,192,63405,1,0,0:0:0:0:
320,192,63405,1,0,0:0:0:0:
64,192,63470,1,0,0:0:0:0:
192,192,63470,1,0,0:0:0:0:
448,192,63535,1,0,0:0:0:0:
320,192,63535,1,0,0:0:0:0:
64,192,63600,1,0,0:0:0:0:
192,192,63600,1,0,0:0:0:0:
448,192,63666,1,0,0:0:0:0:
320,192,63666,1,0,0:0:0:0:
192,192,63731,1,0,0:0:0:0:
64,192,63731,1,0,0:0:0:0:
448,192,63796,1,0,0:0:0:0:
320,192,63796,1,0,0:0:0:0:
192,192,63861,1,0,0:0:0:0:
64,192,63861,1,0,0:0:0:0:
448,192,63926,1,0,0:0:0:0:
320,192,63926,1,0,0:0:0:0:
448,192,64187,1,0,0:0:0:0:
64,192,64187,1,0,0:0:0:0:
192,192,64187,1,0,0:0:0:0:
192,192,64448,1,0,0:0:0:0:
64,192,64448,1,0,0:0:0:0:
320,192,64448,1,0,0:0:0:0:
64,192,64644,1,0,0:0:0:0:
192,192,64644,1,0,0:0:0:0:
448,192,64709,1,0,0:0:0:0:
320,192,64709,1,0,0:0:0:0:
64,192,64839,1,0,0:0:0:0:
320,192,64839,1,0,0:0:0:0:
448,192,64839,1,0,0:0:0:0:
64,192,64970,1,0,0:0:0:0:
448,192,64970,1,0,0:0:0:0:
320,192,64970,1,0,0:0:0:0:
448,192,65231,1,0,0:0:0:0:
320,192,65231,1,0,0:0:0:0:
192,192,65231,1,0,0:0:0:0:
64,192,65492,1,0,0:0:0:0:
192,192,65492,1,0,0:0:0:0:
448,192,65492,1,0,0:0:0:0:
320,192,65687,1,0,0:0:0:0:
448,192,65687,1,0,0:0:0:0:
64,192,65753,1,0,0:0:0:0:
192,192,65753,1,0,0:0:0:0:
448,192,65883,1,0,0:0:0:0:
64,192,65883,1,0,0:0:0:0:
192,192,65883,1,0,0:0:0:0:
448,192,66013,1,0,0:0:0:0:
192,192,66013,1,0,0:0:0:0:
64,192,66013,1,0,0:0:0:0:
64,192,66274,1,0,0:0:0:0:
320,192,66274,1,0,0:0:0:0:
448,192,66274,1,0,0:0:0:0:
448,192,66535,1,0,0:0:0:0:
192,192,66535,1,0,0:0:0:0:
320,192,66535,1,0,0:0:0:0:
64,192,66731,1,0,0:0:0:0:
192,192,66731,1,0,0:0:0:0:
448,192,66796,1,0,0:0:0:0:
320,192,66796,1,0,0:0:0:0:
64,192,66926,1,0,0:0:0:0:
448,192,66926,1,0,0:0:0:0:
320,192,66926,1,0,0:0:0:0:
320,192,67057,1,0,0:0:0:0:
64,192,67057,1,0,0:0:0:0:
448,192,67057,1,0,0:0:0:0:
64,192,67318,1,0,0:0:0:0:
192,192,67318,1,0,0:0:0:0:
320,192,67318,1,0,0:0:0:0:
64,192,67579,1,0,0:0:0:0:
320,192,67579,1,0,0:0:0:0:
448,192,67579,1,0,0:0:0:0:
320,192,67774,1,0,0:0:0:0:
448,192,67774,1,0,0:0:0:0:
64,192,67839,1,0,0:0:0:0:
192,192,67839,1,0,0:0:0:0:
448,192,67970,1,0,0:0:0:0:
64,192,67970,1,0,0:0:0:0:
192,192,67970,1,0,0:0:0:0:
448,192,68100,1,0,0:0:0:0:
192,192,68100,1,0,0:0:0:0:
64,192,68100,1,0,0:0:0:0:
448,192,68231,1,0,0:0:0:0:
320,192,68231,1,0,0:0:0:0:
64,192,68361,1,0,0:0:0:0:
320,192,68361,1,0,0:0:0:0:
64,192,68492,1,0,0:0:0:0:
192,192,68492,1,0,0:0:0:0:
192,192,68622,1,0,0:0:0:0:
448,192,68622,1,0,0:0:0:0:
320,192,68622,1,0,0:0:0:0:
448,192,68753,1,0,0:0:0:0:
320,192,68753,1,0,0:0:0:0:
64,192,68818,1,0,0:0:0:0:
192,192,68818,1,0,0:0:0:0:
320,192,68883,1,0,0:0:0:0:
448,192,68883,1,0,0:0:0:0:
64,192,69013,1,0,0:0:0:0:
192,192,69013,1,0,0:0:0:0:
320,192,69144,1,0,0:0:0:0:
448,192,69144,1,0,0:0:0:0:
64,192,69144,1,0,0:0:0:0:
320,192,69274,1,0,0:0:0:0:
448,192,69274,1,0,0:0:0:0:
64,192,69405,1,0,0:0:0:0:
320,192,69405,1,0,0:0:0:0:
192,192,69535,1,0,0:0:0:0:
64,192,69535,1,0,0:0:0:0:
192,192,69666,1,0,0:0:0:0:
320,192,69666,1,0,0:0:0:0:
448,192,69666,1,0,0:0:0:0:
448,192,69796,1,0,0:0:0:0:
320,192,69796,1,0,0:0:0:0:
64,192,69861,1,0,0:0:0:0:
192,192,69861,1,0,0:0:0:0:
448,192,69926,1,0,0:0:0:0:
320,192,69926,1,0,0:0:0:0:
192,192,70057,1,0,0:0:0:0:
64,192,70057,1,0,0:0:0:0:
320,192,70187,1,0,0:0:0:0:
448,192,70187,1,0,0:0:0:0:
64,192,70253,1,0,0:0:0:0:
192,192,70253,1,0,0:0:0:0:
448,192,70318,1,0,0:0:0:0:
320,192,70318,1,0,0:0:0:0:
64,192,70383,1,0,0:0:0:0:
192,192,70383,1,0,0:0:0:0:
320,192,70448,1,0,0:0:0:0:
448,192,70448,1,0,0:0:0:0:
192,192,70513,1,0,0:0:0:0:
64,192,70513,1,0,0:0:0:0:
448,192,70579,1,0,0:0:0:0:
320,192,70579,1,0,0:0:0:0:
64,192,70644,1,0,0:0:0:0:
192,192,70644,1,0,0:0:0:0:
448,192,70709,1,0,0:0:0:0:
320,192,70709,1,0,0:0:0:0:
64,192,70774,1,0,0:0:0:0:
192,192,70774,1,0,0:0:0:0:
448,192,70839,1,0,0:0:0:0:
320,192,70839,1,0,0:0:0:0:
64,192,70905,1,0,0:0:0:0:
192,192,70905,1,0,0:0:0:0:
448,192,70970,1,0,0:0:0:0:
320,192,70970,1,0,0:0:0:0:
64,192,71035,1,0,0:0:0:0:
192,192,71035,1,0,0:0:0:0:
448,192,71100,1,0,0:0:0:0:
320,192,71100,1,0,0:0:0:0:
64,192,71166,1,0,0:0:0:0:
192,192,71166,1,0,0:0:0:0:
448,192,71231,1,0,0:0:0:0:
320,192,71231,1,0,0:0:0:0:
64,192,72274,1,0,0:0:0:0:
448,192,72274,1,0,0:0:0:0:
64,192,72405,1,0,0:0:0:0:
448,192,72405,1,0,0:0:0:0:
64,192,72666,1,0,0:0:0:0:
448,192,72666,1,0,0:0:0:0:
320,192,72926,1,0,0:0:0:0:
64,192,72926,1,0,0:0:0:0:
64,192,73057,1,0,0:0:0:0:
320,192,73057,1,0,0:0:0:0:
64,192,73187,1,0,0:0:0:0:
192,192,73187,1,0,0:0:0:0:
320,192,73318,1,0,0:0:0:0:
448,192,73318,1,0,0:0:0:0:
192,192,73383,1,0,0:0:0:0:
64,192,73448,1,0,0:0:0:0:
320,192,73448,1,0,0:0:0:0:
448,192,73513,1,0,0:0:0:0:
192,192,73579,1,0,0:0:0:0:
64,192,73579,1,0,0:0:0:0:
320,192,73644,1,0,0:0:0:0:
192,192,73709,1,0,0:0:0:0:
448,192,73709,1,0,0:0:0:0:
64,192,73774,1,0,0:0:0:0:
320,192,73839,1,0,0:0:0:0:
448,192,73839,1,0,0:0:0:0:
192,192,73905,1,0,0:0:0:0:
448,192,73970,1,0,0:0:0:0:
64,192,73970,1,0,0:0:0:0:
320,192,74035,1,0,0:0:0:0:
192,192,74100,1,0,0:0:0:0:
64,192,74100,1,0,0:0:0:0:
320,192,74166,1,0,0:0:0:0:
448,192,74231,1,0,0:0:0:0:
64,192,74231,1,0,0:0:0:0:
192,192,74296,1,0,0:0:0:0:
320,192,74361,1,0,0:0:0:0:
448,192,74361,1,0,0:0:0:0:
192,192,74426,1,0,0:0:0:0:
448,192,74492,1,0,0:0:0:0:
64,192,74492,1,0,0:0:0:0:
320,192,74557,1,0,0:0:0:0:
192,192,74622,1,0,0:0:0:0:
64,192,74622,1,0,0:0:0:0:
448,192,74687,1,0,0:0:0:0:
64,192,74753,1,0,0:0:0:0:
192,192,74753,1,0,0:0:0:0:
448,192,74818,1,0,0:0:0:0:
192,192,74883,1,0,0:0:0:0:
320,192,74883,1,0,0:0:0:0:
64,192,74948,1,0,0:0:0:0:
448,192,75013,1,0,0:0:0:0:
320,192,75013,1,0,0:0:0:0:
192,192,75079,1,0,0:0:0:0:
64,192,75144,1,0,0:0:0:0:
320,192,75144,1,0,0:0:0:0:
448,192,75209,1,0,0:0:0:0:
64,192,75274,1,0,0:0:0:0:
192,192,75274,1,0,0:0:0:0:
320,192,75339,1,0,0:0:0:0:
64,192,75405,1,0,0:0:0:0:
448,192,75405,1,0,0:0:0:0:
192,192,75470,1,0,0:0:0:0:
448,192,75535,1,0,0:0:0:0:
320,192,75535,1,0,0:0:0:0:
192,192,75600,1,0,0:0:0:0:
64,192,75666,1,0,0:0:0:0:
448,192,75666,1,0,0:0:0:0:
320,192,75731,1,0,0:0:0:0:
192,192,75796,1,0,0:0:0:0:
64,192,75796,1,0,0:0:0:0:
320,192,75861,1,0,0:0:0:0:
192,192,75926,1,0,0:0:0:0:
448,192,75926,1,0,0:0:0:0:
64,192,75992,1,0,0:0:0:0:
448,192,76057,1,0,0:0:0:0:
320,192,76057,1,0,0:0:0:0:
192,192,76122,1,0,0:0:0:0:
320,192,76187,1,0,0:0:0:0:
448,192,76187,1,0,0:0:0:0:
192,192,76253,1,0,0:0:0:0:
64,192,76318,1,0,0:0:0:0:
320,192,76318,1,0,0:0:0:0:
448,192,76383,1,0,0:0:0:0:
192,192,76448,1,0,0:0:0:0:
64,192,76448,1,0,0:0:0:0:
320,192,76513,1,0,0:0:0:0:
192,192,76579,1,0,0:0:0:0:
448,192,76579,1,0,0:0:0:0:
64,192,76644,1,0,0:0:0:0:
320,192,76709,1,0,0:0:0:0:
448,192,76709,1,0,0:0:0:0:
192,192,76774,1,0,0:0:0:0:
64,192,76839,1,0,0:0:0:0:
320,192,76905,1,0,0:0:0:0:
64,192,76970,1,0,0:0:0:0:
448,192,76970,1,0,0:0:0:0:
192,192,77035,1,0,0:0:0:0:
448,192,77100,1,0,0:0:0:0:
320,192,77166,1,0,0:0:0:0:
64,192,77231,1,0,0:0:0:0:
192,192,77231,1,0,0:0:0:0:
448,192,77296,1,0,0:0:0:0:
64,192,77361,1,0,0:0:0:0:
192,192,77361,1,0,0:0:0:0:
320,192,77426,1,0,0:0:0:0:
448,192,77492,1,0,0:0:0:0:
64,192,77492,1,0,0:0:0:0:
192,192,77557,1,0,0:0:0:0:
320,192,77622,1,0,0:0:0:0:
448,192,77687,1,0,0:0:0:0:
64,192,77753,1,0,0:0:0:0:
192,192,77753,1,0,0:0:0:0:
320,192,77818,1,0,0:0:0:0:
64,192,77883,1,0,0:0:0:0:
192,192,77883,1,0,0:0:0:0:
320,192,77948,1,0,0:0:0:0:
64,192,78013,1,0,0:0:0:0:
448,192,78013,1,0,0:0:0:0:
192,192,78079,1,0,0:0:0:0:
448,192,78144,1,0,0:0:0:0:
320,192,78144,1,0,0:0:0:0:
192,192,78209,1,0,0:0:0:0:
448,192,78274,1,0,0:0:0:0:
320,192,78274,1,0,0:0:0:0:
192,192,78339,1,0,0:0:0:0:
448,192,78405,1,0,0:0:0:0:
64,192,78405,1,0,0:0:0:0:
320,192,78470,1,0,0:0:0:0:
192,192,78535,1,0,0:0:0:0:
64,192,78535,1,0,0:0:0:0:
320,192,78600,1,0,0:0:0:0:
448,192,78666,1,0,0:0:0:0:
64,192,78666,1,0,0:0:0:0:
192,192,78731,1,0,0:0:0:0:
448,192,78796,1,0,0:0:0:0:
320,192,78796,1,0,0:0:0:0:
64,192,78861,1,0,0:0:0:0:
448,192,78926,1,0,0:0:0:0:
320,192,78926,1,0,0:0:0:0:
64,192,78992,1,0,0:0:0:0:
320,192,79057,1,0,0:0:0:0:
192,192,79057,1,0,0:0:0:0:
448,192,79122,1,0,0:0:0:0:
64,192,79187,1,0,0:0:0:0:
192,192,79253,1,0,0:0:0:0:
448,192,79318,1,0,0:0:0:0:
320,192,79318,1,0,0:0:0:0:
192,192,79383,1,0,0:0:0:0:
448,192,79448,1,0,0:0:0:0:
320,192,79448,1,0,0:0:0:0:
192,192,79513,1,0,0:0:0:0:
64,192,79579,1,0,0:0:0:0:
448,192,79579,1,0,0:0:0:0:
320,192,79644,1,0,0:0:0:0:
192,192,79709,1,0,0:0:0:0:
64,192,79774,1,0,0:0:0:0:
320,192,79839,1,0,0:0:0:0:
448,192,79839,1,0,0:0:0:0:
192,192,79905,1,0,0:0:0:0:
448,192,79970,1,0,0:0:0:0:
320,192,79970,1,0,0:0:0:0:
192,192,80035,1,0,0:0:0:0:
448,192,80100,1,0,0:0:0:0:
64,192,80100,1,0,0:0:0:0:
320,192,80166,1,0,0:0:0:0:
64,192,80231,1,0,0:0:0:0:
192,192,80231,1,0,0:0:0:0:
448,192,80296,1,0,0:0:0:0:
64,192,80361,1,0,0:0:0:0:
192,192,80361,1,0,0:0:0:0:
448,192,80426,1,0,0:0:0:0:
64,192,80492,1,0,0:0:0:0:
320,192,80492,1,0,0:0:0:0:
192,192,80557,1,0,0:0:0:0:
448,192,80622,1,0,0:0:0:0:
320,192,80622,1,0,0:0:0:0:
64,192,80687,1,0,0:0:0:0:
448,192,80753,1,0,0:0:0:0:
192,192,80753,1,0,0:0:0:0:
320,192,80818,1,0,0:0:0:0:
64,192,80883,1,0,0:0:0:0:
192,192,80883,1,0,0:0:0:0:
448,192,80948,1,0,0:0:0:0:
320,192,81013,1,0,0:0:0:0:
192,192,81079,1,0,0:0:0:0:
64,192,81144,1,0,0:0:0:0:
448,192,81144,1,0,0:0:0:0:
320,192,81209,1,0,0:0:0:0:
192,192,81274,1,0,0:0:0:0:
64,192,81274,1,0,0:0:0:0:
320,192,81339,1,0,0:0:0:0:
192,192,81405,1,0,0:0:0:0:
64,192,81405,1,0,0:0:0:0:
320,192,81470,1,0,0:0:0:0:
64,192,81535,1,0,0:0:0:0:
448,192,81535,1,0,0:0:0:0:
192,192,81600,1,0,0:0:0:0:
64,192,81666,1,0,0:0:0:0:
448,192,81666,1,0,0:0:0:0:
192,192,81731,1,0,0:0:0:0:
320,192,81796,1,0,0:0:0:0:
448,192,81861,1,0,0:0:0:0:
192,192,81926,1,0,0:0:0:0:
64,192,81926,1,0,0:0:0:0:
320,192,81992,1,0,0:0:0:0:
448,192,81992,1,0,0:0:0:0:
64,192,82057,1,0,0:0:0:0:
192,192,82122,1,0,0:0:0:0:
320,192,82187,1,0,0:0:0:0:
448,192,82187,1,0,0:0:0:0:
64,192,82253,1,0,0:0:0:0:
192,192,82253,1,0,0:0:0:0:
448,192,82318,1,0,0:0:0:0:
320,192,82318,1,0,0:0:0:0:
192,192,82383,1,0,0:0:0:0:
448,192,82448,1,0,0:0:0:0:
64,192,82448,1,0,0:0:0:0:
320,192,82513,1,0,0:0:0:0:
192,192,82579,1,0,0:0:0:0:
64,192,82644,1,0,0:0:0:0:
320,192,82709,1,0,0:0:0:0:
448,192,82709,1,0,0:0:0:0:
64,192,82774,1,0,0:0:0:0:
320,192,82839,1,0,0:0:0:0:
192,192,82839,1,0,0:0:0:0:
448,192,82905,1,0,0:0:0:0:
192,192,82970,1,0,0:0:0:0:
64,192,82970,1,0,0:0:0:0:
320,192,83035,1,0,0:0:0:0:
192,192,83100,1,0,0:0:0:0:
448,192,83100,1,0,0:0:0:0:
64,192,83166,1,0,0:0:0:0:
448,192,83231,1,0,0:0:0:0:
320,192,83231,1,0,0:0:0:0:
64,192,83296,1,0,0:0:0:0:
320,192,83361,1,0,0:0:0:0:
192,192,83361,1,0,0:0:0:0:
448,192,83426,1,0,0:0:0:0:
64,192,83492,1,0,0:0:0:0:
192,192,83492,1,0,0:0:0:0:
448,192,83557,1,0,0:0:0:0:
320,192,83622,1,0,0:0:0:0:
64,192,83622,1,0,0:0:0:0:
192,192,83687,1,0,0:0:0:0:
448,192,83753,1,0,0:0:0:0:
320,192,83753,1,0,0:0:0:0:
64,192,83818,1,0,0:0:0:0:
448,192,83883,1,0,0:0:0:0:
192,192,83883,1,0,0:0:0:0:
320,192,83948,1,0,0:0:0:0:
64,192,84013,1,0,0:0:0:0:
192,192,84013,1,0,0:0:0:0:
448,192,84079,1,0,0:0:0:0:
192,192,84144,1,0,0:0:0:0:
64,192,84144,1,0,0:0:0:0:
320,192,84209,1,0,0:0:0:0:
192,192,84274,1,0,0:0:0:0:
448,192,84274,1,0,0:0:0:0:
64,192,84339,1,0,0:0:0:0:
448,192,84405,1,0,0:0:0:0:
320,192,84470,1,0,0:0:0:0:
64,192,84535,1,0,0:0:0:0:
192,192,84535,1,0,0:0:0:0:
320,192,84600,1,0,0:0:0:0:
64,192,84666,1,0,0:0:0:0:
448,192,84666,1,0,0:0:0:0:
192,192,84731,1,0,0:0:0:0:
448,192,84796,1,0,0:0:0:0:
320,192,84796,1,0,0:0:0:0:
192,192,84861,1,0,0:0:0:0:
64,192,84926,1,0,0:0:0:0:
320,192,84926,1,0,0:0:0:0:
448,192,84992,1,0,0:0:0:0:
64,192,85057,1,0,0:0:0:0:
192,192,85057,1,0,0:0:0:0:
320,192,85122,1,0,0:0:0:0:
192,192,85187,1,0,0:0:0:0:
64,192,85253,1,0,0:0:0:0:
320,192,85318,1,0,0:0:0:0:
448,192,85318,1,0,0:0:0:0:
64,192,85383,1,0,0:0:0:0:
192,192,85448,1,0,0:0:0:0:
320,192,85513,1,0,0:0:0:0:
192,192,85579,1,0,0:0:0:0:
64,192,85579,1,0,0:0:0:0:
320,192,85644,1,0,0:0:0:0:
192,192,85709,1,0,0:0:0:0:
448,192,85709,1,0,0:0:0:0:
64,192,85774,1,0,0:0:0:0:
320,192,85839,1,0,0:0:0:0:
448,192,85839,1,0,0:0:0:0:
64,192,85905,1,0,0:0:0:0:
320,192,85970,1,0,0:0:0:0:
192,192,85970,1,0,0:0:0:0:
448,192,86035,1,0,0:0:0:0:
64,192,86100,1,0,0:0:0:0:
192,192,86100,1,0,0:0:0:0:
320,192,86166,1,0,0:0:0:0:
192,192,86231,1,0,0:0:0:0:
448,192,86231,1,0,0:0:0:0:
64,192,86296,1,0,0:0:0:0:
448,192,86361,1,0,0:0:0:0:
320,192,86361,1,0,0:0:0:0:
64,192,86426,1,0,0:0:0:0:
192,192,86492,1,0,0:0:0:0:
320,192,86557,1,0,0:0:0:0:
192,192,86622,1,0,0:0:0:0:
448,192,86622,1,0,0:0:0:0:
64,192,86687,1,0,0:0:0:0:
320,192,86753,1,0,0:0:0:0:
448,192,86753,1,0,0:0:0:0:
192,192,86818,1,0,0:0:0:0:
320,192,86883,1,0,0:0:0:0:
64,192,86883,1,0,0:0:0:0:
448,192,86948,1,0,0:0:0:0:
192,192,87013,1,0,0:0:0:0:
64,192,87013,1,0,0:0:0:0:
448,192,87079,1,0,0:0:0:0:
192,192,87144,1,0,0:0:0:0:
320,192,87144,1,0,0:0:0:0:
64,192,87209,1,0,0:0:0:0:
448,192,87274,1,0,0:0:0:0:
320,192,87274,1,0,0:0:0:0:
192,192,87339,1,0,0:0:0:0:
64,192,87405,1,0,0:0:0:0:
320,192,87405,1,0,0:0:0:0:
448,192,87470,1,0,0:0:0:0:
192,192,87535,1,0,0:0:0:0:
64,192,87535,1,0,0:0:0:0:
448,192,87600,1,0,0:0:0:0:
64,192,87666,1,0,0:0:0:0:
192,192,87666,1,0,0:0:0:0:
320,192,87731,1,0,0:0:0:0:
448,192,87796,1,0,0:0:0:0:
192,192,87861,1,0,0:0:0:0:
448,192,87926,1,0,0:0:0:0:
64,192,87926,1,0,0:0:0:0:
320,192,87992,1,0,0:0:0:0:
192,192,88057,1,0,0:0:0:0:
64,192,88057,1,0,0:0:0:0:
448,192,88122,1,0,0:0:0:0:
192,192,88187,1,0,0:0:0:0:
64,192,88187,1,0,0:0:0:0:
448,192,88253,1,0,0:0:0:0:
192,192,88318,1,0,0:0:0:0:
64,192,88318,1,0,0:0:0:0:
320,192,88383,1,0,0:0:0:0:
64,192,88448,1,0,0:0:0:0:
448,192,88448,1,0,0:0:0:0:
192,192,88513,1,0,0:0:0:0:
448,192,88579,1,0,0:0:0:0:
192,192,88644,1,0,0:0:0:0:
448,192,88709,1,0,0:0:0:0:
64,192,88709,1,0,0:0:0:0:
320,192,88774,1,0,0:0:0:0:
192,192,88839,1,0,0:0:0:0:
64,192,88839,1,0,0:0:0:0:
320,192,88905,1,0,0:0:0:0:
64,192,88970,1,0,0:0:0:0:
448,192,88970,1,0,0:0:0:0:
192,192,89035,1,0,0:0:0:0:
320,192,89100,1,0,0:0:0:0:
448,192,89166,1,0,0:0:0:0:
64,192,89231,1,0,0:0:0:0:
192,192,89231,1,0,0:0:0:0:
448,192,89296,1,0,0:0:0:0:
320,192,89361,1,0,0:0:0:0:
192,192,89426,1,0,0:0:0:0:
448,192,89492,1,0,0:0:0:0:
64,192,89492,1,0,0:0:0:0:
448,192,89687,1,0,0:0:0:0:
64,192,89687,1,0,0:0:0:0:
320,192,89753,1,0,0:0:0:0:
192,192,89753,1,0,0:0:0:0:
320,192,90013,1,0,0:0:0:0:
448,192,90013,1,0,0:0:0:0:
64,192,90013,1,0,0:0:0:0:
192,192,90079,1,0,0:0:0:0:
320,192,90144,1,0,0:0:0:0:
448,192,90144,1,0,0:0:0:0:
192,192,90209,1,0,0:0:0:0:
448,192,90274,1,0,0:0:0:0:
64,192,90274,1,0,0:0:0:0:
320,192,90339,1,0,0:0:0:0:
64,192,90405,1,0,0:0:0:0:
192,192,90470,1,0,0:0:0:0:
448,192,90535,1,0,0:0:0:0:
320,192,90535,1,0,0:0:0:0:
64,192,90600,1,0,0:0:0:0:
448,192,90666,1,0,0:0:0:0:
320,192,90731,1,0,0:0:0:0:
64,192,90796,1,0,0:0:0:0:
192,192,90796,1,0,0:0:0:0:
320,192,90861,1,0,0:0:0:0:
64,192,90926,1,0,0:0:0:0:
448,192,90926,1,0,0:0:0:0:
192,192,90992,1,0,0:0:0:0:
448,192,91057,1,0,0:0:0:0:
320,192,91057,1,0,0:0:0:0:
64,192,91122,1,0,0:0:0:0:
448,192,91187,1,0,0:0:0:0:
320,192,91253,1,0,0:0:0:0:
64,192,91318,1,0,0:0:0:0:
192,192,91318,1,0,0:0:0:0:
448,192,91383,1,0,0:0:0:0:
64,192,91448,1,0,0:0:0:0:
192,192,91513,1,0,0:0:0:0:
448,192,91579,1,0,0:0:0:0:
320,192,91579,1,0,0:0:0:0:
192,192,91644,1,0,0:0:0:0:
64,192,91709,1,0,0:0:0:0:
448,192,91709,1,0,0:0:0:0:
320,192,91774,1,0,0:0:0:0:
192,192,91839,1,0,0:0:0:0:
64,192,91839,1,0,0:0:0:0:
448,192,91905,1,0,0:0:0:0:
192,192,91970,1,0,0:0:0:0:
64,192,91970,1,0,0:0:0:0:
448,192,92035,1,0,0:0:0:0:
192,192,92100,1,0,0:0:0:0:
64,192,92100,1,0,0:0:0:0:
448,192,92166,1,0,0:0:0:0:
320,192,92231,1,0,0:0:0:0:
192,192,92296,1,0,0:0:0:0:
320,192,92361,1,0,0:0:0:0:
64,192,92361,1,0,0:0:0:0:
448,192,92426,1,0,0:0:0:0:
192,192,92492,1,0,0:0:0:0:
320,192,92557,1,0,0:0:0:0:
192,192,92622,1,0,0:0:0:0:
64,192,92622,1,0,0:0:0:0:
320,192,92687,1,0,0:0:0:0:
64,192,92753,1,0,0:0:0:0:
448,192,92753,1,0,0:0:0:0:
192,192,92818,1,0,0:0:0:0:
448,192,92883,1,0,0:0:0:0:
320,192,92883,1,0,0:0:0:0:
192,192,92948,1,0,0:0:0:0:
448,192,93013,1,0,0:0:0:0:
320,192,93013,1,0,0:0:0:0:
192,192,93079,1,0,0:0:0:0:
448,192,93144,1,0,0:0:0:0:
320,192,93144,1,0,0:0:0:0:
192,192,93209,1,0,0:0:0:0:
448,192,93274,1,0,0:0:0:0:
64,192,93274,1,0,0:0:0:0:
320,192,93339,1,0,0:0:0:0:
64,192,93405,1,0,0:0:0:0:
192,192,93405,1,0,0:0:0:0:
320,192,93470,1,0,0:0:0:0:
192,192,93535,1,0,0:0:0:0:
448,192,93535,1,0,0:0:0:0:
64,192,93600,1,0,0:0:0:0:
320,192,93666,1,0,0:0:0:0:
448,192,93666,1,0,0:0:0:0:
192,192,93731,1,0,0:0:0:0:
448,192,93796,1,0,0:0:0:0:
320,192,93796,1,0,0:0:0:0:
192,192,93861,1,0,0:0:0:0:
320,192,93926,1,0,0:0:0:0:
64,192,93926,1,0,0:0:0:0:
448,192,93992,1,0,0:0:0:0:
64,192,94057,1,0,0:0:0:0:
192,192,94122,1,0,0:0:0:0:
448,192,94187,1,0,0:0:0:0:
320,192,94187,1,0,0:0:0:0:
192,192,94253,1,0,0:0:0:0:
64,192,94318,1,0,0:0:0:0:
448,192,94318,1,0,0:0:0:0:
320,192,94383,1,0,0:0:0:0:
64,192,94448,1,0,0:0:0:0:
192,192,94448,1,0,0:0:0:0:
320,192,94513,1,0,0:0:0:0:
448,192,94579,1,0,0:0:0:0:
64,192,94579,1,0,0:0:0:0:
192,192,94644,1,0,0:0:0:0:
448,192,94709,1,0,0:0:0:0:
320,192,94709,1,0,0:0:0:0:
192,192,94774,1,0,0:0:0:0:
448,192,94839,1,0,0:0:0:0:
64,192,94839,1,0,0:0:0:0:
320,192,94905,1,0,0:0:0:0:
192,192,94970,1,0,0:0:0:0:
64,192,94970,1,0,0:0:0:0:
448,192,95035,1,0,0:0:0:0:
64,192,95100,1,0,0:0:0:0:
192,192,95100,1,0,0:0:0:0:
448,192,95166,1,0,0:0:0:0:
64,192,95231,1,0,0:0:0:0:
320,192,95231,1,0,0:0:0:0:
192,192,95296,1,0,0:0:0:0:
448,192,95361,1,0,0:0:0:0:
320,192,95361,1,0,0:0:0:0:
64,192,95426,1,0,0:0:0:0:
448,192,95492,1,0,0:0:0:0:
192,192,95492,1,0,0:0:0:0:
320,192,95557,1,0,0:0:0:0:
64,192,95622,1,0,0:0:0:0:
192,192,95622,1,0,0:0:0:0:
448,192,95687,1,0,0:0:0:0:
320,192,95753,1,0,0:0:0:0:
192,192,95753,1,0,0:0:0:0:
64,192,95818,1,0,0:0:0:0:
320,192,95883,1,0,0:0:0:0:
448,192,95883,1,0,0:0:0:0:
192,192,95948,1,0,0:0:0:0:
64,192,96013,1,0,0:0:0:0:
320,192,96013,1,0,0:0:0:0:
448,192,96079,1,0,0:0:0:0:
64,192,96144,1,0,0:0:0:0:
192,192,96209,1,0,0:0:0:0:
448,192,96274,1,0,0:0:0:0:
320,192,96274,1,0,0:0:0:0:
192,192,96339,1,0,0:0:0:0:
448,192,96405,1,0,0:0:0:0:
64,192,96405,1,0,0:0:0:0:
320,192,96470,1,0,0:0:0:0:
192,192,96535,1,0,0:0:0:0:
64,192,96535,1,0,0:0:0:0:
320,192,96600,1,0,0:0:0:0:
448,192,96666,1,0,0:0:0:0:
192,192,96731,1,0,0:0:0:0:
448,192,96796,1,0,0:0:0:0:
320,192,96796,1,0,0:0:0:0:
192,192,96861,1,0,0:0:0:0:
64,192,96926,1,0,0:0:0:0:
320,192,96992,1,0,0:0:0:0:
64,192,97057,1,0,0:0:0:0:
192,192,97057,1,0,0:0:0:0:
320,192,97122,1,0,0:0:0:0:
448,192,97187,1,0,0:0:0:0:
192,192,97253,1,0,0:0:0:0:
64,192,97318,1,0,0:0:0:0:
448,192,97318,1,0,0:0:0:0:
320,192,97579,1,0,0:0:0:0:
320,192,97839,1,0,0:0:0:0:
64,192,98100,1,0,0:0:0:0:
192,192,98100,1,0,0:0:0:0:
320,192,98166,1,0,0:0:0:0:
192,192,98231,1,0,0:0:0:0:
320,192,98296,1,0,0:0:0:0:
448,192,98361,1,0,0:0:0:0:
192,192,98361,1,0,0:0:0:0:
64,192,98426,1,0,0:0:0:0:
320,192,98492,1,0,0:0:0:0:
448,192,98492,1,0,0:0:0:0:
64,192,98557,1,0,0:0:0:0:
448,192,98622,1,0,0:0:0:0:
320,192,98622,1,0,0:0:0:0:
64,192,98687,1,0,0:0:0:0:
320,192,98753,1,0,0:0:0:0:
192,192,98753,1,0,0:0:0:0:
448,192,98818,1,0,0:0:0:0:
64,192,98883,1,0,0:0:0:0:
192,192,98883,1,0,0:0:0:0:
320,192,98948,1,0,0:0:0:0:
448,192,99013,1,0,0:0:0:0:
192,192,99079,1,0,0:0:0:0:
448,192,99144,1,0,0:0:0:0:
64,192,99144,1,0,0:0:0:0:
320,192,99209,1,0,0:0:0:0:
64,192,99274,1,0,0:0:0:0:
192,192,99274,1,0,0:0:0:0:
320,192,99339,1,0,0:0:0:0:
64,192,99405,1,0,0:0:0:0:
448,192,99405,1,0,0:0:0:0:
192,192,99470,1,0,0:0:0:0:
448,192,99535,1,0,0:0:0:0:
320,192,99600,1,0,0:0:0:0:
192,192,99666,1,0,0:0:0:0:
64,192,99666,1,0,0:0:0:0:
448,192,99731,1,0,0:0:0:0:
192,192,99796,1,0,0:0:0:0:
64,192,99796,1,0,0:0:0:0:
320,192,99861,1,0,0:0:0:0:
64,192,99926,1,0,0:0:0:0:
448,192,99926,1,0,0:0:0:0:
192,192,99992,1,0,0:0:0:0:
448,192,100057,1,0,0:0:0:0:
320,192,100122,1,0,0:0:0:0:
192,192,100187,1,0,0:0:0:0:
64,192,100187,1,0,0:0:0:0:
320,192,100253,1,0,0:0:0:0:
448,192,100318,1,0,0:0:0:0:
64,192,100318,1,0,0:0:0:0:
192,192,100383,1,0,0:0:0:0:
448,192,100448,1,0,0:0:0:0:
320,192,100448,1,0,0:0:0:0:
64,192,100513,1,0,0:0:0:0:
448,192,100579,1,0,0:0:0:0:
320,192,100644,1,0,0:0:0:0:
192,192,100709,1,0,0:0:0:0:
64,192,100709,1,0,0:0:0:0:
320,192,100774,1,0,0:0:0:0:
448,192,100839,1,0,0:0:0:0:
64,192,100839,1,0,0:0:0:0:
192,192,100905,1,0,0:0:0:0:
448,192,100970,1,0,0:0:0:0:
320,192,100970,1,0,0:0:0:0:
64,192,101035,1,0,0:0:0:0:
448,192,101100,1,0,0:0:0:0:
320,192,101166,1,0,0:0:0:0:
64,192,101231,1,0,0:0:0:0:
192,192,101231,1,0,0:0:0:0:
448,192,101296,1,0,0:0:0:0:
192,192,101361,1,0,0:0:0:0:
64,192,101361,1,0,0:0:0:0:
320,192,101426,1,0,0:0:0:0:
64,192,101492,1,0,0:0:0:0:
448,192,101492,1,0,0:0:0:0:
192,192,101557,1,0,0:0:0:0:
448,192,101622,1,0,0:0:0:0:
320,192,101687,1,0,0:0:0:0:
64,192,101753,1,0,0:0:0:0:
192,192,101753,1,0,0:0:0:0:
320,192,101818,1,0,0:0:0:0:
64,192,101883,1,0,0:0:0:0:
448,192,101883,1,0,0:0:0:0:
192,192,101948,1,0,0:0:0:0:
448,192,102013,1,0,0:0:0:0:
320,192,102013,1,0,0:0:0:0:
192,192,102079,1,0,0:0:0:0:
320,192,102144,1,0,0:0:0:0:
448,192,102144,1,0,0:0:0:0:
192,192,102209,1,0,0:0:0:0:
448,192,102274,1,0,0:0:0:0:
64,192,102274,1,0,0:0:0:0:
320,192,102339,1,0,0:0:0:0:
64,192,102405,1,0,0:0:0:0:
192,192,102470,1,0,0:0:0:0:
448,192,102535,1,0,0:0:0:0:
320,192,102535,1,0,0:0:0:0:
64,192,102600,1,0,0:0:0:0:
448,192,102666,1,0,0:0:0:0:
320,192,102731,1,0,0:0:0:0:
192,192,102796,1,0,0:0:0:0:
64,192,102796,1,0,0:0:0:0:
320,192,102861,1,0,0:0:0:0:
448,192,102926,1,0,0:0:0:0:
64,192,102926,1,0,0:0:0:0:
192,192,102992,1,0,0:0:0:0:
320,192,103057,1,0,0:0:0:0:
448,192,103057,1,0,0:0:0:0:
64,192,103122,1,0,0:0:0:0:
448,192,103187,1,0,0:0:0:0:
320,192,103253,1,0,0:0:0:0:
64,192,103318,1,0,0:0:0:0:
192,192,103318,1,0,0:0:0:0:
320,192,103383,1,0,0:0:0:0:
64,192,103448,1,0,0:0:0:0:
448,192,103448,1,0,0:0:0:0:
192,192,103513,1,0,0:0:0:0:
448,192,103579,1,0,0:0:0:0:
320,192,103579,1,0,0:0:0:0:
192,192,103644,1,0,0:0:0:0:
64,192,103709,1,0,0:0:0:0:
320,192,103774,1,0,0:0:0:0:
448,192,103839,1,0,0:0:0:0:
64,192,103839,1,0,0:0:0:0:
192,192,103905,1,0,0:0:0:0:
320,192,103970,1,0,0:0:0:0:
64,192,104035,1,0,0:0:0:0:
320,192,104100,1,0,0:0:0:0:
448,192,104100,1,0,0:0:0:0:
64,192,104166,1,0,0:0:0:0:
448,192,104231,1,0,0:0:0:0:
320,192,104296,1,0,0:0:0:0:
64,192,104361,1,0,0:0:0:0:
192,192,104361,1,0,0:0:0:0:
448,192,104426,1,0,0:0:0:0:
64,192,104492,1,0,0:0:0:0:
192,192,104557,1,0,0:0:0:0:
448,192,104622,1,0,0:0:0:0:
320,192,104622,1,0,0:0:0:0:
192,192,104687,1,0,0:0:0:0:
448,192,104753,1,0,0:0:0:0:
320,192,104753,1,0,0:0:0:0:
192,192,104818,1,0,0:0:0:0:
448,192,104883,1,0,0:0:0:0:
320,192,104883,1,0,0:0:0:0:
192,192,104948,1,0,0:0:0:0:
448,192,105013,1,0,0:0:0:0:
320,192,105013,1,0,0:0:0:0:
192,192,105079,1,0,0:0:0:0:
448,192,105144,1,0,0:0:0:0:
64,192,105144,1,0,0:0:0:0:
320,192,105209,1,0,0:0:0:0:
192,192,105274,1,0,0:0:0:0:
64,192,105274,1,0,0:0:0:0:
448,192,105339,1,0,0:0:0:0:
192,192,105405,1,0,0:0:0:0:
320,192,105405,1,0,0:0:0:0:
64,192,105470,1,0,0:0:0:0:
448,192,105535,1,0,0:0:0:0:
320,192,105535,1,0,0:0:0:0:
64,192,105600,1,0,0:0:0:0:
320,192,105666,1,0,0:0:0:0:
448,192,105666,1,0,0:0:0:0:
320,192,106187,1,0,0:0:0:0:
448,192,106187,1,0,0:0:0:0:
192,192,106383,1,0,0:0:0:0:
320,192,106383,1,0,0:0:0:0:
192,192,106579,1,0,0:0:0:0:
64,192,106579,1,0,0:0:0:0:
448,192,106709,1,0,0:0:0:0:
320,192,106709,1,0,0:0:0:0:
320,192,106970,1,0,0:0:0:0:
448,192,106970,1,0,0:0:0:0:
64,192,107361,1,0,0:0:0:0:
192,192,107361,1,0,0:0:0:0:
448,192,107622,1,0,0:0:0:0:
320,192,107622,1,0,0:0:0:0:
192,192,107753,1,0,0:0:0:0:
64,192,107753,1,0,0:0:0:0:
320,192,107883,1,0,0:0:0:0:
448,192,108013,1,0,0:0:0:0:
64,192,108013,1,0,0:0:0:0:
192,192,108144,1,0,0:0:0:0:
320,192,108274,1,0,0:0:0:0:
448,192,108274,1,0,0:0:0:0:
192,192,108405,1,0,0:0:0:0:
64,192,108535,1,0,0:0:0:0:
448,192,108535,1,0,0:0:0:0:
320,192,108666,1,0,0:0:0:0:
192,192,108796,1,0,0:0:0:0:
64,192,108796,1,0,0:0:0:0:
320,192,108926,1,0,0:0:0:0:
448,192,109057,1,0,0:0:0:0:
64,192,109057,1,0,0:0:0:0:
192,192,109187,1,0,0:0:0:0:
320,192,109318,1,0,0:0:0:0:
448,192,109318,1,0,0:0:0:0:
192,192,109448,1,0,0:0:0:0:
64,192,109579,1,0,0:0:0:0:
448,192,109579,1,0,0:0:0:0:
320,192,109709,1,0,0:0:0:0:
64,192,109839,1,0,0:0:0:0:
192,192,109839,1,0,0:0:0:0:
192,192,109970,1,0,0:0:0:0:
448,192,110100,1,0,0:0:0:0:
64,192,110100,1,0,0:0:0:0:
320,192,110231,1,0,0:0:0:0:
320,192,110361,1,0,0:0:0:0:
192,192,110426,1,0,0:0:0:0:
64,192,110492,1,0,0:0:0:0:
448,192,110622,1,0,0:0:0:0:
192,192,110622,1,0,0:0:0:0:
448,192,110753,1,0,0:0:0:0:
192,192,110753,1,0,0:0:0:0:
64,192,110883,1,0,0:0:0:0:
320,192,110883,1,0,0:0:0:0:
320,192,111144,1,0,0:0:0:0:
64,192,111144,1,0,0:0:0:0:
192,192,111535,1,0,0:0:0:0:
448,192,111535,1,0,0:0:0:0:
64,192,111796,1,0,0:0:0:0:
320,192,111796,1,0,0:0:0:0:
192,192,111926,1,0,0:0:0:0:
448,192,111926,1,0,0:0:0:0:
320,192,112057,1,0,0:0:0:0:
192,192,112187,1,0,0:0:0:0:
64,192,112187,1,0,0:0:0:0:
448,192,112318,1,0,0:0:0:0:
64,192,112448,1,0,0:0:0:0:
320,192,112448,1,0,0:0:0:0:
192,192,112579,1,0,0:0:0:0:
448,192,112709,1,0,0:0:0:0:
320,192,112709,1,0,0:0:0:0:
64,192,112839,1,0,0:0:0:0:
448,192,112970,1,0,0:0:0:0:
192,192,112970,1,0,0:0:0:0:
320,192,113100,1,0,0:0:0:0:
192,192,113231,1,0,0:0:0:0:
64,192,113231,1,0,0:0:0:0:
448,192,113361,1,0,0:0:0:0:
64,192,113492,1,0,0:0:0:0:
320,192,113492,1,0,0:0:0:0:
192,192,113622,1,0,0:0:0:0:
448,192,113753,1,0,0:0:0:0:
320,192,113753,1,0,0:0:0:0:
64,192,113883,1,0,0:0:0:0:
448,192,114013,1,0,0:0:0:0:
192,192,114013,1,0,0:0:0:0:
320,192,114144,1,0,0:0:0:0:
192,192,114274,1,0,0:0:0:0:
64,192,114274,1,0,0:0:0:0:
448,192,114405,1,0,0:0:0:0:
64,192,114535,1,0,0:0:0:0:
320,192,114535,1,0,0:0:0:0:
192,192,114666,1,0,0:0:0:0:
320,192,114796,1,0,0:0:0:0:
448,192,114796,1,0,0:0:0:0:
192,192,114926,1,0,0:0:0:0:
64,192,114926,1,0,0:0:0:0:
64,192,115057,1,0,0:0:0:0:
448,192,115057,1,0,0:0:0:0:
448,192,115318,1,0,0:0:0:0:
64,192,115318,1,0,0:0:0:0:
320,192,115709,1,0,0:0:0:0:
192,192,115709,1,0,0:0:0:0:
64,192,115970,1,0,0:0:0:0:
448,192,115970,1,0,0:0:0:0:
192,192,116100,1,0,0:0:0:0:
320,192,116100,1,0,0:0:0:0:
448,192,116231,1,0,0:0:0:0:
64,192,116361,1,0,0:0:0:0:
192,192,116361,1,0,0:0:0:0:
448,192,116492,1,0,0:0:0:0:
320,192,116622,1,0,0:0:0:0:
192,192,116622,1,0,0:0:0:0:
64,192,116753,1,0,0:0:0:0:
448,192,116883,1,0,0:0:0:0:
320,192,116883,1,0,0:0:0:0:
64,192,117013,1,0,0:0:0:0:
192,192,117144,1,0,0:0:0:0:
320,192,117144,1,0,0:0:0:0:
448,192,117274,1,0,0:0:0:0:
64,192,117405,1,0,0:0:0:0:
192,192,117405,1,0,0:0:0:0:
448,192,117535,1,0,0:0:0:0:
320,192,117666,1,0,0:0:0:0:
192,192,117666,1,0,0:0:0:0:
64,192,117796,1,0,0:0:0:0:
320,192,117926,1,0,0:0:0:0:
448,192,117926,1,0,0:0:0:0:
64,192,118057,1,0,0:0:0:0:
192,192,118187,1,0,0:0:0:0:
320,192,118187,1,0,0:0:0:0:
320,192,118318,1,0,0:0:0:0:
192,192,118448,1,0,0:0:0:0:
448,192,118448,1,0,0:0:0:0:
64,192,118579,1,0,0:0:0:0:
192,192,118579,1,0,0:0:0:0:
64,192,118709,1,0,0:0:0:0:
448,192,118709,1,0,0:0:0:0:
192,192,118774,1,0,0:0:0:0:
320,192,118839,1,0,0:0:0:0:
64,192,118970,1,0,0:0:0:0:
192,192,118970,1,0,0:0:0:0:
448,192,119035,1,0,0:0:0:0:
64,192,119100,1,0,0:0:0:0:
192,192,119100,1,0,0:0:0:0:
448,192,119166,1,0,0:0:0:0:
320,192,119231,1,0,0:0:0:0:
64,192,119231,1,0,0:0:0:0:
64,192,119492,1,0,0:0:0:0:
320,192,119492,1,0,0:0:0:0:
448,192,119883,1,0,0:0:0:0:
192,192,119883,1,0,0:0:0:0:
64,192,120144,1,0,0:0:0:0:
320,192,120144,1,0,0:0:0:0:
448,192,120274,1,0,0:0:0:0:
192,192,120274,1,0,0:0:0:0:
64,192,120405,1,0,0:0:0:0:
448,192,120535,1,0,0:0:0:0:
320,192,120535,1,0,0:0:0:0:
192,192,120666,1,0,0:0:0:0:
320,192,120796,1,0,0:0:0:0:
64,192,120796,1,0,0:0:0:0:
448,192,120926,1,0,0:0:0:0:
64,192,121057,1,0,0:0:0:0:
192,192,121057,1,0,0:0:0:0:
320,192,121187,1,0,0:0:0:0:
192,192,121318,1,0,0:0:0:0:
448,192,121318,1,0,0:0:0:0:
64,192,121448,1,0,0:0:0:0:
448,192,121579,1,0,0:0:0:0:
320,192,121579,1,0,0:0:0:0:
192,192,121709,1,0,0:0:0:0:
320,192,121839,1,0,0:0:0:0:
64,192,121839,1,0,0:0:0:0:
448,192,121970,1,0,0:0:0:0:
64,192,122100,1,0,0:0:0:0:
192,192,122100,1,0,0:0:0:0:
320,192,122231,1,0,0:0:0:0:
448,192,122361,1,0,0:0:0:0:
192,192,122361,1,0,0:0:0:0:
448,192,122492,1,0,0:0:0:0:
192,192,122492,1,0,0:0:0:0:
64,192,122622,1,0,0:0:0:0:
320,192,122622,1,0,0:0:0:0:
448,192,122753,1,0,0:0:0:0:
192,192,122753,1,0,0:0:0:0:
192,192,122883,1,0,0:0:0:0:
320,192,122948,1,0,0:0:0:0:
448,192,123013,1,0,0:0:0:0:
64,192,123079,1,0,0:0:0:0:
448,192,123144,1,0,0:0:0:0:
64,192,123209,1,0,0:0:0:0:
320,192,123274,1,0,0:0:0:0:
448,192,123274,1,0,0:0:0:0:
192,192,123339,1,0,0:0:0:0:
448,192,123405,1,0,0:0:0:0:
64,192,123405,1,0,0:0:0:0:
320,192,123470,1,0,0:0:0:0:
192,192,123535,1,0,0:0:0:0:
64,192,123600,1,0,0:0:0:0:
448,192,123666,1,0,0:0:0:0:
320,192,123666,1,0,0:0:0:0:
64,192,123731,1,0,0:0:0:0:
192,192,123796,1,0,0:0:0:0:
320,192,123861,1,0,0:0:0:0:
192,192,123926,1,0,0:0:0:0:
448,192,123926,1,0,0:0:0:0:
64,192,123992,1,0,0:0:0:0:
448,192,124057,1,0,0:0:0:0:
320,192,124122,1,0,0:0:0:0:
64,192,124187,1,0,0:0:0:0:
192,192,124187,1,0,0:0:0:0:
448,192,124253,1,0,0:0:0:0:
64,192,124318,1,0,0:0:0:0:
448,192,124383,1,0,0:0:0:0:
320,192,124448,1,0,0:0:0:0:
192,192,124448,1,0,0:0:0:0:
64,192,124513,1,0,0:0:0:0:
448,192,124579,1,0,0:0:0:0:
64,192,124644,1,0,0:0:0:0:
320,192,124709,1,0,0:0:0:0:
192,192,124709,1,0,0:0:0:0:
448,192,124774,1,0,0:0:0:0:
320,192,124839,1,0,0:0:0:0:
192,192,124905,1,0,0:0:0:0:
64,192,124970,1,0,0:0:0:0:
448,192,124970,1,0,0:0:0:0:
320,192,125035,1,0,0:0:0:0:
64,192,125100,1,0,0:0:0:0:
192,192,125166,1,0,0:0:0:0:
448,192,125231,1,0,0:0:0:0:
320,192,125231,1,0,0:0:0:0:
64,192,125296,1,0,0:0:0:0:
448,192,125361,1,0,0:0:0:0:
320,192,125426,1,0,0:0:0:0:
64,192,125492,1,0,0:0:0:0:
192,192,125492,1,0,0:0:0:0:
448,192,125557,1,0,0:0:0:0:
320,192,125622,1,0,0:0:0:0:
192,192,125687,1,0,0:0:0:0:
448,192,125753,1,0,0:0:0:0:
64,192,125753,1,0,0:0:0:0:
320,192,125818,1,0,0:0:0:0:
64,192,125883,1,0,0:0:0:0:
192,192,125948,1,0,0:0:0:0:
320,192,126013,1,0,0:0:0:0:
448,192,126013,1,0,0:0:0:0:
192,192,126079,1,0,0:0:0:0:
64,192,126144,1,0,0:0:0:0:
448,192,126209,1,0,0:0:0:0:
64,192,126274,1,0,0:0:0:0:
320,192,126274,1,0,0:0:0:0:
192,192,126339,1,0,0:0:0:0:
320,192,126405,1,0,0:0:0:0:
192,192,126470,1,0,0:0:0:0:
448,192,126535,1,0,0:0:0:0:
64,192,126535,1,0,0:0:0:0:
320,192,126600,1,0,0:0:0:0:
64,192,126666,1,0,0:0:0:0:
192,192,126731,1,0,0:0:0:0:
320,192,126796,1,0,0:0:0:0:
448,192,126796,1,0,0:0:0:0:
64,192,126861,1,0,0:0:0:0:
448,192,126926,1,0,0:0:0:0:
320,192,126992,1,0,0:0:0:0:
64,192,127057,1,0,0:0:0:0:
192,192,127057,1,0,0:0:0:0:
192,192,127187,1,0,0:0:0:0:
64,192,127187,1,0,0:0:0:0:
320,192,127318,1,0,0:0:0:0:
448,192,127318,1,0,0:0:0:0:
320,192,127448,1,0,0:0:0:0:
64,192,127448,1,0,0:0:0:0:
64,192,127579,1,0,0:0:0:0:
192,192,127579,1,0,0:0:0:0:
320,192,127644,1,0,0:0:0:0:
192,192,127709,1,0,0:0:0:0:
320,192,127774,1,0,0:0:0:0:
448,192,127839,1,0,0:0:0:0:
64,192,127839,1,0,0:0:0:0:
192,192,127905,1,0,0:0:0:0:
448,192,127970,1,0,0:0:0:0:
320,192,128035,1,0,0:0:0:0:
64,192,128100,1,0,0:0:0:0:
192,192,128100,1,0,0:0:0:0:
320,192,128166,1,0,0:0:0:0:
448,192,128231,1,0,0:0:0:0:
192,192,128296,1,0,0:0:0:0:
320,192,128361,1,0,0:0:0:0:
448,192,128361,1,0,0:0:0:0:
192,192,128426,1,0,0:0:0:0:
64,192,128492,1,0,0:0:0:0:
320,192,128557,1,0,0:0:0:0:
64,192,128622,1,0,0:0:0:0:
192,192,128622,1,0,0:0:0:0:
448,192,128687,1,0,0:0:0:0:
64,192,128753,1,0,0:0:0:0:
192,192,128818,1,0,0:0:0:0:
320,192,128883,1,0,0:0:0:0:
448,192,128883,1,0,0:0:0:0:
64,192,128948,1,0,0:0:0:0:
448,192,129013,1,0,0:0:0:0:
320,192,129079,1,0,0:0:0:0:
64,192,129144,1,0,0:0:0:0:
192,192,129144,1,0,0:0:0:0:
448,192,129209,1,0,0:0:0:0:
64,192,129274,1,0,0:0:0:0:
192,192,129339,1,0,0:0:0:0:
448,192,129405,1,0,0:0:0:0:
320,192,129405,1,0,0:0:0:0:
64,192,129470,1,0,0:0:0:0:
448,192,129535,1,0,0:0:0:0:
320,192,129600,1,0,0:0:0:0:
64,192,129666,1,0,0:0:0:0:
192,192,129666,1,0,0:0:0:0:
448,192,129731,5,0,0:0:0:0:
64,192,129796,1,0,0:0:0:0:
192,192,129861,1,0,0:0:0:0:
448,192,129926,1,0,0:0:0:0:
320,192,129926,1,0,0:0:0:0:
192,192,129992,1,0,0:0:0:0:
64,192,130057,1,0,0:0:0:0:
448,192,130122,1,0,0:0:0:0:
192,192,130187,1,0,0:0:0:0:
64,192,130187,1,0,0:0:0:0:
448,192,130253,1,0,0:0:0:0:
320,192,130318,1,0,0:0:0:0:
192,192,130383,1,0,0:0:0:0:
64,192,130448,1,0,0:0:0:0:
448,192,130448,1,0,0:0:0:0:
320,192,130513,1,0,0:0:0:0:
192,192,130579,1,0,0:0:0:0:
448,192,130644,1,0,0:0:0:0:
64,192,130709,1,0,0:0:0:0:
192,192,130709,1,0,0:0:0:0:
64,192,130839,1,0,0:0:0:0:
320,192,130839,1,0,0:0:0:0:
448,192,130970,1,0,0:0:0:0:
192,192,130970,1,0,0:0:0:0:
320,192,131100,1,0,0:0:0:0:
320,192,131231,1,0,0:0:0:0:
192,192,131296,1,0,0:0:0:0:
64,192,131361,1,0,0:0:0:0:
64,192,131492,1,0,0:0:0:0:
320,192,131492,1,0,0:0:0:0:
192,192,131622,1,0,0:0:0:0:
320,192,131622,1,0,0:0:0:0:
64,192,131753,1,0,0:0:0:0:
448,192,131753,1,0,0:0:0:0:
192,192,131818,1,0,0:0:0:0:
320,192,131883,1,0,0:0:0:0:
64,192,131948,1,0,0:0:0:0:
320,192,132013,1,0,0:0:0:0:
448,192,132013,1,0,0:0:0:0:
64,192,132079,1,0,0:0:0:0:
448,192,132144,1,0,0:0:0:0:
320,192,132209,1,0,0:0:0:0:
192,192,132274,1,0,0:0:0:0:
64,192,132274,1,0,0:0:0:0:
448,192,132339,1,0,0:0:0:0:
64,192,132405,1,0,0:0:0:0:
192,192,132470,1,0,0:0:0:0:
448,192,132535,1,0,0:0:0:0:
320,192,132535,1,0,0:0:0:0:
64,192,132600,1,0,0:0:0:0:
192,192,132666,1,0,0:0:0:0:
320,192,132731,1,0,0:0:0:0:
448,192,132796,1,0,0:0:0:0:
192,192,132796,1,0,0:0:0:0:
64,192,132861,1,0,0:0:0:0:
448,192,132926,1,0,0:0:0:0:
64,192,132992,1,0,0:0:0:0:
192,192,133057,1,0,0:0:0:0:
320,192,133057,1,0,0:0:0:0:
448,192,133122,1,0,0:0:0:0:
320,192,133187,1,0,0:0:0:0:
192,192,133253,1,0,0:0:0:0:
64,192,133318,1,0,0:0:0:0:
448,192,133318,1,0,0:0:0:0:
320,192,133383,1,0,0:0:0:0:
64,192,133448,1,0,0:0:0:0:
192,192,133448,1,0,0:0:0:0:
448,192,133513,1,0,0:0:0:0:
64,192,133579,1,0,0:0:0:0:
192,192,133579,1,0,0:0:0:0:
320,192,133644,1,0,0:0:0:0:
64,192,133709,1,0,0:0:0:0:
192,192,133709,1,0,0:0:0:0:
320,192,133774,1,0,0:0:0:0:
448,192,133839,1,0,0:0:0:0:
64,192,133839,1,0,0:0:0:0:
192,192,133905,1,0,0:0:0:0:
320,192,133970,1,0,0:0:0:0:
448,192,134035,1,0,0:0:0:0:
192,192,134100,1,0,0:0:0:0:
64,192,134100,1,0,0:0:0:0:
448,192,134166,1,0,0:0:0:0:
64,192,134231,1,0,0:0:0:0:
192,192,134296,1,0,0:0:0:0:
448,192,134361,1,0,0:0:0:0:
320,192,134361,1,0,0:0:0:0:
192,192,134426,1,0,0:0:0:0:
64,192,134492,1,0,0:0:0:0:
320,192,134557,1,0,0:0:0:0:
64,192,134622,1,0,0:0:0:0:
192,192,134622,1,0,0:0:0:0:
320,192,134687,1,0,0:0:0:0:
448,192,134753,1,0,0:0:0:0:
192,192,134818,1,0,0:0:0:0:
320,192,134883,1,0,0:0:0:0:
448,192,134883,1,0,0:0:0:0:
192,192,134948,1,0,0:0:0:0:
64,192,135013,1,0,0:0:0:0:
448,192,135079,1,0,0:0:0:0:
64,192,135144,1,0,0:0:0:0:
320,192,135144,1,0,0:0:0:0:
192,192,135209,1,0,0:0:0:0:
320,192,135274,1,0,0:0:0:0:
192,192,135339,1,0,0:0:0:0:
448,192,135405,1,0,0:0:0:0:
64,192,135405,1,0,0:0:0:0:
320,192,135470,1,0,0:0:0:0:
192,192,135535,1,0,0:0:0:0:
64,192,135600,1,0,0:0:0:0:
320,192,135666,1,0,0:0:0:0:
448,192,135666,1,0,0:0:0:0:
64,192,135731,1,0,0:0:0:0:
192,192,135796,1,0,0:0:0:0:
320,192,135861,1,0,0:0:0:0:
192,192,135926,1,0,0:0:0:0:
448,192,135926,1,0,0:0:0:0:
64,192,135992,1,0,0:0:0:0:
320,192,136057,1,0,0:0:0:0:
192,192,136122,1,0,0:0:0:0:
448,192,136187,1,0,0:0:0:0:
320,192,136187,1,0,0:0:0:0:
64,192,136253,1,0,0:0:0:0:
192,192,136318,1,0,0:0:0:0:
320,192,136383,1,0,0:0:0:0:
448,192,136448,1,0,0:0:0:0:
64,192,136448,1,0,0:0:0:0:
192,192,136513,1,0,0:0:0:0:
448,192,136579,1,0,0:0:0:0:
192,192,136644,1,0,0:0:0:0:
64,192,136709,1,0,0:0:0:0:
448,192,136709,1,0,0:0:0:0:
320,192,136774,1,0,0:0:0:0:
192,192,136839,1,0,0:0:0:0:
64,192,136905,1,0,0:0:0:0:
320,192,136970,1,0,0:0:0:0:
448,192,136970,1,0,0:0:0:0:
192,192,137035,1,0,0:0:0:0:
320,192,137100,1,0,0:0:0:0:
192,192,137166,1,0,0:0:0:0:
320,192,137231,1,0,0:0:0:0:
64,192,137231,1,0,0:0:0:0:
448,192,137296,1,0,0:0:0:0:
64,192,137361,1,0,0:0:0:0:
192,192,137426,1,0,0:0:0:0:
320,192,137492,1,0,0:0:0:0:
448,192,137492,1,0,0:0:0:0:
64,192,137557,1,0,0:0:0:0:
192,192,137622,1,0,0:0:0:0:
320,192,137687,1,0,0:0:0:0:
64,192,137753,1,0,0:0:0:0:
320,192,137818,1,0,0:0:0:0:
64,192,137883,1,0,0:0:0:0:
192,192,137883,1,0,0:0:0:0:
320,192,137948,1,0,0:0:0:0:
448,192,138013,1,0,0:0:0:0:
64,192,138013,1,0,0:0:0:0:
192,192,138274,1,0,0:0:0:0:
64,192,138535,1,0,0:0:0:0:
320,192,138666,1,0,0:0:0:0:
320,192,138926,1,0,0:0:0:0:
320,192,139057,1,0,0:0:0:0:
64,192,139187,1,0,0:0:0:0:
192,192,139448,1,0,0:0:0:0:
448,192,139579,1,0,0:0:0:0:
448,192,139709,1,0,0:0:0:0:
320,192,139839,1,0,0:0:0:0:
192,192,139970,1,0,0:0:0:0:
64,192,140100,1,0,0:0:0:0:
448,192,140100,1,0,0:0:0:0:
320,192,140100,1,0,0:0:0:0:
64,192,140231,1,0,0:0:0:0:
192,192,140231,1,0,0:0:0:0:
192,192,140361,1,0,0:0:0:0:
448,192,140361,1,0,0:0:0:0:
448,192,140492,1,0,0:0:0:0:
320,192,140492,1,0,0:0:0:0:
320,192,140622,1,0,0:0:0:0:
192,192,140687,1,0,0:0:0:0:
448,192,140753,1,0,0:0:0:0:
64,192,140753,1,0,0:0:0:0:
320,192,140883,1,0,0:0:0:0:
64,192,140883,1,0,0:0:0:0:
192,192,141013,1,0,0:0:0:0:
320,192,141013,1,0,0:0:0:0:
64,192,141144,1,0,0:0:0:0:
320,192,141144,1,0,0:0:0:0:
64,192,141274,1,0,0:0:0:0:
192,192,141274,1,0,0:0:0:0:
448,192,141405,1,0,0:0:0:0:
320,192,141405,1,0,0:0:0:0:
320,192,141535,1,0,0:0:0:0:
64,192,141535,1,0,0:0:0:0:
192,192,141796,1,0,0:0:0:0:
448,192,141796,1,0,0:0:0:0:
320,192,141926,1,0,0:0:0:0:
192,192,141926,1,0,0:0:0:0:
320,192,142057,1,0,0:0:0:0:
192,192,142122,1,0,0:0:0:0:
64,192,142187,1,0,0:0:0:0:
448,192,142187,1,0,0:0:0:0:
320,192,142318,1,0,0:0:0:0:
64,192,142318,1,0,0:0:0:0:
320,192,142448,1,0,0:0:0:0:
448,192,142448,1,0,0:0:0:0:
448,192,142579,1,0,0:0:0:0:
320,192,142644,1,0,0:0:0:0:
64,192,142709,1,0,0:0:0:0:
192,192,142709,1,0,0:0:0:0:
320,192,142839,1,0,0:0:0:0:
64,192,142839,1,0,0:0:0:0:
192,192,142970,1,0,0:0:0:0:
448,192,142970,1,0,0:0:0:0:
64,192,143100,1,0,0:0:0:0:
192,192,143100,1,0,0:0:0:0:
320,192,143231,1,0,0:0:0:0:
448,192,143231,1,0,0:0:0:0:
192,192,143492,1,0,0:0:0:0:
64,192,143492,1,0,0:0:0:0:
64,192,143622,1,0,0:0:0:0:
192,192,143687,1,0,0:0:0:0:
320,192,143753,1,0,0:0:0:0:
192,192,143883,1,0,0:0:0:0:
320,192,143883,1,0,0:0:0:0:
192,192,144013,1,0,0:0:0:0:
448,192,144013,1,0,0:0:0:0:
448,192,144144,1,0,0:0:0:0:
320,192,144209,1,0,0:0:0:0:
64,192,144274,1,0,0:0:0:0:
192,192,144274,1,0,0:0:0:0:
320,192,144405,1,0,0:0:0:0:
448,192,144405,1,0,0:0:0:0:
64,192,144535,1,0,0:0:0:0:
320,192,144535,1,0,0:0:0:0:
64,192,144666,1,0,0:0:0:0:
192,192,144666,1,0,0:0:0:0:
320,192,144731,1,0,0:0:0:0:
192,192,144796,1,0,0:0:0:0:
320,192,144861,1,0,0:0:0:0:
64,192,144926,1,0,0:0:0:0:
448,192,144926,1,0,0:0:0:0:
64,192,145057,1,0,0:0:0:0:
320,192,145057,1,0,0:0:0:0:
448,192,145187,1,0,0:0:0:0:
320,192,145187,1,0,0:0:0:0:
64,192,145318,1,0,0:0:0:0:
192,192,145318,1,0,0:0:0:0:
448,192,145448,1,0,0:0:0:0:
320,192,145448,1,0,0:0:0:0:
64,192,145579,1,0,0:0:0:0:
320,192,145579,1,0,0:0:0:0:
192,192,145709,1,0,0:0:0:0:
64,192,145709,1,0,0:0:0:0:
320,192,145774,1,0,0:0:0:0:
192,192,145839,1,0,0:0:0:0:
320,192,145905,1,0,0:0:0:0:
64,192,145970,1,0,0:0:0:0:
448,192,145970,1,0,0:0:0:0:
64,192,146100,1,0,0:0:0:0:
320,192,146100,1,0,0:0:0:0:
448,192,146231,1,0,0:0:0:0:
320,192,146231,1,0,0:0:0:0:
448,192,146361,1,0,0:0:0:0:
64,192,146361,1,0,0:0:0:0:
64,192,146492,1,0,0:0:0:0:
192,192,146557,1,0,0:0:0:0:
448,192,146622,1,0,0:0:0:0:
320,192,146622,1,0,0:0:0:0:
448,192,146753,1,0,0:0:0:0:
320,192,146818,1,0,0:0:0:0:
64,192,146883,1,0,0:0:0:0:
192,192,146883,1,0,0:0:0:0:
448,192,147013,1,0,0:0:0:0:
320,192,147013,1,0,0:0:0:0:
64,192,147144,1,0,0:0:0:0:
320,192,147144,1,0,0:0:0:0:
192,192,147274,1,0,0:0:0:0:
320,192,147405,1,0,0:0:0:0:
64,192,147405,1,0,0:0:0:0:
448,192,147535,1,0,0:0:0:0:
320,192,147666,1,0,0:0:0:0:
448,192,147666,1,0,0:0:0:0:
192,192,147796,1,0,0:0:0:0:
64,192,147796,1,0,0:0:0:0:
448,192,147861,1,0,0:0:0:0:
192,192,147926,1,0,0:0:0:0:
320,192,148057,1,0,0:0:0:0:
192,192,148122,1,0,0:0:0:0:
192,192,148318,1,0,0:0:0:0:
320,192,148383,1,0,0:0:0:0:
64,192,148448,1,0,0:0:0:0:
448,192,148448,1,0,0:0:0:0:
64,192,148579,1,0,0:0:0:0:
320,192,148579,1,0,0:0:0:0:
192,192,148709,1,0,0:0:0:0:
320,192,148709,1,0,0:0:0:0:
64,192,148839,1,0,0:0:0:0:
320,192,148839,1,0,0:0:0:0:
64,192,148970,1,0,0:0:0:0:
192,192,149035,1,0,0:0:0:0:
448,192,149100,1,0,0:0:0:0:
320,192,149100,1,0,0:0:0:0:
448,192,149231,1,0,0:0:0:0:
192,192,149231,1,0,0:0:0:0:
448,192,149361,1,0,0:0:0:0:
320,192,149361,1,0,0:0:0:0:
64,192,149492,1,0,0:0:0:0:
320,192,149492,1,0,0:0:0:0:
64,192,149622,1,0,0:0:0:0:
192,192,149622,1,0,0:0:0:0:
448,192,149753,1,0,0:0:0:0:
320,192,149753,1,0,0:0:0:0:
192,192,149883,1,0,0:0:0:0:
448,192,149883,1,0,0:0:0:0:
192,192,150144,1,0,0:0:0:0:
320,192,150144,1,0,0:0:0:0:
448,192,150274,1,0,0:0:0:0:
192,192,150274,1,0,0:0:0:0:
448,192,150405,1,0,0:0:0:0:
320,192,150470,1,0,0:0:0:0:
64,192,150535,1,0,0:0:0:0:
192,192,150535,1,0,0:0:0:0:
64,192,150666,1,0,0:0:0:0:
320,192,150666,1,0,0:0:0:0:
320,192,150796,1,0,0:0:0:0:
192,192,150796,1,0,0:0:0:0:
192,192,150926,1,0,0:0:0:0:
320,192,150992,1,0,0:0:0:0:
448,192,151057,1,0,0:0:0:0:
64,192,151057,1,0,0:0:0:0:
320,192,151187,1,0,0:0:0:0:
64,192,151187,1,0,0:0:0:0:
320,192,151318,1,0,0:0:0:0:
192,192,151318,1,0,0:0:0:0:
448,192,151448,1,0,0:0:0:0:
64,192,151448,1,0,0:0:0:0:
320,192,151579,1,0,0:0:0:0:
192,192,151579,1,0,0:0:0:0:
320,192,151839,1,0,0:0:0:0:
64,192,151839,1,0,0:0:0:0:
320,192,151970,1,0,0:0:0:0:
192,192,152035,1,0,0:0:0:0:
64,192,152100,1,0,0:0:0:0:
320,192,152231,1,0,0:0:0:0:
64,192,152231,1,0,0:0:0:0:
448,192,152361,1,0,0:0:0:0:
192,192,152361,1,0,0:0:0:0:
192,192,152492,1,0,0:0:0:0:
320,192,152557,1,0,0:0:0:0:
448,192,152622,1,0,0:0:0:0:
64,192,152622,1,0,0:0:0:0:
64,192,152753,1,0,0:0:0:0:
192,192,152753,1,0,0:0:0:0:
192,192,152883,1,0,0:0:0:0:
448,192,152883,1,0,0:0:0:0:
320,192,153013,1,0,0:0:0:0:
448,192,153013,1,0,0:0:0:0:
192,192,153079,1,0,0:0:0:0:
320,192,153144,1,0,0:0:0:0:
192,192,153209,1,0,0:0:0:0:
448,192,153274,1,0,0:0:0:0:
64,192,153274,1,0,0:0:0:0:
64,192,153405,1,0,0:0:0:0:
192,192,153405,1,0,0:0:0:0:
192,192,153535,1,0,0:0:0:0:
448,192,153535,1,0,0:0:0:0:
64,192,153666,1,0,0:0:0:0:
320,192,153666,1,0,0:0:0:0:
64,192,153796,1,0,0:0:0:0:
192,192,153796,1,0,0:0:0:0:
192,192,153926,1,0,0:0:0:0:
448,192,153926,1,0,0:0:0:0:
320,192,154057,1,0,0:0:0:0:
448,192,154057,1,0,0:0:0:0:
192,192,154122,1,0,0:0:0:0:
320,192,154187,1,0,0:0:0:0:
192,192,154253,1,0,0:0:0:0:
448,192,154318,1,0,0:0:0:0:
64,192,154318,1,0,0:0:0:0:
64,192,154448,1,0,0:0:0:0:
192,192,154448,1,0,0:0:0:0:
448,192,154579,1,0,0:0:0:0:
192,192,154579,1,0,0:0:0:0:
64,192,154709,1,0,0:0:0:0:
320,192,154709,1,0,0:0:0:0:
64,192,154839,1,0,0:0:0:0:
192,192,154905,1,0,0:0:0:0:
448,192,154970,1,0,0:0:0:0:
320,192,154970,1,0,0:0:0:0:
320,192,155100,1,0,0:0:0:0:
192,192,155166,1,0,0:0:0:0:
64,192,155231,1,0,0:0:0:0:
64,192,155361,1,0,0:0:0:0:
320,192,155361,1,0,0:0:0:0:
448,192,155492,1,0,0:0:0:0:
192,192,155492,1,0,0:0:0:0:
448,192,155622,1,0,0:0:0:0:
320,192,155687,1,0,0:0:0:0:
192,192,155753,1,0,0:0:0:0:
64,192,155753,1,0,0:0:0:0:
192,192,155883,1,0,0:0:0:0:
320,192,156013,1,0,0:0:0:0:
448,192,156013,1,0,0:0:0:0:
192,192,156144,1,0,0:0:0:0:
64,192,156144,1,0,0:0:0:0:
320,192,156209,1,0,0:0:0:0:
448,192,156274,1,0,0:0:0:0:
448,192,156405,1,0,0:0:0:0:
320,192,156405,1,0,0:0:0:0:
192,192,156470,1,0,0:0:0:0:
64,192,156535,1,0,0:0:0:0:
320,192,156535,1,0,0:0:0:0:
448,192,156600,1,0,0:0:0:0:
64,192,156666,1,0,0:0:0:0:
192,192,156731,1,0,0:0:0:0:
320,192,156796,1,0,0:0:0:0:
448,192,156796,1,0,0:0:0:0:
320,192,156926,1,0,0:0:0:0:
192,192,157057,1,0,0:0:0:0:
448,192,157057,1,0,0:0:0:0:
64,192,157187,1,0,0:0:0:0:
192,192,157187,1,0,0:0:0:0:
448,192,157318,1,0,0:0:0:0:
320,192,157318,1,0,0:0:0:0:
64,192,157383,1,0,0:0:0:0:
192,192,157383,1,0,0:0:0:0:
448,192,157448,1,0,0:0:0:0:
320,192,157448,1,0,0:0:0:0:
64,192,157513,1,0,0:0:0:0:
448,192,157579,1,0,0:0:0:0:
320,192,157579,1,0,0:0:0:0:
192,192,157644,1,0,0:0:0:0:
64,192,157644,1,0,0:0:0:0:
448,192,157709,1,0,0:0:0:0:
192,192,157774,1,0,0:0:0:0:
448,192,157839,1,0,0:0:0:0:
320,192,157839,1,0,0:0:0:0:
192,192,157970,1,0,0:0:0:0:
320,192,158100,1,0,0:0:0:0:
192,192,158100,1,0,0:0:0:0:
320,192,158231,1,0,0:0:0:0:
64,192,158231,1,0,0:0:0:0:
64,192,158361,1,0,0:0:0:0:
192,192,158426,1,0,0:0:0:0:
448,192,158492,1,0,0:0:0:0:
320,192,158492,1,0,0:0:0:0:
64,192,158557,1,0,0:0:0:0:
320,192,158622,1,0,0:0:0:0:
448,192,158622,1,0,0:0:0:0:
192,192,158687,1,0,0:0:0:0:
64,192,158687,1,0,0:0:0:0:
448,192,158753,1,0,0:0:0:0:
320,192,158818,1,0,0:0:0:0:
64,192,158883,1,0,0:0:0:0:
192,192,158883,1,0,0:0:0:0:
192,192,159013,1,0,0:0:0:0:
320,192,159144,1,0,0:0:0:0:
64,192,159144,1,0,0:0:0:0:
320,192,159274,1,0,0:0:0:0:
448,192,159274,1,0,0:0:0:0:
192,192,159405,1,0,0:0:0:0:
64,192,159405,1,0,0:0:0:0:
448,192,159470,1,0,0:0:0:0:
320,192,159470,1,0,0:0:0:0:
64,192,159535,1,0,0:0:0:0:
192,192,159535,1,0,0:0:0:0:
448,192,159600,1,0,0:0:0:0:
64,192,159666,1,0,0:0:0:0:
192,192,159666,1,0,0:0:0:0:
448,192,159731,1,0,0:0:0:0:
320,192,159731,1,0,0:0:0:0:
64,192,159796,1,0,0:0:0:0:
320,192,159861,1,0,0:0:0:0:
64,192,159926,1,0,0:0:0:0:
192,192,159926,1,0,0:0:0:0:
320,192,160057,1,0,0:0:0:0:
192,192,160187,1,0,0:0:0:0:
320,192,160187,1,0,0:0:0:0:
448,192,160318,1,0,0:0:0:0:
192,192,160318,1,0,0:0:0:0:
448,192,160448,1,0,0:0:0:0:
320,192,160513,1,0,0:0:0:0:
64,192,160579,1,0,0:0:0:0:
192,192,160579,1,0,0:0:0:0:
448,192,160644,1,0,0:0:0:0:
192,192,160709,1,0,0:0:0:0:
64,192,160709,1,0,0:0:0:0:
320,192,160774,1,0,0:0:0:0:
448,192,160774,1,0,0:0:0:0:
64,192,160839,1,0,0:0:0:0:
192,192,160905,1,0,0:0:0:0:
448,192,160970,1,0,0:0:0:0:
320,192,160970,1,0,0:0:0:0:
448,192,161100,1,0,0:0:0:0:
320,192,161100,1,0,0:0:0:0:
192,192,161231,1,0,0:0:0:0:
448,192,161231,1,0,0:0:0:0:
64,192,161361,1,0,0:0:0:0:
192,192,161361,1,0,0:0:0:0:
320,192,161492,1,0,0:0:0:0:
448,192,161492,1,0,0:0:0:0:
64,192,161557,1,0,0:0:0:0:
192,192,161557,1,0,0:0:0:0:
448,192,161622,1,0,0:0:0:0:
320,192,161622,1,0,0:0:0:0:
64,192,161687,1,0,0:0:0:0:
448,192,161753,1,0,0:0:0:0:
320,192,161753,1,0,0:0:0:0:
64,192,161818,1,0,0:0:0:0:
192,192,161818,1,0,0:0:0:0:
448,192,161883,1,0,0:0:0:0:
192,192,161948,1,0,0:0:0:0:
448,192,162013,1,0,0:0:0:0:
320,192,162013,1,0,0:0:0:0:
320,192,162144,1,0,0:0:0:0:
448,192,162144,1,0,0:0:0:0:
192,192,162274,1,0,0:0:0:0:
448,192,162274,1,0,0:0:0:0:
192,192,162405,1,0,0:0:0:0:
64,192,162405,1,0,0:0:0:0:
448,192,162535,1,0,0:0:0:0:
320,192,162535,1,0,0:0:0:0:
192,192,162666,1,0,0:0:0:0:
448,192,162666,1,0,0:0:0:0:
192,192,162796,1,0,0:0:0:0:
64,192,162796,1,0,0:0:0:0:
448,192,162861,1,0,0:0:0:0:
320,192,162926,1,0,0:0:0:0:
64,192,162926,1,0,0:0:0:0:
192,192,162992,1,0,0:0:0:0:
448,192,163057,1,0,0:0:0:0:
320,192,163057,1,0,0:0:0:0:
192,192,163122,1,0,0:0:0:0:
64,192,163122,1,0,0:0:0:0:
448,192,163187,1,0,0:0:0:0:
320,192,163187,1,0,0:0:0:0:
192,192,163253,1,0,0:0:0:0:
64,192,163253,1,0,0:0:0:0:
448,192,163318,1,0,0:0:0:0:
320,192,163318,1,0,0:0:0:0:
64,192,163383,1,0,0:0:0:0:
192,192,163383,1,0,0:0:0:0:
448,192,163448,1,0,0:0:0:0:
320,192,163448,1,0,0:0:0:0:
64,192,163513,1,0,0:0:0:0:
192,192,163513,1,0,0:0:0:0:
448,192,163579,1,0,0:0:0:0:
320,192,163579,1,0,0:0:0:0:
64,192,163644,1,0,0:0:0:0:
192,192,163644,1,0,0:0:0:0:
448,192,163709,1,0,0:0:0:0:
320,192,163709,1,0,0:0:0:0:
64,192,163774,1,0,0:0:0:0:
192,192,163774,1,0,0:0:0:0:
448,192,163839,1,0,0:0:0:0:
320,192,163839,1,0,0:0:0:0:
64,192,163905,1,0,0:0:0:0:
192,192,163905,1,0,0:0:0:0:
448,192,163970,1,0,0:0:0:0:
320,192,163970,1,0,0:0:0:0:
64,192,164035,1,0,0:0:0:0:
192,192,164035,1,0,0:0:0:0:
448,192,164100,1,0,0:0:0:0:
320,192,164100,1,0,0:0:0:0:
448,192,164231,1,0,0:0:0:0:
320,192,164231,1,0,0:0:0:0:
448,192,164492,1,0,0:0:0:0:
320,192,164492,1,0,0:0:0:0:
448,192,164753,1,0,0:0:0:0:
320,192,164753,1,0,0:0:0:0:
64,192,164883,1,0,0:0:0:0:
192,192,164883,1,0,0:0:0:0:
64,192,165013,1,0,0:0:0:0:
192,192,165013,1,0,0:0:0:0:
448,192,165144,1,0,0:0:0:0:
320,192,165144,1,0,0:0:0:0:
64,192,165209,1,0,0:0:0:0:
192,192,165274,1,0,0:0:0:0:
448,192,165274,1,0,0:0:0:0:
320,192,165339,1,0,0:0:0:0:
64,192,165405,1,0,0:0:0:0:
192,192,165405,1,0,0:0:0:0:
448,192,165470,1,0,0:0:0:0:
320,192,165535,1,0,0:0:0:0:
192,192,165535,1,0,0:0:0:0:
64,192,165600,1,0,0:0:0:0:
448,192,165666,1,0,0:0:0:0:
320,192,165666,1,0,0:0:0:0:
192,192,165731,1,0,0:0:0:0:
448,192,165796,1,0,0:0:0:0:
64,192,165796,1,0,0:0:0:0:
320,192,165861,1,0,0:0:0:0:
64,192,165926,1,0,0:0:0:0:
192,192,165926,1,0,0:0:0:0:
320,192,165992,1,0,0:0:0:0:
64,192,166057,1,0,0:0:0:0:
448,192,166057,1,0,0:0:0:0:
192,192,166122,1,0,0:0:0:0:
448,192,166187,1,0,0:0:0:0:
320,192,166187,1,0,0:0:0:0:
192,192,166253,1,0,0:0:0:0:
448,192,166318,1,0,0:0:0:0:
64,192,166318,1,0,0:0:0:0:
320,192,166383,1,0,0:0:0:0:
64,192,166448,1,0,0:0:0:0:
192,192,166448,1,0,0:0:0:0:
448,192,166513,1,0,0:0:0:0:
64,192,166579,1,0,0:0:0:0:
192,192,166579,1,0,0:0:0:0:
448,192,166644,1,0,0:0:0:0:
320,192,166709,1,0,0:0:0:0:
192,192,166709,1,0,0:0:0:0:
64,192,166774,1,0,0:0:0:0:
448,192,166839,1,0,0:0:0:0:
320,192,166839,1,0,0:0:0:0:
192,192,166905,1,0,0:0:0:0:
320,192,166970,1,0,0:0:0:0:
64,192,166970,1,0,0:0:0:0:
448,192,167035,1,0,0:0:0:0:
192,192,167100,1,0,0:0:0:0:
64,192,167100,1,0,0:0:0:0:
320,192,167166,1,0,0:0:0:0:
64,192,167231,1,0,0:0:0:0:
448,192,167231,1,0,0:0:0:0:
192,192,167296,1,0,0:0:0:0:
320,192,167361,1,0,0:0:0:0:
448,192,167361,1,0,0:0:0:0:
192,192,167426,1,0,0:0:0:0:
320,192,167492,1,0,0:0:0:0:
64,192,167492,1,0,0:0:0:0:
448,192,167557,1,0,0:0:0:0:
64,192,167622,1,0,0:0:0:0:
192,192,167622,1,0,0:0:0:0:
320,192,167687,1,0,0:0:0:0:
192,192,167753,1,0,0:0:0:0:
448,192,167753,1,0,0:0:0:0:
64,192,167818,1,0,0:0:0:0:
448,192,167883,1,0,0:0:0:0:
320,192,167883,1,0,0:0:0:0:
192,192,167948,1,0,0:0:0:0:
448,192,168013,1,0,0:0:0:0:
320,192,168013,1,0,0:0:0:0:
192,192,168079,1,0,0:0:0:0:
320,192,168144,1,0,0:0:0:0:
64,192,168144,1,0,0:0:0:0:
448,192,168209,1,0,0:0:0:0:
64,192,168274,1,0,0:0:0:0:
192,192,168274,1,0,0:0:0:0:
320,192,168339,1,0,0:0:0:0:
192,192,168405,1,0,0:0:0:0:
448,192,168405,1,0,0:0:0:0:
64,192,168470,1,0,0:0:0:0:
448,192,168535,1,0,0:0:0:0:
320,192,168535,1,0,0:0:0:0:
64,192,168600,1,0,0:0:0:0:
192,192,168666,1,0,0:0:0:0:
320,192,168731,1,0,0:0:0:0:
192,192,168796,1,0,0:0:0:0:
448,192,168796,1,0,0:0:0:0:
64,192,168861,1,0,0:0:0:0:
448,192,168926,1,0,0:0:0:0:
320,192,168992,1,0,0:0:0:0:
192,192,169057,1,0,0:0:0:0:
64,192,169057,1,0,0:0:0:0:
448,192,169122,1,0,0:0:0:0:
64,192,169187,1,0,0:0:0:0:
192,192,169187,1,0,0:0:0:0:
320,192,169253,1,0,0:0:0:0:
64,192,169318,1,0,0:0:0:0:
448,192,169318,1,0,0:0:0:0:
192,192,169383,1,0,0:0:0:0:
320,192,169448,1,0,0:0:0:0:
448,192,169513,1,0,0:0:0:0:
64,192,169579,1,0,0:0:0:0:
192,192,169579,1,0,0:0:0:0:
320,192,169644,1,0,0:0:0:0:
64,192,169709,1,0,0:0:0:0:
192,192,169709,1,0,0:0:0:0:
320,192,169774,1,0,0:0:0:0:
192,192,169839,1,0,0:0:0:0:
448,192,169839,1,0,0:0:0:0:
64,192,169905,1,0,0:0:0:0:
448,192,169970,1,0,0:0:0:0:
320,192,169970,1,0,0:0:0:0:
192,192,170035,1,0,0:0:0:0:
448,192,170100,1,0,0:0:0:0:
320,192,170100,1,0,0:0:0:0:
192,192,170166,1,0,0:0:0:0:
448,192,170231,1,0,0:0:0:0:
64,192,170231,1,0,0:0:0:0:
320,192,170296,1,0,0:0:0:0:
64,192,170361,1,0,0:0:0:0:
192,192,170361,1,0,0:0:0:0:
320,192,170426,1,0,0:0:0:0:
192,192,170492,1,0,0:0:0:0:
448,192,170492,1,0,0:0:0:0:
64,192,170557,1,0,0:0:0:0:
448,192,170622,1,0,0:0:0:0:
320,192,170622,1,0,0:0:0:0:
192,192,170687,1,0,0:0:0:0:
448,192,170753,1,0,0:0:0:0:
320,192,170753,1,0,0:0:0:0:
192,192,170818,1,0,0:0:0:0:
320,192,170883,1,0,0:0:0:0:
64,192,170883,1,0,0:0:0:0:
448,192,170948,1,0,0:0:0:0:
64,192,171013,1,0,0:0:0:0:
192,192,171079,1,0,0:0:0:0:
448,192,171144,1,0,0:0:0:0:
320,192,171144,1,0,0:0:0:0:
192,192,171209,1,0,0:0:0:0:
448,192,171274,1,0,0:0:0:0:
320,192,171274,1,0,0:0:0:0:
192,192,171339,1,0,0:0:0:0:
448,192,171405,1,0,0:0:0:0:
64,192,171405,1,0,0:0:0:0:
320,192,171470,1,0,0:0:0:0:
192,192,171535,1,0,0:0:0:0:
64,192,171600,1,0,0:0:0:0:
448,192,171666,1,0,0:0:0:0:
320,192,171666,1,0,0:0:0:0:
192,192,171731,1,0,0:0:0:0:
448,192,171796,1,0,0:0:0:0:
320,192,171796,1,0,0:0:0:0:
192,192,171861,1,0,0:0:0:0:
448,192,171926,1,0,0:0:0:0:
64,192,171926,1,0,0:0:0:0:
320,192,171992,1,0,0:0:0:0:
192,192,172057,1,0,0:0:0:0:
64,192,172057,1,0,0:0:0:0:
448,192,172122,1,0,0:0:0:0:
64,192,172187,1,0,0:0:0:0:
192,192,172187,1,0,0:0:0:0:
320,192,172253,1,0,0:0:0:0:
448,192,172318,1,0,0:0:0:0:
64,192,172318,1,0,0:0:0:0:
192,192,172383,1,0,0:0:0:0:
448,192,172448,1,0,0:0:0:0:
320,192,172448,1,0,0:0:0:0:
192,192,172513,1,0,0:0:0:0:
64,192,172579,1,0,0:0:0:0:
448,192,172579,1,0,0:0:0:0:
320,192,172644,1,0,0:0:0:0:
64,192,172709,1,0,0:0:0:0:
192,192,172709,1,0,0:0:0:0:
448,192,172774,1,0,0:0:0:0:
320,192,172839,1,0,0:0:0:0:
192,192,172905,1,0,0:0:0:0:
320,192,172970,1,0,0:0:0:0:
64,192,172970,1,0,0:0:0:0:
448,192,173035,1,0,0:0:0:0:
64,192,173100,1,0,0:0:0:0:
192,192,173100,1,0,0:0:0:0:
448,192,173166,1,0,0:0:0:0:
64,192,173231,1,0,0:0:0:0:
192,192,173231,1,0,0:0:0:0:
320,192,173296,1,0,0:0:0:0:
192,192,173361,1,0,0:0:0:0:
64,192,173361,1,0,0:0:0:0:
320,192,173426,1,0,0:0:0:0:
448,192,173492,1,0,0:0:0:0:
64,192,173492,1,0,0:0:0:0:
192,192,173557,1,0,0:0:0:0:
320,192,173622,1,0,0:0:0:0:
448,192,173687,1,0,0:0:0:0:
64,192,173753,1,0,0:0:0:0:
192,192,173753,1,0,0:0:0:0:
448,192,173818,1,0,0:0:0:0:
320,192,173818,1,0,0:0:0:0:
64,192,173883,1,0,0:0:0:0:
192,192,173948,1,0,0:0:0:0:
448,192,174013,1,0,0:0:0:0:
320,192,174013,1,0,0:0:0:0:
64,192,174079,1,0,0:0:0:0:
192,192,174079,1,0,0:0:0:0:
448,192,174144,1,0,0:0:0:0:
320,192,174144,1,0,0:0:0:0:
192,192,174209,1,0,0:0:0:0:
448,192,174274,1,0,0:0:0:0:
64,192,174274,1,0,0:0:0:0:
320,192,174339,1,0,0:0:0:0:
192,192,174405,1,0,0:0:0:0:
64,192,174470,1,0,0:0:0:0:
448,192,174535,1,0,0:0:0:0:
320,192,174535,1,0,0:0:0:0:
192,192,174600,1,0,0:0:0:0:
64,192,174666,1,0,0:0:0:0:
320,192,174666,1,0,0:0:0:0:
448,192,174731,1,0,0:0:0:0:
64,192,174796,1,0,0:0:0:0:
192,192,174796,1,0,0:0:0:0:
320,192,174861,1,0,0:0:0:0:
64,192,174926,1,0,0:0:0:0:
192,192,174926,1,0,0:0:0:0:
320,192,174992,1,0,0:0:0:0:
64,192,175057,1,0,0:0:0:0:
448,192,175057,1,0,0:0:0:0:
192,192,175122,1,0,0:0:0:0:
448,192,175187,1,0,0:0:0:0:
320,192,175187,1,0,0:0:0:0:
192,192,175253,1,0,0:0:0:0:
448,192,175318,1,0,0:0:0:0:
320,192,175318,1,0,0:0:0:0:
192,192,175383,1,0,0:0:0:0:
64,192,175448,1,0,0:0:0:0:
448,192,175448,1,0,0:0:0:0:
320,192,175513,1,0,0:0:0:0:
64,192,175579,1,0,0:0:0:0:
192,192,175579,1,0,0:0:0:0:
320,192,175644,1,0,0:0:0:0:
448,192,175709,1,0,0:0:0:0:
64,192,175709,1,0,0:0:0:0:
192,192,175774,1,0,0:0:0:0:
448,192,175839,1,0,0:0:0:0:
320,192,175839,1,0,0:0:0:0:
192,192,175905,1,0,0:0:0:0:
448,192,175970,1,0,0:0:0:0:
320,192,175970,1,0,0:0:0:0:
192,192,176035,1,0,0:0:0:0:
320,192,176100,1,0,0:0:0:0:
64,192,176100,1,0,0:0:0:0:
448,192,176166,1,0,0:0:0:0:
64,192,176231,1,0,0:0:0:0:
192,192,176296,1,0,0:0:0:0:
448,192,176361,1,0,0:0:0:0:
320,192,176361,1,0,0:0:0:0:
192,192,176426,1,0,0:0:0:0:
448,192,176492,1,0,0:0:0:0:
64,192,176492,1,0,0:0:0:0:
320,192,176557,1,0,0:0:0:0:
64,192,176622,1,0,0:0:0:0:
192,192,176622,1,0,0:0:0:0:
320,192,176687,1,0,0:0:0:0:
192,192,176753,1,0,0:0:0:0:
448,192,176753,1,0,0:0:0:0:
64,192,176818,1,0,0:0:0:0:
448,192,176883,1,0,0:0:0:0:
320,192,176883,1,0,0:0:0:0:
64,192,176948,1,0,0:0:0:0:
192,192,177013,1,0,0:0:0:0:
320,192,177079,1,0,0:0:0:0:
64,192,177144,1,0,0:0:0:0:
448,192,177144,1,0,0:0:0:0:
192,192,177209,1,0,0:0:0:0:
320,192,177274,1,0,0:0:0:0:
192,192,177339,1,0,0:0:0:0:
320,192,177405,1,0,0:0:0:0:
64,192,177405,1,0,0:0:0:0:
448,192,177470,1,0,0:0:0:0:
64,192,177535,1,0,0:0:0:0:
192,192,177535,1,0,0:0:0:0:
448,192,177600,1,0,0:0:0:0:
192,192,177666,1,0,0:0:0:0:
64,192,177666,1,0,0:0:0:0:
320,192,177731,1,0,0:0:0:0:
64,192,177796,1,0,0:0:0:0:
448,192,177796,1,0,0:0:0:0:
192,192,177861,1,0,0:0:0:0:
448,192,177926,1,0,0:0:0:0:
320,192,177926,1,0,0:0:0:0:
192,192,177992,1,0,0:0:0:0:
320,192,178057,1,0,0:0:0:0:
64,192,178057,1,0,0:0:0:0:
448,192,178122,1,0,0:0:0:0:
64,192,178187,1,0,0:0:0:0:
192,192,178187,1,0,0:0:0:0:
448,192,178253,1,0,0:0:0:0:
320,192,178318,1,0,0:0:0:0:
192,192,178383,1,0,0:0:0:0:
64,192,178448,1,0,0:0:0:0:
448,192,178448,1,0,0:0:0:0:
320,192,178513,1,0,0:0:0:0:
64,192,178579,1,0,0:0:0:0:
192,192,178579,1,0,0:0:0:0:
320,192,178644,1,0,0:0:0:0:
64,192,178709,1,0,0:0:0:0:
448,192,178709,1,0,0:0:0:0:
192,192,178774,1,0,0:0:0:0:
448,192,178839,1,0,0:0:0:0:
320,192,178839,1,0,0:0:0:0:
192,192,178905,1,0,0:0:0:0:
320,192,178970,1,0,0:0:0:0:
64,192,178970,1,0,0:0:0:0:
448,192,179035,1,0,0:0:0:0:
64,192,179100,1,0,0:0:0:0:
192,192,179100,1,0,0:0:0:0:
320,192,179166,1,0,0:0:0:0:
64,192,179231,1,0,0:0:0:0:
448,192,179231,1,0,0:0:0:0:
192,192,179296,1,0,0:0:0:0:
448,192,179361,1,0,0:0:0:0:
320,192,179361,1,0,0:0:0:0:
192,192,179426,1,0,0:0:0:0:
64,192,179492,1,0,0:0:0:0:
448,192,179492,1,0,0:0:0:0:
320,192,179557,1,0,0:0:0:0:
192,192,179622,1,0,0:0:0:0:
64,192,179687,1,0,0:0:0:0:
448,192,179753,1,0,0:0:0:0:
320,192,179753,1,0,0:0:0:0:
64,192,179818,1,0,0:0:0:0:
448,192,179883,1,0,0:0:0:0:
320,192,179883,1,0,0:0:0:0:
192,192,179948,1,0,0:0:0:0:
448,192,180013,1,0,0:0:0:0:
320,192,180013,1,0,0:0:0:0:
192,192,180079,1,0,0:0:0:0:
448,192,180144,1,0,0:0:0:0:
320,192,180144,1,0,0:0:0:0:
192,192,180209,1,0,0:0:0:0:
64,192,180274,1,0,0:0:0:0:
448,192,180274,1,0,0:0:0:0:
320,192,180339,1,0,0:0:0:0:
64,192,180405,1,0,0:0:0:0:
192,192,180470,1,0,0:0:0:0:
448,192,180535,1,0,0:0:0:0:
320,192,180535,1,0,0:0:0:0:
192,192,180600,1,0,0:0:0:0:
448,192,180666,1,0,0:0:0:0:
64,192,180666,1,0,0:0:0:0:
320,192,180731,1,0,0:0:0:0:
64,192,180796,1,0,0:0:0:0:
192,192,180796,1,0,0:0:0:0:
320,192,181318,1,0,0:0:0:0:
448,192,181318,1,0,0:0:0:0:
192,192,181513,1,0,0:0:0:0:
320,192,181513,1,0,0:0:0:0:
192,192,181709,1,0,0:0:0:0:
64,192,181709,1,0,0:0:0:0:
448,192,181839,1,0,0:0:0:0:
320,192,181839,1,0,0:0:0:0:
192,192,181970,1,0,0:0:0:0:
320,192,182100,1,0,0:0:0:0:
448,192,182100,1,0,0:0:0:0:
64,192,182100,1,0,0:0:0:0:
192,192,182231,1,0,0:0:0:0:
448,192,182361,1,0,0:0:0:0:
64,192,182361,1,0,0:0:0:0:
320,192,182492,1,0,0:0:0:0:
448,192,182622,1,0,0:0:0:0:
192,192,182622,1,0,0:0:0:0:
64,192,182622,1,0,0:0:0:0:
64,192,182753,1,0,0:0:0:0:
192,192,182753,1,0,0:0:0:0:
64,192,182883,1,0,0:0:0:0:
320,192,182883,1,0,0:0:0:0:
192,192,183013,1,0,0:0:0:0:
448,192,183144,1,0,0:0:0:0:
320,192,183144,1,0,0:0:0:0:
64,192,183144,1,0,0:0:0:0:
192,192,183274,1,0,0:0:0:0:
320,192,183405,1,0,0:0:0:0:
64,192,183405,1,0,0:0:0:0:
192,192,183535,1,0,0:0:0:0:
320,192,183666,1,0,0:0:0:0:
448,192,183666,1,0,0:0:0:0:
64,192,183666,1,0,0:0:0:0:
192,192,183796,1,0,0:0:0:0:
64,192,183926,1,0,0:0:0:0:
320,192,183926,1,0,0:0:0:0:
192,192,184057,1,0,0:0:0:0:
64,192,184187,1,0,0:0:0:0:
320,192,184187,1,0,0:0:0:0:
448,192,184187,1,0,0:0:0:0:
192,192,184318,1,0,0:0:0:0:
320,192,184448,1,0,0:0:0:0:
64,192,184448,1,0,0:0:0:0:
192,192,184579,1,0,0:0:0:0:
320,192,184709,1,0,0:0:0:0:
448,192,184709,1,0,0:0:0:0:
64,192,184709,1,0,0:0:0:0:
320,192,184839,1,0,0:0:0:0:
448,192,184839,1,0,0:0:0:0:
448,192,184970,1,0,0:0:0:0:
192,192,184970,1,0,0:0:0:0:
320,192,185100,1,0,0:0:0:0:
192,192,185231,1,0,0:0:0:0:
64,192,185231,1,0,0:0:0:0:
448,192,185231,1,0,0:0:0:0:
320,192,185361,1,0,0:0:0:0:
64,192,185492,1,0,0:0:0:0:
192,192,185492,1,0,0:0:0:0:
448,192,185622,1,0,0:0:0:0:
320,192,185753,1,0,0:0:0:0:
192,192,185753,1,0,0:0:0:0:
64,192,185753,1,0,0:0:0:0:
448,192,185883,1,0,0:0:0:0:
64,192,186013,1,0,0:0:0:0:
320,192,186013,1,0,0:0:0:0:
192,192,186144,1,0,0:0:0:0:
320,192,186274,1,0,0:0:0:0:
448,192,186274,1,0,0:0:0:0:
64,192,186274,1,0,0:0:0:0:
192,192,186405,1,0,0:0:0:0:
320,192,186535,1,0,0:0:0:0:
64,192,186535,1,0,0:0:0:0:
192,192,186666,1,0,0:0:0:0:
320,192,186796,1,0,0:0:0:0:
64,192,186796,1,0,0:0:0:0:
448,192,186796,1,0,0:0:0:0:
320,192,186926,1,0,0:0:0:0:
64,192,186926,1,0,0:0:0:0:
192,192,187057,1,0,0:0:0:0:
64,192,187057,1,0,0:0:0:0:
320,192,187187,1,0,0:0:0:0:
192,192,187318,1,0,0:0:0:0:
448,192,187318,1,0,0:0:0:0:
64,192,187318,1,0,0:0:0:0:
320,192,187448,1,0,0:0:0:0:
192,192,187579,1,0,0:0:0:0:
448,192,187579,1,0,0:0:0:0:
320,192,187709,1,0,0:0:0:0:
192,192,187839,1,0,0:0:0:0:
64,192,187839,1,0,0:0:0:0:
448,192,187839,1,0,0:0:0:0:
320,192,187970,1,0,0:0:0:0:
192,192,188100,1,0,0:0:0:0:
64,192,188100,1,0,0:0:0:0:
320,192,188231,1,0,0:0:0:0:
448,192,188361,1,0,0:0:0:0:
192,192,188361,1,0,0:0:0:0:
64,192,188361,1,0,0:0:0:0:
320,192,188492,1,0,0:0:0:0:
448,192,188622,1,0,0:0:0:0:
192,192,188622,1,0,0:0:0:0:
320,192,188753,1,0,0:0:0:0:
64,192,188883,1,0,0:0:0:0:
448,192,188883,1,0,0:0:0:0:
192,192,188883,1,0,0:0:0:0:
64,192,189013,1,0,0:0:0:0:
192,192,189013,1,0,0:0:0:0:
320,192,189144,1,0,0:0:0:0:
64,192,189144,1,0,0:0:0:0:
320,192,189274,1,0,0:0:0:0:
192,192,189405,1,0,0:0:0:0:
448,192,189405,1,0,0:0:0:0:
64,192,189535,1,0,0:0:0:0:
320,192,189535,1,0,0:0:0:0:
320,192,189666,1,0,0:0:0:0:
192,192,189731,1,0,0:0:0:0:
64,192,189796,1,0,0:0:0:0:
448,192,189861,1,0,0:0:0:0:
64,192,189926,1,0,0:0:0:0:
448,192,189992,1,0,0:0:0:0:
320,192,190057,1,0,0:0:0:0:
192,192,190122,1,0,0:0:0:0:
320,192,190187,1,0,0:0:0:0:
448,192,190187,1,0,0:0:0:0:
64,192,190187,1,0,0:0:0:0:
192,192,190318,1,0,0:0:0:0:
320,192,190448,1,0,0:0:0:0:
448,192,190448,1,0,0:0:0:0:
64,192,190448,1,0,0:0:0:0:
192,192,190579,1,0,0:0:0:0:
448,192,190709,1,0,0:0:0:0:
320,192,190709,1,0,0:0:0:0:
192,192,190839,1,0,0:0:0:0:
448,192,190970,1,0,0:0:0:0:
320,192,190970,1,0,0:0:0:0:
64,192,190970,1,0,0:0:0:0:
64,192,191100,1,0,0:0:0:0:
320,192,191100,1,0,0:0:0:0:
448,192,191231,1,0,0:0:0:0:
320,192,191231,1,0,0:0:0:0:
192,192,191361,1,0,0:0:0:0:
320,192,191492,1,0,0:0:0:0:
64,192,191492,1,0,0:0:0:0:
448,192,191492,1,0,0:0:0:0:
192,192,191622,1,0,0:0:0:0:
320,192,191753,1,0,0:0:0:0:
448,192,191753,1,0,0:0:0:0:
192,192,191883,1,0,0:0:0:0:
448,192,192013,1,0,0:0:0:0:
320,192,192013,1,0,0:0:0:0:
64,192,192013,1,0,0:0:0:0:
192,192,192144,1,0,0:0:0:0:
448,192,192274,1,0,0:0:0:0:
320,192,192274,1,0,0:0:0:0:
192,192,192405,1,0,0:0:0:0:
64,192,192535,1,0,0:0:0:0:
448,192,192535,1,0,0:0:0:0:
320,192,192535,1,0,0:0:0:0:
192,192,192666,1,0,0:0:0:0:
448,192,192796,1,0,0:0:0:0:
320,192,192796,1,0,0:0:0:0:
192,192,192926,1,0,0:0:0:0:
448,192,193057,1,0,0:0:0:0:
320,192,193057,1,0,0:0:0:0:
64,192,193057,1,0,0:0:0:0:
448,192,193187,1,0,0:0:0:0:
320,192,193187,1,0,0:0:0:0:
448,192,193318,1,0,0:0:0:0:
64,192,193318,1,0,0:0:0:0:
320,192,193448,1,0,0:0:0:0:
448,192,193579,1,0,0:0:0:0:
192,192,193579,1,0,0:0:0:0:
64,192,193579,1,0,0:0:0:0:
320,192,193709,1,0,0:0:0:0:
448,192,193839,1,0,0:0:0:0:
64,192,193839,1,0,0:0:0:0:
320,192,193970,1,0,0:0:0:0:
192,192,194100,1,0,0:0:0:0:
448,192,194100,1,0,0:0:0:0:
64,192,194100,1,0,0:0:0:0:
320,192,194231,1,0,0:0:0:0:
64,192,194361,1,0,0:0:0:0:
192,192,194361,1,0,0:0:0:0:
320,192,194492,1,0,0:0:0:0:
64,192,194622,1,0,0:0:0:0:
448,192,194622,1,0,0:0:0:0:
192,192,194622,1,0,0:0:0:0:
320,192,194753,1,0,0:0:0:0:
64,192,194883,1,0,0:0:0:0:
192,192,194883,1,0,0:0:0:0:
320,192,195013,1,0,0:0:0:0:
448,192,195144,1,0,0:0:0:0:
192,192,195144,1,0,0:0:0:0:
64,192,195144,1,0,0:0:0:0:
192,192,195274,1,0,0:0:0:0:
64,192,195274,1,0,0:0:0:0:
448,192,195405,1,0,0:0:0:0:
64,192,195405,1,0,0:0:0:0:
320,192,195535,1,0,0:0:0:0:
64,192,195666,1,0,0:0:0:0:
192,192,195666,1,0,0:0:0:0:
448,192,195666,1,0,0:0:0:0:
320,192,195796,1,0,0:0:0:0:
64,192,195926,1,0,0:0:0:0:
192,192,195926,1,0,0:0:0:0:
320,192,196057,1,0,0:0:0:0:
64,192,196187,1,0,0:0:0:0:
192,192,196187,1,0,0:0:0:0:
448,192,196187,1,0,0:0:0:0:
320,192,196318,1,0,0:0:0:0:
192,192,196448,1,0,0:0:0:0:
448,192,196448,1,0,0:0:0:0:
64,192,196579,1,0,0:0:0:0:
448,192,196709,1,0,0:0:0:0:
320,192,196709,1,0,0:0:0:0:
192,192,196709,1,0,0:0:0:0:
64,192,196839,1,0,0:0:0:0:
448,192,196970,1,0,0:0:0:0:
320,192,196970,1,0,0:0:0:0:
192,192,197100,1,0,0:0:0:0:
320,192,197231,1,0,0:0:0:0:
64,192,197231,1,0,0:0:0:0:
448,192,197231,1,0,0:0:0:0:
320,192,197361,1,0,0:0:0:0:
448,192,197361,1,0,0:0:0:0:
192,192,197492,1,0,0:0:0:0:
448,192,197492,1,0,0:0:0:0:
320,192,197622,1,0,0:0:0:0:
192,192,197753,1,0,0:0:0:0:
448,192,197753,1,0,0:0:0:0:
64,192,197753,1,0,0:0:0:0:
320,192,197883,1,0,0:0:0:0:
64,192,198013,1,0,0:0:0:0:
192,192,198013,1,0,0:0:0:0:
320,192,198144,1,0,0:0:0:0:
192,192,198274,1,0,0:0:0:0:
448,192,198274,1,0,0:0:0:0:
64,192,198274,1,0,0:0:0:0:
320,192,198405,1,0,0:0:0:0:
192,192,198535,1,0,0:0:0:0:
64,192,198535,1,0,0:0:0:0:
448,192,198535,1,0,0:0:0:0:
