osu file format v14

[General]
AudioFilename: audio110.mp3
AudioLeadIn: 0
PreviewTime: 75829
Countdown: 0
SampleSet: Soft
StackLeniency: 0.7
Mode: 3
LetterboxInBreaks: 0
SpecialStyle: 0
WidescreenStoryboard: 1

[Editor]
DistanceSpacing: 1
BeatDivisor: 4
GridSize: 8
TimelineZoom: 2.7

[Metadata]
Title:Holding out for a Hero
TitleUnicode:Holding out for a Hero
Artist:Helblinde
ArtistUnicode:Helblinde
Creator:NikoSek
Version:H [x1.1]
Source:
Tags:featured artist fa electronic instrumental stamina Bonnie Tyler Ephemerality jumpstream speed rates
BeatmapID:2182352
BeatmapSetID:1040735

[Difficulty]
HPDrainRate:8
CircleSize:4
OverallDifficulty:8
ApproachRate:5
SliderMultiplier:1.4
SliderTickRate:1

[Events]
//Background and Video events
0,0,"bg2 tst.jpg",0,0
//Break Periods
//Storyboard Layer 0 (Background)
//Storyboard Layer 1 (Fail)
//Storyboard Layer 2 (Pass)
//Storyboard Layer 3 (Foreground)
//Storyboard Layer 4 (Overlay)
//Storyboard Sound Samples

[TimingPoints]
14465,272.727272727273,4,2,0,10,1,0

[HitObjects]
64,192,14465,5,0,0:0:0:0:
192,192,14465,1,0,0:0:0:0:
320,192,14601,1,0,0:0:0:0:
64,192,14737,1,0,0:0:0:0:
192,192,14737,1,0,0:0:0:0:
448,192,14737,1,0,0:0:0:0:
320,192,14874,1,0,0:0:0:0:
192,192,15010,1,0,0:0:0:0:
448,192,15010,1,0,0:0:0:0:
64,192,15146,1,0,0:0:0:0:
320,192,15283,1,0,0:0:0:0:
448,192,15283,1,0,0:0:0:0:
192,192,15283,1,0,0:0:0:0:
64,192,15419,1,0,0:0:0:0:
448,192,15555,1,0,0:0:0:0:
320,192,15555,1,0,0:0:0:0:
192,192,15692,1,0,0:0:0:0:
448,192,15828,1,0,0:0:0:0:
320,192,15828,1,0,0:0:0:0:
64,192,15828,1,0,0:0:0:0:
192,192,15965,1,0,0:0:0:0:
448,192,16101,1,0,0:0:0:0:
64,192,16101,1,0,0:0:0:0:
320,192,16237,1,0,0:0:0:0:
448,192,16374,1,0,0:0:0:0:
64,192,16374,1,0,0:0:0:0:
192,192,16374,1,0,0:0:0:0:
64,192,16510,1,0,0:0:0:0:
192,192,16510,1,0,0:0:0:0:
64,192,16646,1,0,0:0:0:0:
320,192,16646,1,0,0:0:0:0:
192,192,16783,1,0,0:0:0:0:
448,192,16919,1,0,0:0:0:0:
320,192,16919,1,0,0:0:0:0:
64,192,16919,1,0,0:0:0:0:
192,192,17055,1,0,0:0:0:0:
64,192,17192,1,0,0:0:0:0:
320,192,17192,1,0,0:0:0:0:
448,192,17328,1,0,0:0:0:0:
320,192,17465,1,0,0:0:0:0:
64,192,17465,1,0,0:0:0:0:
192,192,17465,1,0,0:0:0:0:
448,192,17601,1,0,0:0:0:0:
192,192,17737,1,0,0:0:0:0:
64,192,17737,1,0,0:0:0:0:
192,192,17874,1,0,0:0:0:0:
320,192,18010,1,0,0:0:0:0:
64,192,18010,1,0,0:0:0:0:
192,192,18146,1,0,0:0:0:0:
192,192,18283,1,0,0:0:0:0:
320,192,18351,1,0,0:0:0:0:
448,192,18419,1,0,0:0:0:0:
448,192,18555,1,0,0:0:0:0:
320,192,18624,1,0,0:0:0:0:
64,192,18692,1,0,0:0:0:0:
192,192,18692,1,0,0:0:0:0:
448,192,18760,1,0,0:0:0:0:
192,192,18828,1,0,0:0:0:0:
320,192,18828,1,0,0:0:0:0:
64,192,18828,1,0,0:0:0:0:
448,192,18965,1,0,0:0:0:0:
64,192,19101,1,0,0:0:0:0:
192,192,19101,1,0,0:0:0:0:
320,192,19101,1,0,0:0:0:0:
448,192,19237,1,0,0:0:0:0:
64,192,19374,1,0,0:0:0:0:
192,192,19374,1,0,0:0:0:0:
320,192,19510,1,0,0:0:0:0:
64,192,19646,1,0,0:0:0:0:
192,192,19646,1,0,0:0:0:0:
448,192,19646,1,0,0:0:0:0:
320,192,19783,1,0,0:0:0:0:
64,192,19919,1,0,0:0:0:0:
448,192,19919,1,0,0:0:0:0:
192,192,20055,1,0,0:0:0:0:
64,192,20192,1,0,0:0:0:0:
448,192,20192,1,0,0:0:0:0:
320,192,20192,1,0,0:0:0:0:
192,192,20328,1,0,0:0:0:0:
448,192,20465,1,0,0:0:0:0:
320,192,20465,1,0,0:0:0:0:
192,192,20601,1,0,0:0:0:0:
448,192,20737,1,0,0:0:0:0:
320,192,20737,1,0,0:0:0:0:
64,192,20737,1,0,0:0:0:0:
320,192,20874,1,0,0:0:0:0:
448,192,20874,1,0,0:0:0:0:
448,192,21010,1,0,0:0:0:0:
192,192,21010,1,0,0:0:0:0:
320,192,21146,1,0,0:0:0:0:
64,192,21283,1,0,0:0:0:0:
192,192,21283,1,0,0:0:0:0:
448,192,21283,1,0,0:0:0:0:
320,192,21419,1,0,0:0:0:0:
448,192,21555,1,0,0:0:0:0:
64,192,21555,1,0,0:0:0:0:
192,192,21692,1,0,0:0:0:0:
320,192,21828,1,0,0:0:0:0:
448,192,21828,1,0,0:0:0:0:
64,192,21828,1,0,0:0:0:0:
192,192,21965,1,0,0:0:0:0:
320,192,22101,1,0,0:0:0:0:
64,192,22101,1,0,0:0:0:0:
320,192,22237,1,0,0:0:0:0:
64,192,22374,1,0,0:0:0:0:
192,192,22374,1,0,0:0:0:0:
448,192,22374,1,0,0:0:0:0:
448,192,22510,1,0,0:0:0:0:
64,192,22510,1,0,0:0:0:0:
192,192,22510,1,0,0:0:0:0:
320,192,22646,1,0,0:0:0:0:
192,192,22715,1,0,0:0:0:0:
64,192,22783,1,0,0:0:0:0:
448,192,22783,1,0,0:0:0:0:
320,192,22783,1,0,0:0:0:0:
64,192,22919,1,0,0:0:0:0:
320,192,22919,1,0,0:0:0:0:
448,192,22919,1,0,0:0:0:0:
64,192,23192,1,0,0:0:0:0:
448,192,23192,1,0,0:0:0:0:
320,192,23192,1,0,0:0:0:0:
192,192,23260,1,0,0:0:0:0:
320,192,23328,1,0,0:0:0:0:
192,192,23396,1,0,0:0:0:0:
448,192,23465,1,0,0:0:0:0:
64,192,23465,1,0,0:0:0:0:
320,192,23533,1,0,0:0:0:0:
192,192,23601,1,0,0:0:0:0:
64,192,23669,1,0,0:0:0:0:
448,192,23737,1,0,0:0:0:0:
320,192,23737,1,0,0:0:0:0:
64,192,23805,1,0,0:0:0:0:
192,192,23874,1,0,0:0:0:0:
320,192,23942,1,0,0:0:0:0:
448,192,24010,1,0,0:0:0:0:
64,192,24010,1,0,0:0:0:0:
192,192,24078,1,0,0:0:0:0:
320,192,24146,1,0,0:0:0:0:
192,192,24215,1,0,0:0:0:0:
320,192,24283,1,0,0:0:0:0:
64,192,24283,1,0,0:0:0:0:
448,192,24351,1,0,0:0:0:0:
64,192,24419,1,0,0:0:0:0:
448,192,24487,1,0,0:0:0:0:
192,192,24555,1,0,0:0:0:0:
320,192,24555,1,0,0:0:0:0:
64,192,24624,1,0,0:0:0:0:
448,192,24692,1,0,0:0:0:0:
64,192,24760,1,0,0:0:0:0:
320,192,24828,1,0,0:0:0:0:
192,192,24828,1,0,0:0:0:0:
448,192,24896,1,0,0:0:0:0:
192,192,24965,1,0,0:0:0:0:
448,192,25033,1,0,0:0:0:0:
192,192,25101,1,0,0:0:0:0:
320,192,25101,1,0,0:0:0:0:
64,192,25169,1,0,0:0:0:0:
448,192,25237,1,0,0:0:0:0:
320,192,25305,1,0,0:0:0:0:
192,192,25374,1,0,0:0:0:0:
64,192,25374,1,0,0:0:0:0:
320,192,25442,1,0,0:0:0:0:
448,192,25510,1,0,0:0:0:0:
64,192,25578,1,0,0:0:0:0:
192,192,25646,1,0,0:0:0:0:
448,192,25646,1,0,0:0:0:0:
320,192,25715,1,0,0:0:0:0:
192,192,25783,1,0,0:0:0:0:
64,192,25851,1,0,0:0:0:0:
320,192,25919,1,0,0:0:0:0:
448,192,25919,1,0,0:0:0:0:
64,192,25987,1,0,0:0:0:0:
192,192,26055,1,0,0:0:0:0:
320,192,26124,1,0,0:0:0:0:
448,192,26192,1,0,0:0:0:0:
192,192,26192,1,0,0:0:0:0:
64,192,26260,1,0,0:0:0:0:
448,192,26328,1,0,0:0:0:0:
64,192,26396,1,0,0:0:0:0:
320,192,26465,1,0,0:0:0:0:
192,192,26465,1,0,0:0:0:0:
448,192,26533,1,0,0:0:0:0:
64,192,26601,1,0,0:0:0:0:
448,192,26669,1,0,0:0:0:0:
192,192,26737,1,0,0:0:0:0:
320,192,26737,1,0,0:0:0:0:
64,192,26805,1,0,0:0:0:0:
192,192,26874,1,0,0:0:0:0:
320,192,26942,1,0,0:0:0:0:
64,192,27010,1,0,0:0:0:0:
448,192,27010,1,0,0:0:0:0:
192,192,27078,1,0,0:0:0:0:
448,192,27146,1,0,0:0:0:0:
192,192,27215,1,0,0:0:0:0:
448,192,27283,1,0,0:0:0:0:
320,192,27283,1,0,0:0:0:0:
64,192,27351,1,0,0:0:0:0:
192,192,27419,1,0,0:0:0:0:
320,192,27487,1,0,0:0:0:0:
192,192,27555,1,0,0:0:0:0:
448,192,27555,1,0,0:0:0:0:
64,192,27624,1,0,0:0:0:0:
448,192,27692,1,0,0:0:0:0:
320,192,27760,1,0,0:0:0:0:
192,192,27828,1,0,0:0:0:0:
64,192,27828,1,0,0:0:0:0:
320,192,27896,1,0,0:0:0:0:
448,192,27965,1,0,0:0:0:0:
64,192,28033,1,0,0:0:0:0:
192,192,28101,1,0,0:0:0:0:
448,192,28101,1,0,0:0:0:0:
320,192,28169,1,0,0:0:0:0:
192,192,28237,1,0,0:0:0:0:
64,192,28305,1,0,0:0:0:0:
448,192,28374,1,0,0:0:0:0:
320,192,28374,1,0,0:0:0:0:
192,192,28442,1,0,0:0:0:0:
320,192,28510,1,0,0:0:0:0:
448,192,28578,1,0,0:0:0:0:
64,192,28646,1,0,0:0:0:0:
192,192,28646,1,0,0:0:0:0:
448,192,28715,1,0,0:0:0:0:
320,192,28783,1,0,0:0:0:0:
192,192,28851,1,0,0:0:0:0:
320,192,28919,1,0,0:0:0:0:
448,192,28919,1,0,0:0:0:0:
64,192,28987,1,0,0:0:0:0:
192,192,29055,1,0,0:0:0:0:
320,192,29124,1,0,0:0:0:0:
192,192,29192,1,0,0:0:0:0:
448,192,29192,1,0,0:0:0:0:
64,192,29260,1,0,0:0:0:0:
448,192,29328,1,0,0:0:0:0:
64,192,29396,1,0,0:0:0:0:
320,192,29465,1,0,0:0:0:0:
192,192,29465,1,0,0:0:0:0:
448,192,29533,1,0,0:0:0:0:
320,192,29601,1,0,0:0:0:0:
192,192,29669,1,0,0:0:0:0:
448,192,29737,1,0,0:0:0:0:
64,192,29737,1,0,0:0:0:0:
320,192,29805,1,0,0:0:0:0:
64,192,29874,1,0,0:0:0:0:
192,192,29942,1,0,0:0:0:0:
448,192,30010,1,0,0:0:0:0:
320,192,30010,1,0,0:0:0:0:
64,192,30078,1,0,0:0:0:0:
448,192,30146,1,0,0:0:0:0:
320,192,30215,1,0,0:0:0:0:
192,192,30283,1,0,0:0:0:0:
64,192,30283,1,0,0:0:0:0:
320,192,30351,1,0,0:0:0:0:
448,192,30419,1,0,0:0:0:0:
64,192,30487,1,0,0:0:0:0:
192,192,30555,1,0,0:0:0:0:
448,192,30555,1,0,0:0:0:0:
320,192,30624,1,0,0:0:0:0:
192,192,30692,1,0,0:0:0:0:
320,192,30760,1,0,0:0:0:0:
448,192,30828,1,0,0:0:0:0:
64,192,30828,1,0,0:0:0:0:
64,192,31101,1,0,0:0:0:0:
320,192,31101,1,0,0:0:0:0:
192,192,31374,1,0,0:0:0:0:
64,192,31646,1,0,0:0:0:0:
320,192,31646,1,0,0:0:0:0:
448,192,31919,1,0,0:0:0:0:
64,192,31919,1,0,0:0:0:0:
192,192,31919,1,0,0:0:0:0:
320,192,31987,1,0,0:0:0:0:
192,192,32055,1,0,0:0:0:0:
64,192,32124,1,0,0:0:0:0:
448,192,32192,1,0,0:0:0:0:
320,192,32192,1,0,0:0:0:0:
192,192,32260,1,0,0:0:0:0:
320,192,32328,1,0,0:0:0:0:
192,192,32396,1,0,0:0:0:0:
320,192,32465,1,0,0:0:0:0:
64,192,32465,1,0,0:0:0:0:
448,192,32533,1,0,0:0:0:0:
64,192,32601,1,0,0:0:0:0:
192,192,32669,1,0,0:0:0:0:
448,192,32737,1,0,0:0:0:0:
320,192,32737,1,0,0:0:0:0:
64,192,32805,1,0,0:0:0:0:
448,192,32874,1,0,0:0:0:0:
320,192,32874,1,0,0:0:0:0:
192,192,32942,1,0,0:0:0:0:
448,192,33010,1,0,0:0:0:0:
64,192,33010,1,0,0:0:0:0:
320,192,33078,1,0,0:0:0:0:
192,192,33146,1,0,0:0:0:0:
64,192,33146,1,0,0:0:0:0:
320,192,33215,1,0,0:0:0:0:
64,192,33283,1,0,0:0:0:0:
448,192,33283,1,0,0:0:0:0:
192,192,33351,1,0,0:0:0:0:
320,192,33419,1,0,0:0:0:0:
448,192,33419,1,0,0:0:0:0:
192,192,33487,1,0,0:0:0:0:
320,192,33555,1,0,0:0:0:0:
64,192,33555,1,0,0:0:0:0:
192,192,33624,1,0,0:0:0:0:
320,192,33692,1,0,0:0:0:0:
448,192,33760,1,0,0:0:0:0:
64,192,33828,1,0,0:0:0:0:
192,192,33828,1,0,0:0:0:0:
448,192,33896,1,0,0:0:0:0:
320,192,33965,1,0,0:0:0:0:
192,192,34033,1,0,0:0:0:0:
64,192,34101,1,0,0:0:0:0:
448,192,34101,1,0,0:0:0:0:
320,192,34169,1,0,0:0:0:0:
64,192,34237,1,0,0:0:0:0:
192,192,34305,1,0,0:0:0:0:
320,192,34374,1,0,0:0:0:0:
448,192,34374,1,0,0:0:0:0:
64,192,34442,1,0,0:0:0:0:
448,192,34510,1,0,0:0:0:0:
320,192,34510,1,0,0:0:0:0:
192,192,34578,1,0,0:0:0:0:
64,192,34646,1,0,0:0:0:0:
448,192,34646,1,0,0:0:0:0:
320,192,34715,1,0,0:0:0:0:
64,192,34783,1,0,0:0:0:0:
192,192,34851,1,0,0:0:0:0:
448,192,34919,1,0,0:0:0:0:
320,192,34919,1,0,0:0:0:0:
192,192,34987,1,0,0:0:0:0:
64,192,35055,1,0,0:0:0:0:
448,192,35055,1,0,0:0:0:0:
320,192,35124,1,0,0:0:0:0:
64,192,35192,1,0,0:0:0:0:
192,192,35192,1,0,0:0:0:0:
64,192,35328,1,0,0:0:0:0:
192,192,35328,1,0,0:0:0:0:
448,192,35465,1,0,0:0:0:0:
320,192,35465,1,0,0:0:0:0:
64,192,35465,1,0,0:0:0:0:
448,192,35601,1,0,0:0:0:0:
192,192,35601,1,0,0:0:0:0:
320,192,35737,1,0,0:0:0:0:
192,192,35737,1,0,0:0:0:0:
448,192,35874,1,0,0:0:0:0:
192,192,35874,1,0,0:0:0:0:
320,192,36010,1,0,0:0:0:0:
64,192,36010,1,0,0:0:0:0:
448,192,36010,1,0,0:0:0:0:
64,192,36146,1,0,0:0:0:0:
320,192,36146,1,0,0:0:0:0:
192,192,36283,1,0,0:0:0:0:
64,192,36283,1,0,0:0:0:0:
448,192,36283,1,0,0:0:0:0:
320,192,36351,1,0,0:0:0:0:
192,192,36419,1,0,0:0:0:0:
64,192,36487,1,0,0:0:0:0:
448,192,36555,1,0,0:0:0:0:
320,192,36555,1,0,0:0:0:0:
64,192,36624,1,0,0:0:0:0:
448,192,36692,1,0,0:0:0:0:
192,192,36692,1,0,0:0:0:0:
320,192,36760,1,0,0:0:0:0:
64,192,36828,1,0,0:0:0:0:
192,192,36828,1,0,0:0:0:0:
448,192,36896,1,0,0:0:0:0:
64,192,36965,1,0,0:0:0:0:
320,192,36965,1,0,0:0:0:0:
192,192,37033,1,0,0:0:0:0:
448,192,37101,1,0,0:0:0:0:
320,192,37101,1,0,0:0:0:0:
64,192,37169,1,0,0:0:0:0:
448,192,37237,1,0,0:0:0:0:
192,192,37237,1,0,0:0:0:0:
320,192,37305,1,0,0:0:0:0:
64,192,37374,1,0,0:0:0:0:
192,192,37374,1,0,0:0:0:0:
448,192,37442,1,0,0:0:0:0:
192,192,37510,1,0,0:0:0:0:
320,192,37510,1,0,0:0:0:0:
64,192,37578,1,0,0:0:0:0:
448,192,37646,1,0,0:0:0:0:
320,192,37646,1,0,0:0:0:0:
192,192,37715,1,0,0:0:0:0:
448,192,37783,1,0,0:0:0:0:
320,192,37783,1,0,0:0:0:0:
192,192,37851,1,0,0:0:0:0:
448,192,37919,1,0,0:0:0:0:
64,192,37919,1,0,0:0:0:0:
320,192,37987,1,0,0:0:0:0:
192,192,38055,1,0,0:0:0:0:
64,192,38124,1,0,0:0:0:0:
448,192,38192,1,0,0:0:0:0:
320,192,38192,1,0,0:0:0:0:
192,192,38260,1,0,0:0:0:0:
448,192,38328,1,0,0:0:0:0:
320,192,38328,1,0,0:0:0:0:
192,192,38396,1,0,0:0:0:0:
448,192,38465,1,0,0:0:0:0:
64,192,38465,1,0,0:0:0:0:
320,192,38533,1,0,0:0:0:0:
64,192,38601,1,0,0:0:0:0:
192,192,38669,1,0,0:0:0:0:
448,192,38737,1,0,0:0:0:0:
320,192,38737,1,0,0:0:0:0:
192,192,38805,1,0,0:0:0:0:
448,192,38874,1,0,0:0:0:0:
64,192,38874,1,0,0:0:0:0:
320,192,38942,1,0,0:0:0:0:
64,192,39010,1,0,0:0:0:0:
192,192,39010,1,0,0:0:0:0:
320,192,39078,1,0,0:0:0:0:
448,192,39146,1,0,0:0:0:0:
192,192,39215,1,0,0:0:0:0:
448,192,39283,1,0,0:0:0:0:
320,192,39283,1,0,0:0:0:0:
192,192,39351,1,0,0:0:0:0:
320,192,39419,1,0,0:0:0:0:
64,192,39419,1,0,0:0:0:0:
448,192,39487,1,0,0:0:0:0:
64,192,39555,1,0,0:0:0:0:
192,192,39555,1,0,0:0:0:0:
320,192,40374,1,0,0:0:0:0:
192,192,40374,1,0,0:0:0:0:
320,192,40510,1,0,0:0:0:0:
192,192,40510,1,0,0:0:0:0:
320,192,40646,1,0,0:0:0:0:
64,192,40646,1,0,0:0:0:0:
448,192,40646,1,0,0:0:0:0:
192,192,40715,1,0,0:0:0:0:
448,192,40783,1,0,0:0:0:0:
320,192,40851,1,0,0:0:0:0:
64,192,40919,1,0,0:0:0:0:
192,192,40919,1,0,0:0:0:0:
320,192,40987,1,0,0:0:0:0:
64,192,41055,1,0,0:0:0:0:
192,192,41055,1,0,0:0:0:0:
320,192,41124,1,0,0:0:0:0:
64,192,41192,1,0,0:0:0:0:
448,192,41192,1,0,0:0:0:0:
192,192,41260,1,0,0:0:0:0:
320,192,41328,1,0,0:0:0:0:
192,192,41396,1,0,0:0:0:0:
448,192,41465,1,0,0:0:0:0:
320,192,41465,1,0,0:0:0:0:
64,192,41533,1,0,0:0:0:0:
448,192,41601,1,0,0:0:0:0:
320,192,41601,1,0,0:0:0:0:
64,192,41669,1,0,0:0:0:0:
320,192,41737,1,0,0:0:0:0:
192,192,41737,1,0,0:0:0:0:
448,192,41805,1,0,0:0:0:0:
64,192,41874,1,0,0:0:0:0:
192,192,41942,1,0,0:0:0:0:
448,192,42010,1,0,0:0:0:0:
320,192,42010,1,0,0:0:0:0:
192,192,42078,1,0,0:0:0:0:
320,192,42146,1,0,0:0:0:0:
192,192,42215,1,0,0:0:0:0:
320,192,42283,1,0,0:0:0:0:
64,192,42283,1,0,0:0:0:0:
448,192,42351,1,0,0:0:0:0:
64,192,42419,1,0,0:0:0:0:
192,192,42419,1,0,0:0:0:0:
448,192,42487,1,0,0:0:0:0:
320,192,42487,1,0,0:0:0:0:
64,192,42555,1,0,0:0:0:0:
192,192,42555,1,0,0:0:0:0:
448,192,42624,1,0,0:0:0:0:
320,192,42692,1,0,0:0:0:0:
64,192,42692,1,0,0:0:0:0:
192,192,42760,1,0,0:0:0:0:
448,192,42828,1,0,0:0:0:0:
320,192,42828,1,0,0:0:0:0:
64,192,42896,1,0,0:0:0:0:
192,192,42965,1,0,0:0:0:0:
320,192,43033,1,0,0:0:0:0:
64,192,43101,1,0,0:0:0:0:
448,192,43101,1,0,0:0:0:0:
192,192,43169,1,0,0:0:0:0:
448,192,43237,1,0,0:0:0:0:
320,192,43237,1,0,0:0:0:0:
192,192,43305,1,0,0:0:0:0:
448,192,43374,1,0,0:0:0:0:
64,192,43374,1,0,0:0:0:0:
320,192,43442,1,0,0:0:0:0:
192,192,43510,1,0,0:0:0:0:
64,192,43578,1,0,0:0:0:0:
320,192,43646,1,0,0:0:0:0:
448,192,43646,1,0,0:0:0:0:
192,192,43715,1,0,0:0:0:0:
448,192,43783,1,0,0:0:0:0:
320,192,43783,1,0,0:0:0:0:
192,192,43851,1,0,0:0:0:0:
448,192,43919,1,0,0:0:0:0:
64,192,43919,1,0,0:0:0:0:
320,192,43987,1,0,0:0:0:0:
64,192,44055,1,0,0:0:0:0:
192,192,44124,1,0,0:0:0:0:
320,192,44192,1,0,0:0:0:0:
448,192,44192,1,0,0:0:0:0:
192,192,44260,1,0,0:0:0:0:
64,192,44328,1,0,0:0:0:0:
320,192,44396,1,0,0:0:0:0:
192,192,44465,1,0,0:0:0:0:
64,192,44465,1,0,0:0:0:0:
320,192,44533,1,0,0:0:0:0:
448,192,44601,1,0,0:0:0:0:
64,192,44669,1,0,0:0:0:0:
320,192,44737,1,0,0:0:0:0:
448,192,44737,1,0,0:0:0:0:
192,192,44805,1,0,0:0:0:0:
64,192,44874,1,0,0:0:0:0:
320,192,44942,1,0,0:0:0:0:
448,192,45010,1,0,0:0:0:0:
192,192,45010,1,0,0:0:0:0:
64,192,45010,1,0,0:0:0:0:
320,192,45146,1,0,0:0:0:0:
64,192,45283,1,0,0:0:0:0:
192,192,45283,1,0,0:0:0:0:
448,192,45283,1,0,0:0:0:0:
448,192,45419,1,0,0:0:0:0:
192,192,45419,1,0,0:0:0:0:
64,192,45555,1,0,0:0:0:0:
320,192,45555,1,0,0:0:0:0:
448,192,45555,1,0,0:0:0:0:
192,192,45692,1,0,0:0:0:0:
320,192,45760,1,0,0:0:0:0:
448,192,45760,1,0,0:0:0:0:
192,192,45828,1,0,0:0:0:0:
64,192,45828,1,0,0:0:0:0:
320,192,45965,1,0,0:0:0:0:
448,192,45965,1,0,0:0:0:0:
192,192,46101,1,0,0:0:0:0:
448,192,46101,1,0,0:0:0:0:
320,192,46101,1,0,0:0:0:0:
192,192,46237,1,0,0:0:0:0:
64,192,46374,1,0,0:0:0:0:
448,192,46374,1,0,0:0:0:0:
320,192,46374,1,0,0:0:0:0:
320,192,46510,1,0,0:0:0:0:
64,192,46646,1,0,0:0:0:0:
448,192,46646,1,0,0:0:0:0:
192,192,46646,1,0,0:0:0:0:
64,192,46783,1,0,0:0:0:0:
320,192,46783,1,0,0:0:0:0:
192,192,46919,1,0,0:0:0:0:
64,192,46919,1,0,0:0:0:0:
448,192,46919,1,0,0:0:0:0:
192,192,47055,1,0,0:0:0:0:
64,192,47192,1,0,0:0:0:0:
448,192,47192,1,0,0:0:0:0:
320,192,47192,1,0,0:0:0:0:
320,192,47328,1,0,0:0:0:0:
448,192,47328,1,0,0:0:0:0:
192,192,47465,1,0,0:0:0:0:
64,192,47465,1,0,0:0:0:0:
448,192,47465,1,0,0:0:0:0:
192,192,47601,1,0,0:0:0:0:
64,192,47601,1,0,0:0:0:0:
320,192,47737,1,0,0:0:0:0:
448,192,47737,1,0,0:0:0:0:
64,192,47737,1,0,0:0:0:0:
320,192,47874,1,0,0:0:0:0:
448,192,47874,1,0,0:0:0:0:
192,192,47942,1,0,0:0:0:0:
320,192,48010,1,0,0:0:0:0:
64,192,48010,1,0,0:0:0:0:
448,192,48010,1,0,0:0:0:0:
192,192,48146,1,0,0:0:0:0:
64,192,48146,1,0,0:0:0:0:
448,192,48283,1,0,0:0:0:0:
320,192,48283,1,0,0:0:0:0:
64,192,48351,1,0,0:0:0:0:
192,192,48351,1,0,0:0:0:0:
448,192,48419,1,0,0:0:0:0:
320,192,48419,1,0,0:0:0:0:
64,192,48487,1,0,0:0:0:0:
192,192,48487,1,0,0:0:0:0:
448,192,48555,1,0,0:0:0:0:
320,192,48555,1,0,0:0:0:0:
64,192,48624,1,0,0:0:0:0:
192,192,48624,1,0,0:0:0:0:
448,192,48692,1,0,0:0:0:0:
320,192,48692,1,0,0:0:0:0:
64,192,48760,1,0,0:0:0:0:
192,192,48760,1,0,0:0:0:0:
448,192,48828,1,0,0:0:0:0:
320,192,48828,1,0,0:0:0:0:
64,192,48896,1,0,0:0:0:0:
192,192,48896,1,0,0:0:0:0:
448,192,48965,1,0,0:0:0:0:
320,192,48965,1,0,0:0:0:0:
64,192,49033,1,0,0:0:0:0:
192,192,49033,1,0,0:0:0:0:
448,192,49101,1,0,0:0:0:0:
320,192,49101,1,0,0:0:0:0:
192,192,49169,1,0,0:0:0:0:
64,192,49169,1,0,0:0:0:0:
448,192,49237,1,0,0:0:0:0:
320,192,49237,1,0,0:0:0:0:
192,192,49305,1,0,0:0:0:0:
64,192,49305,1,0,0:0:0:0:
448,192,49374,1,0,0:0:0:0:
320,192,49374,1,0,0:0:0:0:
448,192,49646,128,0,50192:0:0:0:0:
320,192,49646,128,0,50192:0:0:0:0:
320,192,50601,1,0,0:0:0:0:
192,192,50737,1,0,0:0:0:0:
448,192,50874,1,0,0:0:0:0:
64,192,51010,1,0,0:0:0:0:
320,192,51146,1,0,0:0:0:0:
64,192,51283,1,0,0:0:0:0:
192,192,51419,128,0,51692:0:0:0:0:
448,192,51419,128,0,51692:0:0:0:0:
320,192,51692,1,0,0:0:0:0:
192,192,51828,1,0,0:0:0:0:
192,192,51965,1,0,0:0:0:0:
320,192,52101,1,0,0:0:0:0:
64,192,52237,1,0,0:0:0:0:
320,192,52374,1,0,0:0:0:0:
192,192,52510,128,0,52783:0:0:0:0:
448,192,52783,1,0,0:0:0:0:
320,192,53465,1,0,0:0:0:0:
320,192,53601,128,0,53874:0:0:0:0:
64,192,53874,1,0,0:0:0:0:
192,192,54010,1,0,0:0:0:0:
192,192,54146,128,0,54419:0:0:0:0:
448,192,54419,1,0,0:0:0:0:
320,192,54555,1,0,0:0:0:0:
320,192,54692,128,0,54965:0:0:0:0:
64,192,54965,1,0,0:0:0:0:
448,192,54965,1,0,0:0:0:0:
192,192,55101,1,0,0:0:0:0:
448,192,55237,1,0,0:0:0:0:
192,192,55237,1,0,0:0:0:0:
192,192,55510,1,0,0:0:0:0:
448,192,55510,1,0,0:0:0:0:
64,192,55646,1,0,0:0:0:0:
320,192,55646,1,0,0:0:0:0:
64,192,55783,128,0,56055:0:0:0:0:
320,192,55783,128,0,56055:0:0:0:0:
192,192,56055,1,0,0:0:0:0:
192,192,56192,1,0,0:0:0:0:
320,192,56328,1,0,0:0:0:0:
320,192,56601,1,0,0:0:0:0:
192,192,56737,1,0,0:0:0:0:
64,192,56874,128,0,57146:0:0:0:0:
320,192,57010,1,0,0:0:0:0:
448,192,57010,1,0,0:0:0:0:
320,192,57146,1,0,0:0:0:0:
448,192,57146,1,0,0:0:0:0:
448,192,57419,1,0,0:0:0:0:
320,192,57419,1,0,0:0:0:0:
448,192,57692,1,0,0:0:0:0:
320,192,57692,1,0,0:0:0:0:
448,192,57828,1,0,0:0:0:0:
192,192,57828,1,0,0:0:0:0:
64,192,57965,1,0,0:0:0:0:
192,192,57965,1,0,0:0:0:0:
64,192,58101,1,0,0:0:0:0:
448,192,58101,1,0,0:0:0:0:
320,192,58101,1,0,0:0:0:0:
320,192,58374,1,0,0:0:0:0:
64,192,58374,1,0,0:0:0:0:
448,192,58374,1,0,0:0:0:0:
64,192,58646,1,0,0:0:0:0:
448,192,58646,1,0,0:0:0:0:
320,192,58646,1,0,0:0:0:0:
320,192,58851,1,0,0:0:0:0:
448,192,58851,1,0,0:0:0:0:
64,192,58919,1,0,0:0:0:0:
192,192,58919,1,0,0:0:0:0:
64,192,59055,1,0,0:0:0:0:
320,192,59055,1,0,0:0:0:0:
192,192,59055,1,0,0:0:0:0:
448,192,59192,1,0,0:0:0:0:
64,192,59192,1,0,0:0:0:0:
192,192,59192,1,0,0:0:0:0:
448,192,59465,1,0,0:0:0:0:
64,192,59465,1,0,0:0:0:0:
192,192,59465,1,0,0:0:0:0:
192,192,59737,1,0,0:0:0:0:
64,192,59737,1,0,0:0:0:0:
448,192,59737,1,0,0:0:0:0:
64,192,59942,1,0,0:0:0:0:
192,192,59942,1,0,0:0:0:0:
448,192,60010,1,0,0:0:0:0:
320,192,60010,1,0,0:0:0:0:
64,192,60146,1,0,0:0:0:0:
320,192,60146,1,0,0:0:0:0:
448,192,60146,1,0,0:0:0:0:
320,192,60283,1,0,0:0:0:0:
448,192,60283,1,0,0:0:0:0:
192,192,60283,1,0,0:0:0:0:
448,192,60555,1,0,0:0:0:0:
192,192,60555,1,0,0:0:0:0:
320,192,60555,1,0,0:0:0:0:
192,192,60828,1,0,0:0:0:0:
448,192,60828,1,0,0:0:0:0:
320,192,60828,1,0,0:0:0:0:
320,192,61033,1,0,0:0:0:0:
448,192,61033,1,0,0:0:0:0:
192,192,61101,1,0,0:0:0:0:
64,192,61101,1,0,0:0:0:0:
320,192,61237,1,0,0:0:0:0:
64,192,61237,1,0,0:0:0:0:
192,192,61237,1,0,0:0:0:0:
320,192,61374,1,0,0:0:0:0:
448,192,61374,1,0,0:0:0:0:
64,192,61374,1,0,0:0:0:0:
320,192,61646,1,0,0:0:0:0:
448,192,61646,1,0,0:0:0:0:
64,192,61646,1,0,0:0:0:0:
320,192,61919,1,0,0:0:0:0:
64,192,61919,1,0,0:0:0:0:
448,192,61919,1,0,0:0:0:0:
448,192,62124,1,0,0:0:0:0:
320,192,62124,1,0,0:0:0:0:
192,192,62192,1,0,0:0:0:0:
64,192,62192,1,0,0:0:0:0:
320,192,62328,1,0,0:0:0:0:
64,192,62328,1,0,0:0:0:0:
192,192,62328,1,0,0:0:0:0:
64,192,62465,1,0,0:0:0:0:
448,192,62465,1,0,0:0:0:0:
320,192,62465,1,0,0:0:0:0:
448,192,62601,1,0,0:0:0:0:
192,192,62601,1,0,0:0:0:0:
192,192,62737,1,0,0:0:0:0:
64,192,62737,1,0,0:0:0:0:
448,192,62874,1,0,0:0:0:0:
64,192,62874,1,0,0:0:0:0:
320,192,62874,1,0,0:0:0:0:
320,192,63010,1,0,0:0:0:0:
448,192,63010,1,0,0:0:0:0:
64,192,63146,1,0,0:0:0:0:
192,192,63146,1,0,0:0:0:0:
448,192,63146,1,0,0:0:0:0:
320,192,63215,1,0,0:0:0:0:
64,192,63283,1,0,0:0:0:0:
192,192,63283,1,0,0:0:0:0:
64,192,63419,1,0,0:0:0:0:
448,192,63419,1,0,0:0:0:0:
320,192,63419,1,0,0:0:0:0:
64,192,63555,1,0,0:0:0:0:
448,192,63555,1,0,0:0:0:0:
320,192,63555,1,0,0:0:0:0:
448,192,63692,1,0,0:0:0:0:
192,192,63692,1,0,0:0:0:0:
64,192,63828,1,0,0:0:0:0:
192,192,63828,1,0,0:0:0:0:
448,192,63965,1,0,0:0:0:0:
64,192,63965,1,0,0:0:0:0:
320,192,63965,1,0,0:0:0:0:
320,192,64101,1,0,0:0:0:0:
448,192,64101,1,0,0:0:0:0:
192,192,64237,1,0,0:0:0:0:
64,192,64237,1,0,0:0:0:0:
448,192,64237,1,0,0:0:0:0:
320,192,64305,1,0,0:0:0:0:
64,192,64374,1,0,0:0:0:0:
192,192,64374,1,0,0:0:0:0:
64,192,64510,1,0,0:0:0:0:
192,192,64510,1,0,0:0:0:0:
448,192,64646,1,0,0:0:0:0:
320,192,64646,1,0,0:0:0:0:
64,192,64715,1,0,0:0:0:0:
192,192,64715,1,0,0:0:0:0:
448,192,64783,1,0,0:0:0:0:
320,192,64783,1,0,0:0:0:0:
64,192,64851,1,0,0:0:0:0:
192,192,64851,1,0,0:0:0:0:
448,192,64919,1,0,0:0:0:0:
320,192,64919,1,0,0:0:0:0:
64,192,64987,1,0,0:0:0:0:
192,192,64987,1,0,0:0:0:0:
448,192,65055,1,0,0:0:0:0:
320,192,65055,1,0,0:0:0:0:
64,192,65124,1,0,0:0:0:0:
192,192,65124,1,0,0:0:0:0:
448,192,65192,1,0,0:0:0:0:
320,192,65192,1,0,0:0:0:0:
64,192,65260,1,0,0:0:0:0:
192,192,65260,1,0,0:0:0:0:
320,192,65328,1,0,0:0:0:0:
448,192,65328,1,0,0:0:0:0:
64,192,65396,1,0,0:0:0:0:
192,192,65396,1,0,0:0:0:0:
448,192,65465,1,0,0:0:0:0:
320,192,65465,1,0,0:0:0:0:
64,192,65533,1,0,0:0:0:0:
192,192,65533,1,0,0:0:0:0:
448,192,65601,1,0,0:0:0:0:
320,192,65601,1,0,0:0:0:0:
64,192,65669,1,0,0:0:0:0:
192,192,65669,1,0,0:0:0:0:
448,192,65737,1,0,0:0:0:0:
320,192,65737,1,0,0:0:0:0:
64,192,65805,1,0,0:0:0:0:
192,192,65805,1,0,0:0:0:0:
448,192,65874,1,0,0:0:0:0:
320,192,65874,1,0,0:0:0:0:
64,192,65942,1,0,0:0:0:0:
192,192,65942,1,0,0:0:0:0:
448,192,66010,1,0,0:0:0:0:
320,192,66010,1,0,0:0:0:0:
64,192,66078,1,0,0:0:0:0:
192,192,66078,1,0,0:0:0:0:
448,192,66146,1,0,0:0:0:0:
320,192,66146,1,0,0:0:0:0:
64,192,66215,1,0,0:0:0:0:
192,192,66215,1,0,0:0:0:0:
448,192,66283,1,0,0:0:0:0:
320,192,66283,1,0,0:0:0:0:
64,192,66351,1,0,0:0:0:0:
192,192,66351,1,0,0:0:0:0:
448,192,66419,1,0,0:0:0:0:
320,192,66419,1,0,0:0:0:0:
64,192,66487,1,0,0:0:0:0:
192,192,66487,1,0,0:0:0:0:
448,192,66555,1,0,0:0:0:0:
320,192,66555,1,0,0:0:0:0:
192,192,66624,1,0,0:0:0:0:
64,192,66624,1,0,0:0:0:0:
448,192,66692,1,0,0:0:0:0:
320,192,66692,1,0,0:0:0:0:
192,192,66760,1,0,0:0:0:0:
64,192,66760,1,0,0:0:0:0:
448,192,66828,1,0,0:0:0:0:
320,192,66828,1,0,0:0:0:0:
448,192,67101,1,0,0:0:0:0:
64,192,67101,1,0,0:0:0:0:
192,192,67101,1,0,0:0:0:0:
192,192,67374,1,0,0:0:0:0:
64,192,67374,1,0,0:0:0:0:
320,192,67374,1,0,0:0:0:0:
64,192,67578,1,0,0:0:0:0:
192,192,67578,1,0,0:0:0:0:
448,192,67646,1,0,0:0:0:0:
320,192,67646,1,0,0:0:0:0:
64,192,67783,1,0,0:0:0:0:
320,192,67783,1,0,0:0:0:0:
448,192,67783,1,0,0:0:0:0:
64,192,67919,1,0,0:0:0:0:
448,192,67919,1,0,0:0:0:0:
320,192,67919,1,0,0:0:0:0:
448,192,68192,1,0,0:0:0:0:
320,192,68192,1,0,0:0:0:0:
192,192,68192,1,0,0:0:0:0:
64,192,68465,1,0,0:0:0:0:
192,192,68465,1,0,0:0:0:0:
448,192,68465,1,0,0:0:0:0:
320,192,68669,1,0,0:0:0:0:
448,192,68669,1,0,0:0:0:0:
64,192,68737,1,0,0:0:0:0:
192,192,68737,1,0,0:0:0:0:
448,192,68874,1,0,0:0:0:0:
64,192,68874,1,0,0:0:0:0:
192,192,68874,1,0,0:0:0:0:
448,192,69010,1,0,0:0:0:0:
192,192,69010,1,0,0:0:0:0:
64,192,69010,1,0,0:0:0:0:
64,192,69283,1,0,0:0:0:0:
320,192,69283,1,0,0:0:0:0:
448,192,69283,1,0,0:0:0:0:
448,192,69555,1,0,0:0:0:0:
192,192,69555,1,0,0:0:0:0:
320,192,69555,1,0,0:0:0:0:
64,192,69760,1,0,0:0:0:0:
192,192,69760,1,0,0:0:0:0:
448,192,69828,1,0,0:0:0:0:
320,192,69828,1,0,0:0:0:0:
64,192,69965,1,0,0:0:0:0:
448,192,69965,1,0,0:0:0:0:
320,192,69965,1,0,0:0:0:0:
320,192,70101,1,0,0:0:0:0:
64,192,70101,1,0,0:0:0:0:
448,192,70101,1,0,0:0:0:0:
64,192,70374,1,0,0:0:0:0:
192,192,70374,1,0,0:0:0:0:
320,192,70374,1,0,0:0:0:0:
64,192,70646,1,0,0:0:0:0:
320,192,70646,1,0,0:0:0:0:
448,192,70646,1,0,0:0:0:0:
320,192,70851,1,0,0:0:0:0:
448,192,70851,1,0,0:0:0:0:
64,192,70919,1,0,0:0:0:0:
192,192,70919,1,0,0:0:0:0:
448,192,71055,1,0,0:0:0:0:
64,192,71055,1,0,0:0:0:0:
192,192,71055,1,0,0:0:0:0:
448,192,71192,1,0,0:0:0:0:
192,192,71192,1,0,0:0:0:0:
64,192,71192,1,0,0:0:0:0:
448,192,71328,1,0,0:0:0:0:
320,192,71328,1,0,0:0:0:0:
64,192,71465,1,0,0:0:0:0:
320,192,71465,1,0,0:0:0:0:
64,192,71601,1,0,0:0:0:0:
192,192,71601,1,0,0:0:0:0:
192,192,71737,1,0,0:0:0:0:
448,192,71737,1,0,0:0:0:0:
320,192,71737,1,0,0:0:0:0:
448,192,71874,1,0,0:0:0:0:
320,192,71874,1,0,0:0:0:0:
64,192,71942,1,0,0:0:0:0:
192,192,71942,1,0,0:0:0:0:
320,192,72010,1,0,0:0:0:0:
448,192,72010,1,0,0:0:0:0:
64,192,72146,1,0,0:0:0:0:
192,192,72146,1,0,0:0:0:0:
320,192,72283,1,0,0:0:0:0:
448,192,72283,1,0,0:0:0:0:
64,192,72283,1,0,0:0:0:0:
320,192,72419,1,0,0:0:0:0:
448,192,72419,1,0,0:0:0:0:
64,192,72555,1,0,0:0:0:0:
320,192,72555,1,0,0:0:0:0:
192,192,72692,1,0,0:0:0:0:
64,192,72692,1,0,0:0:0:0:
192,192,72828,1,0,0:0:0:0:
320,192,72828,1,0,0:0:0:0:
448,192,72828,1,0,0:0:0:0:
448,192,72965,1,0,0:0:0:0:
320,192,72965,1,0,0:0:0:0:
64,192,73033,1,0,0:0:0:0:
192,192,73033,1,0,0:0:0:0:
448,192,73101,1,0,0:0:0:0:
320,192,73101,1,0,0:0:0:0:
192,192,73237,1,0,0:0:0:0:
64,192,73237,1,0,0:0:0:0:
320,192,73374,1,0,0:0:0:0:
448,192,73374,1,0,0:0:0:0:
64,192,73442,1,0,0:0:0:0:
192,192,73442,1,0,0:0:0:0:
448,192,73510,1,0,0:0:0:0:
320,192,73510,1,0,0:0:0:0:
64,192,73578,1,0,0:0:0:0:
192,192,73578,1,0,0:0:0:0:
320,192,73646,1,0,0:0:0:0:
448,192,73646,1,0,0:0:0:0:
192,192,73715,1,0,0:0:0:0:
64,192,73715,1,0,0:0:0:0:
448,192,73783,1,0,0:0:0:0:
320,192,73783,1,0,0:0:0:0:
64,192,73851,1,0,0:0:0:0:
192,192,73851,1,0,0:0:0:0:
448,192,73919,1,0,0:0:0:0:
320,192,73919,1,0,0:0:0:0:
64,192,73987,1,0,0:0:0:0:
192,192,73987,1,0,0:0:0:0:
448,192,74055,1,0,0:0:0:0:
320,192,74055,1,0,0:0:0:0:
64,192,74124,1,0,0:0:0:0:
192,192,74124,1,0,0:0:0:0:
448,192,74192,1,0,0:0:0:0:
320,192,74192,1,0,0:0:0:0:
64,192,74260,1,0,0:0:0:0:
192,192,74260,1,0,0:0:0:0:
448,192,74328,1,0,0:0:0:0:
320,192,74328,1,0,0:0:0:0:
64,192,74396,1,0,0:0:0:0:
192,192,74396,1,0,0:0:0:0:
448,192,74465,1,0,0:0:0:0:
320,192,74465,1,0,0:0:0:0:
64,192,75555,1,0,0:0:0:0:
448,192,75555,1,0,0:0:0:0:
64,192,75692,1,0,0:0:0:0:
448,192,75692,1,0,0:0:0:0:
64,192,75965,1,0,0:0:0:0:
448,192,75965,1,0,0:0:0:0:
320,192,76237,1,0,0:0:0:0:
64,192,76237,1,0,0:0:0:0:
64,192,76374,1,0,0:0:0:0:
320,192,76374,1,0,0:0:0:0:
64,192,76510,1,0,0:0:0:0:
192,192,76510,1,0,0:0:0:0:
320,192,76646,1,0,0:0:0:0:
448,192,76646,1,0,0:0:0:0:
192,192,76715,1,0,0:0:0:0:
64,192,76783,1,0,0:0:0:0:
320,192,76783,1,0,0:0:0:0:
448,192,76851,1,0,0:0:0:0:
192,192,76919,1,0,0:0:0:0:
64,192,76919,1,0,0:0:0:0:
320,192,76987,1,0,0:0:0:0:
192,192,77055,1,0,0:0:0:0:
448,192,77055,1,0,0:0:0:0:
64,192,77124,1,0,0:0:0:0:
320,192,77192,1,0,0:0:0:0:
448,192,77192,1,0,0:0:0:0:
192,192,77260,1,0,0:0:0:0:
448,192,77328,1,0,0:0:0:0:
64,192,77328,1,0,0:0:0:0:
320,192,77396,1,0,0:0:0:0:
192,192,77465,1,0,0:0:0:0:
64,192,77465,1,0,0:0:0:0:
320,192,77533,1,0,0:0:0:0:
448,192,77601,1,0,0:0:0:0:
64,192,77601,1,0,0:0:0:0:
192,192,77669,1,0,0:0:0:0:
320,192,77737,1,0,0:0:0:0:
448,192,77737,1,0,0:0:0:0:
192,192,77805,1,0,0:0:0:0:
448,192,77874,1,0,0:0:0:0:
64,192,77874,1,0,0:0:0:0:
320,192,77942,1,0,0:0:0:0:
192,192,78010,1,0,0:0:0:0:
64,192,78010,1,0,0:0:0:0:
448,192,78078,1,0,0:0:0:0:
64,192,78146,1,0,0:0:0:0:
192,192,78146,1,0,0:0:0:0:
448,192,78215,1,0,0:0:0:0:
192,192,78283,1,0,0:0:0:0:
320,192,78283,1,0,0:0:0:0:
64,192,78351,1,0,0:0:0:0:
448,192,78419,1,0,0:0:0:0:
320,192,78419,1,0,0:0:0:0:
192,192,78487,1,0,0:0:0:0:
64,192,78555,1,0,0:0:0:0:
320,192,78555,1,0,0:0:0:0:
448,192,78624,1,0,0:0:0:0:
64,192,78692,1,0,0:0:0:0:
192,192,78692,1,0,0:0:0:0:
320,192,78760,1,0,0:0:0:0:
64,192,78828,1,0,0:0:0:0:
448,192,78828,1,0,0:0:0:0:
192,192,78896,1,0,0:0:0:0:
448,192,78965,1,0,0:0:0:0:
320,192,78965,1,0,0:0:0:0:
192,192,79033,1,0,0:0:0:0:
64,192,79101,1,0,0:0:0:0:
448,192,79101,1,0,0:0:0:0:
320,192,79169,1,0,0:0:0:0:
192,192,79237,1,0,0:0:0:0:
64,192,79237,1,0,0:0:0:0:
320,192,79305,1,0,0:0:0:0:
192,192,79374,1,0,0:0:0:0:
448,192,79374,1,0,0:0:0:0:
64,192,79442,1,0,0:0:0:0:
448,192,79510,1,0,0:0:0:0:
320,192,79510,1,0,0:0:0:0:
192,192,79578,1,0,0:0:0:0:
320,192,79646,1,0,0:0:0:0:
448,192,79646,1,0,0:0:0:0:
192,192,79715,1,0,0:0:0:0:
64,192,79783,1,0,0:0:0:0:
320,192,79783,1,0,0:0:0:0:
448,192,79851,1,0,0:0:0:0:
192,192,79919,1,0,0:0:0:0:
64,192,79919,1,0,0:0:0:0:
320,192,79987,1,0,0:0:0:0:
192,192,80055,1,0,0:0:0:0:
448,192,80055,1,0,0:0:0:0:
64,192,80124,1,0,0:0:0:0:
320,192,80192,1,0,0:0:0:0:
448,192,80192,1,0,0:0:0:0:
192,192,80260,1,0,0:0:0:0:
64,192,80328,1,0,0:0:0:0:
320,192,80396,1,0,0:0:0:0:
64,192,80465,1,0,0:0:0:0:
448,192,80465,1,0,0:0:0:0:
192,192,80533,1,0,0:0:0:0:
448,192,80601,1,0,0:0:0:0:
320,192,80669,1,0,0:0:0:0:
64,192,80737,1,0,0:0:0:0:
192,192,80737,1,0,0:0:0:0:
448,192,80805,1,0,0:0:0:0:
64,192,80874,1,0,0:0:0:0:
192,192,80874,1,0,0:0:0:0:
320,192,80942,1,0,0:0:0:0:
448,192,81010,1,0,0:0:0:0:
64,192,81010,1,0,0:0:0:0:
192,192,81078,1,0,0:0:0:0:
320,192,81146,1,0,0:0:0:0:
448,192,81215,1,0,0:0:0:0:
64,192,81283,1,0,0:0:0:0:
192,192,81283,1,0,0:0:0:0:
320,192,81351,1,0,0:0:0:0:
64,192,81419,1,0,0:0:0:0:
192,192,81419,1,0,0:0:0:0:
320,192,81487,1,0,0:0:0:0:
64,192,81555,1,0,0:0:0:0:
448,192,81555,1,0,0:0:0:0:
192,192,81624,1,0,0:0:0:0:
448,192,81692,1,0,0:0:0:0:
320,192,81692,1,0,0:0:0:0:
192,192,81760,1,0,0:0:0:0:
448,192,81828,1,0,0:0:0:0:
320,192,81828,1,0,0:0:0:0:
192,192,81896,1,0,0:0:0:0:
448,192,81965,1,0,0:0:0:0:
64,192,81965,1,0,0:0:0:0:
320,192,82033,1,0,0:0:0:0:
192,192,82101,1,0,0:0:0:0:
64,192,82101,1,0,0:0:0:0:
320,192,82169,1,0,0:0:0:0:
448,192,82237,1,0,0:0:0:0:
64,192,82237,1,0,0:0:0:0:
192,192,82305,1,0,0:0:0:0:
448,192,82374,1,0,0:0:0:0:
320,192,82374,1,0,0:0:0:0:
64,192,82442,1,0,0:0:0:0:
448,192,82510,1,0,0:0:0:0:
320,192,82510,1,0,0:0:0:0:
64,192,82578,1,0,0:0:0:0:
320,192,82646,1,0,0:0:0:0:
192,192,82646,1,0,0:0:0:0:
448,192,82715,1,0,0:0:0:0:
64,192,82783,1,0,0:0:0:0:
192,192,82851,1,0,0:0:0:0:
448,192,82919,1,0,0:0:0:0:
320,192,82919,1,0,0:0:0:0:
192,192,82987,1,0,0:0:0:0:
448,192,83055,1,0,0:0:0:0:
320,192,83055,1,0,0:0:0:0:
192,192,83124,1,0,0:0:0:0:
64,192,83192,1,0,0:0:0:0:
448,192,83192,1,0,0:0:0:0:
320,192,83260,1,0,0:0:0:0:
192,192,83328,1,0,0:0:0:0:
64,192,83396,1,0,0:0:0:0:
320,192,83465,1,0,0:0:0:0:
448,192,83465,1,0,0:0:0:0:
192,192,83533,1,0,0:0:0:0:
448,192,83601,1,0,0:0:0:0:
320,192,83601,1,0,0:0:0:0:
192,192,83669,1,0,0:0:0:0:
448,192,83737,1,0,0:0:0:0:
64,192,83737,1,0,0:0:0:0:
320,192,83805,1,0,0:0:0:0:
64,192,83874,1,0,0:0:0:0:
192,192,83874,1,0,0:0:0:0:
448,192,83942,1,0,0:0:0:0:
64,192,84010,1,0,0:0:0:0:
192,192,84010,1,0,0:0:0:0:
448,192,84078,1,0,0:0:0:0:
64,192,84146,1,0,0:0:0:0:
320,192,84146,1,0,0:0:0:0:
192,192,84215,1,0,0:0:0:0:
448,192,84283,1,0,0:0:0:0:
320,192,84283,1,0,0:0:0:0:
64,192,84351,1,0,0:0:0:0:
448,192,84419,1,0,0:0:0:0:
192,192,84419,1,0,0:0:0:0:
320,192,84487,1,0,0:0:0:0:
64,192,84555,1,0,0:0:0:0:
192,192,84555,1,0,0:0:0:0:
448,192,84624,1,0,0:0:0:0:
320,192,84692,1,0,0:0:0:0:
192,192,84760,1,0,0:0:0:0:
64,192,84828,1,0,0:0:0:0:
448,192,84828,1,0,0:0:0:0:
320,192,84896,1,0,0:0:0:0:
192,192,84965,1,0,0:0:0:0:
64,192,84965,1,0,0:0:0:0:
320,192,85033,1,0,0:0:0:0:
192,192,85101,1,0,0:0:0:0:
64,192,85101,1,0,0:0:0:0:
320,192,85169,1,0,0:0:0:0:
64,192,85237,1,0,0:0:0:0:
448,192,85237,1,0,0:0:0:0:
192,192,85305,1,0,0:0:0:0:
64,192,85374,1,0,0:0:0:0:
448,192,85374,1,0,0:0:0:0:
192,192,85442,1,0,0:0:0:0:
320,192,85510,1,0,0:0:0:0:
448,192,85578,1,0,0:0:0:0:
192,192,85646,1,0,0:0:0:0:
64,192,85646,1,0,0:0:0:0:
320,192,85715,1,0,0:0:0:0:
448,192,85715,1,0,0:0:0:0:
64,192,85783,1,0,0:0:0:0:
192,192,85851,1,0,0:0:0:0:
320,192,85919,1,0,0:0:0:0:
448,192,85919,1,0,0:0:0:0:
64,192,85987,1,0,0:0:0:0:
192,192,85987,1,0,0:0:0:0:
448,192,86055,1,0,0:0:0:0:
320,192,86055,1,0,0:0:0:0:
192,192,86124,1,0,0:0:0:0:
448,192,86192,1,0,0:0:0:0:
64,192,86192,1,0,0:0:0:0:
320,192,86260,1,0,0:0:0:0:
192,192,86328,1,0,0:0:0:0:
64,192,86396,1,0,0:0:0:0:
320,192,86465,1,0,0:0:0:0:
448,192,86465,1,0,0:0:0:0:
64,192,86533,1,0,0:0:0:0:
320,192,86601,1,0,0:0:0:0:
192,192,86601,1,0,0:0:0:0:
448,192,86669,1,0,0:0:0:0:
192,192,86737,1,0,0:0:0:0:
64,192,86737,1,0,0:0:0:0:
320,192,86805,1,0,0:0:0:0:
192,192,86874,1,0,0:0:0:0:
448,192,86874,1,0,0:0:0:0:
64,192,86942,1,0,0:0:0:0:
448,192,87010,1,0,0:0:0:0:
320,192,87010,1,0,0:0:0:0:
64,192,87078,1,0,0:0:0:0:
320,192,87146,1,0,0:0:0:0:
192,192,87146,1,0,0:0:0:0:
448,192,87215,1,0,0:0:0:0:
64,192,87283,1,0,0:0:0:0:
192,192,87283,1,0,0:0:0:0:
448,192,87351,1,0,0:0:0:0:
320,192,87419,1,0,0:0:0:0:
64,192,87419,1,0,0:0:0:0:
192,192,87487,1,0,0:0:0:0:
448,192,87555,1,0,0:0:0:0:
320,192,87555,1,0,0:0:0:0:
64,192,87624,1,0,0:0:0:0:
448,192,87692,1,0,0:0:0:0:
192,192,87692,1,0,0:0:0:0:
320,192,87760,1,0,0:0:0:0:
64,192,87828,1,0,0:0:0:0:
192,192,87828,1,0,0:0:0:0:
448,192,87896,1,0,0:0:0:0:
192,192,87965,1,0,0:0:0:0:
64,192,87965,1,0,0:0:0:0:
320,192,88033,1,0,0:0:0:0:
192,192,88101,1,0,0:0:0:0:
448,192,88101,1,0,0:0:0:0:
64,192,88169,1,0,0:0:0:0:
448,192,88237,1,0,0:0:0:0:
320,192,88305,1,0,0:0:0:0:
64,192,88374,1,0,0:0:0:0:
192,192,88374,1,0,0:0:0:0:
320,192,88442,1,0,0:0:0:0:
64,192,88510,1,0,0:0:0:0:
448,192,88510,1,0,0:0:0:0:
192,192,88578,1,0,0:0:0:0:
448,192,88646,1,0,0:0:0:0:
320,192,88646,1,0,0:0:0:0:
192,192,88715,1,0,0:0:0:0:
64,192,88783,1,0,0:0:0:0:
320,192,88783,1,0,0:0:0:0:
448,192,88851,1,0,0:0:0:0:
64,192,88919,1,0,0:0:0:0:
192,192,88919,1,0,0:0:0:0:
320,192,88987,1,0,0:0:0:0:
192,192,89055,1,0,0:0:0:0:
64,192,89124,1,0,0:0:0:0:
320,192,89192,1,0,0:0:0:0:
448,192,89192,1,0,0:0:0:0:
64,192,89260,1,0,0:0:0:0:
192,192,89328,1,0,0:0:0:0:
320,192,89396,1,0,0:0:0:0:
192,192,89465,1,0,0:0:0:0:
64,192,89465,1,0,0:0:0:0:
320,192,89533,1,0,0:0:0:0:
192,192,89601,1,0,0:0:0:0:
448,192,89601,1,0,0:0:0:0:
64,192,89669,1,0,0:0:0:0:
320,192,89737,1,0,0:0:0:0:
448,192,89737,1,0,0:0:0:0:
64,192,89805,1,0,0:0:0:0:
320,192,89874,1,0,0:0:0:0:
192,192,89874,1,0,0:0:0:0:
448,192,89942,1,0,0:0:0:0:
64,192,90010,1,0,0:0:0:0:
192,192,90010,1,0,0:0:0:0:
320,192,90078,1,0,0:0:0:0:
192,192,90146,1,0,0:0:0:0:
448,192,90146,1,0,0:0:0:0:
64,192,90215,1,0,0:0:0:0:
448,192,90283,1,0,0:0:0:0:
320,192,90283,1,0,0:0:0:0:
64,192,90351,1,0,0:0:0:0:
192,192,90419,1,0,0:0:0:0:
320,192,90487,1,0,0:0:0:0:
192,192,90555,1,0,0:0:0:0:
448,192,90555,1,0,0:0:0:0:
64,192,90624,1,0,0:0:0:0:
320,192,90692,1,0,0:0:0:0:
448,192,90692,1,0,0:0:0:0:
192,192,90760,1,0,0:0:0:0:
320,192,90828,1,0,0:0:0:0:
64,192,90828,1,0,0:0:0:0:
448,192,90896,1,0,0:0:0:0:
192,192,90965,1,0,0:0:0:0:
64,192,90965,1,0,0:0:0:0:
448,192,91033,1,0,0:0:0:0:
192,192,91101,1,0,0:0:0:0:
320,192,91101,1,0,0:0:0:0:
64,192,91169,1,0,0:0:0:0:
448,192,91237,1,0,0:0:0:0:
320,192,91237,1,0,0:0:0:0:
192,192,91305,1,0,0:0:0:0:
64,192,91374,1,0,0:0:0:0:
320,192,91374,1,0,0:0:0:0:
448,192,91442,1,0,0:0:0:0:
192,192,91510,1,0,0:0:0:0:
64,192,91510,1,0,0:0:0:0:
448,192,91578,1,0,0:0:0:0:
64,192,91646,1,0,0:0:0:0:
192,192,91646,1,0,0:0:0:0:
320,192,91715,1,0,0:0:0:0:
448,192,91783,1,0,0:0:0:0:
192,192,91851,1,0,0:0:0:0:
448,192,91919,1,0,0:0:0:0:
64,192,91919,1,0,0:0:0:0:
320,192,91987,1,0,0:0:0:0:
192,192,92055,1,0,0:0:0:0:
64,192,92055,1,0,0:0:0:0:
448,192,92124,1,0,0:0:0:0:
192,192,92192,1,0,0:0:0:0:
64,192,92192,1,0,0:0:0:0:
448,192,92260,1,0,0:0:0:0:
192,192,92328,1,0,0:0:0:0:
64,192,92328,1,0,0:0:0:0:
320,192,92396,1,0,0:0:0:0:
64,192,92465,1,0,0:0:0:0:
448,192,92465,1,0,0:0:0:0:
192,192,92533,1,0,0:0:0:0:
448,192,92601,1,0,0:0:0:0:
192,192,92669,1,0,0:0:0:0:
448,192,92737,1,0,0:0:0:0:
64,192,92737,1,0,0:0:0:0:
320,192,92805,1,0,0:0:0:0:
192,192,92874,1,0,0:0:0:0:
64,192,92874,1,0,0:0:0:0:
320,192,92942,1,0,0:0:0:0:
64,192,93010,1,0,0:0:0:0:
448,192,93010,1,0,0:0:0:0:
192,192,93078,1,0,0:0:0:0:
320,192,93146,1,0,0:0:0:0:
448,192,93215,1,0,0:0:0:0:
64,192,93283,1,0,0:0:0:0:
192,192,93283,1,0,0:0:0:0:
448,192,93351,1,0,0:0:0:0:
320,192,93419,1,0,0:0:0:0:
192,192,93487,1,0,0:0:0:0:
448,192,93555,1,0,0:0:0:0:
64,192,93555,1,0,0:0:0:0:
448,192,93760,1,0,0:0:0:0:
64,192,93760,1,0,0:0:0:0:
320,192,93828,1,0,0:0:0:0:
192,192,93828,1,0,0:0:0:0:
320,192,94101,1,0,0:0:0:0:
448,192,94101,1,0,0:0:0:0:
64,192,94101,1,0,0:0:0:0:
192,192,94169,1,0,0:0:0:0:
320,192,94237,1,0,0:0:0:0:
448,192,94237,1,0,0:0:0:0:
192,192,94305,1,0,0:0:0:0:
448,192,94374,1,0,0:0:0:0:
64,192,94374,1,0,0:0:0:0:
320,192,94442,1,0,0:0:0:0:
64,192,94510,1,0,0:0:0:0:
192,192,94578,1,0,0:0:0:0:
448,192,94646,1,0,0:0:0:0:
320,192,94646,1,0,0:0:0:0:
64,192,94715,1,0,0:0:0:0:
448,192,94783,1,0,0:0:0:0:
320,192,94851,1,0,0:0:0:0:
64,192,94919,1,0,0:0:0:0:
192,192,94919,1,0,0:0:0:0:
320,192,94987,1,0,0:0:0:0:
64,192,95055,1,0,0:0:0:0:
448,192,95055,1,0,0:0:0:0:
192,192,95124,1,0,0:0:0:0:
448,192,95192,1,0,0:0:0:0:
320,192,95192,1,0,0:0:0:0:
64,192,95260,1,0,0:0:0:0:
448,192,95328,1,0,0:0:0:0:
320,192,95396,1,0,0:0:0:0:
64,192,95465,1,0,0:0:0:0:
192,192,95465,1,0,0:0:0:0:
448,192,95533,1,0,0:0:0:0:
64,192,95601,1,0,0:0:0:0:
192,192,95669,1,0,0:0:0:0:
448,192,95737,1,0,0:0:0:0:
320,192,95737,1,0,0:0:0:0:
192,192,95805,1,0,0:0:0:0:
64,192,95874,1,0,0:0:0:0:
448,192,95874,1,0,0:0:0:0:
320,192,95942,1,0,0:0:0:0:
192,192,96010,1,0,0:0:0:0:
64,192,96010,1,0,0:0:0:0:
448,192,96078,1,0,0:0:0:0:
192,192,96146,1,0,0:0:0:0:
64,192,96146,1,0,0:0:0:0:
448,192,96215,1,0,0:0:0:0:
192,192,96283,1,0,0:0:0:0:
64,192,96283,1,0,0:0:0:0:
448,192,96351,1,0,0:0:0:0:
320,192,96419,1,0,0:0:0:0:
192,192,96487,1,0,0:0:0:0:
320,192,96555,1,0,0:0:0:0:
64,192,96555,1,0,0:0:0:0:
448,192,96624,1,0,0:0:0:0:
192,192,96692,1,0,0:0:0:0:
320,192,96760,1,0,0:0:0:0:
192,192,96828,1,0,0:0:0:0:
64,192,96828,1,0,0:0:0:0:
320,192,96896,1,0,0:0:0:0:
64,192,96965,1,0,0:0:0:0:
448,192,96965,1,0,0:0:0:0:
192,192,97033,1,0,0:0:0:0:
448,192,97101,1,0,0:0:0:0:
320,192,97101,1,0,0:0:0:0:
192,192,97169,1,0,0:0:0:0:
448,192,97237,1,0,0:0:0:0:
320,192,97237,1,0,0:0:0:0:
192,192,97305,1,0,0:0:0:0:
448,192,97374,1,0,0:0:0:0:
320,192,97374,1,0,0:0:0:0:
192,192,97442,1,0,0:0:0:0:
448,192,97510,1,0,0:0:0:0:
64,192,97510,1,0,0:0:0:0:
320,192,97578,1,0,0:0:0:0:
64,192,97646,1,0,0:0:0:0:
192,192,97646,1,0,0:0:0:0:
320,192,97715,1,0,0:0:0:0:
192,192,97783,1,0,0:0:0:0:
448,192,97783,1,0,0:0:0:0:
64,192,97851,1,0,0:0:0:0:
320,192,97919,1,0,0:0:0:0:
448,192,97919,1,0,0:0:0:0:
192,192,97987,1,0,0:0:0:0:
448,192,98055,1,0,0:0:0:0:
320,192,98055,1,0,0:0:0:0:
192,192,98124,1,0,0:0:0:0:
320,192,98192,1,0,0:0:0:0:
64,192,98192,1,0,0:0:0:0:
448,192,98260,1,0,0:0:0:0:
64,192,98328,1,0,0:0:0:0:
192,192,98396,1,0,0:0:0:0:
448,192,98465,1,0,0:0:0:0:
320,192,98465,1,0,0:0:0:0:
192,192,98533,1,0,0:0:0:0:
64,192,98601,1,0,0:0:0:0:
448,192,98601,1,0,0:0:0:0:
320,192,98669,1,0,0:0:0:0:
64,192,98737,1,0,0:0:0:0:
192,192,98737,1,0,0:0:0:0:
320,192,98805,1,0,0:0:0:0:
448,192,98874,1,0,0:0:0:0:
64,192,98874,1,0,0:0:0:0:
192,192,98942,1,0,0:0:0:0:
448,192,99010,1,0,0:0:0:0:
320,192,99010,1,0,0:0:0:0:
192,192,99078,1,0,0:0:0:0:
448,192,99146,1,0,0:0:0:0:
64,192,99146,1,0,0:0:0:0:
320,192,99215,1,0,0:0:0:0:
192,192,99283,1,0,0:0:0:0:
64,192,99283,1,0,0:0:0:0:
448,192,99351,1,0,0:0:0:0:
64,192,99419,1,0,0:0:0:0:
192,192,99419,1,0,0:0:0:0:
448,192,99487,1,0,0:0:0:0:
64,192,99555,1,0,0:0:0:0:
320,192,99555,1,0,0:0:0:0:
192,192,99624,1,0,0:0:0:0:
448,192,99692,1,0,0:0:0:0:
320,192,99692,1,0,0:0:0:0:
64,192,99760,1,0,0:0:0:0:
448,192,99828,1,0,0:0:0:0:
192,192,99828,1,0,0:0:0:0:
320,192,99896,1,0,0:0:0:0:
64,192,99965,1,0,0:0:0:0:
192,192,99965,1,0,0:0:0:0:
448,192,100033,1,0,0:0:0:0:
320,192,100101,1,0,0:0:0:0:
192,192,100101,1,0,0:0:0:0:
64,192,100169,1,0,0:0:0:0:
320,192,100237,1,0,0:0:0:0:
448,192,100237,1,0,0:0:0:0:
192,192,100305,1,0,0:0:0:0:
64,192,100374,1,0,0:0:0:0:
320,192,100374,1,0,0:0:0:0:
448,192,100442,1,0,0:0:0:0:
64,192,100510,1,0,0:0:0:0:
192,192,100578,1,0,0:0:0:0:
448,192,100646,1,0,0:0:0:0:
320,192,100646,1,0,0:0:0:0:
192,192,100715,1,0,0:0:0:0:
448,192,100783,1,0,0:0:0:0:
64,192,100783,1,0,0:0:0:0:
320,192,100851,1,0,0:0:0:0:
192,192,100919,1,0,0:0:0:0:
64,192,100919,1,0,0:0:0:0:
320,192,100987,1,0,0:0:0:0:
448,192,101055,1,0,0:0:0:0:
192,192,101124,1,0,0:0:0:0:
448,192,101192,1,0,0:0:0:0:
320,192,101192,1,0,0:0:0:0:
192,192,101260,1,0,0:0:0:0:
64,192,101328,1,0,0:0:0:0:
320,192,101396,1,0,0:0:0:0:
64,192,101465,1,0,0:0:0:0:
192,192,101465,1,0,0:0:0:0:
320,192,101533,1,0,0:0:0:0:
448,192,101601,1,0,0:0:0:0:
192,192,101669,1,0,0:0:0:0:
64,192,101737,1,0,0:0:0:0:
448,192,101737,1,0,0:0:0:0:
320,192,102010,1,0,0:0:0:0:
320,192,102283,1,0,0:0:0:0:
64,192,102555,1,0,0:0:0:0:
192,192,102555,1,0,0:0:0:0:
320,192,102624,1,0,0:0:0:0:
192,192,102692,1,0,0:0:0:0:
320,192,102760,1,0,0:0:0:0:
448,192,102828,1,0,0:0:0:0:
192,192,102828,1,0,0:0:0:0:
64,192,102896,1,0,0:0:0:0:
320,192,102965,1,0,0:0:0:0:
448,192,102965,1,0,0:0:0:0:
64,192,103033,1,0,0:0:0:0:
448,192,103101,1,0,0:0:0:0:
320,192,103101,1,0,0:0:0:0:
64,192,103169,1,0,0:0:0:0:
320,192,103237,1,0,0:0:0:0:
192,192,103237,1,0,0:0:0:0:
448,192,103305,1,0,0:0:0:0:
64,192,103374,1,0,0:0:0:0:
192,192,103374,1,0,0:0:0:0:
320,192,103442,1,0,0:0:0:0:
448,192,103510,1,0,0:0:0:0:
192,192,103578,1,0,0:0:0:0:
448,192,103646,1,0,0:0:0:0:
64,192,103646,1,0,0:0:0:0:
320,192,103715,1,0,0:0:0:0:
64,192,103783,1,0,0:0:0:0:
192,192,103783,1,0,0:0:0:0:
320,192,103851,1,0,0:0:0:0:
64,192,103919,1,0,0:0:0:0:
448,192,103919,1,0,0:0:0:0:
192,192,103987,1,0,0:0:0:0:
448,192,104055,1,0,0:0:0:0:
320,192,104124,1,0,0:0:0:0:
192,192,104192,1,0,0:0:0:0:
64,192,104192,1,0,0:0:0:0:
448,192,104260,1,0,0:0:0:0:
192,192,104328,1,0,0:0:0:0:
64,192,104328,1,0,0:0:0:0:
320,192,104396,1,0,0:0:0:0:
64,192,104465,1,0,0:0:0:0:
448,192,104465,1,0,0:0:0:0:
192,192,104533,1,0,0:0:0:0:
448,192,104601,1,0,0:0:0:0:
320,192,104669,1,0,0:0:0:0:
192,192,104737,1,0,0:0:0:0:
64,192,104737,1,0,0:0:0:0:
320,192,104805,1,0,0:0:0:0:
448,192,104874,1,0,0:0:0:0:
64,192,104874,1,0,0:0:0:0:
192,192,104942,1,0,0:0:0:0:
448,192,105010,1,0,0:0:0:0:
320,192,105010,1,0,0:0:0:0:
64,192,105078,1,0,0:0:0:0:
448,192,105146,1,0,0:0:0:0:
320,192,105215,1,0,0:0:0:0:
192,192,105283,1,0,0:0:0:0:
64,192,105283,1,0,0:0:0:0:
320,192,105351,1,0,0:0:0:0:
448,192,105419,1,0,0:0:0:0:
64,192,105419,1,0,0:0:0:0:
192,192,105487,1,0,0:0:0:0:
448,192,105555,1,0,0:0:0:0:
320,192,105555,1,0,0:0:0:0:
64,192,105624,1,0,0:0:0:0:
448,192,105692,1,0,0:0:0:0:
320,192,105760,1,0,0:0:0:0:
64,192,105828,1,0,0:0:0:0:
192,192,105828,1,0,0:0:0:0:
448,192,105896,1,0,0:0:0:0:
192,192,105965,1,0,0:0:0:0:
64,192,105965,1,0,0:0:0:0:
320,192,106033,1,0,0:0:0:0:
64,192,106101,1,0,0:0:0:0:
448,192,106101,1,0,0:0:0:0:
192,192,106169,1,0,0:0:0:0:
448,192,106237,1,0,0:0:0:0:
320,192,106305,1,0,0:0:0:0:
64,192,106374,1,0,0:0:0:0:
192,192,106374,1,0,0:0:0:0:
320,192,106442,1,0,0:0:0:0:
64,192,106510,1,0,0:0:0:0:
448,192,106510,1,0,0:0:0:0:
192,192,106578,1,0,0:0:0:0:
448,192,106646,1,0,0:0:0:0:
320,192,106646,1,0,0:0:0:0:
192,192,106715,1,0,0:0:0:0:
320,192,106783,1,0,0:0:0:0:
448,192,106783,1,0,0:0:0:0:
192,192,106851,1,0,0:0:0:0:
448,192,106919,1,0,0:0:0:0:
64,192,106919,1,0,0:0:0:0:
320,192,106987,1,0,0:0:0:0:
64,192,107055,1,0,0:0:0:0:
192,192,107124,1,0,0:0:0:0:
448,192,107192,1,0,0:0:0:0:
320,192,107192,1,0,0:0:0:0:
64,192,107260,1,0,0:0:0:0:
448,192,107328,1,0,0:0:0:0:
320,192,107396,1,0,0:0:0:0:
192,192,107465,1,0,0:0:0:0:
64,192,107465,1,0,0:0:0:0:
320,192,107533,1,0,0:0:0:0:
448,192,107601,1,0,0:0:0:0:
64,192,107601,1,0,0:0:0:0:
192,192,107669,1,0,0:0:0:0:
320,192,107737,1,0,0:0:0:0:
448,192,107737,1,0,0:0:0:0:
64,192,107805,1,0,0:0:0:0:
448,192,107874,1,0,0:0:0:0:
320,192,107942,1,0,0:0:0:0:
64,192,108010,1,0,0:0:0:0:
192,192,108010,1,0,0:0:0:0:
320,192,108078,1,0,0:0:0:0:
64,192,108146,1,0,0:0:0:0:
448,192,108146,1,0,0:0:0:0:
192,192,108215,1,0,0:0:0:0:
448,192,108283,1,0,0:0:0:0:
320,192,108283,1,0,0:0:0:0:
192,192,108351,1,0,0:0:0:0:
64,192,108419,1,0,0:0:0:0:
320,192,108487,1,0,0:0:0:0:
448,192,108555,1,0,0:0:0:0:
64,192,108555,1,0,0:0:0:0:
192,192,108624,1,0,0:0:0:0:
320,192,108692,1,0,0:0:0:0:
64,192,108760,1,0,0:0:0:0:
320,192,108828,1,0,0:0:0:0:
448,192,108828,1,0,0:0:0:0:
64,192,108896,1,0,0:0:0:0:
448,192,108965,1,0,0:0:0:0:
320,192,109033,1,0,0:0:0:0:
64,192,109101,1,0,0:0:0:0:
192,192,109101,1,0,0:0:0:0:
448,192,109169,1,0,0:0:0:0:
64,192,109237,1,0,0:0:0:0:
192,192,109305,1,0,0:0:0:0:
448,192,109374,1,0,0:0:0:0:
320,192,109374,1,0,0:0:0:0:
192,192,109442,1,0,0:0:0:0:
448,192,109510,1,0,0:0:0:0:
320,192,109510,1,0,0:0:0:0:
192,192,109578,1,0,0:0:0:0:
448,192,109646,1,0,0:0:0:0:
320,192,109646,1,0,0:0:0:0:
192,192,109715,1,0,0:0:0:0:
448,192,109783,1,0,0:0:0:0:
320,192,109783,1,0,0:0:0:0:
192,192,109851,1,0,0:0:0:0:
448,192,109919,1,0,0:0:0:0:
64,192,109919,1,0,0:0:0:0:
320,192,109987,1,0,0:0:0:0:
192,192,110055,1,0,0:0:0:0:
64,192,110055,1,0,0:0:0:0:
448,192,110124,1,0,0:0:0:0:
192,192,110192,1,0,0:0:0:0:
320,192,110192,1,0,0:0:0:0:
64,192,110260,1,0,0:0:0:0:
448,192,110328,1,0,0:0:0:0:
320,192,110328,1,0,0:0:0:0:
64,192,110396,1,0,0:0:0:0:
320,192,110465,1,0,0:0:0:0:
448,192,110465,1,0,0:0:0:0:
320,192,111010,1,0,0:0:0:0:
448,192,111010,1,0,0:0:0:0:
192,192,111215,1,0,0:0:0:0:
320,192,111215,1,0,0:0:0:0:
192,192,111419,1,0,0:0:0:0:
64,192,111419,1,0,0:0:0:0:
448,192,111555,1,0,0:0:0:0:
320,192,111555,1,0,0:0:0:0:
320,192,111828,1,0,0:0:0:0:
448,192,111828,1,0,0:0:0:0:
64,192,112237,1,0,0:0:0:0:
192,192,112237,1,0,0:0:0:0:
448,192,112510,1,0,0:0:0:0:
320,192,112510,1,0,0:0:0:0:
192,192,112646,1,0,0:0:0:0:
64,192,112646,1,0,0:0:0:0:
320,192,112783,1,0,0:0:0:0:
448,192,112919,1,0,0:0:0:0:
64,192,112919,1,0,0:0:0:0:
192,192,113055,1,0,0:0:0:0:
320,192,113192,1,0,0:0:0:0:
448,192,113192,1,0,0:0:0:0:
192,192,113328,1,0,0:0:0:0:
64,192,113465,1,0,0:0:0:0:
448,192,113465,1,0,0:0:0:0:
320,192,113601,1,0,0:0:0:0:
192,192,113737,1,0,0:0:0:0:
64,192,113737,1,0,0:0:0:0:
320,192,113874,1,0,0:0:0:0:
448,192,114010,1,0,0:0:0:0:
64,192,114010,1,0,0:0:0:0:
192,192,114146,1,0,0:0:0:0:
320,192,114283,1,0,0:0:0:0:
448,192,114283,1,0,0:0:0:0:
192,192,114419,1,0,0:0:0:0:
64,192,114555,1,0,0:0:0:0:
448,192,114555,1,0,0:0:0:0:
320,192,114692,1,0,0:0:0:0:
64,192,114828,1,0,0:0:0:0:
192,192,114828,1,0,0:0:0:0:
192,192,114965,1,0,0:0:0:0:
448,192,115101,1,0,0:0:0:0:
64,192,115101,1,0,0:0:0:0:
320,192,115237,1,0,0:0:0:0:
320,192,115374,1,0,0:0:0:0:
192,192,115442,1,0,0:0:0:0:
64,192,115510,1,0,0:0:0:0:
448,192,115646,1,0,0:0:0:0:
192,192,115646,1,0,0:0:0:0:
448,192,115783,1,0,0:0:0:0:
192,192,115783,1,0,0:0:0:0:
64,192,115919,1,0,0:0:0:0:
320,192,115919,1,0,0:0:0:0:
320,192,116192,1,0,0:0:0:0:
64,192,116192,1,0,0:0:0:0:
192,192,116601,1,0,0:0:0:0:
448,192,116601,1,0,0:0:0:0:
64,192,116874,1,0,0:0:0:0:
320,192,116874,1,0,0:0:0:0:
192,192,117010,1,0,0:0:0:0:
448,192,117010,1,0,0:0:0:0:
320,192,117146,1,0,0:0:0:0:
192,192,117283,1,0,0:0:0:0:
64,192,117283,1,0,0:0:0:0:
448,192,117419,1,0,0:0:0:0:
64,192,117555,1,0,0:0:0:0:
320,192,117555,1,0,0:0:0:0:
192,192,117692,1,0,0:0:0:0:
448,192,117828,1,0,0:0:0:0:
320,192,117828,1,0,0:0:0:0:
64,192,117965,1,0,0:0:0:0:
448,192,118101,1,0,0:0:0:0:
192,192,118101,1,0,0:0:0:0:
320,192,118237,1,0,0:0:0:0:
192,192,118374,1,0,0:0:0:0:
64,192,118374,1,0,0:0:0:0:
448,192,118510,1,0,0:0:0:0:
64,192,118646,1,0,0:0:0:0:
320,192,118646,1,0,0:0:0:0:
192,192,118783,1,0,0:0:0:0:
448,192,118919,1,0,0:0:0:0:
320,192,118919,1,0,0:0:0:0:
64,192,119055,1,0,0:0:0:0:
448,192,119192,1,0,0:0:0:0:
192,192,119192,1,0,0:0:0:0:
320,192,119328,1,0,0:0:0:0:
192,192,119465,1,0,0:0:0:0:
64,192,119465,1,0,0:0:0:0:
448,192,119601,1,0,0:0:0:0:
64,192,119737,1,0,0:0:0:0:
320,192,119737,1,0,0:0:0:0:
192,192,119874,1,0,0:0:0:0:
320,192,120010,1,0,0:0:0:0:
448,192,120010,1,0,0:0:0:0:
192,192,120146,1,0,0:0:0:0:
64,192,120146,1,0,0:0:0:0:
64,192,120283,1,0,0:0:0:0:
448,192,120283,1,0,0:0:0:0:
448,192,120555,1,0,0:0:0:0:
64,192,120555,1,0,0:0:0:0:
320,192,120965,1,0,0:0:0:0:
192,192,120965,1,0,0:0:0:0:
64,192,121237,1,0,0:0:0:0:
448,192,121237,1,0,0:0:0:0:
192,192,121374,1,0,0:0:0:0:
320,192,121374,1,0,0:0:0:0:
448,192,121510,1,0,0:0:0:0:
64,192,121646,1,0,0:0:0:0:
192,192,121646,1,0,0:0:0:0:
448,192,121783,1,0,0:0:0:0:
320,192,121919,1,0,0:0:0:0:
192,192,121919,1,0,0:0:0:0:
64,192,122055,1,0,0:0:0:0:
448,192,122192,1,0,0:0:0:0:
320,192,122192,1,0,0:0:0:0:
64,192,122328,1,0,0:0:0:0:
192,192,122465,1,0,0:0:0:0:
320,192,122465,1,0,0:0:0:0:
448,192,122601,1,0,0:0:0:0:
64,192,122737,1,0,0:0:0:0:
192,192,122737,1,0,0:0:0:0:
448,192,122874,1,0,0:0:0:0:
320,192,123010,1,0,0:0:0:0:
192,192,123010,1,0,0:0:0:0:
64,192,123146,1,0,0:0:0:0:
320,192,123283,1,0,0:0:0:0:
448,192,123283,1,0,0:0:0:0:
64,192,123419,1,0,0:0:0:0:
192,192,123555,1,0,0:0:0:0:
320,192,123555,1,0,0:0:0:0:
320,192,123692,1,0,0:0:0:0:
192,192,123828,1,0,0:0:0:0:
448,192,123828,1,0,0:0:0:0:
64,192,123965,1,0,0:0:0:0:
192,192,123965,1,0,0:0:0:0:
64,192,124101,1,0,0:0:0:0:
448,192,124101,1,0,0:0:0:0:
192,192,124169,1,0,0:0:0:0:
320,192,124237,1,0,0:0:0:0:
64,192,124374,1,0,0:0:0:0:
192,192,124374,1,0,0:0:0:0:
448,192,124442,1,0,0:0:0:0:
64,192,124510,1,0,0:0:0:0:
192,192,124510,1,0,0:0:0:0:
448,192,124578,1,0,0:0:0:0:
320,192,124646,1,0,0:0:0:0:
64,192,124646,1,0,0:0:0:0:
64,192,124919,1,0,0:0:0:0:
320,192,124919,1,0,0:0:0:0:
448,192,125328,1,0,0:0:0:0:
192,192,125328,1,0,0:0:0:0:
64,192,125601,1,0,0:0:0:0:
320,192,125601,1,0,0:0:0:0:
448,192,125737,1,0,0:0:0:0:
192,192,125737,1,0,0:0:0:0:
64,192,125874,1,0,0:0:0:0:
448,192,126010,1,0,0:0:0:0:
320,192,126010,1,0,0:0:0:0:
192,192,126146,1,0,0:0:0:0:
320,192,126283,1,0,0:0:0:0:
64,192,126283,1,0,0:0:0:0:
448,192,126419,1,0,0:0:0:0:
64,192,126555,1,0,0:0:0:0:
192,192,126555,1,0,0:0:0:0:
320,192,126692,1,0,0:0:0:0:
192,192,126828,1,0,0:0:0:0:
448,192,126828,1,0,0:0:0:0:
64,192,126965,1,0,0:0:0:0:
448,192,127101,1,0,0:0:0:0:
320,192,127101,1,0,0:0:0:0:
192,192,127237,1,0,0:0:0:0:
320,192,127374,1,0,0:0:0:0:
64,192,127374,1,0,0:0:0:0:
448,192,127510,1,0,0:0:0:0:
64,192,127646,1,0,0:0:0:0:
192,192,127646,1,0,0:0:0:0:
320,192,127783,1,0,0:0:0:0:
448,192,127919,1,0,0:0:0:0:
192,192,127919,1,0,0:0:0:0:
448,192,128055,1,0,0:0:0:0:
192,192,128055,1,0,0:0:0:0:
64,192,128192,1,0,0:0:0:0:
320,192,128192,1,0,0:0:0:0:
448,192,128328,1,0,0:0:0:0:
192,192,128328,1,0,0:0:0:0:
192,192,128465,1,0,0:0:0:0:
320,192,128533,1,0,0:0:0:0:
448,192,128601,1,0,0:0:0:0:
64,192,128669,1,0,0:0:0:0:
448,192,128737,1,0,0:0:0:0:
64,192,128805,1,0,0:0:0:0:
320,192,128874,1,0,0:0:0:0:
448,192,128874,1,0,0:0:0:0:
192,192,128942,1,0,0:0:0:0:
448,192,129010,1,0,0:0:0:0:
64,192,129010,1,0,0:0:0:0:
320,192,129078,1,0,0:0:0:0:
192,192,129146,1,0,0:0:0:0:
64,192,129215,1,0,0:0:0:0:
448,192,129283,1,0,0:0:0:0:
320,192,129283,1,0,0:0:0:0:
64,192,129351,1,0,0:0:0:0:
192,192,129419,1,0,0:0:0:0:
320,192,129487,1,0,0:0:0:0:
192,192,129555,1,0,0:0:0:0:
448,192,129555,1,0,0:0:0:0:
64,192,129624,1,0,0:0:0:0:
448,192,129692,1,0,0:0:0:0:
320,192,129760,1,0,0:0:0:0:
64,192,129828,1,0,0:0:0:0:
192,192,129828,1,0,0:0:0:0:
448,192,129896,1,0,0:0:0:0:
64,192,129965,1,0,0:0:0:0:
448,192,130033,1,0,0:0:0:0:
320,192,130101,1,0,0:0:0:0:
192,192,130101,1,0,0:0:0:0:
64,192,130169,1,0,0:0:0:0:
448,192,130237,1,0,0:0:0:0:
64,192,130305,1,0,0:0:0:0:
320,192,130374,1,0,0:0:0:0:
192,192,130374,1,0,0:0:0:0:
448,192,130442,1,0,0:0:0:0:
320,192,130510,1,0,0:0:0:0:
192,192,130578,1,0,0:0:0:0:
64,192,130646,1,0,0:0:0:0:
448,192,130646,1,0,0:0:0:0:
320,192,130715,1,0,0:0:0:0:
64,192,130783,1,0,0:0:0:0:
192,192,130851,1,0,0:0:0:0:
448,192,130919,1,0,0:0:0:0:
320,192,130919,1,0,0:0:0:0:
64,192,130987,1,0,0:0:0:0:
448,192,131055,1,0,0:0:0:0:
320,192,131124,1,0,0:0:0:0:
64,192,131192,1,0,0:0:0:0:
192,192,131192,1,0,0:0:0:0:
448,192,131260,1,0,0:0:0:0:
320,192,131328,1,0,0:0:0:0:
192,192,131396,1,0,0:0:0:0:
448,192,131465,1,0,0:0:0:0:
64,192,131465,1,0,0:0:0:0:
320,192,131533,1,0,0:0:0:0:
64,192,131601,1,0,0:0:0:0:
192,192,131669,1,0,0:0:0:0:
320,192,131737,1,0,0:0:0:0:
448,192,131737,1,0,0:0:0:0:
192,192,131805,1,0,0:0:0:0:
64,192,131874,1,0,0:0:0:0:
448,192,131942,1,0,0:0:0:0:
64,192,132010,1,0,0:0:0:0:
320,192,132010,1,0,0:0:0:0:
192,192,132078,1,0,0:0:0:0:
320,192,132146,1,0,0:0:0:0:
192,192,132215,1,0,0:0:0:0:
448,192,132283,1,0,0:0:0:0:
64,192,132283,1,0,0:0:0:0:
320,192,132351,1,0,0:0:0:0:
64,192,132419,1,0,0:0:0:0:
192,192,132487,1,0,0:0:0:0:
320,192,132555,1,0,0:0:0:0:
448,192,132555,1,0,0:0:0:0:
64,192,132624,1,0,0:0:0:0:
448,192,132692,1,0,0:0:0:0:
320,192,132760,1,0,0:0:0:0:
64,192,132828,1,0,0:0:0:0:
192,192,132828,1,0,0:0:0:0:
192,192,132965,1,0,0:0:0:0:
64,192,132965,1,0,0:0:0:0:
320,192,133101,1,0,0:0:0:0:
448,192,133101,1,0,0:0:0:0:
320,192,133237,1,0,0:0:0:0:
64,192,133237,1,0,0:0:0:0:
64,192,133374,1,0,0:0:0:0:
192,192,133374,1,0,0:0:0:0:
320,192,133442,1,0,0:0:0:0:
192,192,133510,1,0,0:0:0:0:
320,192,133578,1,0,0:0:0:0:
448,192,133646,1,0,0:0:0:0:
64,192,133646,1,0,0:0:0:0:
192,192,133715,1,0,0:0:0:0:
448,192,133783,1,0,0:0:0:0:
320,192,133851,1,0,0:0:0:0:
64,192,133919,1,0,0:0:0:0:
192,192,133919,1,0,0:0:0:0:
320,192,133987,1,0,0:0:0:0:
448,192,134055,1,0,0:0:0:0:
192,192,134124,1,0,0:0:0:0:
320,192,134192,1,0,0:0:0:0:
448,192,134192,1,0,0:0:0:0:
192,192,134260,1,0,0:0:0:0:
64,192,134328,1,0,0:0:0:0:
320,192,134396,1,0,0:0:0:0:
64,192,134465,1,0,0:0:0:0:
192,192,134465,1,0,0:0:0:0:
448,192,134533,1,0,0:0:0:0:
64,192,134601,1,0,0:0:0:0:
192,192,134669,1,0,0:0:0:0:
320,192,134737,1,0,0:0:0:0:
448,192,134737,1,0,0:0:0:0:
64,192,134805,1,0,0:0:0:0:
448,192,134874,1,0,0:0:0:0:
320,192,134942,1,0,0:0:0:0:
64,192,135010,1,0,0:0:0:0:
192,192,135010,1,0,0:0:0:0:
448,192,135078,1,0,0:0:0:0:
64,192,135146,1,0,0:0:0:0:
192,192,135215,1,0,0:0:0:0:
448,192,135283,1,0,0:0:0:0:
320,192,135283,1,0,0:0:0:0:
64,192,135351,1,0,0:0:0:0:
448,192,135419,1,0,0:0:0:0:
320,192,135487,1,0,0:0:0:0:
64,192,135555,1,0,0:0:0:0:
192,192,135555,1,0,0:0:0:0:
448,192,135624,5,0,0:0:0:0:
64,192,135692,1,0,0:0:0:0:
192,192,135760,1,0,0:0:0:0:
448,192,135828,1,0,0:0:0:0:
320,192,135828,1,0,0:0:0:0:
192,192,135896,1,0,0:0:0:0:
64,192,135965,1,0,0:0:0:0:
448,192,136033,1,0,0:0:0:0:
192,192,136101,1,0,0:0:0:0:
64,192,136101,1,0,0:0:0:0:
448,192,136169,1,0,0:0:0:0:
320,192,136237,1,0,0:0:0:0:
192,192,136305,1,0,0:0:0:0:
64,192,136374,1,0,0:0:0:0:
448,192,136374,1,0,0:0:0:0:
320,192,136442,1,0,0:0:0:0:
192,192,136510,1,0,0:0:0:0:
448,192,136578,1,0,0:0:0:0:
64,192,136646,1,0,0:0:0:0:
192,192,136646,1,0,0:0:0:0:
64,192,136783,1,0,0:0:0:0:
320,192,136783,1,0,0:0:0:0:
448,192,136919,1,0,0:0:0:0:
192,192,136919,1,0,0:0:0:0:
320,192,137055,1,0,0:0:0:0:
320,192,137192,1,0,0:0:0:0:
192,192,137260,1,0,0:0:0:0:
64,192,137328,1,0,0:0:0:0:
64,192,137465,1,0,0:0:0:0:
320,192,137465,1,0,0:0:0:0:
192,192,137601,1,0,0:0:0:0:
320,192,137601,1,0,0:0:0:0:
64,192,137737,1,0,0:0:0:0:
448,192,137737,1,0,0:0:0:0:
192,192,137805,1,0,0:0:0:0:
320,192,137874,1,0,0:0:0:0:
64,192,137942,1,0,0:0:0:0:
320,192,138010,1,0,0:0:0:0:
448,192,138010,1,0,0:0:0:0:
64,192,138078,1,0,0:0:0:0:
448,192,138146,1,0,0:0:0:0:
320,192,138215,1,0,0:0:0:0:
192,192,138283,1,0,0:0:0:0:
64,192,138283,1,0,0:0:0:0:
448,192,138351,1,0,0:0:0:0:
64,192,138419,1,0,0:0:0:0:
192,192,138487,1,0,0:0:0:0:
448,192,138555,1,0,0:0:0:0:
320,192,138555,1,0,0:0:0:0:
64,192,138624,1,0,0:0:0:0:
192,192,138692,1,0,0:0:0:0:
320,192,138760,1,0,0:0:0:0:
448,192,138828,1,0,0:0:0:0:
192,192,138828,1,0,0:0:0:0:
64,192,138896,1,0,0:0:0:0:
448,192,138965,1,0,0:0:0:0:
64,192,139033,1,0,0:0:0:0:
192,192,139101,1,0,0:0:0:0:
320,192,139101,1,0,0:0:0:0:
448,192,139169,1,0,0:0:0:0:
320,192,139237,1,0,0:0:0:0:
192,192,139305,1,0,0:0:0:0:
64,192,139374,1,0,0:0:0:0:
448,192,139374,1,0,0:0:0:0:
320,192,139442,1,0,0:0:0:0:
64,192,139510,1,0,0:0:0:0:
192,192,139510,1,0,0:0:0:0:
448,192,139578,1,0,0:0:0:0:
64,192,139646,1,0,0:0:0:0:
192,192,139646,1,0,0:0:0:0:
320,192,139715,1,0,0:0:0:0:
64,192,139783,1,0,0:0:0:0:
192,192,139783,1,0,0:0:0:0:
320,192,139851,1,0,0:0:0:0:
448,192,139919,1,0,0:0:0:0:
64,192,139919,1,0,0:0:0:0:
192,192,139987,1,0,0:0:0:0:
320,192,140055,1,0,0:0:0:0:
448,192,140124,1,0,0:0:0:0:
192,192,140192,1,0,0:0:0:0:
64,192,140192,1,0,0:0:0:0:
448,192,140260,1,0,0:0:0:0:
64,192,140328,1,0,0:0:0:0:
192,192,140396,1,0,0:0:0:0:
448,192,140465,1,0,0:0:0:0:
320,192,140465,1,0,0:0:0:0:
192,192,140533,1,0,0:0:0:0:
64,192,140601,1,0,0:0:0:0:
320,192,140669,1,0,0:0:0:0:
64,192,140737,1,0,0:0:0:0:
192,192,140737,1,0,0:0:0:0:
320,192,140805,1,0,0:0:0:0:
448,192,140874,1,0,0:0:0:0:
192,192,140942,1,0,0:0:0:0:
320,192,141010,1,0,0:0:0:0:
448,192,141010,1,0,0:0:0:0:
192,192,141078,1,0,0:0:0:0:
64,192,141146,1,0,0:0:0:0:
448,192,141215,1,0,0:0:0:0:
64,192,141283,1,0,0:0:0:0:
320,192,141283,1,0,0:0:0:0:
192,192,141351,1,0,0:0:0:0:
320,192,141419,1,0,0:0:0:0:
192,192,141487,1,0,0:0:0:0:
448,192,141555,1,0,0:0:0:0:
64,192,141555,1,0,0:0:0:0:
320,192,141624,1,0,0:0:0:0:
192,192,141692,1,0,0:0:0:0:
64,192,141760,1,0,0:0:0:0:
320,192,141828,1,0,0:0:0:0:
448,192,141828,1,0,0:0:0:0:
64,192,141896,1,0,0:0:0:0:
192,192,141965,1,0,0:0:0:0:
320,192,142033,1,0,0:0:0:0:
192,192,142101,1,0,0:0:0:0:
448,192,142101,1,0,0:0:0:0:
64,192,142169,1,0,0:0:0:0:
320,192,142237,1,0,0:0:0:0:
192,192,142305,1,0,0:0:0:0:
448,192,142374,1,0,0:0:0:0:
320,192,142374,1,0,0:0:0:0:
64,192,142442,1,0,0:0:0:0:
192,192,142510,1,0,0:0:0:0:
320,192,142578,1,0,0:0:0:0:
448,192,142646,1,0,0:0:0:0:
64,192,142646,1,0,0:0:0:0:
192,192,142715,1,0,0:0:0:0:
448,192,142783,1,0,0:0:0:0:
192,192,142851,1,0,0:0:0:0:
64,192,142919,1,0,0:0:0:0:
448,192,142919,1,0,0:0:0:0:
320,192,142987,1,0,0:0:0:0:
192,192,143055,1,0,0:0:0:0:
64,192,143124,1,0,0:0:0:0:
320,192,143192,1,0,0:0:0:0:
448,192,143192,1,0,0:0:0:0:
192,192,143260,1,0,0:0:0:0:
320,192,143328,1,0,0:0:0:0:
192,192,143396,1,0,0:0:0:0:
320,192,143465,1,0,0:0:0:0:
64,192,143465,1,0,0:0:0:0:
448,192,143533,1,0,0:0:0:0:
64,192,143601,1,0,0:0:0:0:
192,192,143669,1,0,0:0:0:0:
320,192,143737,1,0,0:0:0:0:
448,192,143737,1,0,0:0:0:0:
64,192,143805,1,0,0:0:0:0:
192,192,143874,1,0,0:0:0:0:
320,192,143942,1,0,0:0:0:0:
64,192,144010,1,0,0:0:0:0:
320,192,144078,1,0,0:0:0:0:
64,192,144146,1,0,0:0:0:0:
192,192,144146,1,0,0:0:0:0:
320,192,144215,1,0,0:0:0:0:
448,192,144283,1,0,0:0:0:0:
64,192,144283,1,0,0:0:0:0:
192,192,144555,1,0,0:0:0:0:
64,192,144828,1,0,0:0:0:0:
320,192,144965,1,0,0:0:0:0:
320,192,145237,1,0,0:0:0:0:
320,192,145374,1,0,0:0:0:0:
64,192,145510,1,0,0:0:0:0:
192,192,145783,1,0,0:0:0:0:
448,192,145919,1,0,0:0:0:0:
448,192,146055,1,0,0:0:0:0:
320,192,146192,1,0,0:0:0:0:
192,192,146328,1,0,0:0:0:0:
64,192,146465,1,0,0:0:0:0:
448,192,146465,1,0,0:0:0:0:
320,192,146465,1,0,0:0:0:0:
64,192,146601,1,0,0:0:0:0:
192,192,146601,1,0,0:0:0:0:
192,192,146737,1,0,0:0:0:0:
448,192,146737,1,0,0:0:0:0:
448,192,146874,1,0,0:0:0:0:
320,192,146874,1,0,0:0:0:0:
320,192,147010,1,0,0:0:0:0:
192,192,147078,1,0,0:0:0:0:
448,192,147146,1,0,0:0:0:0:
64,192,147146,1,0,0:0:0:0:
320,192,147283,1,0,0:0:0:0:
64,192,147283,1,0,0:0:0:0:
192,192,147419,1,0,0:0:0:0:
320,192,147419,1,0,0:0:0:0:
64,192,147555,1,0,0:0:0:0:
320,192,147555,1,0,0:0:0:0:
64,192,147692,1,0,0:0:0:0:
192,192,147692,1,0,0:0:0:0:
448,192,147828,1,0,0:0:0:0:
320,192,147828,1,0,0:0:0:0:
320,192,147965,1,0,0:0:0:0:
64,192,147965,1,0,0:0:0:0:
192,192,148237,1,0,0:0:0:0:
448,192,148237,1,0,0:0:0:0:
320,192,148374,1,0,0:0:0:0:
192,192,148374,1,0,0:0:0:0:
320,192,148510,1,0,0:0:0:0:
192,192,148578,1,0,0:0:0:0:
64,192,148646,1,0,0:0:0:0:
448,192,148646,1,0,0:0:0:0:
320,192,148783,1,0,0:0:0:0:
64,192,148783,1,0,0:0:0:0:
320,192,148919,1,0,0:0:0:0:
448,192,148919,1,0,0:0:0:0:
448,192,149055,1,0,0:0:0:0:
320,192,149124,1,0,0:0:0:0:
64,192,149192,1,0,0:0:0:0:
192,192,149192,1,0,0:0:0:0:
320,192,149328,1,0,0:0:0:0:
64,192,149328,1,0,0:0:0:0:
192,192,149465,1,0,0:0:0:0:
448,192,149465,1,0,0:0:0:0:
64,192,149601,1,0,0:0:0:0:
192,192,149601,1,0,0:0:0:0:
320,192,149737,1,0,0:0:0:0:
448,192,149737,1,0,0:0:0:0:
192,192,150010,1,0,0:0:0:0:
64,192,150010,1,0,0:0:0:0:
64,192,150146,1,0,0:0:0:0:
192,192,150215,1,0,0:0:0:0:
320,192,150283,1,0,0:0:0:0:
192,192,150419,1,0,0:0:0:0:
320,192,150419,1,0,0:0:0:0:
192,192,150555,1,0,0:0:0:0:
448,192,150555,1,0,0:0:0:0:
448,192,150692,1,0,0:0:0:0:
320,192,150760,1,0,0:0:0:0:
64,192,150828,1,0,0:0:0:0:
192,192,150828,1,0,0:0:0:0:
320,192,150965,1,0,0:0:0:0:
448,192,150965,1,0,0:0:0:0:
64,192,151101,1,0,0:0:0:0:
320,192,151101,1,0,0:0:0:0:
64,192,151237,1,0,0:0:0:0:
192,192,151237,1,0,0:0:0:0:
320,192,151305,1,0,0:0:0:0:
192,192,151374,1,0,0:0:0:0:
320,192,151442,1,0,0:0:0:0:
64,192,151510,1,0,0:0:0:0:
448,192,151510,1,0,0:0:0:0:
64,192,151646,1,0,0:0:0:0:
320,192,151646,1,0,0:0:0:0:
448,192,151783,1,0,0:0:0:0:
320,192,151783,1,0,0:0:0:0:
64,192,151919,1,0,0:0:0:0:
192,192,151919,1,0,0:0:0:0:
448,192,152055,1,0,0:0:0:0:
320,192,152055,1,0,0:0:0:0:
64,192,152192,1,0,0:0:0:0:
320,192,152192,1,0,0:0:0:0:
192,192,152328,1,0,0:0:0:0:
64,192,152328,1,0,0:0:0:0:
320,192,152396,1,0,0:0:0:0:
192,192,152465,1,0,0:0:0:0:
320,192,152533,1,0,0:0:0:0:
64,192,152601,1,0,0:0:0:0:
448,192,152601,1,0,0:0:0:0:
64,192,152737,1,0,0:0:0:0:
320,192,152737,1,0,0:0:0:0:
448,192,152874,1,0,0:0:0:0:
320,192,152874,1,0,0:0:0:0:
448,192,153010,1,0,0:0:0:0:
64,192,153010,1,0,0:0:0:0:
64,192,153146,1,0,0:0:0:0:
192,192,153215,1,0,0:0:0:0:
448,192,153283,1,0,0:0:0:0:
320,192,153283,1,0,0:0:0:0:
448,192,153419,1,0,0:0:0:0:
320,192,153487,1,0,0:0:0:0:
64,192,153555,1,0,0:0:0:0:
192,192,153555,1,0,0:0:0:0:
448,192,153692,1,0,0:0:0:0:
320,192,153692,1,0,0:0:0:0:
64,192,153828,1,0,0:0:0:0:
320,192,153828,1,0,0:0:0:0:
192,192,153965,1,0,0:0:0:0:
320,192,154101,1,0,0:0:0:0:
64,192,154101,1,0,0:0:0:0:
448,192,154237,1,0,0:0:0:0:
320,192,154374,1,0,0:0:0:0:
448,192,154374,1,0,0:0:0:0:
192,192,154510,1,0,0:0:0:0:
64,192,154510,1,0,0:0:0:0:
448,192,154578,1,0,0:0:0:0:
192,192,154646,1,0,0:0:0:0:
320,192,154783,1,0,0:0:0:0:
192,192,154851,1,0,0:0:0:0:
192,192,155055,1,0,0:0:0:0:
320,192,155124,1,0,0:0:0:0:
64,192,155192,1,0,0:0:0:0:
448,192,155192,1,0,0:0:0:0:
64,192,155328,1,0,0:0:0:0:
320,192,155328,1,0,0:0:0:0:
192,192,155465,1,0,0:0:0:0:
320,192,155465,1,0,0:0:0:0:
64,192,155601,1,0,0:0:0:0:
320,192,155601,1,0,0:0:0:0:
64,192,155737,1,0,0:0:0:0:
192,192,155805,1,0,0:0:0:0:
448,192,155874,1,0,0:0:0:0:
320,192,155874,1,0,0:0:0:0:
448,192,156010,1,0,0:0:0:0:
192,192,156010,1,0,0:0:0:0:
448,192,156146,1,0,0:0:0:0:
320,192,156146,1,0,0:0:0:0:
64,192,156283,1,0,0:0:0:0:
320,192,156283,1,0,0:0:0:0:
64,192,156419,1,0,0:0:0:0:
192,192,156419,1,0,0:0:0:0:
448,192,156555,1,0,0:0:0:0:
320,192,156555,1,0,0:0:0:0:
192,192,156692,1,0,0:0:0:0:
448,192,156692,1,0,0:0:0:0:
192,192,156965,1,0,0:0:0:0:
320,192,156965,1,0,0:0:0:0:
448,192,157101,1,0,0:0:0:0:
192,192,157101,1,0,0:0:0:0:
448,192,157237,1,0,0:0:0:0:
320,192,157305,1,0,0:0:0:0:
64,192,157374,1,0,0:0:0:0:
192,192,157374,1,0,0:0:0:0:
64,192,157510,1,0,0:0:0:0:
320,192,157510,1,0,0:0:0:0:
320,192,157646,1,0,0:0:0:0:
192,192,157646,1,0,0:0:0:0:
192,192,157783,1,0,0:0:0:0:
320,192,157851,1,0,0:0:0:0:
448,192,157919,1,0,0:0:0:0:
64,192,157919,1,0,0:0:0:0:
320,192,158055,1,0,0:0:0:0:
64,192,158055,1,0,0:0:0:0:
320,192,158192,1,0,0:0:0:0:
192,192,158192,1,0,0:0:0:0:
448,192,158328,1,0,0:0:0:0:
64,192,158328,1,0,0:0:0:0:
320,192,158465,1,0,0:0:0:0:
192,192,158465,1,0,0:0:0:0:
320,192,158737,1,0,0:0:0:0:
64,192,158737,1,0,0:0:0:0:
320,192,158874,1,0,0:0:0:0:
192,192,158942,1,0,0:0:0:0:
64,192,159010,1,0,0:0:0:0:
320,192,159146,1,0,0:0:0:0:
64,192,159146,1,0,0:0:0:0:
448,192,159283,1,0,0:0:0:0:
192,192,159283,1,0,0:0:0:0:
192,192,159419,1,0,0:0:0:0:
320,192,159487,1,0,0:0:0:0:
448,192,159555,1,0,0:0:0:0:
64,192,159555,1,0,0:0:0:0:
64,192,159692,1,0,0:0:0:0:
192,192,159692,1,0,0:0:0:0:
192,192,159828,1,0,0:0:0:0:
448,192,159828,1,0,0:0:0:0:
320,192,159965,1,0,0:0:0:0:
448,192,159965,1,0,0:0:0:0:
192,192,160033,1,0,0:0:0:0:
320,192,160101,1,0,0:0:0:0:
192,192,160169,1,0,0:0:0:0:
448,192,160237,1,0,0:0:0:0:
64,192,160237,1,0,0:0:0:0:
64,192,160374,1,0,0:0:0:0:
192,192,160374,1,0,0:0:0:0:
192,192,160510,1,0,0:0:0:0:
448,192,160510,1,0,0:0:0:0:
64,192,160646,1,0,0:0:0:0:
320,192,160646,1,0,0:0:0:0:
64,192,160783,1,0,0:0:0:0:
192,192,160783,1,0,0:0:0:0:
192,192,160919,1,0,0:0:0:0:
448,192,160919,1,0,0:0:0:0:
320,192,161055,1,0,0:0:0:0:
448,192,161055,1,0,0:0:0:0:
192,192,161124,1,0,0:0:0:0:
320,192,161192,1,0,0:0:0:0:
192,192,161260,1,0,0:0:0:0:
448,192,161328,1,0,0:0:0:0:
64,192,161328,1,0,0:0:0:0:
64,192,161465,1,0,0:0:0:0:
192,192,161465,1,0,0:0:0:0:
448,192,161601,1,0,0:0:0:0:
192,192,161601,1,0,0:0:0:0:
64,192,161737,1,0,0:0:0:0:
320,192,161737,1,0,0:0:0:0:
64,192,161874,1,0,0:0:0:0:
192,192,161942,1,0,0:0:0:0:
448,192,162010,1,0,0:0:0:0:
320,192,162010,1,0,0:0:0:0:
320,192,162146,1,0,0:0:0:0:
192,192,162215,1,0,0:0:0:0:
64,192,162283,1,0,0:0:0:0:
64,192,162419,1,0,0:0:0:0:
320,192,162419,1,0,0:0:0:0:
448,192,162555,1,0,0:0:0:0:
192,192,162555,1,0,0:0:0:0:
448,192,162692,1,0,0:0:0:0:
320,192,162760,1,0,0:0:0:0:
192,192,162828,1,0,0:0:0:0:
64,192,162828,1,0,0:0:0:0:
192,192,162965,1,0,0:0:0:0:
320,192,163101,1,0,0:0:0:0:
448,192,163101,1,0,0:0:0:0:
192,192,163237,1,0,0:0:0:0:
64,192,163237,1,0,0:0:0:0:
320,192,163305,1,0,0:0:0:0:
448,192,163374,1,0,0:0:0:0:
448,192,163510,1,0,0:0:0:0:
320,192,163510,1,0,0:0:0:0:
192,192,163578,1,0,0:0:0:0:
64,192,163646,1,0,0:0:0:0:
320,192,163646,1,0,0:0:0:0:
448,192,163715,1,0,0:0:0:0:
64,192,163783,1,0,0:0:0:0:
192,192,163851,1,0,0:0:0:0:
320,192,163919,1,0,0:0:0:0:
448,192,163919,1,0,0:0:0:0:
320,192,164055,1,0,0:0:0:0:
192,192,164192,1,0,0:0:0:0:
448,192,164192,1,0,0:0:0:0:
64,192,164328,1,0,0:0:0:0:
192,192,164328,1,0,0:0:0:0:
448,192,164465,1,0,0:0:0:0:
320,192,164465,1,0,0:0:0:0:
64,192,164533,1,0,0:0:0:0:
192,192,164533,1,0,0:0:0:0:
448,192,164601,1,0,0:0:0:0:
320,192,164601,1,0,0:0:0:0:
64,192,164669,1,0,0:0:0:0:
448,192,164737,1,0,0:0:0:0:
320,192,164737,1,0,0:0:0:0:
192,192,164805,1,0,0:0:0:0:
64,192,164805,1,0,0:0:0:0:
448,192,164874,1,0,0:0:0:0:
192,192,164942,1,0,0:0:0:0:
448,192,165010,1,0,0:0:0:0:
320,192,165010,1,0,0:0:0:0:
192,192,165146,1,0,0:0:0:0:
320,192,165283,1,0,0:0:0:0:
192,192,165283,1,0,0:0:0:0:
320,192,165419,1,0,0:0:0:0:
64,192,165419,1,0,0:0:0:0:
64,192,165555,1,0,0:0:0:0:
192,192,165624,1,0,0:0:0:0:
448,192,165692,1,0,0:0:0:0:
320,192,165692,1,0,0:0:0:0:
64,192,165760,1,0,0:0:0:0:
320,192,165828,1,0,0:0:0:0:
448,192,165828,1,0,0:0:0:0:
192,192,165896,1,0,0:0:0:0:
64,192,165896,1,0,0:0:0:0:
448,192,165965,1,0,0:0:0:0:
320,192,166033,1,0,0:0:0:0:
64,192,166101,1,0,0:0:0:0:
192,192,166101,1,0,0:0:0:0:
192,192,166237,1,0,0:0:0:0:
320,192,166374,1,0,0:0:0:0:
64,192,166374,1,0,0:0:0:0:
320,192,166510,1,0,0:0:0:0:
448,192,166510,1,0,0:0:0:0:
192,192,166646,1,0,0:0:0:0:
64,192,166646,1,0,0:0:0:0:
448,192,166715,1,0,0:0:0:0:
320,192,166715,1,0,0:0:0:0:
64,192,166783,1,0,0:0:0:0:
192,192,166783,1,0,0:0:0:0:
448,192,166851,1,0,0:0:0:0:
64,192,166919,1,0,0:0:0:0:
192,192,166919,1,0,0:0:0:0:
448,192,166987,1,0,0:0:0:0:
320,192,166987,1,0,0:0:0:0:
64,192,167055,1,0,0:0:0:0:
320,192,167124,1,0,0:0:0:0:
64,192,167192,1,0,0:0:0:0:
192,192,167192,1,0,0:0:0:0:
320,192,167328,1,0,0:0:0:0:
192,192,167465,1,0,0:0:0:0:
320,192,167465,1,0,0:0:0:0:
448,192,167601,1,0,0:0:0:0:
192,192,167601,1,0,0:0:0:0:
448,192,167737,1,0,0:0:0:0:
320,192,167805,1,0,0:0:0:0:
64,192,167874,1,0,0:0:0:0:
192,192,167874,1,0,0:0:0:0:
448,192,167942,1,0,0:0:0:0:
192,192,168010,1,0,0:0:0:0:
64,192,168010,1,0,0:0:0:0:
320,192,168078,1,0,0:0:0:0:
448,192,168078,1,0,0:0:0:0:
64,192,168146,1,0,0:0:0:0:
192,192,168215,1,0,0:0:0:0:
448,192,168283,1,0,0:0:0:0:
320,192,168283,1,0,0:0:0:0:
448,192,168419,1,0,0:0:0:0:
320,192,168419,1,0,0:0:0:0:
192,192,168555,1,0,0:0:0:0:
448,192,168555,1,0,0:0:0:0:
64,192,168692,1,0,0:0:0:0:
192,192,168692,1,0,0:0:0:0:
320,192,168828,1,0,0:0:0:0:
448,192,168828,1,0,0:0:0:0:
64,192,168896,1,0,0:0:0:0:
192,192,168896,1,0,0:0:0:0:
448,192,168965,1,0,0:0:0:0:
320,192,168965,1,0,0:0:0:0:
64,192,169033,1,0,0:0:0:0:
448,192,169101,1,0,0:0:0:0:
320,192,169101,1,0,0:0:0:0:
64,192,169169,1,0,0:0:0:0:
192,192,169169,1,0,0:0:0:0:
448,192,169237,1,0,0:0:0:0:
192,192,169305,1,0,0:0:0:0:
448,192,169374,1,0,0:0:0:0:
320,192,169374,1,0,0:0:0:0:
320,192,169510,1,0,0:0:0:0:
448,192,169510,1,0,0:0:0:0:
192,192,169646,1,0,0:0:0:0:
448,192,169646,1,0,0:0:0:0:
192,192,169783,1,0,0:0:0:0:
64,192,169783,1,0,0:0:0:0:
448,192,169919,1,0,0:0:0:0:
320,192,169919,1,0,0:0:0:0:
192,192,170055,1,0,0:0:0:0:
448,192,170055,1,0,0:0:0:0:
192,192,170192,1,0,0:0:0:0:
64,192,170192,1,0,0:0:0:0:
448,192,170260,1,0,0:0:0:0:
320,192,170328,1,0,0:0:0:0:
64,192,170328,1,0,0:0:0:0:
192,192,170396,1,0,0:0:0:0:
448,192,170465,1,0,0:0:0:0:
320,192,170465,1,0,0:0:0:0:
192,192,170533,1,0,0:0:0:0:
64,192,170533,1,0,0:0:0:0:
448,192,170601,1,0,0:0:0:0:
320,192,170601,1,0,0:0:0:0:
192,192,170669,1,0,0:0:0:0:
64,192,170669,1,0,0:0:0:0:
448,192,170737,1,0,0:0:0:0:
320,192,170737,1,0,0:0:0:0:
64,192,170805,1,0,0:0:0:0:
192,192,170805,1,0,0:0:0:0:
448,192,170874,1,0,0:0:0:0:
320,192,170874,1,0,0:0:0:0:
64,192,170942,1,0,0:0:0:0:
192,192,170942,1,0,0:0:0:0:
448,192,171010,1,0,0:0:0:0:
320,192,171010,1,0,0:0:0:0:
64,192,171078,1,0,0:0:0:0:
192,192,171078,1,0,0:0:0:0:
448,192,171146,1,0,0:0:0:0:
320,192,171146,1,0,0:0:0:0:
64,192,171215,1,0,0:0:0:0:
192,192,171215,1,0,0:0:0:0:
448,192,171283,1,0,0:0:0:0:
320,192,171283,1,0,0:0:0:0:
64,192,171351,1,0,0:0:0:0:
192,192,171351,1,0,0:0:0:0:
448,192,171419,1,0,0:0:0:0:
320,192,171419,1,0,0:0:0:0:
64,192,171487,1,0,0:0:0:0:
192,192,171487,1,0,0:0:0:0:
448,192,171555,1,0,0:0:0:0:
320,192,171555,1,0,0:0:0:0:
448,192,171692,1,0,0:0:0:0:
320,192,171692,1,0,0:0:0:0:
448,192,171965,1,0,0:0:0:0:
320,192,171965,1,0,0:0:0:0:
448,192,172237,1,0,0:0:0:0:
320,192,172237,1,0,0:0:0:0:
64,192,172374,1,0,0:0:0:0:
192,192,172374,1,0,0:0:0:0:
64,192,172510,1,0,0:0:0:0:
192,192,172510,1,0,0:0:0:0:
448,192,172646,1,0,0:0:0:0:
320,192,172646,1,0,0:0:0:0:
64,192,172715,1,0,0:0:0:0:
192,192,172783,1,0,0:0:0:0:
448,192,172783,1,0,0:0:0:0:
320,192,172851,1,0,0:0:0:0:
64,192,172919,1,0,0:0:0:0:
192,192,172919,1,0,0:0:0:0:
448,192,172987,1,0,0:0:0:0:
320,192,173055,1,0,0:0:0:0:
192,192,173055,1,0,0:0:0:0:
64,192,173124,1,0,0:0:0:0:
448,192,173192,1,0,0:0:0:0:
320,192,173192,1,0,0:0:0:0:
192,192,173260,1,0,0:0:0:0:
448,192,173328,1,0,0:0:0:0:
64,192,173328,1,0,0:0:0:0:
320,192,173396,1,0,0:0:0:0:
64,192,173465,1,0,0:0:0:0:
192,192,173465,1,0,0:0:0:0:
320,192,173533,1,0,0:0:0:0:
64,192,173601,1,0,0:0:0:0:
448,192,173601,1,0,0:0:0:0:
192,192,173669,1,0,0:0:0:0:
448,192,173737,1,0,0:0:0:0:
320,192,173737,1,0,0:0:0:0:
192,192,173805,1,0,0:0:0:0:
448,192,173874,1,0,0:0:0:0:
64,192,173874,1,0,0:0:0:0:
320,192,173942,1,0,0:0:0:0:
64,192,174010,1,0,0:0:0:0:
192,192,174010,1,0,0:0:0:0:
448,192,174078,1,0,0:0:0:0:
64,192,174146,1,0,0:0:0:0:
192,192,174146,1,0,0:0:0:0:
448,192,174215,1,0,0:0:0:0:
320,192,174283,1,0,0:0:0:0:
192,192,174283,1,0,0:0:0:0:
64,192,174351,1,0,0:0:0:0:
448,192,174419,1,0,0:0:0:0:
320,192,174419,1,0,0:0:0:0:
192,192,174487,1,0,0:0:0:0:
320,192,174555,1,0,0:0:0:0:
64,192,174555,1,0,0:0:0:0:
448,192,174624,1,0,0:0:0:0:
192,192,174692,1,0,0:0:0:0:
64,192,174692,1,0,0:0:0:0:
320,192,174760,1,0,0:0:0:0:
64,192,174828,1,0,0:0:0:0:
448,192,174828,1,0,0:0:0:0:
192,192,174896,1,0,0:0:0:0:
320,192,174965,1,0,0:0:0:0:
448,192,174965,1,0,0:0:0:0:
192,192,175033,1,0,0:0:0:0:
320,192,175101,1,0,0:0:0:0:
64,192,175101,1,0,0:0:0:0:
448,192,175169,1,0,0:0:0:0:
64,192,175237,1,0,0:0:0:0:
192,192,175237,1,0,0:0:0:0:
320,192,175305,1,0,0:0:0:0:
192,192,175374,1,0,0:0:0:0:
448,192,175374,1,0,0:0:0:0:
64,192,175442,1,0,0:0:0:0:
448,192,175510,1,0,0:0:0:0:
320,192,175510,1,0,0:0:0:0:
192,192,175578,1,0,0:0:0:0:
448,192,175646,1,0,0:0:0:0:
320,192,175646,1,0,0:0:0:0:
192,192,175715,1,0,0:0:0:0:
320,192,175783,1,0,0:0:0:0:
64,192,175783,1,0,0:0:0:0:
448,192,175851,1,0,0:0:0:0:
64,192,175919,1,0,0:0:0:0:
192,192,175919,1,0,0:0:0:0:
320,192,175987,1,0,0:0:0:0:
192,192,176055,1,0,0:0:0:0:
448,192,176055,1,0,0:0:0:0:
64,192,176124,1,0,0:0:0:0:
448,192,176192,1,0,0:0:0:0:
320,192,176192,1,0,0:0:0:0:
64,192,176260,1,0,0:0:0:0:
192,192,176328,1,0,0:0:0:0:
320,192,176396,1,0,0:0:0:0:
192,192,176465,1,0,0:0:0:0:
448,192,176465,1,0,0:0:0:0:
64,192,176533,1,0,0:0:0:0:
448,192,176601,1,0,0:0:0:0:
320,192,176669,1,0,0:0:0:0:
192,192,176737,1,0,0:0:0:0:
64,192,176737,1,0,0:0:0:0:
448,192,176805,1,0,0:0:0:0:
64,192,176874,1,0,0:0:0:0:
192,192,176874,1,0,0:0:0:0:
320,192,176942,1,0,0:0:0:0:
64,192,177010,1,0,0:0:0:0:
448,192,177010,1,0,0:0:0:0:
192,192,177078,1,0,0:0:0:0:
320,192,177146,1,0,0:0:0:0:
448,192,177215,1,0,0:0:0:0:
64,192,177283,1,0,0:0:0:0:
192,192,177283,1,0,0:0:0:0:
320,192,177351,1,0,0:0:0:0:
64,192,177419,1,0,0:0:0:0:
192,192,177419,1,0,0:0:0:0:
320,192,177487,1,0,0:0:0:0:
192,192,177555,1,0,0:0:0:0:
448,192,177555,1,0,0:0:0:0:
64,192,177624,1,0,0:0:0:0:
448,192,177692,1,0,0:0:0:0:
320,192,177692,1,0,0:0:0:0:
192,192,177760,1,0,0:0:0:0:
448,192,177828,1,0,0:0:0:0:
320,192,177828,1,0,0:0:0:0:
192,192,177896,1,0,0:0:0:0:
448,192,177965,1,0,0:0:0:0:
64,192,177965,1,0,0:0:0:0:
320,192,178033,1,0,0:0:0:0:
64,192,178101,1,0,0:0:0:0:
192,192,178101,1,0,0:0:0:0:
320,192,178169,1,0,0:0:0:0:
192,192,178237,1,0,0:0:0:0:
448,192,178237,1,0,0:0:0:0:
64,192,178305,1,0,0:0:0:0:
448,192,178374,1,0,0:0:0:0:
320,192,178374,1,0,0:0:0:0:
192,192,178442,1,0,0:0:0:0:
448,192,178510,1,0,0:0:0:0:
320,192,178510,1,0,0:0:0:0:
192,192,178578,1,0,0:0:0:0:
320,192,178646,1,0,0:0:0:0:
64,192,178646,1,0,0:0:0:0:
448,192,178715,1,0,0:0:0:0:
64,192,178783,1,0,0:0:0:0:
192,192,178851,1,0,0:0:0:0:
448,192,178919,1,0,0:0:0:0:
320,192,178919,1,0,0:0:0:0:
192,192,178987,1,0,0:0:0:0:
448,192,179055,1,0,0:0:0:0:
320,192,179055,1,0,0:0:0:0:
192,192,179124,1,0,0:0:0:0:
448,192,179192,1,0,0:0:0:0:
64,192,179192,1,0,0:0:0:0:
320,192,179260,1,0,0:0:0:0:
192,192,179328,1,0,0:0:0:0:
64,192,179396,1,0,0:0:0:0:
448,192,179465,1,0,0:0:0:0:
320,192,179465,1,0,0:0:0:0:
192,192,179533,1,0,0:0:0:0:
448,192,179601,1,0,0:0:0:0:
320,192,179601,1,0,0:0:0:0:
192,192,179669,1,0,0:0:0:0:
448,192,179737,1,0,0:0:0:0:
64,192,179737,1,0,0:0:0:0:
320,192,179805,1,0,0:0:0:0:
192,192,179874,1,0,0:0:0:0:
64,192,179874,1,0,0:0:0:0:
448,192,179942,1,0,0:0:0:0:
64,192,180010,1,0,0:0:0:0:
192,192,180010,1,0,0:0:0:0:
320,192,180078,1,0,0:0:0:0:
448,192,180146,1,0,0:0:0:0:
64,192,180146,1,0,0:0:0:0:
192,192,180215,1,0,0:0:0:0:
448,192,180283,1,0,0:0:0:0:
320,192,180283,1,0,0:0:0:0:
192,192,180351,1,0,0:0:0:0:
64,192,180419,1,0,0:0:0:0:
448,192,180419,1,0,0:0:0:0:
320,192,180487,1,0,0:0:0:0:
64,192,180555,1,0,0:0:0:0:
192,192,180555,1,0,0:0:0:0:
448,192,180624,1,0,0:0:0:0:
320,192,180692,1,0,0:0:0:0:
192,192,180760,1,0,0:0:0:0:
320,192,180828,1,0,0:0:0:0:
64,192,180828,1,0,0:0:0:0:
448,192,180896,1,0,0:0:0:0:
64,192,180965,1,0,0:0:0:0:
192,192,180965,1,0,0:0:0:0:
448,192,181033,1,0,0:0:0:0:
64,192,181101,1,0,0:0:0:0:
192,192,181101,1,0,0:0:0:0:
320,192,181169,1,0,0:0:0:0:
192,192,181237,1,0,0:0:0:0:
64,192,181237,1,0,0:0:0:0:
320,192,181305,1,0,0:0:0:0:
448,192,181374,1,0,0:0:0:0:
64,192,181374,1,0,0:0:0:0:
192,192,181442,1,0,0:0:0:0:
320,192,181510,1,0,0:0:0:0:
448,192,181578,1,0,0:0:0:0:
64,192,181646,1,0,0:0:0:0:
192,192,181646,1,0,0:0:0:0:
448,192,181715,1,0,0:0:0:0:
320,192,181715,1,0,0:0:0:0:
64,192,181783,1,0,0:0:0:0:
192,192,181851,1,0,0:0:0:0:
448,192,181919,1,0,0:0:0:0:
320,192,181919,1,0,0:0:0:0:
64,192,181987,1,0,0:0:0:0:
192,192,181987,1,0,0:0:0:0:
448,192,182055,1,0,0:0:0:0:
320,192,182055,1,0,0:0:0:0:
192,192,182124,1,0,0:0:0:0:
448,192,182192,1,0,0:0:0:0:
64,192,182192,1,0,0:0:0:0:
320,192,182260,1,0,0:0:0:0:
192,192,182328,1,0,0:0:0:0:
64,192,182396,1,0,0:0:0:0:
448,192,182465,1,0,0:0:0:0:
320,192,182465,1,0,0:0:0:0:
192,192,182533,1,0,0:0:0:0:
64,192,182601,1,0,0:0:0:0:
320,192,182601,1,0,0:0:0:0:
448,192,182669,1,0,0:0:0:0:
64,192,182737,1,0,0:0:0:0:
192,192,182737,1,0,0:0:0:0:
320,192,182805,1,0,0:0:0:0:
64,192,182874,1,0,0:0:0:0:
192,192,182874,1,0,0:0:0:0:
320,192,182942,1,0,0:0:0:0:
64,192,183010,1,0,0:0:0:0:
448,192,183010,1,0,0:0:0:0:
192,192,183078,1,0,0:0:0:0:
448,192,183146,1,0,0:0:0:0:
320,192,183146,1,0,0:0:0:0:
192,192,183215,1,0,0:0:0:0:
448,192,183283,1,0,0:0:0:0:
320,192,183283,1,0,0:0:0:0:
192,192,183351,1,0,0:0:0:0:
64,192,183419,1,0,0:0:0:0:
448,192,183419,1,0,0:0:0:0:
320,192,183487,1,0,0:0:0:0:
64,192,183555,1,0,0:0:0:0:
192,192,183555,1,0,0:0:0:0:
320,192,183624,1,0,0:0:0:0:
448,192,183692,1,0,0:0:0:0:
64,192,183692,1,0,0:0:0:0:
192,192,183760,1,0,0:0:0:0:
448,192,183828,1,0,0:0:0:0:
320,192,183828,1,0,0:0:0:0:
192,192,183896,1,0,0:0:0:0:
448,192,183965,1,0,0:0:0:0:
320,192,183965,1,0,0:0:0:0:
192,192,184033,1,0,0:0:0:0:
320,192,184101,1,0,0:0:0:0:
64,192,184101,1,0,0:0:0:0:
448,192,184169,1,0,0:0:0:0:
64,192,184237,1,0,0:0:0:0:
192,192,184305,1,0,0:0:0:0:
448,192,184374,1,0,0:0:0:0:
320,192,184374,1,0,0:0:0:0:
192,192,184442,1,0,0:0:0:0:
448,192,184510,1,0,0:0:0:0:
64,192,184510,1,0,0:0:0:0:
320,192,184578,1,0,0:0:0:0:
64,192,184646,1,0,0:0:0:0:
192,192,184646,1,0,0:0:0:0:
320,192,184715,1,0,0:0:0:0:
192,192,184783,1,0,0:0:0:0:
448,192,184783,1,0,0:0:0:0:
64,192,184851,1,0,0:0:0:0:
448,192,184919,1,0,0:0:0:0:
320,192,184919,1,0,0:0:0:0:
64,192,184987,1,0,0:0:0:0:
192,192,185055,1,0,0:0:0:0:
320,192,185124,1,0,0:0:0:0:
64,192,185192,1,0,0:0:0:0:
448,192,185192,1,0,0:0:0:0:
192,192,185260,1,0,0:0:0:0:
320,192,185328,1,0,0:0:0:0:
192,192,185396,1,0,0:0:0:0:
320,192,185465,1,0,0:0:0:0:
64,192,185465,1,0,0:0:0:0:
448,192,185533,1,0,0:0:0:0:
64,192,185601,1,0,0:0:0:0:
192,192,185601,1,0,0:0:0:0:
448,192,185669,1,0,0:0:0:0:
192,192,185737,1,0,0:0:0:0:
64,192,185737,1,0,0:0:0:0:
320,192,185805,1,0,0:0:0:0:
64,192,185874,1,0,0:0:0:0:
448,192,185874,1,0,0:0:0:0:
192,192,185942,1,0,0:0:0:0:
448,192,186010,1,0,0:0:0:0:
320,192,186010,1,0,0:0:0:0:
192,192,186078,1,0,0:0:0:0:
320,192,186146,1,0,0:0:0:0:
64,192,186146,1,0,0:0:0:0:
448,192,186215,1,0,0:0:0:0:
64,192,186283,1,0,0:0:0:0:
192,192,186283,1,0,0:0:0:0:
448,192,186351,1,0,0:0:0:0:
320,192,186419,1,0,0:0:0:0:
192,192,186487,1,0,0:0:0:0:
64,192,186555,1,0,0:0:0:0:
448,192,186555,1,0,0:0:0:0:
320,192,186624,1,0,0:0:0:0:
64,192,186692,1,0,0:0:0:0:
192,192,186692,1,0,0:0:0:0:
320,192,186760,1,0,0:0:0:0:
64,192,186828,1,0,0:0:0:0:
448,192,186828,1,0,0:0:0:0:
192,192,186896,1,0,0:0:0:0:
448,192,186965,1,0,0:0:0:0:
320,192,186965,1,0,0:0:0:0:
192,192,187033,1,0,0:0:0:0:
320,192,187101,1,0,0:0:0:0:
64,192,187101,1,0,0:0:0:0:
448,192,187169,1,0,0:0:0:0:
64,192,187237,1,0,0:0:0:0:
192,192,187237,1,0,0:0:0:0:
320,192,187305,1,0,0:0:0:0:
64,192,187374,1,0,0:0:0:0:
448,192,187374,1,0,0:0:0:0:
192,192,187442,1,0,0:0:0:0:
448,192,187510,1,0,0:0:0:0:
320,192,187510,1,0,0:0:0:0:
192,192,187578,1,0,0:0:0:0:
64,192,187646,1,0,0:0:0:0:
448,192,187646,1,0,0:0:0:0:
320,192,187715,1,0,0:0:0:0:
192,192,187783,1,0,0:0:0:0:
64,192,187851,1,0,0:0:0:0:
448,192,187919,1,0,0:0:0:0:
320,192,187919,1,0,0:0:0:0:
64,192,187987,1,0,0:0:0:0:
448,192,188055,1,0,0:0:0:0:
320,192,188055,1,0,0:0:0:0:
192,192,188124,1,0,0:0:0:0:
448,192,188192,1,0,0:0:0:0:
320,192,188192,1,0,0:0:0:0:
192,192,188260,1,0,0:0:0:0:
448,192,188328,1,0,0:0:0:0:
320,192,188328,1,0,0:0:0:0:
192,192,188396,1,0,0:0:0:0:
64,192,188465,1,0,0:0:0:0:
448,192,188465,1,0,0:0:0:0:
320,192,188533,1,0,0:0:0:0:
64,192,188601,1,0,0:0:0:0:
192,192,188669,1,0,0:0:0:0:
448,192,188737,1,0,0:0:0:0:
320,192,188737,1,0,0:0:0:0:
192,192,188805,1,0,0:0:0:0:
448,192,188874,1,0,0:0:0:0:
64,192,188874,1,0,0:0:0:0:
320,192,188942,1,0,0:0:0:0:
64,192,189010,1,0,0:0:0:0:
192,192,189010,1,0,0:0:0:0:
320,192,189555,1,0,0:0:0:0:
448,192,189555,1,0,0:0:0:0:
192,192,189760,1,0,0:0:0:0:
320,192,189760,1,0,0:0:0:0:
192,192,189965,1,0,0:0:0:0:
64,192,189965,1,0,0:0:0:0:
448,192,190101,1,0,0:0:0:0:
320,192,190101,1,0,0:0:0:0:
192,192,190237,1,0,0:0:0:0:
320,192,190374,1,0,0:0:0:0:
448,192,190374,1,0,0:0:0:0:
64,192,190374,1,0,0:0:0:0:
192,192,190510,1,0,0:0:0:0:
448,192,190646,1,0,0:0:0:0:
64,192,190646,1,0,0:0:0:0:
320,192,190783,1,0,0:0:0:0:
448,192,190919,1,0,0:0:0:0:
192,192,190919,1,0,0:0:0:0:
64,192,190919,1,0,0:0:0:0:
64,192,191055,1,0,0:0:0:0:
192,192,191055,1,0,0:0:0:0:
64,192,191192,1,0,0:0:0:0:
320,192,191192,1,0,0:0:0:0:
192,192,191328,1,0,0:0:0:0:
448,192,191465,1,0,0:0:0:0:
320,192,191465,1,0,0:0:0:0:
64,192,191465,1,0,0:0:0:0:
192,192,191601,1,0,0:0:0:0:
320,192,191737,1,0,0:0:0:0:
64,192,191737,1,0,0:0:0:0:
192,192,191874,1,0,0:0:0:0:
320,192,192010,1,0,0:0:0:0:
448,192,192010,1,0,0:0:0:0:
64,192,192010,1,0,0:0:0:0:
192,192,192146,1,0,0:0:0:0:
64,192,192283,1,0,0:0:0:0:
320,192,192283,1,0,0:0:0:0:
192,192,192419,1,0,0:0:0:0:
64,192,192555,1,0,0:0:0:0:
320,192,192555,1,0,0:0:0:0:
448,192,192555,1,0,0:0:0:0:
192,192,192692,1,0,0:0:0:0:
320,192,192828,1,0,0:0:0:0:
64,192,192828,1,0,0:0:0:0:
192,192,192965,1,0,0:0:0:0:
320,192,193101,1,0,0:0:0:0:
448,192,193101,1,0,0:0:0:0:
64,192,193101,1,0,0:0:0:0:
320,192,193237,1,0,0:0:0:0:
448,192,193237,1,0,0:0:0:0:
448,192,193374,1,0,0:0:0:0:
192,192,193374,1,0,0:0:0:0:
320,192,193510,1,0,0:0:0:0:
192,192,193646,1,0,0:0:0:0:
64,192,193646,1,0,0:0:0:0:
448,192,193646,1,0,0:0:0:0:
320,192,193783,1,0,0:0:0:0:
64,192,193919,1,0,0:0:0:0:
192,192,193919,1,0,0:0:0:0:
448,192,194055,1,0,0:0:0:0:
320,192,194192,1,0,0:0:0:0:
192,192,194192,1,0,0:0:0:0:
64,192,194192,1,0,0:0:0:0:
448,192,194328,1,0,0:0:0:0:
64,192,194465,1,0,0:0:0:0:
320,192,194465,1,0,0:0:0:0:
192,192,194601,1,0,0:0:0:0:
320,192,194737,1,0,0:0:0:0:
448,192,194737,1,0,0:0:0:0:
64,192,194737,1,0,0:0:0:0:
192,192,194874,1,0,0:0:0:0:
320,192,195010,1,0,0:0:0:0:
64,192,195010,1,0,0:0:0:0:
192,192,195146,1,0,0:0:0:0:
320,192,195283,1,0,0:0:0:0:
64,192,195283,1,0,0:0:0:0:
448,192,195283,1,0,0:0:0:0:
320,192,195419,1,0,0:0:0:0:
64,192,195419,1,0,0:0:0:0:
192,192,195555,1,0,0:0:0:0:
64,192,195555,1,0,0:0:0:0:
320,192,195692,1,0,0:0:0:0:
192,192,195828,1,0,0:0:0:0:
448,192,195828,1,0,0:0:0:0:
64,192,195828,1,0,0:0:0:0:
320,192,195965,1,0,0:0:0:0:
192,192,196101,1,0,0:0:0:0:
448,192,196101,1,0,0:0:0:0:
320,192,196237,1,0,0:0:0:0:
192,192,196374,1,0,0:0:0:0:
64,192,196374,1,0,0:0:0:0:
448,192,196374,1,0,0:0:0:0:
320,192,196510,1,0,0:0:0:0:
192,192,196646,1,0,0:0:0:0:
64,192,196646,1,0,0:0:0:0:
320,192,196783,1,0,0:0:0:0:
448,192,196919,1,0,0:0:0:0:
192,192,196919,1,0,0:0:0:0:
64,192,196919,1,0,0:0:0:0:
320,192,197055,1,0,0:0:0:0:
448,192,197192,1,0,0:0:0:0:
192,192,197192,1,0,0:0:0:0:
320,192,197328,1,0,0:0:0:0:
64,192,197465,1,0,0:0:0:0:
448,192,197465,1,0,0:0:0:0:
192,192,197465,1,0,0:0:0:0:
64,192,197601,1,0,0:0:0:0:
192,192,197601,1,0,0:0:0:0:
320,192,197737,1,0,0:0:0:0:
64,192,197737,1,0,0:0:0:0:
320,192,197874,1,0,0:0:0:0:
192,192,198010,1,0,0:0:0:0:
448,192,198010,1,0,0:0:0:0:
64,192,198146,1,0,0:0:0:0:
320,192,198146,1,0,0:0:0:0:
320,192,198283,1,0,0:0:0:0:
192,192,198351,1,0,0:0:0:0:
64,192,198419,1,0,0:0:0:0:
448,192,198487,1,0,0:0:0:0:
64,192,198555,1,0,0:0:0:0:
448,192,198624,1,0,0:0:0:0:
320,192,198692,1,0,0:0:0:0:
192,192,198760,1,0,0:0:0:0:
320,192,198828,1,0,0:0:0:0:
448,192,198828,1,0,0:0:0:0:
64,192,198828,1,0,0:0:0:0:
192,192,198965,1,0,0:0:0:0:
320,192,199101,1,0,0:0:0:0:
448,192,199101,1,0,0:0:0:0:
64,192,199101,1,0,0:0:0:0:
192,192,199237,1,0,0:0:0:0:
448,192,199374,1,0,0:0:0:0:
320,192,199374,1,0,0:0:0:0:
192,192,199510,1,0,0:0:0:0:
448,192,199646,1,0,0:0:0:0:
320,192,199646,1,0,0:0:0:0:
64,192,199646,1,0,0:0:0:0:
64,192,199783,1,0,0:0:0:0:
320,192,199783,1,0,0:0:0:0:
448,192,199919,1,0,0:0:0:0:
320,192,199919,1,0,0:0:0:0:
192,192,200055,1,0,0:0:0:0:
320,192,200192,1,0,0:0:0:0:
64,192,200192,1,0,0:0:0:0:
448,192,200192,1,0,0:0:0:0:
192,192,200328,1,0,0:0:0:0:
320,192,200465,1,0,0:0:0:0:
448,192,200465,1,0,0:0:0:0:
192,192,200601,1,0,0:0:0:0:
448,192,200737,1,0,0:0:0:0:
320,192,200737,1,0,0:0:0:0:
64,192,200737,1,0,0:0:0:0:
192,192,200874,1,0,0:0:0:0:
448,192,201010,1,0,0:0:0:0:
320,192,201010,1,0,0:0:0:0:
192,192,201146,1,0,0:0:0:0:
64,192,201283,1,0,0:0:0:0:
448,192,201283,1,0,0:0:0:0:
320,192,201283,1,0,0:0:0:0:
192,192,201419,1,0,0:0:0:0:
448,192,201555,1,0,0:0:0:0:
320,192,201555,1,0,0:0:0:0:
192,192,201692,1,0,0:0:0:0:
448,192,201828,1,0,0:0:0:0:
320,192,201828,1,0,0:0:0:0:
64,192,201828,1,0,0:0:0:0:
448,192,201965,1,0,0:0:0:0:
320,192,201965,1,0,0:0:0:0:
448,192,202101,1,0,0:0:0:0:
64,192,202101,1,0,0:0:0:0:
320,192,202237,1,0,0:0:0:0:
448,192,202374,1,0,0:0:0:0:
192,192,202374,1,0,0:0:0:0:
64,192,202374,1,0,0:0:0:0:
320,192,202510,1,0,0:0:0:0:
448,192,202646,1,0,0:0:0:0:
64,192,202646,1,0,0:0:0:0:
320,192,202783,1,0,0:0:0:0:
192,192,202919,1,0,0:0:0:0:
448,192,202919,1,0,0:0:0:0:
64,192,202919,1,0,0:0:0:0:
320,192,203055,1,0,0:0:0:0:
64,192,203192,1,0,0:0:0:0:
192,192,203192,1,0,0:0:0:0:
320,192,203328,1,0,0:0:0:0:
64,192,203465,1,0,0:0:0:0:
448,192,203465,1,0,0:0:0:0:
192,192,203465,1,0,0:0:0:0:
320,192,203601,1,0,0:0:0:0:
64,192,203737,1,0,0:0:0:0:
192,192,203737,1,0,0:0:0:0:
320,192,203874,1,0,0:0:0:0:
448,192,204010,1,0,0:0:0:0:
192,192,204010,1,0,0:0:0:0:
64,192,204010,1,0,0:0:0:0:
192,192,204146,1,0,0:0:0:0:
64,192,204146,1,0,0:0:0:0:
448,192,204283,1,0,0:0:0:0:
64,192,204283,1,0,0:0:0:0:
320,192,204419,1,0,0:0:0:0:
64,192,204555,1,0,0:0:0:0:
192,192,204555,1,0,0:0:0:0:
448,192,204555,1,0,0:0:0:0:
320,192,204692,1,0,0:0:0:0:
64,192,204828,1,0,0:0:0:0:
192,192,204828,1,0,0:0:0:0:
320,192,204965,1,0,0:0:0:0:
64,192,205101,1,0,0:0:0:0:
192,192,205101,1,0,0:0:0:0:
448,192,205101,1,0,0:0:0:0:
320,192,205237,1,0,0:0:0:0:
192,192,205374,1,0,0:0:0:0:
448,192,205374,1,0,0:0:0:0:
64,192,205510,1,0,0:0:0:0:
448,192,205646,1,0,0:0:0:0:
320,192,205646,1,0,0:0:0:0:
192,192,205646,1,0,0:0:0:0:
64,192,205783,1,0,0:0:0:0:
448,192,205919,1,0,0:0:0:0:
320,192,205919,1,0,0:0:0:0:
192,192,206055,1,0,0:0:0:0:
320,192,206192,1,0,0:0:0:0:
64,192,206192,1,0,0:0:0:0:
448,192,206192,1,0,0:0:0:0:
320,192,206328,1,0,0:0:0:0:
448,192,206328,1,0,0:0:0:0:
192,192,206465,1,0,0:0:0:0:
448,192,206465,1,0,0:0:0:0:
320,192,206601,1,0,0:0:0:0:
192,192,206737,1,0,0:0:0:0:
448,192,206737,1,0,0:0:0:0:
64,192,206737,1,0,0:0:0:0:
320,192,206874,1,0,0:0:0:0:
64,192,207010,1,0,0:0:0:0:
192,192,207010,1,0,0:0:0:0:
320,192,207146,1,0,0:0:0:0:
192,192,207283,1,0,0:0:0:0:
448,192,207283,1,0,0:0:0:0:
64,192,207283,1,0,0:0:0:0:
320,192,207419,1,0,0:0:0:0:
192,192,207555,1,0,0:0:0:0:
64,192,207555,1,0,0:0:0:0:
448,192,207555,1,0,0:0:0:0:
