osu file format v14

[General]
AudioFilename: audio.mp3
AudioLeadIn: 0
PreviewTime: 25001
Countdown: 0
SampleSet: Normal
StackLeniency: 0.6
Mode: 0
LetterboxInBreaks: 0
WidescreenStoryboard: 0

[Editor]
Bookmarks: 16001,25334,30667,33334,34667,44001,54667,60001,62667,65334,88001,90667,92001,93334,96001,97334,131980,132313,132480,132646,132896,133146,134646,145313,152313,153313,160313,160479,163646,163813,169313,190646
DistanceSpacing: 1
BeatDivisor: 4
GridSize: 16
TimelineZoom: 1.6

[Metadata]
Title:Hero
TitleUnicode:Hero
Artist:Helblinde
ArtistUnicode:Helblinde
Creator:Pituophis
Version:ONE PUNCHHHHH
Source:ワンパンマン
Tags:JAM Project Ikareru Kobushi ni Hi o Tsukero One Punch Man The True Prophet
BeatmapID:936060
BeatmapSetID:434410

[Difficulty]
HPDrainRate:5
CircleSize:4
OverallDifficulty:7.7
ApproachRate:9.4
SliderMultiplier:1.4
SliderTickRate:2

[Events]
//Background and Video events
0,0,"JUAN PAAUUNCH.jpg",0,0
//Break Periods
2,97534,102197
2,124159,131426
//Storyboard Layer 0 (Background)
//Storyboard Layer 1 (Fail)
//Storyboard Layer 2 (Pass)
//Storyboard Layer 3 (Foreground)
//Storyboard Sound Samples

[TimingPoints]
9333,333.333333333333,4,3,0,100,1,0
10665,-76.9230769230769,4,3,0,100,0,0
14332,-66.6666666666667,4,3,0,100,0,0
15999,-50,4,3,0,100,0,0
16832,-58.8235294117647,4,3,0,100,0,0
27665,-133.333333333333,4,1,0,100,0,0
27999,-50,4,1,0,100,0,0
28332,-58.8235294117647,4,1,0,100,0,0
32999,-133.333333333333,4,1,0,100,0,0
33332,-50,4,1,0,100,0,0
33665,-100,4,1,0,100,0,0
35999,-83.3333333333333,4,1,0,100,0,0
36249,-83.3333333333333,4,1,0,5,0,0
36332,-80,4,1,0,100,0,0
36582,-80,4,1,0,5,0,0
36665,-76.9230769230769,4,1,0,100,0,0
36915,-76.9230769230769,4,1,0,5,0,0
36999,-76.9230769230769,4,1,0,100,0,0
38332,-74.0740740740741,4,1,0,100,0,0
38665,-62.5,4,1,0,100,0,0
43915,-62.5,4,1,0,5,0,0
43999,-76.9230769230769,4,1,0,100,0,0
48999,-133.333333333333,4,1,0,100,0,0
49332,-50,4,1,0,100,0,0
51332,-58.8235294117647,4,1,0,100,0,0
59999,-58.8235294117647,4,1,0,100,0,0
64999,-100,4,1,0,100,0,0
65332,-50,4,1,0,100,0,1
65832,-58.8235294117647,4,1,0,100,0,1
70665,-50,4,1,0,100,0,1
70999,-58.8235294117647,4,1,0,100,0,1
75665,-50,4,1,0,100,0,1
80665,-58.8235294117647,4,1,0,100,0,1
81332,-50,4,1,0,100,0,1
86665,-58.8235294117647,4,1,0,100,0,0
87915,-58.8235294117647,4,1,0,5,0,0
87999,-58.8235294117647,4,3,0,100,0,0
93249,-58.8235294117647,4,1,0,5,0,0
93332,-58.8235294117647,4,3,0,100,0,0
102760,346.820809248555,4,1,0,100,1,0
104147,326.086956521739,4,1,0,100,1,0
106755,346.820809248555,4,1,0,100,1,0
108142,326.086956521739,4,1,0,100,1,0
110750,346.820809248555,4,1,0,100,1,0
112137,326.086956521739,4,1,0,100,1,0
113441,346.820809248555,4,1,0,100,1,0
114828,326.086956521739,4,1,0,100,1,0
117436,346.820809248555,4,1,0,100,1,0
118823,326.086956521739,4,1,0,100,1,0
121431,346.820809248555,4,1,0,100,1,0
122818,326.086956521739,4,1,0,100,1,0
123980,333.333333333333,4,1,0,100,1,0
134563,-100,4,1,0,5,0,0
134646,-58.8235294117647,4,1,0,100,0,0
147979,-58.8235294117647,4,1,0,100,0,1
150646,-50,4,1,0,100,0,1
157979,-100,4,1,0,100,0,1
158313,-111.111111111111,4,1,0,100,0,1
158646,-55.5555555555556,4,1,0,100,0,1
158979,-50,4,1,0,100,0,1
183979,-58.8235294117647,4,1,0,100,0,1
184229,-58.8235294117647,4,1,0,5,0,1
184313,-50,4,1,0,100,0,1
184563,-50,4,1,0,5,0,1
184646,-50,4,1,0,100,0,1
190646,-80,4,1,0,100,0,0

[HitObjects]
28,318,9334,6,0,B|113:256|113:256|217:268|217:268|274:207|281:100|263:42,1,420,8|0,3:0|3:0,0:0:0:0:
167,159,10501,6,0,L|182:191,1,35
343,176,10667,2,0,P|324:117|241:62,1,136.499993751526,8|0,3:0|0:0,0:0:0:0:
239,56,11001,1,0,0:0:0:0:
78,93,11167,1,0,0:0:0:0:
195,304,11334,1,0,0:0:0:0:
167,159,11501,1,0,0:0:0:0:
18,313,11667,1,0,0:0:0:0:
18,313,11751,1,0,0:0:0:0:
18,313,11834,1,0,0:0:0:0:
304,198,12001,5,8,0:0:0:0:
120,242,12167,1,0,0:0:0:0:
346,86,12334,5,0,0:0:0:0:
212,220,12501,1,0,0:0:0:0:
479,278,12667,5,0,0:0:0:0:
304,198,12834,1,0,0:0:0:0:
510,27,13001,5,0,0:0:0:0:
285,59,13167,1,0,0:0:0:0:
424,239,13334,5,8,0:0:0:0:
403,93,13501,1,0,0:3:0:0:
396,57,13584,1,0,0:3:0:0:
389,21,13667,1,0,0:3:0:0:
424,239,13834,1,0,0:0:0:0:
143,280,14001,2,0,L|35:304,1,90.9999958343508
285,59,14334,6,0,L|391:35,1,105.000004005432
231,260,14667,1,8,0:0:0:0:
187,269,14751,1,0,0:0:0:0:
143,279,14834,1,0,0:0:0:0:
92,291,14917,5,2,0:0:0:0:
31,304,15001,5,2,0:0:0:0:
0,96,15167,1,0,0:0:0:0:
274,249,15334,5,0,0:0:0:0:
71,198,15501,1,0,0:0:0:0:
396,223,15667,6,0,P|387:299|357:338,1,105.000004005432
236,46,16001,6,8,B|256:36|273:43|276:71|246:85|246:85|278:96|275:124|259:131|240:123,1,140,10|8,0:0|0:0,0:0:0:0:
311,142,16251,2,2,B|342:126|363:140|353:165|316:192|316:192|381:195,1,140
396,223,16501,2,0,B|411:206|423:188|423:188|423:297,1,140,2|0,0:0|0:0,0:0:0:0:
236,46,16834,5,0,0:0:0:0:
423,283,17001,1,0,0:0:0:0:
129,323,17167,5,0,0:0:0:0:
432,290,17334,2,0,P|488:220|491:149,1,119.000002269745,8|0,0:0|0:0,0:0:0:0:
251,125,17667,1,0,0:0:0:0:
380,187,17834,1,0,0:0:0:0:
98,91,18001,2,0,P|14:139|2:167,1,119.000002269745,8|0,0:0|0:0,0:0:0:0:
251,125,18334,5,0,0:0:0:0:
98,190,18501,1,0,0:0:0:0:
370,354,18667,2,0,P|392:295|391:225,1,119.000002269745,8|0,0:0|0:0,0:0:0:0:
240,14,19001,2,0,P|288:54|322:115,1,119.000002269745,8|0,0:0|0:0,0:0:0:0:
161,339,19334,2,0,P|209:298|243:237,1,119.000002269745,8|0,0:0|0:0,0:0:0:0:
93,60,19667,1,0,0:0:0:0:
1,192,19834,1,0,0:0:0:0:
291,182,20001,6,0,P|341:142|358:83,2,119.000002269745,8|0|0,0:0|0:0|0:0,0:0:0:0:
235,203,20417,1,0,0:0:0:0:
186,238,20501,1,0,0:0:0:0:
154,288,20584,1,0,0:0:0:0:
147,346,20667,2,0,P|221:324|252:288,1,119.000002269745,8|0,0:0|0:0,0:0:0:0:
253,83,21001,5,0,0:0:0:0:
193,87,21084,1,0,0:0:0:0:
144,120,21167,1,0,0:0:0:0:
125,176,21251,1,0,0:0:0:0:
176,146,21334,2,0,P|178:70|148:33,1,119.000002269745,8|0,0:0|0:0,0:0:0:0:
1,198,21667,5,0,0:0:0:0:
14,256,21751,1,0,0:0:0:0:
47,305,21834,1,0,0:0:0:0:
95,338,21917,1,0,0:0:0:0:
99,278,22001,2,0,P|109:199|143:154,1,119.000002269745,8|0,0:0|0:0,0:0:0:0:
382,203,22334,5,0,0:0:0:0:
211,247,22501,1,0,0:0:0:0:
381,22,22667,2,0,P|337:66|288:146,1,119.000002269745,8|0,0:0|0:0,0:0:0:0:
426,329,23001,5,0,0:0:0:0:
299,229,23167,1,0,0:0:0:0:
503,48,23334,2,0,P|497:164|486:184,1,119.000002269745,8|0,0:0|0:0,0:0:0:0:
325,327,23667,5,0,0:0:0:0:
401,188,23834,1,0,0:0:0:0:
126,271,24001,2,0,P|212:238|235:177,1,119.000002269745,8|0,0:0|0:0,0:0:0:0:
116,23,24334,2,0,P|101:113|142:164,1,119.000002269745,8|0,0:0|0:0,0:0:0:0:
342,142,24667,2,0,P|270:84|206:94,1,119.000002269745,8|0,0:0|0:0,0:0:0:0:
126,271,25001,5,0,0:0:0:0:
249,177,25167,1,0,0:0:0:0:
24,69,25334,5,8,0:0:0:0:
28,98,25417,1,0,0:0:0:0:
41,124,25501,1,0,0:0:0:0:
62,144,25584,1,0,0:0:0:0:
85,162,25667,2,0,P|141:122|206:104,1,119.000002269745
316,281,26001,5,8,0:0:0:0:
327,253,26084,1,0,0:0:0:0:
346,231,26167,1,0,0:0:0:0:
372,217,26251,1,0,0:0:0:0:
398,206,26334,2,0,P|441:259|499:293,1,119.000002269745
282,133,26667,5,8,0:0:0:0:
316,281,26834,1,0,0:0:0:0:
125,110,27001,5,0,0:0:0:0:
282,133,27167,1,0,0:0:0:0:
175,348,27334,5,0,0:0:0:0:
54,253,27501,1,0,0:0:0:0:
282,133,27667,6,0,P|336:112|379:108,1,78.7500030040742
422,118,28001,6,0,P|392:219|343:267,1,140
178,105,28334,1,0,0:0:0:0:
332,185,28501,1,0,0:0:0:0:
98,145,28667,1,0,0:0:0:0:
261,64,28834,1,0,0:0:0:0:
262,312,29001,1,0,0:0:0:0:
332,185,29167,1,0,0:0:0:0:
136,257,29334,5,0,0:0:0:0:
360,327,29501,1,0,0:0:0:0:
462,112,29667,1,0,0:0:0:0:
324,51,29832,1,0,0:0:0:0:
441,259,29999,1,0,0:0:0:0:
462,112,30167,1,0,0:0:0:0:
291,273,30334,1,0,0:0:0:0:
441,259,30501,1,0,0:0:0:0:
236,124,30667,6,0,L|213:209,1,59.5000011348725
192,297,30834,2,0,L|169:211,1,59.5000011348725
151,107,31001,2,0,L|128:192,1,59.5000011348725
109,316,31167,2,0,L|86:230,1,59.5000011348725
51,101,31334,2,0,L|66:158,1,59.5000011348725
108,327,31501,2,0,L|123:269,1,59.5000011348725
159,88,31667,2,0,L|174:145,1,59.5000011348725
220,346,31834,2,0,L|235:288,1,59.5000011348725
282,64,32001,5,0,0:0:0:0:
510,341,32334,1,0,0:0:0:0:
0,295,32667,1,0,0:0:0:0:
214,49,33001,2,0,P|280:58|304:83,1,78.7500030040742,2|0,0:0|0:0,0:0:0:0:
241,127,33334,2,0,B|326:192|333:265|468:305|421:194,1,280
355,128,33834,5,0,0:0:0:0:
249,130,34001,1,0,0:0:0:0:
295,36,34167,1,0,0:0:0:0:
400,36,34334,1,0,0:0:0:0:
465,118,34501,1,0,0:0:0:0:
324,220,34667,5,0,0:0:0:0:
499,228,34834,1,0,0:0:0:0:
355,128,35001,1,0,0:0:0:0:
292,310,35167,1,0,0:0:0:0:
249,130,35334,2,0,P|297:34|354:21,1,140
239,221,36001,6,0,P|159:154|153:127,1,125.999996154785
144,95,36334,2,0,B|136:64|136:64|77:111|71:149,1,131.25
64,184,36667,2,0,B|68:202|68:202|90:203|90:203|111:244|162:283,1,136.499993751526
189,302,37001,5,0,0:0:0:0:
324,303,37167,1,0,0:0:0:0:
419,205,37334,1,0,0:0:0:0:
286,170,37501,1,0,0:0:0:0:
441,76,37667,5,0,0:0:0:0:
507,246,37834,1,0,0:0:0:0:
286,170,38001,1,0,0:0:0:0:
297,199,38084,1,0,0:0:0:0:
312,226,38167,1,0,0:0:0:0:
360,344,38334,6,0,P|285:315|210:309,1,141.750000540733
172,312,38667,2,0,B|221:330|274:314|274:314|217:273|190:217,1,224
53,316,39167,5,0,0:0:0:0:
92,152,39334,2,0,P|142:117|196:104,2,112
194,225,39834,5,0,0:0:0:0:
194,225,39917,1,0,0:0:0:0:
194,225,40001,1,0,0:0:0:0:
350,107,40167,1,0,0:0:0:0:
165,39,40334,1,0,0:0:0:0:
350,107,40501,1,0,0:0:0:0:
305,291,40667,2,0,P|278:334|209:360,1,112
307,184,41001,6,0,P|315:157|341:127,1,56
392,195,41167,1,0,0:0:0:0:
190,223,41334,2,0,P|128:237|76:271,1,112
305,291,41667,2,0,P|359:295|394:280,1,56
338,212,41834,2,0,B|319:129|248:113|248:113|329:76|458:96,1,336
256,192,42667,12,0,43917,0:0:0:0:
111,249,44001,6,0,P|170:285|215:291,1,90.9999958343508
215,145,44334,1,0,0:0:0:0:
103,142,44501,1,0,0:0:0:0:
114,342,44667,1,0,0:0:0:0:
158,191,44834,1,0,0:0:0:0:
318,315,45001,1,0,0:0:0:0:
402,132,45167,1,0,0:0:0:0:
237,251,45334,5,0,0:0:0:0:
436,224,45501,1,0,0:0:0:0:
368,36,45667,1,0,0:0:0:0:
507,125,45834,1,0,0:0:0:0:
290,107,46001,5,0,0:0:0:0:
247,121,46167,1,0,0:0:0:0:
208,96,46334,1,0,0:0:0:0:
164,110,46501,1,0,0:0:0:0:
0,84,46667,5,0,0:0:0:0:
39,108,46834,1,0,0:0:0:0:
103,239,47001,1,0,0:0:0:0:
100,284,47167,1,0,0:0:0:0:
247,121,47334,1,0,0:0:0:0:
263,78,47501,1,0,0:0:0:0:
239,266,47667,5,0,0:0:0:0:
330,194,47834,1,0,0:0:0:0:
146,194,48001,1,0,0:0:0:0:
145,379,48167,1,0,0:0:0:0:
284,232,48334,1,0,0:0:0:0:
194,76,48501,1,0,0:0:0:0:
114,191,48667,1,0,0:0:0:0:
114,191,48751,1,0,0:0:0:0:
114,191,48834,1,0,0:0:0:0:
114,191,48917,1,0,0:0:0:0:
114,191,49001,6,0,P|131:244|124:276,1,78.7500030040742
120,318,49334,2,0,P|196:259|276:270,1,140
392,316,49667,5,0,0:0:0:0:
342,191,49834,1,0,0:0:0:0:
386,31,50001,1,0,0:0:0:0:
278,113,50167,1,0,0:0:0:0:
105,51,50334,1,0,0:0:0:0:
196,161,50501,1,0,0:0:0:0:
161,348,50667,5,0,0:0:0:0:
266,253,50834,1,0,0:0:0:0:
438,324,51001,1,0,0:0:0:0:
272,185,51167,1,0,0:0:0:0:
447,53,51334,6,0,P|342:78|293:108,1,119.000002269745
203,281,51667,1,0,0:0:0:0:
412,211,51834,1,0,0:0:0:0:
172,152,52001,2,0,P|212:211|262:251,1,119.000002269745
49,245,52334,5,0,0:0:0:0:
181,62,52501,1,0,0:0:0:0:
407,98,52667,1,0,0:0:0:0:
227,247,52834,1,0,0:0:0:0:
450,345,53001,1,0,0:0:0:0:
407,98,53167,1,0,0:0:0:0:
0,331,53334,1,14,0:0:0:0:
257,192,54667,6,0,P|220:266|148:289,1,119.000002269745
238,54,55001,2,0,P|318:62|371:116,1,119.000002269745
138,171,55334,1,0,0:0:0:0:
138,171,55417,1,0,0:0:0:0:
138,171,55501,1,0,0:0:0:0:
393,222,55667,1,0,0:0:0:0:
495,53,55834,1,0,0:0:0:0:
257,192,56001,6,0,P|259:275|315:326,1,119.000002269745
297,55,56334,2,0,P|232:46|174:73,1,119.000002269745
393,222,56667,1,0,0:0:0:0:
393,222,56751,1,0,0:0:0:0:
393,222,56834,1,0,0:0:0:0:
143,283,57001,2,0,P|64:246|47:178,1,119.000002269745
238,54,57334,5,0,0:0:0:0:
146,183,57501,1,0,0:0:0:0:
393,222,57667,1,0,0:0:0:0:
233,140,57834,1,0,0:0:0:0:
44,338,58001,1,0,0:0:0:0:
44,338,58084,1,0,0:0:0:0:
44,338,58167,1,0,0:0:0:0:
69,97,58334,1,0,0:0:0:0:
238,54,58501,1,0,0:0:0:0:
46,219,58667,5,0,0:0:0:0:
284,296,58834,1,0,0:0:0:0:
342,40,59001,1,0,0:0:0:0:
141,264,59167,1,0,0:0:0:0:
510,287,59334,1,0,0:0:0:0:
0,54,59667,1,0,0:0:0:0:
256,281,60001,5,0,0:0:0:0:
187,81,60167,1,0,0:0:0:0:
361,203,60334,1,0,0:0:0:0:
149,202,60501,1,0,0:0:0:0:
323,81,60667,1,0,0:0:0:0:
183,267,60834,5,0,0:0:0:0:
252,43,61001,1,0,0:0:0:0:
329,266,61167,1,0,0:0:0:0:
138,127,61334,1,0,0:0:0:0:
373,131,61501,1,0,0:0:0:0:
256,301,61667,5,0,0:0:0:0:
172,56,61834,1,0,0:0:0:0:
384,205,62001,1,0,0:0:0:0:
125,204,62167,1,0,0:0:0:0:
338,56,62334,1,0,0:0:0:0:
256,301,62501,1,0,0:0:0:0:
151,21,62667,5,0,3:0:0:0:
209,11,62751,1,0,3:0:0:0:
264,33,62834,1,0,3:0:0:0:
299,80,62917,1,0,3:0:0:0:
305,138,63001,1,0,3:0:0:0:
281,191,63084,1,0,3:0:0:0:
232,224,63167,1,0,3:0:0:0:
173,227,63251,1,0,3:0:0:0:
117,206,63334,5,0,3:0:0:0:
78,163,63417,1,0,3:0:0:0:
94,109,63501,1,0,3:0:0:0:
150,95,63584,1,0,3:0:0:0:
190,135,63667,1,0,3:0:0:0:
219,187,63751,1,0,3:0:0:0:
254,234,63834,1,0,3:0:0:0:
306,260,63917,1,0,3:0:0:0:
365,260,64001,1,0,3:0:0:0:
408,87,64167,5,0,0:0:0:0:
399,115,64251,1,0,0:0:0:0:
390,143,64334,1,0,0:0:0:0:
134,153,64501,5,0,0:0:0:0:
143,181,64584,1,0,0:0:0:0:
154,208,64667,1,0,0:0:0:0:
346,270,64834,5,0,0:0:0:0:
337,298,64917,1,0,0:0:0:0:
328,326,65001,2,0,P|387:340|423:334,1,70
125,125,65334,2,0,B|59:160|37:215|37:215|67:277|22:367,1,280
217,276,65834,1,0,0:0:0:0:
38,216,66001,1,0,0:0:0:0:
229,136,66167,1,0,0:0:0:0:
339,313,66334,1,0,0:0:0:0:
139,253,66501,1,0,0:0:0:0:
394,180,66667,5,0,0:0:0:0:
142,87,66834,1,0,0:0:0:0:
265,338,67001,1,0,0:0:0:0:
291,55,67167,1,0,0:0:0:0:
437,280,67334,2,0,B|383:295|350:290|350:290|320:237|251:226|206:263,1,238.00000453949
210,312,67751,1,0,0:0:0:0:
156,336,67834,1,0,0:0:0:0:
4,101,68001,6,0,P|45:161|100:183,1,119.000002269745
291,26,68334,2,0,P|217:32|171:68,1,119.000002269745
210,312,68667,2,0,P|241:245|232:187,1,119.000002269745
0,239,69001,5,0,0:0:0:0:
156,336,69167,1,0,0:0:0:0:
281,99,69334,5,0,0:0:0:0:
109,181,69501,1,0,0:0:0:0:
360,350,69667,5,0,0:0:0:0:
298,157,69834,1,0,0:0:0:0:
55,325,70001,5,0,0:0:0:0:
257,349,70167,1,0,0:0:0:0:
25,220,70334,5,0,0:0:0:0:
61,189,70417,1,0,0:0:0:0:
109,181,70501,1,0,0:0:0:0:
152,199,70584,1,0,0:0:0:0:
214,230,70667,2,0,B|274:262|348:226|348:226|356:284|484:190,1,280
276,116,71167,5,0,0:0:0:0:
326,319,71334,1,0,0:0:0:0:
383,331,71417,1,0,0:0:0:0:
440,314,71501,1,0,0:0:0:0:
388,158,71667,1,0,0:0:0:0:
329,172,71751,1,0,0:0:0:0:
292,219,71834,1,0,0:0:0:0:
286,277,71917,1,0,0:0:0:0:
286,277,72001,5,0,0:0:0:0:
447,172,72167,1,0,0:0:0:0:
198,298,72334,5,0,0:0:0:0:
271,105,72501,1,0,0:0:0:0:
107,328,72667,5,0,0:0:0:0:
106,266,72751,1,0,0:0:0:0:
111,207,72834,1,0,0:0:0:0:
348,50,73001,6,0,L|328:121,1,59.5000011348725
256,197,73167,2,0,L|276:126,1,59.5000011348725
248,24,73334,2,0,P|207:111|128:139,1,178.500003404617
75,151,73667,2,0,P|79:221|114:249,1,119.000002269745
173,263,73917,1,0,0:0:0:0:
229,276,74001,5,0,0:0:0:0:
276,243,74084,1,0,0:0:0:0:
283,186,74167,1,0,0:0:0:0:
245,142,74251,1,0,0:0:0:0:
186,144,74334,5,0,0:0:0:0:
219,95,74417,1,0,0:0:0:0:
270,64,74501,1,0,0:0:0:0:
328,55,74584,1,0,0:0:0:0:
388,63,74667,5,0,0:0:0:0:
442,85,74751,1,0,0:0:0:0:
484,127,74834,1,0,0:0:0:0:
505,182,74917,1,0,0:0:0:0:
501,246,75001,5,0,0:0:0:0:
473,301,75084,1,0,0:0:0:0:
424,339,75167,1,0,0:0:0:0:
383,287,75251,1,0,0:0:0:0:
321,252,75334,1,0,0:0:0:0:
250,246,75417,1,0,0:0:0:0:
179,262,75501,1,0,0:0:0:0:
122,305,75584,1,0,0:0:0:0:
70,354,75667,6,0,P|19:231|54:152,1,210
97,99,76001,2,0,B|170:131|207:187|207:187|299:158|336:187,1,210
341,181,76334,1,0,0:0:0:0:
121,246,76501,5,0,0:0:0:0:
335,39,76667,2,0,P|420:70|469:147,1,140
264,339,77001,5,0,0:0:0:0:
236,103,77167,1,0,0:0:0:0:
458,337,77334,5,0,0:0:0:0:
508,90,77501,1,0,0:0:0:0:
225,244,77667,5,0,0:0:0:0:
478,218,77834,1,0,0:0:0:0:
151,76,78001,2,0,P|33:176|12:246,1,210
4,293,78334,1,0,0:0:0:0:
225,244,78501,1,0,0:0:0:0:
4,16,78667,6,0,P|23:95|72:140,1,140
400,25,79001,2,0,P|319:8|258:21,1,140
192,364,79334,2,0,P|244:303|265:243,1,140
111,41,79667,5,0,0:0:0:0:
143,242,79834,1,0,0:0:0:0:
470,256,80001,5,0,0:0:0:0:
328,111,80167,1,0,0:0:0:0:
28,226,80334,5,0,0:0:0:0:
232,248,80501,1,0,0:0:0:0:
424,0,80667,5,0,0:0:0:0:
465,42,80751,1,0,0:0:0:0:
492,94,80834,1,0,0:0:0:0:
504,151,80917,1,0,0:0:0:0:
506,210,81001,2,0,P|380:167|303:171,1,178.500003404617
269,188,81334,6,0,P|315:288|473:257,1,280
465,42,81834,5,0,0:0:0:0:
166,160,82001,1,0,0:0:0:0:
376,204,82167,1,0,0:0:0:0:
318,2,82334,1,0,0:0:0:0:
166,160,82501,5,0,0:0:0:0:
166,160,82584,1,0,0:0:0:0:
166,160,82667,1,0,0:0:0:0:
234,384,82834,1,0,0:0:0:0:
0,187,83001,1,0,0:0:0:0:
259,151,83167,1,0,0:0:0:0:
25,349,83334,5,0,0:0:0:0:
7,296,83417,1,0,0:0:0:0:
10,240,83501,1,0,0:0:0:0:
34,189,83584,1,0,0:0:0:0:
72,148,83667,5,0,0:0:0:0:
238,22,83834,1,0,0:0:0:0:
163,262,84001,1,0,0:0:0:0:
126,304,84084,1,0,0:0:0:0:
80,336,84167,1,0,0:0:0:0:
120,117,84334,5,0,0:0:0:0:
288,173,84501,1,0,0:0:0:0:
25,349,84667,2,0,P|10:239|31:202,1,140
268,47,85001,1,0,0:0:0:0:
163,262,85167,1,0,0:0:0:0:
463,307,85334,5,0,0:0:0:0:
137,355,85501,1,0,0:0:0:0:
226,40,85667,1,0,0:0:0:0:
387,326,85834,1,0,0:0:0:0:
139,104,86001,5,0,0:0:0:0:
509,379,86334,1,0,0:0:0:0:
0,325,86667,1,0,0:0:0:0:
256,192,86751,12,0,87917,0:0:0:0:
406,90,88001,5,0,0:0:0:0:
412,88,88167,1,2,0:0:0:0:
172,137,88334,1,0,0:0:0:0:
165,136,88501,1,2,0:0:0:0:
362,264,88667,5,0,0:0:0:0:
369,263,88834,1,2,0:0:0:0:
154,338,89001,1,0,0:0:0:0:
149,341,89167,1,2,0:0:0:0:
334,177,89334,5,0,0:0:0:0:
340,174,89501,1,2,0:0:0:0:
95,231,89667,1,0,0:0:0:0:
89,229,89834,1,2,0:0:0:0:
313,333,90001,5,0,0:0:0:0:
313,333,90167,1,2,0:0:0:0:
210,128,90334,1,0,0:0:0:0:
204,124,90501,1,2,0:0:0:0:
442,174,90667,5,0,0:0:0:0:
241,243,90834,1,0,0:0:0:0:
354,0,91001,1,0,0:0:0:0:
340,208,91167,1,0,0:0:0:0:
84,291,91334,5,0,0:0:0:0:
225,341,91501,1,0,0:0:0:0:
154,53,91667,1,0,0:0:0:0:
30,182,91834,1,0,0:0:0:0:
340,208,92001,1,0,0:0:0:0:
256,192,92084,12,0,93251,0:0:0:0:
184,182,93334,5,0,0:0:0:0:
177,184,93501,1,2,0:0:0:0:
408,73,93667,1,0,0:0:0:0:
414,68,93834,1,2,0:0:0:0:
332,304,94001,5,0,0:0:0:0:
336,310,94167,1,2,0:0:0:0:
76,326,94334,1,0,0:0:0:0:
73,333,94501,1,2,0:0:0:0:
11,87,94667,5,0,0:0:0:0:
6,82,94834,1,2,0:0:0:0:
261,138,95001,1,0,0:0:0:0:
268,138,95167,1,2,0:0:0:0:
43,260,95334,1,0,0:0:0:0:
35,261,95501,1,2,0:0:0:0:
283,362,95667,1,0,0:0:0:0:
283,368,95834,1,2,0:0:0:0:
445,238,96001,5,8,3:0:0:0:
467,218,96084,1,0,3:0:0:0:
476,191,96167,1,2,3:0:0:0:
471,162,96251,1,0,3:0:0:0:
451,140,96334,1,0,3:0:0:0:
424,130,96417,1,0,3:0:0:0:
395,135,96501,1,2,3:0:0:0:
368,150,96584,1,0,3:0:0:0:
345,168,96667,5,0,3:0:0:0:
319,184,96751,1,0,3:0:0:0:
292,195,96834,1,2,3:0:0:0:
263,200,96917,1,0,3:0:0:0:
233,201,97001,1,0,3:0:0:0:
204,195,97084,1,0,3:0:0:0:
176,185,97167,1,2,3:0:0:0:
151,169,97251,1,0,3:0:0:0:
129,149,97334,5,12,3:0:0:0:
191,168,102751,5,0,0:0:0:0:
1,50,103453,1,0,0:0:0:0:
123,38,103800,1,0,0:0:0:0:
27,152,104147,1,0,0:0:0:0:
447,154,105451,5,0,0:0:0:0:
241,187,106103,1,0,0:0:0:0:
358,81,106429,1,0,0:0:0:0:
447,154,106755,1,0,0:0:0:0:
39,338,108142,5,0,0:0:0:0:
221,232,108794,1,0,0:0:0:0:
107,123,109120,1,0,0:0:0:0:
18,207,109446,1,0,0:0:0:0:
398,305,110750,5,0,0:0:0:0:
182,248,111443,1,0,0:0:0:0:
300,282,111790,1,0,0:0:0:0:
390,165,112137,1,0,0:0:0:0:
1,50,113441,5,0,0:0:0:0:
70,249,114134,1,0,0:0:0:0:
121,118,114481,1,0,0:0:0:0:
197,246,114828,1,0,0:0:0:0:
497,34,116132,5,0,0:0:0:0:
316,112,116784,1,0,0:0:0:0:
486,156,117192,1,0,0:0:0:0:
437,70,117436,1,0,0:0:0:0:
15,216,118823,5,0,0:0:0:0:
210,292,119475,1,0,0:0:0:0:
88,300,119719,1,0,0:0:0:0:
167,163,120127,1,0,0:0:0:0:
485,341,121431,5,0,0:0:0:0:
260,174,122124,1,0,0:0:0:0:
400,175,122471,1,0,0:0:0:0:
323,47,122818,1,0,0:0:0:0:
256,189,123959,5,0,0:0:0:0:
101,109,131980,5,0,0:0:0:0:
293,182,132313,1,0,0:0:0:0:
343,198,132480,1,0,0:0:0:0:
113,248,132646,1,0,0:0:0:0:
307,309,132896,1,0,0:0:0:0:
333,316,132980,1,0,0:0:0:0:
205,281,133146,1,0,0:0:0:0:
396,214,133313,1,0,0:0:0:0:
256,192,133396,12,0,134563,0:0:0:0:
331,101,134646,5,0,0:0:0:0:
331,101,134730,1,0,0:0:0:0:
331,101,134813,1,0,0:0:0:0:
76,153,134980,1,0,0:0:0:0:
253,190,135146,1,0,0:0:0:0:
440,357,135313,1,0,0:0:0:0:
370,212,135480,2,0,L|343:142,1,59.5000011348725
489,240,135646,1,0,0:0:0:0:
285,285,135813,1,0,0:0:0:0:
452,90,135980,5,0,0:0:0:0:
475,72,136063,1,0,0:0:0:0:
495,51,136146,1,0,0:0:0:0:
313,44,136313,1,0,0:0:0:0:
76,153,136480,1,0,0:0:0:0:
370,212,136646,1,0,0:0:0:0:
70,378,136813,1,0,0:0:0:0:
220,54,136980,2,0,L|248:-13,1,59.5000011348725
288,145,137146,1,0,0:0:0:0:
0,227,137313,5,0,0:0:0:0:
35,52,137480,1,0,0:0:0:0:
31,289,137646,1,0,0:0:0:0:
149,132,137813,1,0,0:0:0:0:
445,99,137980,5,0,0:0:0:0:
223,173,138146,2,0,L|148:196,1,59.5000011348725
220,54,138313,1,0,0:0:0:0:
391,217,138479,1,0,0:0:0:0:
66,349,138646,5,0,0:0:0:0:
31,289,138729,1,0,0:0:0:0:
0,226,138813,2,0,L|1:151,1,59.5000011348725
136,214,138979,1,0,0:0:0:0:
264,377,139146,1,0,0:0:0:0:
463,155,139313,5,0,0:0:0:0:
234,358,139479,1,0,0:0:0:0:
25,119,139646,1,0,0:0:0:0:
267,337,139813,1,0,0:0:0:0:
512,93,139979,5,0,0:0:0:0:
382,202,140146,1,0,0:0:0:0:
358,179,140229,1,0,0:0:0:0:
337,154,140313,1,0,0:0:0:0:
512,93,140479,1,0,0:0:0:0:
382,202,140646,5,0,0:0:0:0:
249,317,140813,1,0,0:0:0:0:
225,294,140896,1,0,0:0:0:0:
204,269,140979,1,0,0:0:0:0:
382,202,141146,1,0,0:0:0:0:
249,317,141313,5,0,0:0:0:0:
337,154,141479,1,0,0:0:0:0:
358,179,141563,1,0,0:0:0:0:
382,202,141646,1,0,0:0:0:0:
204,269,141813,1,0,0:0:0:0:
337,154,141979,5,0,0:0:0:0:
467,45,142146,1,0,0:0:0:0:
488,70,142229,1,0,0:0:0:0:
512,93,142313,1,0,0:0:0:0:
337,154,142479,1,0,0:0:0:0:
467,45,142646,5,0,0:0:0:0:
489,100,142729,1,0,0:0:0:0:
493,159,142813,1,0,0:0:0:0:
478,216,142896,1,0,0:0:0:0:
445,265,142979,1,0,0:0:0:0:
397,299,143063,1,0,0:0:0:0:
340,316,143146,1,0,0:0:0:0:
281,313,143229,1,0,0:0:0:0:
217,281,143313,5,0,0:0:0:0:
163,235,143396,1,0,0:0:0:0:
150,167,143479,1,0,0:0:0:0:
183,105,143563,1,0,0:0:0:0:
247,77,143646,1,0,0:0:0:0:
314,96,143729,1,0,0:0:0:0:
356,159,143813,1,0,0:0:0:0:
315,217,143896,1,0,0:0:0:0:
248,182,143979,6,0,L|259:136,31,29.7500005674362
285,158,145313,5,0,0:0:0:0:
6,201,146979,5,0,0:0:0:0:
91,284,147313,1,0,0:0:0:0:
198,234,147646,1,0,0:0:0:0:
404,352,147979,6,0,P|497:311|513:298,1,119.000002269745
366,116,148313,1,0,0:0:0:0:
348,172,148396,1,0,0:0:0:0:
340,230,148479,1,0,0:0:0:0:
512,78,148646,1,0,0:0:0:0:
463,43,148729,1,0,0:0:0:0:
403,32,148813,1,0,0:0:0:0:
251,216,148979,1,0,0:0:0:0:
181,232,149063,1,0,0:0:0:0:
112,213,149146,1,0,0:0:0:0:
62,162,149229,1,0,0:0:0:0:
84,99,149313,5,0,0:0:0:0:
142,93,149396,1,0,0:0:0:0:
184,134,149479,1,0,0:0:0:0:
173,193,149563,1,0,0:0:0:0:
134,230,149646,5,0,0:0:0:0:
119,263,149729,1,0,0:0:0:0:
127,310,149813,1,0,0:0:0:0:
162,341,149896,1,0,0:0:0:0:
216,342,149979,5,0,0:0:0:0:
268,312,150063,1,0,0:0:0:0:
322,288,150146,1,0,0:0:0:0:
381,288,150229,1,0,0:0:0:0:
442,312,150313,5,0,0:0:0:0:
410,248,150396,1,0,0:0:0:0:
394,178,150479,1,0,0:0:0:0:
400,106,150563,1,0,0:0:0:0:
437,45,150646,6,0,B|490:142|387:197|293:203,1,210
264,217,150979,5,0,0:0:0:0:
415,162,151146,1,0,0:0:0:0:
433,87,151229,1,0,0:0:0:0:
382,27,151313,5,0,0:0:0:0:
305,17,151396,1,0,0:0:0:0:
245,65,151479,1,0,0:0:0:0:
250,142,151563,1,0,0:0:0:0:
291,211,151646,5,0,0:0:0:0:
293,294,151729,1,0,0:0:0:0:
226,346,151813,1,0,0:0:0:0:
143,334,151896,1,0,0:0:0:0:
92,272,151979,5,0,0:0:0:0:
128,203,152063,1,0,0:0:0:0:
89,136,152146,1,0,0:0:0:0:
334,108,152313,6,0,L|465:140,2,70
119,172,152646,2,0,L|-12:204,2,70
321,229,152979,2,0,L|452:261,2,70
150,183,153313,5,0,0:0:0:0:
89,136,153396,1,0,0:0:0:0:
98,59,153479,1,0,0:0:0:0:
167,23,153563,1,0,0:0:0:0:
229,62,153646,5,0,0:0:0:0:
264,122,153729,1,0,0:0:0:0:
325,157,153813,1,0,0:0:0:0:
393,171,153896,1,0,0:0:0:0:
466,160,153979,6,0,P|489:141|514:106,3,70
381,57,154313,2,0,P|261:73|157:117,1,210
53,166,154646,5,0,0:0:0:0:
12,239,154729,1,0,0:0:0:0:
32,318,154813,1,0,0:0:0:0:
99,356,154896,1,0,0:0:0:0:
112,284,154979,5,0,0:0:0:0:
152,226,155063,1,0,0:0:0:0:
219,207,155146,1,0,0:0:0:0:
284,230,155229,1,0,0:0:0:0:
329,293,155313,5,0,0:0:0:0:
245,287,155396,1,0,0:0:0:0:
188,226,155479,1,0,0:0:0:0:
186,141,155563,1,0,0:0:0:0:
228,73,155646,6,0,P|314:79|393:210,1,210
404,310,155979,1,0,0:0:0:0:
329,293,156063,1,0,0:0:0:0:
284,230,156146,1,0,0:0:0:0:
300,154,156229,1,0,0:0:0:0:
369,111,156313,5,0,0:0:0:0:
450,130,156396,1,0,0:0:0:0:
491,202,156479,1,0,0:0:0:0:
465,282,156563,1,0,0:0:0:0:
385,308,156646,6,0,B|280:314|315:191|196:169,1,210
72,157,156979,5,0,0:0:0:0:
18,110,157063,1,0,0:0:0:0:
32,41,157146,1,0,0:0:0:0:
98,25,157229,1,0,0:0:0:0:
131,103,157313,5,0,0:0:0:0:
169,143,157396,1,0,0:0:0:0:
222,157,157479,1,0,0:0:0:0:
277,149,157563,1,0,0:0:0:0:
338,97,157646,5,0,0:0:0:0:
377,83,157729,1,0,0:0:0:0:
418,90,157813,1,0,0:0:0:0:
455,109,157896,1,0,0:0:0:0:
478,182,157979,6,0,P|424:182|367:222,1,105
342,271,158313,2,0,P|299:288|238:274,1,94.499997116089
106,230,158646,2,0,P|26:214|1:317,1,188.999994232178
45,365,158979,2,0,B|171:361|163:253|214:194,1,210
222,157,159313,5,0,0:0:0:0:
224,88,159396,1,0,0:0:0:0:
182,32,159479,1,0,0:0:0:0:
113,17,159563,1,0,0:0:0:0:
50,38,159646,5,0,0:0:0:0:
21,94,159729,1,0,0:0:0:0:
15,157,159813,1,0,0:0:0:0:
55,205,159896,1,0,0:0:0:0:
115,222,159979,6,0,P|151:221|194:195,3,70
130,144,160313,5,0,0:0:0:0:
202,170,160396,1,0,0:0:0:0:
261,218,160479,1,0,0:0:0:0:
305,281,160563,1,0,0:0:0:0:
333,352,160646,6,0,P|365:332|377:281,3,70
349,232,160979,6,0,P|317:252|305:303,3,70
377,303,161313,5,0,0:0:0:0:
442,250,161396,1,0,0:0:0:0:
486,179,161479,1,0,0:0:0:0:
505,96,161563,1,0,0:0:0:0:
443,50,161646,5,0,0:0:0:0:
377,9,161729,1,0,0:0:0:0:
307,44,161813,1,0,0:0:0:0:
305,120,161896,1,0,0:0:0:0:
366,160,161979,5,0,0:0:0:0:
430,188,162063,1,0,0:0:0:0:
480,236,162146,1,0,0:0:0:0:
469,305,162229,1,0,0:0:0:0:
392,339,162313,5,0,0:0:0:0:
320,297,162396,1,0,0:0:0:0:
240,320,162479,1,0,0:0:0:0:
168,278,162563,1,0,0:0:0:0:
86,285,162646,6,0,L|27:246,3,70
117,209,162979,6,0,L|156:150,3,70
168,278,163313,5,0,0:0:0:0:
240,320,163396,1,0,0:0:0:0:
319,299,163479,1,0,0:0:0:0:
365,228,163563,1,0,0:0:0:0:
345,146,163646,2,0,B|311:83|252:132|162:87,1,140
24,45,163979,5,0,0:0:0:0:
72,105,164063,1,0,0:0:0:0:
145,126,164146,1,0,0:0:0:0:
218,105,164229,1,0,0:0:0:0:
289,60,164313,5,0,0:0:0:0:
371,44,164396,1,0,0:0:0:0:
437,94,164479,1,0,0:0:0:0:
436,178,164563,1,0,0:0:0:0:
453,252,164646,5,0,0:0:0:0:
492,309,164729,1,0,0:0:0:0:
422,314,164813,1,0,0:0:0:0:
354,331,164896,1,0,0:0:0:0:
287,353,164979,5,0,0:0:0:0:
216,359,165063,1,0,0:0:0:0:
146,356,165146,1,0,0:0:0:0:
78,340,165229,1,0,0:0:0:0:
9,303,165313,5,0,0:0:0:0:
90,270,165396,1,0,0:0:0:0:
157,219,165479,1,0,0:0:0:0:
206,150,165563,1,0,0:0:0:0:
207,70,165646,5,0,0:0:0:0:
150,17,165729,1,0,0:0:0:0:
81,53,165813,1,0,0:0:0:0:
76,129,165896,1,0,0:0:0:0:
138,169,165979,5,0,0:0:0:0:
206,150,166063,1,0,0:0:0:0:
271,126,166146,1,0,0:0:0:0:
336,102,166229,1,0,0:0:0:0:
421,100,166313,5,0,0:0:0:0:
483,158,166396,1,0,0:0:0:0:
475,241,166479,1,0,0:0:0:0:
405,288,166563,1,0,0:0:0:0:
322,274,166646,6,0,B|262:225|291:148|291:148|240:253|151:248,1,280
385,191,167146,1,0,0:0:0:0:
143,96,167313,5,0,0:0:0:0:
66,130,167396,1,0,0:0:0:0:
16,206,167479,1,0,0:0:0:0:
10,297,167563,1,0,0:0:0:0:
52,376,167646,2,0,P|79:355|99:306,3,70
10,297,167979,6,0,P|151:234|276:321,1,280
139,382,168479,1,0,0:0:0:0:
141,92,168646,6,0,B|156:156|132:233|132:233|216:232|265:301,1,280
274,138,169146,1,0,0:0:0:0:
139,382,169313,6,0,P|45:348|35:332,3,70
120,302,169646,5,0,0:0:0:0:
166,232,169729,1,0,0:0:0:0:
243,198,169813,1,0,0:0:0:0:
326,201,169896,1,0,0:0:0:0:
401,228,169979,5,0,0:0:0:0:
445,291,170063,1,0,0:0:0:0:
402,354,170146,1,0,0:0:0:0:
325,345,170229,1,0,0:0:0:0:
296,273,170313,5,0,0:0:0:0:
326,201,170396,1,0,0:0:0:0:
386,153,170479,1,0,0:0:0:0:
438,95,170563,1,0,0:0:0:0:
369,47,170646,5,0,0:0:0:0:
289,22,170729,1,0,0:0:0:0:
205,9,170813,1,0,0:0:0:0:
121,12,170896,1,0,0:0:0:0:
43,30,170979,5,0,0:0:0:0:
118,51,171063,1,0,0:0:0:0:
145,119,171146,1,0,0:0:0:0:
108,178,171229,1,0,0:0:0:0:
41,185,171313,5,0,0:0:0:0:
76,128,171396,1,0,0:0:0:0:
145,119,171479,1,0,0:0:0:0:
213,148,171563,1,0,0:0:0:0:
278,188,171646,5,0,0:0:0:0:
204,219,171729,1,0,0:0:0:0:
133,258,171813,1,0,0:0:0:0:
72,310,171896,1,0,0:0:0:0:
18,373,171979,5,0,0:0:0:0:
102,381,172063,1,0,0:0:0:0:
185,372,172146,1,0,0:0:0:0:
265,348,172229,1,0,0:0:0:0:
336,300,172313,6,0,P|291:266|286:167,1,140
322,115,172563,1,0,0:0:0:0:
402,86,172646,5,0,0:0:0:0:
478,119,172729,1,0,0:0:0:0:
496,201,172813,1,0,0:0:0:0:
451,272,172896,1,0,0:0:0:0:
371,271,172979,5,0,0:0:0:0:
306,228,173063,1,0,0:0:0:0:
264,168,173146,1,0,0:0:0:0:
218,120,173229,1,0,0:0:0:0:
147,73,173313,6,0,P|104:63|42:76,2,70
400,184,173646,2,0,P|444:182|500:153,2,70
180,181,173979,2,0,P|141:160|77:156,2,70
308,307,174313,2,0,P|352:305|408:276,2,70
101,281,174646,5,0,0:0:0:0:
38,239,174729,1,0,0:0:0:0:
7,171,174812,1,0,0:0:0:0:
16,97,174896,1,0,0:0:0:0:
61,40,174979,5,0,0:0:0:0:
117,79,175062,1,0,0:0:0:0:
186,89,175146,1,0,0:0:0:0:
248,60,175229,1,0,0:0:0:0:
314,13,175313,6,0,P|344:127|278:203,1,210
213,228,175646,2,0,P|248:140|353:98,1,210
440,100,175979,5,0,0:0:0:0:
500,155,176063,1,0,0:0:0:0:
497,231,176146,1,0,0:0:0:0:
456,293,176229,1,0,0:0:0:0:
387,268,176313,5,0,0:0:0:0:
319,287,176396,1,0,0:0:0:0:
262,327,176479,1,0,0:0:0:0:
220,383,176563,1,0,0:0:0:0:
188,317,176646,5,0,0:0:0:0:
171,242,176729,1,0,0:0:0:0:
172,161,176813,1,0,0:0:0:0:
192,79,176896,1,0,0:0:0:0:
246,8,176979,6,0,P|273:119|368:177,1,210
438,171,177313,5,0,0:0:0:0:
482,111,177396,1,0,0:0:0:0:
464,38,177479,1,0,0:0:0:0:
396,7,177563,1,0,0:0:0:0:
314,26,177646,5,0,0:0:0:0:
237,60,177729,1,0,0:0:0:0:
160,97,177813,1,0,0:0:0:0:
93,148,177896,1,0,0:0:0:0:
31,212,177979,6,0,P|11:245|7:288,3,70
82,273,178313,6,0,P|72:310|45:343,3,70
6,275,178646,5,0,0:0:0:0:
0,191,178729,1,0,0:0:0:0:
39,115,178813,1,0,0:0:0:0:
114,79,178896,1,0,0:0:0:0:
188,95,178979,5,0,0:0:0:0:
232,158,179063,1,0,0:0:0:0:
193,224,179146,1,0,0:0:0:0:
116,217,179229,1,0,0:0:0:0:
93,150,179313,5,0,0:0:0:0:
114,79,179396,1,0,0:0:0:0:
165,31,179479,1,0,0:0:0:0:
225,5,179563,1,0,0:0:0:0:
309,0,179646,6,0,P|346:75|344:209,1,210
297,312,179979,6,0,P|332:326|376:319,3,70
260,236,180313,6,0,P|230:259|214:300,3,70
343,244,180646,5,0,0:0:0:0:
320,177,180729,1,0,0:0:0:0:
278,119,180813,1,0,0:0:0:0:
223,75,180896,1,0,0:0:0:0:
163,46,180979,5,0,0:0:0:0:
96,53,181063,1,0,0:0:0:0:
41,91,181146,1,0,0:0:0:0:
22,155,181229,1,0,0:0:0:0:
37,223,181313,5,0,0:0:0:0:
108,241,181396,1,0,0:0:0:0:
176,268,181479,1,0,0:0:0:0:
236,311,181563,1,0,0:0:0:0:
312,361,181646,5,0,0:0:0:0:
374,305,181729,1,0,0:0:0:0:
383,227,181813,1,0,0:0:0:0:
349,166,181896,1,0,0:0:0:0:
282,127,181979,6,0,P|246:113|209:105,3,70
349,166,182313,6,0,P|379:141|404:113,3,70
277,207,182646,5,0,0:0:0:0:
282,127,182729,1,0,0:0:0:0:
347,73,182813,1,0,0:0:0:0:
430,80,182896,1,0,0:0:0:0:
491,125,182979,5,0,0:0:0:0:
459,195,183063,1,0,0:0:0:0:
402,247,183146,1,0,0:0:0:0:
329,270,183229,1,0,0:0:0:0:
248,266,183313,6,0,P|276:226|274:194,3,70
201,205,183646,5,0,0:0:0:0:
201,205,183729,1,0,0:0:0:0:
434,87,183896,1,0,0:0:0:0:
434,87,183979,6,0,P|310:69|242:70,1,178.500003404617
117,89,184313,2,0,P|279:141|331:137,1,210
434,87,184646,5,0,0:0:0:0:
365,74,184729,1,0,0:0:0:0:
295,68,184812,1,0,0:0:0:0:
225,69,184896,1,0,0:0:0:0:
117,89,184979,6,0,P|207:131|241:137,1,70
246,138,185146,2,0,P|291:142|373:124,1,70
385,130,185313,5,0,0:0:0:0:
450,169,185396,1,0,0:0:0:0:
462,244,185479,1,0,0:0:0:0:
412,303,185563,1,0,0:0:0:0:
335,305,185646,2,0,B|243:281|226:182|301:132|219:136,1,210
117,89,185979,6,0,L|65:153,3,70
161,174,186313,6,0,L|130:251,3,70
239,247,186646,5,0,0:0:0:0:
317,275,186729,1,0,0:0:0:0:
401,269,186813,1,0,0:0:0:0:
473,227,186896,1,0,0:0:0:0:
503,149,186979,5,0,0:0:0:0:
427,167,187063,1,0,0:0:0:0:
367,214,187146,1,0,0:0:0:0:
317,275,187229,1,0,0:0:0:0:
256,311,187313,5,0,0:0:0:0:
186,308,187396,1,0,0:0:0:0:
129,267,187479,1,0,0:0:0:0:
119,197,187563,1,0,0:0:0:0:
161,132,187646,5,0,0:0:0:0:
236,119,187729,1,0,0:0:0:0:
300,161,187813,1,0,0:0:0:0:
329,231,187896,1,0,0:0:0:0:
379,288,187979,6,0,P|498:233|339:257,1,490
379,288,188646,5,0,0:0:0:0:
455,278,188729,1,0,0:0:0:0:
498,214,188812,1,0,0:0:0:0:
475,139,188896,1,0,0:0:0:0:
411,109,188979,5,0,0:0:0:0:
346,135,189062,1,0,0:0:0:0:
319,200,189146,1,0,0:0:0:0:
263,241,189229,1,0,0:0:0:0:
193,253,189313,6,0,P|131:248|62:191,2,140
234,106,189813,2,0,P|270:55|353:24,2,140
340,216,190313,2,0,P|366:272|352:360,1,140
340,216,190646,6,0,P|314:160|328:72,1,131.25
254,290,191146,2,0,P|337:240|376:193,1,131.25
390,183,191479,1,0,0:0:0:0:
193,146,191646,1,0,0:0:0:0:
324,294,191813,1,0,0:0:0:0:
119,285,191979,1,0,0:0:0:0:
2,88,192229,1,0,0:0:0:0:
165,174,192479,2,0,L|145:260,1,87.5
193,146,192813,1,0,0:0:0:0:
119,285,192979,2,0,L|99:371,1,87.5
377,208,193313,6,0,P|366:120|341:71,1,131.25
152,293,193813,2,0,P|233:331|259:331,1,87.5
142,255,194146,1,0,0:0:0:0:
221,118,194313,1,0,0:0:0:0:
341,192,194479,1,0,0:0:0:0:
106,245,194646,1,0,0:0:0:0:
410,206,194896,1,0,0:0:0:0:
164,84,195146,2,0,P|91:64|58:66,1,87.5
178,266,195479,1,0,0:0:0:0:
377,182,195646,2,0,P|423:159|445:111,1,87.5
406,322,195979,6,0,P|341:350|271:351,1,131.25
156,120,196479,2,0,P|184:86|226:64,1,87.5
43,64,196813,1,0,0:0:0:0:
114,243,196979,1,0,0:0:0:0:
257,78,197146,1,0,0:0:0:0:
4,169,197313,1,0,0:0:0:0:
224,319,197563,1,0,0:0:0:0:
247,40,197813,2,0,P|272:9|329:16,1,87.5
461,50,198146,1,0,0:0:0:0:
266,116,198313,2,0,P|218:113|171:64,1,87.5
349,273,198646,6,0,L|444:377,1,131.25
119,258,199146,2,0,P|90:199|81:162,1,87.5
267,154,199479,1,0,0:0:0:0:
236,357,199646,1,0,0:0:0:0:
96,141,199813,1,0,0:0:0:0:
377,241,199979,1,0,0:0:0:0:
83,272,200229,1,0,0:0:0:0:
274,74,200479,2,0,L|337:7,1,87.5
264,231,200813,1,0,0:0:0:0:
62,167,200979,2,0,P|16:207|0:255,1,87.5
268,154,201313,6,0,P|338:127|354:65,1,131.25
108,19,201813,2,0,P|61:5|14:7,1,87.5
67,204,202146,1,0,0:0:0:0:
299,180,202313,1,0,0:0:0:0:
73,42,202479,1,0,0:0:0:0:
160,247,202646,1,0,0:0:0:0:
389,89,202896,1,0,0:0:0:0:
278,350,203146,2,0,P|204:336|178:308,1,87.5
40,177,203479,1,0,0:0:0:0:
284,145,203646,2,0,P|358:159|384:187,1,87.5
171,22,203979,6,0,P|120:82|114:166,1,131.25
140,342,204479,2,0,P|201:364|227:366,1,87.5
395,373,204813,1,0,0:0:0:0:
307,178,204979,1,0,0:0:0:0:
74,172,205146,1,0,0:0:0:0:
293,297,205313,1,0,0:0:0:0:
3,367,205563,1,0,0:0:0:0:
187,102,205813,2,0,P|237:68|262:58,1,87.5
404,167,206146,1,0,0:0:0:0:
200,191,206313,2,0,P|153:137|152:122,1,87.5
173,348,206646,6,0,P|193:368|284:350,1,131.25
423,204,207146,2,0,L|484:132,1,87.5
223,120,207479,1,0,0:0:0:0:
325,348,207646,1,0,0:0:0:0:
501,167,207813,1,0,0:0:0:0:
231,251,207979,1,0,0:0:0:0:
416,23,208229,1,0,0:0:0:0:
467,290,208479,2,0,P|408:319|367:319,1,87.5
170,307,208813,1,0,0:0:0:0:
381,192,208979,2,0,L|467:146,1,87.5
159,170,209313,6,0,P|75:196|28:236,1,131.25
278,301,209813,2,0,P|337:309|376:296,1,87.5
247,89,210146,1,0,0:0:0:0:
136,287,210313,1,0,0:0:0:0:
399,283,210479,1,0,0:0:0:0:
141,163,210646,1,0,0:0:0:0:
457,36,210896,1,0,0:0:0:0:
240,294,211146,2,0,L|182:365,1,87.5
263,53,211479,1,0,0:0:0:0:
495,319,211646,1,0,0:0:0:0:
0,123,211979,5,0,0:0:0:0:
