osu file format v14

[General]
AudioFilename: audio.mp3
AudioLeadIn: 0
PreviewTime: -1
Countdown: 1
SampleSet: None
StackLeniency: 0.7
Mode: 0
LetterboxInBreaks: 0
WidescreenStoryboard: 0

[Editor]
Bookmarks: 64082,75498,76165,97498,101165,144165,146998,181165,212165
DistanceSpacing: 0.7
BeatDivisor: 4
GridSize: 8
TimelineZoom: 1

[Metadata]
Title:Hero
TitleUnicode:Hero
Artist:Helblinde
ArtistUnicode:Helblinde
Creator:Ameyy
Version:PUNCH DANS TA GUEULE
Source:
Tags:
BeatmapID:1635876
BeatmapSetID:778925

[Difficulty]
HPDrainRate:8
CircleSize:4
OverallDifficulty:8
ApproachRate:10
SliderMultiplier:2
SliderTickRate:1

[Events]
//Background and Video events
0,0,"thumb-1920-654230.png",0,0
//Break Periods
2,103198,122048
//Storyboard Layer 0 (Background)
//Storyboard Layer 1 (Fail)
//Storyboard Layer 2 (Pass)
//Storyboard Layer 3 (Foreground)
//Storyboard Sound Samples

[TimingPoints]
10499,333.333333333333,4,2,0,80,1,0
10499,-100,4,2,0,80,0,0
16165,-83.3333333333333,4,2,0,80,0,0
27832,-71.4285714285714,4,2,0,80,0,0
28165,-90.9090909090909,4,2,0,80,0,0
33165,-71.4285714285714,4,2,0,80,0,0
33498,-100,4,2,0,80,0,0
41998,-125,4,2,0,80,0,0
54832,-83.3333333333333,4,2,0,80,0,1
65165,-111.111111111111,4,2,0,80,0,0
65498,-76.9230769230769,4,2,0,80,0,1
74832,-76.9230769230769,4,2,0,80,0,0
76165,-76.9230769230769,4,2,0,80,0,1
88165,-125,4,2,0,80,0,0
97498,-200,4,2,0,15,0,0
99832,-200,4,2,0,5,0,0
124165,-142.857142857143,4,2,0,15,0,0
132832,-166.666666666667,4,2,0,10,0,0
133498,-200,4,2,0,5,0,0
134832,-90.9090909090909,4,2,0,80,0,0
145498,-200,4,2,0,80,0,0
147165,-200,4,2,0,40,0,0
148165,-66.6666666666667,4,1,0,80,0,0
157498,-83.3333333333333,4,1,0,80,0,0
157832,-100,4,1,0,60,0,0
158165,-125,4,1,0,40,0,0
158498,-166.666666666667,4,1,0,20,0,0
158832,-66.6666666666667,4,1,0,80,0,0
167498,-76.9230769230769,4,1,0,80,0,0
168165,-90.9090909090909,4,1,0,80,0,0
168832,-142.857142857143,4,1,0,80,0,0
168832,-111.111111111111,4,1,0,80,0,0
169498,-66.6666666666667,4,1,0,80,0,0
178165,-83.3333333333333,4,1,0,80,0,0
178832,-66.6666666666667,4,1,0,80,0,0
190832,-100,4,2,0,80,0,0
204165,-111.111111111111,4,2,0,80,0,0
206832,-125,4,2,0,80,0,0
209498,-142.857142857143,4,2,0,80,0,0

[HitObjects]
319,125,10832,6,0,L|207:139,1,100,4|0,0:0|0:0,0:0:0:0:
194,153,11082,1,0,0:0:0:0:
169,170,11165,1,0,0:0:0:0:
380,221,11332,1,0,0:0:0:0:
377,56,11499,2,0,P|319:37|253:65,1,100
494,114,11832,1,0,0:0:0:0:
221,138,11999,1,0,0:0:0:0:
380,221,12165,6,0,L|391:338,1,100
374,347,12415,1,0,0:0:0:0:
374,347,12499,1,0,0:0:0:0:
319,124,12665,1,0,0:0:0:0:
205,292,12832,2,0,P|136:305|92:303,1,100
319,124,13165,1,8,3:0:0:0:
283,351,13332,1,8,3:0:0:0:
221,139,13499,6,0,P|171:99|154:42,1,100
180,48,13749,1,0,0:0:0:0:
209,41,13832,1,0,0:0:0:0:
319,124,13999,1,0,0:0:0:0:
105,164,14165,2,0,L|-12:167,1,100
317,213,14499,2,0,L|434:210,1,100
184,348,14832,6,0,B|178:296|178:296|192:219,1,100
206,226,15082,1,0,0:0:0:0:
206,226,15165,1,0,0:0:0:0:
291,325,15332,1,0,0:0:0:0:
105,164,15498,1,0,0:0:0:0:
414,210,15665,1,0,0:0:0:0:
182,350,15832,1,8,3:0:0:0:
278,66,15998,1,8,3:0:0:0:
414,210,16165,6,0,B|409:280|356:303|356:303|348:234,1,179.999994506836,0|0,3:0|3:0,3:0:0:0:
467,147,16499,2,0,P|492:211|474:249,1,59.9999981689454,0|0,3:0|3:0,3:0:0:0:
467,147,16665,2,0,P|403:127|349:249,1,179.999994506836,0|0,3:0|3:0,3:0:0:0:
349,239,16999,2,0,L|255:252,1,59.9999981689454,0|0,3:0|3:0,3:0:0:0:
223,320,17165,2,0,L|134:333,1,59.9999981689454,0|0,3:0|3:0,3:0:0:0:
129,189,17332,1,0,0:0:0:0:
349,239,17498,6,0,L|359:372,1,119.999996337891,12|0,0:0|0:0,0:0:0:0:
228,115,17832,1,0,0:0:0:0:
455,157,17998,1,0,0:0:0:0:
129,189,18165,6,0,P|111:117|128:57,1,119.999996337891,8|0,0:0|0:0,0:0:0:0:
333,51,18498,1,0,0:0:0:0:
333,51,18582,1,0,0:0:0:0:
333,51,18665,2,0,L|341:120,1,59.9999981689454
282,198,18832,1,8,0:0:0:0:
455,157,18998,1,0,0:0:0:0:
228,115,19165,1,8,0:0:0:0:
381,335,19332,1,0,0:0:0:0:
452,53,19498,2,0,L|301:50,1,119.999996337891,8|0,0:0|0:0,0:0:0:0:
228,115,19832,5,0,0:0:0:0:
228,115,19915,1,0,0:0:0:0:
228,115,19998,1,0,0:0:0:0:
228,115,20082,1,0,0:0:0:0:
228,115,20165,2,0,L|224:189,7,59.9999981689454
137,239,20832,2,0,P|74:239|50:229,7,59.9999981689454
243,271,21498,2,0,L|302:271,7,59.9999981689454
379,205,22165,6,0,P|319:172|291:176,1,59.9999981689454
411,308,22332,2,0,P|464:342|481:346,1,59.9999981689454
479,258,22498,5,0,0:0:0:0:
485,241,22582,1,0,0:0:0:0:
488,223,22665,1,0,0:0:0:0:
488,205,22748,1,0,0:0:0:0:
485,186,22832,6,0,P|485:114|454:52,1,119.999996337891,12|0,0:0|0:0,0:0:0:0:
343,53,23165,1,0,0:0:0:0:
487,204,23332,1,0,0:0:0:0:
248,150,23498,2,0,P|169:148|113:166,1,119.999996337891,8|0,0:0|0:0,0:0:0:0:
299,331,23832,1,0,0:0:0:0:
316,328,23915,1,0,0:0:0:0:
333,326,23998,2,0,L|371:257,1,59.9999981689454
339,176,24165,5,8,0:0:0:0:
299,331,24332,1,0,0:0:0:0:
296,57,24498,1,8,0:0:0:0:
461,243,24665,1,0,0:0:0:0:
126,159,24832,2,0,B|111:219|111:219|121:310,1,119.999996337891,8|0,0:0|0:0,0:0:0:0:
475,134,25165,2,0,P|418:100|348:104,1,119.999996337891
285,258,25498,5,2,0:0:0:0:
275,273,25582,1,0,0:0:0:0:
262,285,25665,1,0,0:0:0:0:
248,297,25748,1,0,0:0:0:0:
235,309,25832,1,0,0:0:0:0:
219,317,25915,1,0,0:0:0:0:
202,323,25998,2,0,P|158:337|128:335,1,59.9999981689454
225,163,26165,5,2,0:0:0:0:
254,155,26248,1,0,0:0:0:0:
284,152,26332,1,0,0:0:0:0:
313,156,26415,1,0,0:0:0:0:
342,161,26498,1,0,0:0:0:0:
370,171,26582,1,0,0:0:0:0:
394,187,26665,2,0,P|423:223|431:252,1,59.9999981689454
250,295,26832,5,2,0:0:0:0:
208,289,26915,1,0,0:0:0:0:
167,277,26998,1,0,0:0:0:0:
130,256,27082,1,0,0:0:0:0:
102,224,27165,1,0,0:0:0:0:
82,180,27248,1,0,0:0:0:0:
85,131,27332,2,0,P|93:87|109:59,1,59.9999981689454
102,224,27498,2,0,P|93:293|85:330,1,59.9999981689454
182,141,27665,2,0,P|190:97|206:69,1,59.9999981689454
204,240,27832,6,0,B|195:323|228:366|228:366|255:274,1,209.999993591309,4|0,3:0|3:0,3:0:0:0:
266,272,28165,6,0,P|333:272|385:294,1,110.000003356934,4|0,0:0|0:0,0:0:0:0:
266,272,28498,2,0,P|251:203|270:128,1,110.000003356934,4|0,0:0|0:0,0:0:0:0:
266,272,28832,2,0,P|186:289|129:271,1,110.000003356934,4|0,0:0|0:0,0:0:0:0:
197,95,29165,1,4,0:0:0:0:
68,329,29332,1,0,0:0:0:0:
334,330,29498,6,0,P|349:237|325:195,1,110.000003356934,4|0,0:0|0:0,0:0:0:0:
115,40,29832,2,0,P|100:133|127:183,1,110.000003356934,4|0,0:0|0:0,0:0:0:0:
386,83,30165,2,0,L|505:78,1,110.000003356934,4|0,0:0|0:0,0:0:0:0:
118,243,30498,2,0,L|-1:238,1,110.000003356934,4|0,0:0|0:0,0:0:0:0:
241,217,30832,5,8,0:0:0:0:
251,218,30915,1,0,0:0:0:0:
261,220,30998,1,8,0:0:0:0:
270,224,31082,1,0,0:0:0:0:
278,230,31165,6,0,P|303:276|308:302,1,55.0000016784669,8|0,0:0|0:0,0:0:0:0:
265,132,31332,2,0,P|281:70|295:52,1,55.0000016784669,8|0,0:0|0:0,0:0:0:0:
155,197,31498,2,0,P|89:211|65:210,1,55.0000016784669,8|0,0:0|0:0,0:0:0:0:
303,242,31665,6,0,P|328:288|333:314,1,55.0000016784669,8|0,0:0|0:0,0:0:0:0:
290,144,31832,2,0,P|306:82|320:64,1,55.0000016784669,8|0,0:0|0:0,0:0:0:0:
180,209,31998,2,0,P|114:223|90:222,1,55.0000016784669,8|0,0:0|0:0,0:0:0:0:
46,148,32165,5,8,0:0:0:0:
256,351,32498,1,8,0:0:0:0:
466,148,32832,1,8,0:0:0:0:
226,58,33165,2,0,P|171:124|86:50,1,209.999993591309
156,56,33498,5,4,0:0:0:0:
405,284,34165,2,0,L|296:302,1,100,2|0,0:0|0:0,0:0:0:0:
244,221,34498,2,0,L|127:209,1,100
100,301,34832,5,2,0:0:0:0:
44,218,34998,1,0,0:0:0:0:
144,210,35165,1,0,0:0:0:0:
196,295,35332,1,0,0:0:0:0:
144,210,35498,2,0,B|140:153|142:63|142:63|172:133,1,200,2|0,0:0|0:0,0:0:0:0:
162,111,36165,6,0,P|75:121|15:98,1,150,2|0,0:0|0:0,0:0:0:0:
162,111,36498,2,0,P|249:101|310:129,1,150
304,125,36832,5,2,0:0:0:0:
304,125,37165,2,0,L|305:230,1,100
257,313,37498,5,2,0:0:0:0:
357,314,37665,1,0,0:0:0:0:
304,224,37832,1,0,0:0:0:0:
206,227,37998,1,0,0:0:0:0:
155,313,38165,2,0,P|88:321|39:309,1,100,2|0,0:0|0:0,0:0:0:0:
44,218,38498,5,2,0:0:0:0:
38,193,38582,1,2,0:0:0:0:
35,168,38665,1,2,0:0:0:0:
33,143,38748,1,2,0:0:0:0:
35,117,38832,2,0,P|106:126|251:113,1,200,2|0,0:0|0:0,0:0:0:0:
186,28,39332,5,0,0:0:0:0:
233,116,39498,2,0,L|230:231,1,100,2|0,0:0|0:0,0:0:0:0:
230,215,39998,5,0,0:0:0:0:
230,215,40082,1,0,0:0:0:0:
230,215,40165,2,0,P|310:229|361:221,1,100,2|0,0:0|0:0,0:0:0:0:
367,135,40498,2,0,P|431:135|480:157,1,100
453,247,40832,5,2,0:0:0:0:
453,247,41165,1,0,0:0:0:0:
389,324,41332,1,0,0:0:0:0:
290,340,41498,2,0,P|217:343|155:318,1,100,2|0,0:0|0:0,0:0:0:0:
121,263,41832,1,0,0:0:0:0:
210,215,41998,6,0,P|290:88|334:227,1,360
256,192,42832,12,0,43998,0:0:0:0:
261,132,44165,5,8,3:0:0:0:
380,108,44332,1,0,0:0:0:0:
225,104,44498,1,8,3:0:0:0:
431,119,44665,1,0,0:0:0:0:
216,172,44832,1,8,3:0:0:0:
316,24,44998,1,0,0:0:0:0:
335,224,45165,2,0,L|336:318,1,80,8|0,3:0|0:0,0:0:0:0:
216,172,45498,5,8,3:0:0:0:
431,222,45665,1,0,0:0:0:0:
245,262,45832,1,8,3:0:0:0:
450,185,45998,1,0,0:0:0:0:
228,74,46165,5,10,3:0:0:0:
489,93,46332,1,10,0:0:0:0:
216,172,46498,1,10,3:0:0:0:
479,273,46665,1,10,0:0:0:0:
325,98,46832,2,0,L|311:4,1,80,8|0,3:0|0:0,0:0:0:0:
175,264,47165,2,0,L|160:369,1,80,8|0,3:0|0:0,0:0:0:0:
370,222,47498,2,0,P|313:194|228:210,1,120,8|0,3:0|0:0,0:0:0:0:
255,230,47832,5,8,3:0:0:0:
460,148,47998,1,0,0:0:0:0:
341,334,48165,1,8,3:0:0:0:
386,105,48332,2,0,L|389:18,1,80,0|8,0:0|3:0,0:0:0:0:
248,92,48665,1,0,0:0:0:0:
460,148,48832,1,8,3:0:0:0:
433,178,48915,1,8,3:0:0:0:
395,191,48998,1,8,3:0:0:0:
354,189,49082,1,8,3:0:0:0:
316,174,49165,1,8,3:0:0:0:
387,25,49332,1,0,0:0:0:0:
426,300,49498,6,0,B|371:300|371:300|331:313|331:313|262:313,1,160,12|8,3:0|3:0,0:0:0:0:
158,192,49998,1,0,0:0:0:0:
177,354,50165,2,0,L|184:259,1,80,8|0,3:0|0:0,0:0:0:0:
201,100,50498,1,8,3:0:0:0:
63,298,50665,5,0,0:0:0:0:
63,298,50748,1,0,0:0:0:0:
63,298,50832,2,0,B|46:257|46:257|42:197,1,80,8|0,3:0|0:0,0:0:0:0:
201,100,51165,1,8,3:0:0:0:
183,276,51332,1,0,0:0:0:0:
127,57,51498,2,0,P|176:21|208:17,1,80,8|0,3:0|0:0,0:0:0:0:
392,137,51832,1,8,3:0:0:0:
201,100,51998,1,0,0:0:0:0:
338,311,52165,5,8,3:0:0:0:
302,56,52332,1,8,3:0:0:0:
250,310,52498,1,8,3:0:0:0:
509,160,52665,1,8,3:0:0:0:
222,86,52832,1,8,3:0:0:0:
435,333,52998,1,8,3:0:0:0:
420,45,53165,5,8,3:0:0:0:
197,297,53332,1,8,3:0:0:0:
503,212,53498,1,12,3:0:0:0:
505,210,54832,6,0,P|421:220|316:182,1,179.999994506836
281,157,55165,2,0,P|196:142|150:163,1,119.999996337891,8|0,0:0|0:0,0:0:0:0:
281,311,55498,1,0,0:0:0:0:
371,38,55665,1,0,0:0:0:0:
371,38,55748,1,0,0:0:0:0:
371,38,55832,1,8,0:0:0:0:
469,275,55998,1,0,0:0:0:0:
195,246,56165,6,0,L|66:250,1,119.999996337891
380,152,56498,2,0,P|386:231|357:306,1,119.999996337891,8|0,0:0|0:0,0:0:0:0:
191,64,56832,1,0,0:0:0:0:
195,246,56998,1,0,0:0:0:0:
430,40,57165,1,8,0:0:0:0:
380,152,57332,1,0,0:0:0:0:
101,255,57498,6,0,P|84:188|137:75,1,179.999994506836
191,64,57832,2,0,L|328:65,1,119.999996337891,8|0,0:0|0:0,0:0:0:0:
380,152,58165,1,0,0:0:0:0:
195,249,58332,1,0,0:0:0:0:
310,64,58498,1,8,0:0:0:0:
355,64,58582,1,0,0:0:0:0:
404,64,58665,1,0,0:0:0:0:
402,330,58832,5,2,0:0:0:0:
355,64,58998,1,2,0:0:0:0:
297,330,59165,1,10,0:0:0:0:
260,63,59332,1,2,0:0:0:0:
477,230,59498,2,2,P|481:140|471:92,1,119.999996337891
135,163,59832,2,2,P|131:253|141:301,1,119.999996337891,10|2,0:0|0:0,0:0:0:0:
261,151,60165,5,8,3:0:0:0:
171,58,60332,1,8,3:0:0:0:
256,273,60498,2,0,L|422:275,1,119.999996337891,8|0,3:0|0:0,0:0:0:0:
261,151,60832,5,8,3:0:0:0:
85,153,60998,1,8,3:0:0:0:
212,359,61165,2,0,L|358:360,1,119.999996337891,8|0,3:0|0:0,0:0:0:0:
261,151,61498,5,8,3:0:0:0:
90,338,61665,1,8,3:0:0:0:
79,58,61832,1,8,3:0:0:0:
106,306,61998,1,8,3:0:0:0:
261,54,62165,5,8,3:0:0:0:
236,338,62332,1,8,3:0:0:0:
125,167,62498,1,8,3:0:0:0:
416,113,62665,1,8,3:0:0:0:
440,298,62832,5,8,3:0:0:0:
381,306,62915,1,8,3:0:0:0:
326,285,62998,1,8,3:0:0:0:
288,239,63082,1,8,3:0:0:0:
279,180,63165,1,8,3:0:0:0:
285,139,63248,5,8,3:0:0:0:
238,102,63331,1,8,3:0:0:0:
179,100,63414,1,8,3:0:0:0:
145,114,63498,1,8,3:0:0:0:
114,143,63581,1,8,3:0:0:0:
74,155,63664,1,8,3:0:0:0:
31,150,63748,1,8,3:0:0:0:
3,95,63832,5,8,3:0:0:0:
31,42,63915,1,8,3:0:0:0:
89,28,63998,1,8,3:0:0:0:
139,61,64082,1,8,3:0:0:0:
179,100,64165,6,0,P|190:187|142:265,1,179.999994506836
87,284,64498,2,0,P|156:264|274:304,1,179.999994506836,8|0,0:0|0:0,0:0:0:0:
292,341,64832,2,0,L|299:137,1,179.999994506836
341,148,65165,6,0,P|396:167|485:141,1,134.999995880127,8|0,0:0|0:0,0:0:0:0:
470,85,65498,6,0,L|470:250,1,129.999994049073,4|0,0:0|0:0,0:0:0:0:
375,305,65832,1,8,0:0:0:0:
311,319,65915,1,0,0:0:0:0:
246,322,65998,1,0,0:0:0:0:
181,311,66082,1,0,0:0:0:0:
120,288,66165,5,0,0:0:0:0:
275,69,66332,1,0,0:0:0:0:
246,322,66498,1,8,0:0:0:0:
96,62,66665,1,0,0:0:0:0:
402,165,66832,1,0,0:0:0:0:
103,331,66998,1,0,0:0:0:0:
275,69,67165,6,0,P|350:64|436:79,1,129.999994049073,8|0,0:0|0:0,0:0:0:0:
300,250,67498,1,0,0:0:0:0:
156,62,67665,1,0,0:0:0:0:
216,361,67832,1,8,0:0:0:0:
404,71,67998,1,0,0:0:0:0:
157,207,68165,6,0,L|6:217,1,129.999994049073
404,216,68498,2,0,P|412:307|376:382,1,129.999994049073,8|0,0:0|0:0,0:0:0:0:
186,110,68832,2,0,P|255:45|318:37,1,129.999994049073
285,273,69165,1,8,0:0:0:0:
375,47,69332,1,0,0:0:0:0:
481,294,69498,2,0,P|417:320|326:320,1,129.999994049073
459,98,69832,5,8,0:0:0:0:
285,273,69998,1,0,0:0:0:0:
456,200,70165,1,0,0:0:0:0:
279,142,70332,1,0,0:0:0:0:
177,259,70498,2,0,P|168:342|128:388,1,129.999994049073,8|0,0:0|0:0,0:0:0:0:
127,86,70832,2,0,B|210:61|322:68|322:68|229:102,1,259.999988098145,4|8,0:0|0:0,0:0:0:0:
345,327,71332,5,0,0:0:0:0:
405,302,71415,1,0,0:0:0:0:
446,251,71498,1,0,0:0:0:0:
465,188,71582,1,0,0:0:0:0:
457,123,71665,1,0,0:0:0:0:
274,182,71832,5,8,0:0:0:0:
404,31,71998,1,0,0:0:0:0:
393,48,72082,1,0,0:0:0:0:
385,65,72165,2,0,P|315:61|246:67,1,129.999994049073
161,307,72498,2,0,L|181:167,1,129.999994049073,8|0,0:0|0:0,0:0:0:0:
440,242,72832,2,0,P|391:308|277:290,1,194.999991073609
280,263,73165,5,8,0:0:0:0:
471,115,73332,1,0,0:0:0:0:
458,357,73498,2,0,L|307:362,1,129.999994049073
387,150,73832,5,8,0:0:0:0:
491,342,73998,1,0,0:0:0:0:
219,180,74165,2,0,P|223:99|260:20,1,129.999994049073
50,221,74498,2,0,P|46:302|9:381,1,129.999994049073,8|0,0:0|0:0,0:0:0:0:
46,108,74832,1,0,0:0:0:0:
64,113,74915,1,0,0:0:0:0:
82,118,74998,1,0,0:0:0:0:
101,122,75082,1,0,0:0:0:0:
132,130,75165,1,8,0:0:0:0:
162,139,75248,1,0,0:0:0:0:
193,147,75332,1,0,0:0:0:0:
223,157,75415,1,0,0:0:0:0:
254,164,75498,5,0,0:0:0:0:
273,219,75582,1,0,0:0:0:0:
310,263,75665,1,0,0:0:0:0:
364,284,75748,1,0,0:0:0:0:
422,278,75832,1,8,0:0:0:0:
462,235,75915,1,0,0:0:0:0:
484,181,75998,1,0,0:0:0:0:
477,122,76082,1,0,0:0:0:0:
399,86,76165,6,0,B|347:86|347:86|317:97|317:97|230:98,1,129.999994049073,4|0,0:0|0:0,0:0:0:0:
477,21,76498,1,8,0:0:0:0:
316,237,76665,1,0,0:0:0:0:
382,325,76832,2,0,P|303:343|234:308,1,129.999994049073
399,86,77165,1,8,0:0:0:0:
165,150,77332,1,0,0:0:0:0:
205,251,77498,2,0,L|57:252,1,129.999994049073
269,48,77832,5,8,0:0:0:0:
274,351,77998,1,0,0:0:0:0:
453,142,78165,1,8,0:0:0:0:
446,177,78332,1,8,0:0:0:0:
171,259,78498,1,8,0:0:0:0:
179,145,78665,1,8,0:0:0:0:
462,292,78832,6,0,P|367:307|296:283,1,129.999994049073
78,61,79165,2,0,P|168:48|249:70,1,129.999994049073,8|0,0:0|0:0,0:0:0:0:
128,351,79498,2,0,P|115:289|141:203,1,129.999994049073
356,139,79832,5,8,0:0:0:0:
265,327,79998,1,0,0:0:0:0:
204,53,80165,2,0,L|346:35,1,129.999994049073
335,263,80498,1,8,0:0:0:0:
356,139,80665,1,0,0:0:0:0:
415,341,80832,1,0,0:0:0:0:
246,180,80998,1,0,0:0:0:0:
446,213,81165,2,0,P|477:173|491:137,1,64.9999970245363,8|0,0:0|0:0,0:0:0:0:
335,263,81332,2,0,P|306:329|306:353,1,64.9999970245363,8|0,0:0|0:0,0:0:0:0:
356,139,81498,6,0,B|266:177|172:126|172:126|236:202,1,259.999988098145,4|8,0:0|0:0,0:0:0:0:
336,264,81998,1,0,0:0:0:0:
483,160,82165,1,0,0:0:0:0:
483,341,82332,1,0,0:0:0:0:
423,65,82498,5,8,0:0:0:0:
428,254,82665,1,0,0:0:0:0:
427,268,82748,1,0,0:0:0:0:
426,283,82832,2,0,P|333:283|255:253,1,129.999994049073
105,209,83165,2,0,L|135:66,1,129.999994049073,8|0,0:0|0:0,0:0:0:0:
315,170,83498,2,0,P|242:225|115:199,1,194.999991073609
106,208,83832,1,8,0:0:0:0:
273,44,83998,1,0,0:0:0:0:
314,337,84165,6,0,P|240:342|156:308,1,129.999994049073
461,120,84498,2,0,L|459:257,1,129.999994049073,8|0,0:0|0:0,0:0:0:0:
231,163,84832,1,0,0:0:0:0:
396,318,84998,1,0,0:0:0:0:
338,52,85165,1,8,0:0:0:0:
321,238,85332,1,0,0:0:0:0:
231,163,85498,5,4,0:0:0:0:
461,121,85665,1,8,3:0:0:0:
151,82,85832,1,8,3:0:0:0:
471,246,85998,1,8,3:0:0:0:
117,280,86165,1,8,3:0:0:0:
498,182,86498,5,8,3:0:0:0:
256,192,86832,12,0,87998,0:0:0:0:
414,158,88165,5,2,0:0:0:0:
322,168,88332,1,0,0:0:0:0:
473,288,88498,5,2,0:0:0:0:
496,206,88665,1,0,0:0:0:0:
337,50,88832,5,2,0:0:0:0:
322,168,88998,1,0,0:0:0:0:
158,193,89165,5,2,0:0:0:0:
268,241,89332,1,0,0:0:0:0:
222,106,89498,5,2,0:0:0:0:
59,121,89665,1,0,0:0:0:0:
150,286,89832,5,2,0:0:0:0:
158,193,89998,1,0,0:0:0:0:
351,282,90165,5,2,0:0:0:0:
345,368,90332,1,0,0:0:0:0:
322,166,90498,5,2,0:0:0:0:
461,179,90665,1,0,0:0:0:0:
240,228,90832,5,2,0:0:0:0:
226,103,90998,1,0,0:0:0:0:
110,187,91165,5,2,0:0:0:0:
162,361,91332,1,0,0:0:0:0:
351,281,91498,5,10,3:0:0:0:
226,103,91665,1,8,3:0:0:0:
162,361,91832,1,10,3:0:0:0:
434,323,91998,1,8,3:0:0:0:
336,183,92165,1,10,3:0:0:0:
256,192,92248,12,0,93332,0:0:0:0:
256,189,93498,5,2,0:0:0:0:
202,111,93665,1,0,0:0:0:0:
191,263,93832,5,2,0:0:0:0:
208,348,93998,1,0,0:0:0:0:
357,215,94165,5,2,0:0:0:0:
256,189,94332,1,0,0:0:0:0:
406,329,94498,5,2,0:0:0:0:
450,208,94665,1,0,0:0:0:0:
314,68,94832,5,2,0:0:0:0:
357,215,94998,1,0,0:0:0:0:
155,215,95165,5,2,0:0:0:0:
198,68,95331,1,0,0:0:0:0:
340,243,95498,5,2,0:0:0:0:
356,337,95665,1,0,0:0:0:0:
156,337,95832,5,2,0:0:0:0:
255,181,95999,1,0,0:0:0:0:
61,214,96165,5,8,3:0:0:0:
80,179,96248,1,8,3:0:0:0:
112,155,96331,1,8,3:0:0:0:
150,145,96414,1,8,3:0:0:0:
190,151,96498,1,8,3:0:0:0:
223,165,96582,1,8,3:0:0:0:
261,175,96665,1,8,3:0:0:0:
301,173,96748,1,8,3:0:0:0:
337,158,96831,1,8,3:0:0:0:
368,132,96915,1,8,3:0:0:0:
391,105,96998,1,8,3:0:0:0:
418,76,97081,1,8,3:0:0:0:
456,64,97164,1,8,3:0:0:0:
495,69,97247,1,8,3:0:0:0:
512,91,97331,1,8,3:0:0:0:
512,125,97414,1,8,3:0:0:0:
495,150,97498,6,0,B|446:164|405:301|405:301|385:209|332:154|289:154|66:68|15:378|482:418|264:117|232:119|32:113,2,825
256,192,122498,12,0,124082,0:0:0:0:
255,192,124165,6,0,P|240:237|197:271,2,69.9999978637696
180,153,124665,2,0,P|181:96|193:69,2,69.9999978637696
104,189,125165,2,0,L|96:266,1,69.9999978637696
149,324,125498,2,0,L|242:330,2,69.9999978637696
66,339,125998,2,0,L|-4:336,2,69.9999978637696
149,324,126498,2,0,P|141:266|174:180,1,139.999995727539
249,176,126998,6,0,L|327:176,1,69.9999978637696
357,100,127332,2,0,L|432:100,2,69.9999978637696
284,57,127832,1,0,0:0:0:0:
210,96,127998,1,0,0:0:0:0:
256,165,128165,2,0,P|263:232|253:296,1,104.999996795654
218,279,128498,2,0,P|287:268|344:284,1,104.999996795654
328,316,128832,2,0,P|323:263|336:209,1,104.999996795654
295,196,129165,2,0,P|346:217|413:196,1,104.999996795654
432,192,129498,5,0,0:0:0:0:
446,231,129582,1,0,0:0:0:0:
446,272,129665,1,0,0:0:0:0:
392,336,129832,5,0,0:0:0:0:
312,308,129998,1,0,0:0:0:0:
232,336,130165,1,0,0:0:0:0:
155,300,130332,1,0,0:0:0:0:
155,300,130665,5,0,0:0:0:0:
81,259,130832,2,0,B|81:215|81:215|100:179|100:179|100:108,1,139.999995727539
266,106,131498,2,0,P|316:121|411:105,1,139.999995727539
401,109,132165,6,0,L|398:200,3,69.9999978637696
323,207,132832,2,0,L|323:289,3,59.9999981689454
244,281,133498,2,0,L|244:344,3,50
158,339,134165,2,0,P|102:321|87:205,1,175
108,205,134832,6,0,P|148:163|149:102,1,110.000003356934,12|0,0:0|0:0,0:0:0:0:
15,47,135165,2,0,P|54:127|91:132,1,110.000003356934,8|0,0:0|0:0,0:0:0:0:
229,73,135498,1,8,0:0:0:0:
67,131,135665,1,0,0:0:0:0:
257,146,135832,1,8,0:0:0:0:
77,97,135998,1,0,0:0:0:0:
248,38,136165,6,0,L|371:40,1,110.000003356934,8|0,0:0|0:0,0:0:0:0:
257,146,136498,2,0,P|166:151|127:132,1,110.000003356934,8|0,0:0|0:0,0:0:0:0:
286,236,136832,1,8,0:0:0:0:
248,38,136998,1,0,0:0:0:0:
258,251,137165,1,8,0:0:0:0:
386,108,137332,1,0,0:0:0:0:
96,212,137498,6,0,L|98:328,1,110.000003356934,12|0,0:0|0:0,0:0:0:0:
346,320,137832,2,0,L|347:210,1,110.000003356934,8|0,0:0|0:0,0:0:0:0:
170,148,138165,1,8,0:0:0:0:
255,254,138332,1,0,0:0:0:0:
264,103,138498,1,8,0:0:0:0:
201,255,138665,1,0,0:0:0:0:
171,62,138832,6,0,P|93:77|-8:52,1,165.000005035401,8|0,0:0|0:0,0:0:0:0:
39,25,139165,1,8,0:0:0:0:
109,216,139332,1,0,0:0:0:0:
264,103,139498,2,0,P|323:109|400:99,1,110.000003356934,8|0,0:0|0:0,0:0:0:0:
416,184,139832,1,8,0:0:0:0:
449,63,139998,1,0,0:0:0:0:
263,102,140165,5,8,3:0:0:0:
301,250,140332,1,8,3:0:0:0:
373,104,140498,1,8,3:0:0:0:
167,174,140665,1,8,3:0:0:0:
331,336,140832,1,8,3:0:0:0:
263,102,140998,1,8,3:0:0:0:
192,337,141165,1,8,3:0:0:0:
452,203,141332,1,8,3:0:0:0:
182,51,141498,5,8,3:0:0:0:
319,22,141665,1,8,3:0:0:0:
78,219,141832,1,8,3:0:0:0:
2,131,141998,1,8,3:0:0:0:
107,369,142165,1,8,3:0:0:0:
0,293,142332,1,8,3:0:0:0:
314,303,142498,1,8,3:0:0:0:
224,368,142665,1,8,3:0:0:0:
309,112,142832,5,0,0:0:0:0:
283,122,142915,1,0,0:0:0:0:
256,127,142998,1,0,0:0:0:0:
228,127,143082,1,0,0:0:0:0:
200,122,143165,1,0,0:0:0:0:
215,99,143248,5,0,0:0:0:0:
219,137,143331,1,0,0:0:0:0:
224,174,143414,1,0,0:0:0:0:
229,212,143498,1,0,0:0:0:0:
234,249,143581,1,0,0:0:0:0:
239,287,143664,1,0,0:0:0:0:
251,323,143748,5,0,0:0:0:0:
306,329,143832,1,0,0:0:0:0:
358,314,143914,1,0,0:0:0:0:
402,282,143998,1,0,0:0:0:0:
431,235,144081,1,0,0:0:0:0:
429,196,144165,2,8,L|427:154,30,27.5000008392334,8|8|8|8|8|8|8|8|8|8|8|8|8|8|8|8|8|8|8|8|8|8|8|8|8|8|8|8|8|8|8,3:0|3:0|3:0|3:0|3:0|3:0|3:0|3:0|3:0|3:0|3:0|3:0|3:0|3:0|3:0|3:0|3:0|3:0|3:0|3:0|3:0|3:0|3:0|3:0|3:0|3:0|3:0|3:0|3:0|3:0|3:0,3:0:0:0:
394,169,145498,6,0,B|329:220|258:168|217:32|299:-16|448:79|343:169|295:200|246:180|246:180|217:139|224:125,1,450
182,52,147165,5,0,0:0:0:0:
125,134,147498,1,0,0:0:0:0:
72,51,147832,1,0,0:0:0:0:
52,318,148165,6,0,P|154:338|228:309,1,150.000005722046,12|0,0:0|0:0,0:0:0:0:
478,94,148498,2,0,P|376:74|302:103,1,150.000005722046
390,270,148832,1,8,0:0:0:0:
106,71,148998,1,0,0:0:0:0:
196,326,149165,1,0,0:0:0:0:
273,25,149332,1,0,0:0:0:0:
47,168,149498,6,0,L|52:323,1,150.000005722046,8|0,0:0|0:0,0:0:0:0:
460,317,149832,2,0,L|465:168,1,150.000005722046
144,121,150165,1,8,0:0:0:0:
379,269,150332,1,0,0:0:0:0:
224,12,150498,1,0,0:0:0:0:
239,359,150665,1,0,0:0:0:0:
344,99,150832,6,0,P|438:98|502:133,1,150.000005722046,8|0,0:0|0:0,0:0:0:0:
63,294,151165,2,0,P|50:212|90:125,1,150.000005722046
443,346,151498,2,0,P|360:360|259:320,1,150.000005722046,8|0,0:0|0:0,0:0:0:0:
211,123,151832,1,0,0:0:0:0:
435,321,151998,1,0,0:0:0:0:
86,275,152165,1,8,0:0:0:0:
343,28,152332,1,0,0:0:0:0:
296,345,152498,1,0,0:0:0:0:
126,52,152665,1,0,0:0:0:0:
454,264,152832,6,0,L|448:103,1,150.000005722046,8|0,0:0|0:0,0:0:0:0:
53,134,153165,2,0,P|34:211|48:287,1,150.000005722046
344,330,153498,1,8,0:0:0:0:
215,36,153665,1,0,0:0:0:0:
152,359,153832,1,0,0:0:0:0:
370,43,153998,1,0,0:0:0:0:
493,328,154165,2,0,L|341:330,1,150.000005722046,8|0,0:0|0:0,0:0:0:0:
53,134,154498,2,0,L|205:136,1,150.000005722046
344,331,154832,5,8,0:0:0:0:
100,219,154998,1,0,0:0:0:0:
317,44,155165,1,0,0:0:0:0:
231,362,155332,1,0,0:0:0:0:
477,198,155498,2,0,P|487:91|473:30,1,150.000005722046,8|0,0:0|0:0,0:0:0:0:
100,219,155832,2,0,P|90:293|102:367,1,150.000005722046
461,278,156165,5,8,0:0:0:0:
88,109,156332,1,0,0:0:0:0:
249,376,156498,1,0,0:0:0:0:
280,21,156665,1,0,0:0:0:0:
374,348,156832,5,8,0:0:0:0:
181,73,156998,1,0,0:0:0:0:
369,148,157165,1,0,0:0:0:0:
171,236,157332,1,0,0:0:0:0:
346,265,157498,6,0,L|370:142,1,119.999996337891,8|0,0:0|0:0,0:0:0:0:
171,236,157832,2,0,L|150:119,1,100
331,343,158165,2,0,L|349:245,1,80,8|0,0:0|0:0,0:0:0:0:
185,324,158498,2,0,L|170:230,1,89.9999972534181
153,137,158832,6,0,P|206:80|299:54,1,150.000005722046,8|0,0:0|0:0,0:0:0:0:
450,261,159165,2,0,P|397:318|304:344,1,150.000005722046
272,55,159498,1,8,0:0:0:0:
164,322,159665,1,0,0:0:0:0:
430,133,159832,1,0,0:0:0:0:
111,59,159998,1,0,0:0:0:0:
330,342,160165,6,0,L|482:316,1,150.000005722046,8|0,0:0|0:0,0:0:0:0:
258,84,160498,2,0,L|106:58,1,150.000005722046
161,324,160832,1,8,0:0:0:0:
415,80,160998,1,0,0:0:0:0:
328,292,161165,1,0,0:0:0:0:
258,84,161332,1,0,0:0:0:0:
201,200,161498,5,8,0:0:0:0:
258,84,161665,1,0,0:0:0:0:
328,292,161832,1,0,0:0:0:0:
374,57,161998,1,0,0:0:0:0:
231,309,162165,5,8,0:0:0:0:
421,198,162332,1,0,0:0:0:0:
145,178,162498,1,0,0:0:0:0:
374,57,162665,1,0,0:0:0:0:
328,292,162832,5,8,0:0:0:0:
277,15,162998,1,0,0:0:0:0:
231,309,163165,1,0,0:0:0:0:
140,14,163332,1,0,0:0:0:0:
61,267,163498,5,8,0:0:0:0:
355,205,163665,1,0,0:0:0:0:
75,118,163832,1,0,0:0:0:0:
378,347,163998,1,0,0:0:0:0:
481,172,164165,6,0,L|490:14,1,150.000005722046,8|0,0:0|0:0,0:0:0:0:
75,118,164498,2,0,P|57:209|73:287,1,150.000005722046
380,286,164832,1,8,0:0:0:0:
65,264,164998,1,0,0:0:0:0:
269,24,165165,1,0,0:0:0:0:
241,356,165332,1,0,0:0:0:0:
468,239,165498,6,0,L|477:69,1,150.000005722046,8|0,0:0|0:0,0:0:0:0:
63,155,165832,2,0,P|41:244|62:320,1,150.000005722046
337,300,166165,1,8,0:0:0:0:
216,40,166332,1,0,0:0:0:0:
166,353,166498,1,0,0:0:0:0:
363,86,166665,1,0,0:0:0:0:
483,298,166832,6,0,P|395:313|310:287,1,150.000005722046,8|0,0:0|0:0,0:0:0:0:
29,86,167165,2,0,P|117:71|202:97,1,150.000005722046
96,344,167498,6,0,L|97:189,1,129.999994049073,8|0,0:0|0:0,0:0:0:0:
415,39,167832,2,0,L|415:203,1,129.999994049073
118,97,168165,6,0,B|166:64|166:64|262:43,1,110.000003356934,8|0,0:0|0:0,0:0:0:0:
394,287,168498,2,0,B|351:320|351:320|257:340,1,110.000003356934
125,166,168832,2,0,L|115:69,1,69.9999978637696,8|0,0:0|0:0,0:0:0:0:
398,217,169165,2,0,L|392:308,1,69.9999978637696
159,318,169498,6,0,L|-3:328,1,150.000005722046,12|0,0:0|0:0,0:0:0:0:
353,66,169832,2,0,L|502:56,1,150.000005722046
273,343,170165,1,8,0:0:0:0:
141,27,170332,1,0,0:0:0:0:
482,209,170498,1,0,0:0:0:0:
90,316,170665,1,0,0:0:0:0:
316,21,170832,5,8,0:0:0:0:
359,356,170998,1,0,0:0:0:0:
90,316,171165,2,0,P|76:233|102:147,1,150.000005722046
324,136,171498,1,8,0:0:0:0:
259,375,171665,1,0,0:0:0:0:
26,214,171832,2,0,P|32:112|60:49,1,150.000005722046
481,116,172165,6,0,L|475:276,1,150.000005722046,8|0,0:0|0:0,0:0:0:0:
179,32,172498,1,0,0:0:0:0:
266,353,172665,1,0,0:0:0:0:
374,28,172832,1,8,0:0:0:0:
398,363,172998,1,0,0:0:0:0:
41,177,173165,1,0,0:0:0:0:
264,22,173332,1,0,0:0:0:0:
166,310,173498,5,8,0:0:0:0:
427,169,173665,1,0,0:0:0:0:
165,276,173832,1,0,0:0:0:0:
488,337,173998,1,0,0:0:0:0:
171,246,174165,1,8,0:0:0:0:
446,28,174332,1,0,0:0:0:0:
182,212,174498,1,0,0:0:0:0:
391,368,174665,1,0,0:0:0:0:
170,109,174832,6,0,P|79:97|-4:124,1,150.000005722046,8|0,0:0|0:0,0:0:0:0:
346,263,175165,2,0,P|437:275|520:248,1,150.000005722046
129,190,175498,6,0,P|46:207|-26:253,1,150.000005722046,8|0,0:0|0:0,0:0:0:0:
382,194,175832,2,0,P|456:180|521:144,1,150.000005722046
169,109,176165,1,8,0:0:0:0:
269,370,176332,1,0,0:0:0:0:
329,30,176498,1,0,0:0:0:0:
389,314,176665,1,0,0:0:0:0:
85,267,176832,5,8,0:0:0:0:
470,223,176998,1,0,0:0:0:0:
56,96,177165,1,0,0:0:0:0:
479,33,177332,1,0,0:0:0:0:
169,217,177498,6,0,L|163:377,1,150.000005722046,8|0,0:0|0:0,0:0:0:0:
348,366,177832,2,0,L|343:217,1,150.000005722046
170,97,178165,2,0,L|168:226,1,119.999996337891,8|0,0:0|0:0,0:0:0:0:
343,216,178498,2,0,L|342:97,1,119.999996337891
170,97,178832,6,0,P|84:97|22:128,1,150.000005722046,8|0,0:0|0:0,0:0:0:0:
341,96,179165,2,0,P|427:96|489:127,1,150.000005722046
171,288,179498,2,0,P|85:288|23:257,1,150.000005722046,8|0,0:0|0:0,0:0:0:0:
341,288,179831,2,0,P|427:288|489:257,1,150.000005722046
248,86,180165,5,8,0:0:0:0:
248,368,180332,1,0,0:0:0:0:
399,194,180498,1,0,0:0:0:0:
269,211,180665,1,0,0:0:0:0:
385,44,180832,6,0,P|456:105|483:172,1,150.000005722046,8|0,0:0|0:0,0:0:0:0:
127,340,181165,2,0,P|56:279|29:212,1,150.000005722046
248,86,181498,1,8,0:0:0:0:
248,372,181665,1,0,0:0:0:0:
134,164,181832,1,0,0:0:0:0:
269,211,181998,1,0,0:0:0:0:
49,88,182165,6,0,P|19:166|37:237,1,150.000005722046,8|0,0:0|0:0,0:0:0:0:
418,218,182498,2,0,L|240:209,1,150.000005722046
490,121,182832,5,8,0:0:0:0:
475,306,182998,1,0,0:0:0:0:
370,85,183165,1,0,0:0:0:0:
358,328,183332,1,0,0:0:0:0:
503,217,183498,5,8,0:0:0:0:
258,147,183665,1,0,0:0:0:0:
454,355,183832,1,0,0:0:0:0:
170,315,183998,1,0,0:0:0:0:
136,84,184165,5,8,0:0:0:0:
249,345,184332,1,0,0:0:0:0:
369,83,184498,1,0,0:0:0:0:
368,353,184665,1,0,0:0:0:0:
254,62,184832,5,8,0:0:0:0:
503,158,184998,1,0,0:0:0:0:
157,206,185165,1,0,0:0:0:0:
454,359,185332,1,0,0:0:0:0:
157,206,185498,6,0,B|83:191|83:191|1:208,1,150.000005722046,8|0,0:0|0:0,0:0:0:0:
359,245,185832,2,0,B|433:260|433:260|515:243,1,150.000005722046
272,55,186165,1,8,0:0:0:0:
174,323,186332,1,0,0:0:0:0:
417,152,186498,1,0,0:0:0:0:
172,63,186665,1,0,0:0:0:0:
362,244,186832,6,0,L|511:248,1,150.000005722046,8|0,0:0|0:0,0:0:0:0:
151,207,187165,2,0,P|153:101|188:44,1,150.000005722046
271,269,187498,1,8,0:0:0:0:
49,349,187665,1,0,0:0:0:0:
271,172,187832,1,0,0:0:0:0:
4,200,187998,1,0,0:0:0:0:
286,84,188165,5,8,0:0:0:0:
167,171,188332,1,0,0:0:0:0:
344,225,188498,1,0,0:0:0:0:
197,46,188665,1,0,0:0:0:0:
203,273,188832,5,8,0:0:0:0:
393,99,188998,1,0,0:0:0:0:
325,326,189165,1,0,0:0:0:0:
286,83,189332,1,0,0:0:0:0:
346,226,189498,5,8,0:0:0:0:
98,241,189665,1,0,0:0:0:0:
231,363,189832,1,0,0:0:0:0:
234,223,189998,1,0,0:0:0:0:
325,326,190165,1,8,0:0:0:0:
168,290,190332,5,0,0:0:0:0:
325,326,190498,1,0,0:0:0:0:
234,223,190665,1,0,0:0:0:0:
346,226,190832,6,0,L|481:226,1,100,2|0,0:0|0:0,0:0:0:0:
460,319,191165,1,0,0:0:0:0:
303,143,191332,2,0,B|198:181|124:144,1,150
144,128,191665,1,2,0:0:0:0:
303,31,191832,1,0,0:0:0:0:
256,262,191998,1,0,0:0:0:0:
163,44,192165,6,0,L|56:44,1,100,2|0,0:0|0:0,0:0:0:0:
144,128,192498,1,0,0:0:0:0:
273,162,192665,2,0,B|310:181|310:181|450:178,1,150
440,159,192998,1,2,0:0:0:0:
144,128,193165,2,0,P|120:183|132:257,1,100,2|0,0:0|0:0,0:0:0:0:
297,370,193498,6,0,L|306:240,1,100,2|0,0:0|0:0,0:0:0:0:
222,197,193832,1,0,0:0:0:0:
420,327,193998,2,0,B|453:290|453:290|455:156,1,150
425,162,194332,1,2,0:0:0:0:
303,270,194498,1,0,0:0:0:0:
352,56,194665,1,0,0:0:0:0:
420,327,194832,6,0,P|360:368|317:372,1,100,2|0,0:0|0:0,0:0:0:0:
221,193,195165,1,0,0:0:0:0:
352,56,195332,2,0,P|451:67|494:111,1,150
493,125,195665,1,2,0:0:0:0:
259,104,195832,1,0,0:0:0:0:
366,298,195998,1,0,0:0:0:0:
167,113,196165,6,0,L|55:116,1,100,2|0,0:0|0:0,0:0:0:0:
233,10,196498,1,0,0:0:0:0:
283,192,196665,2,0,L|258:347,1,150
245,355,196998,1,2,0:0:0:0:
127,206,197165,1,0,0:0:0:0:
366,300,197332,1,0,0:0:0:0:
259,104,197498,6,0,L|380:116,1,100,2|0,0:0|0:0,0:0:0:0:
366,300,197832,1,0,0:0:0:0:
127,206,197998,2,0,P|103:278|113:363,1,150
138,358,198332,1,2,0:0:0:0:
366,300,198498,1,0,0:0:0:0:
162,125,198665,1,0,0:0:0:0:
393,219,198832,6,0,P|403:157|388:106,1,100,2|0,0:0|0:0,0:0:0:0:
162,125,199165,1,0,0:0:0:0:
366,300,199332,2,0,P|438:293|477:216,1,150
476,208,199665,1,2,0:0:0:0:
339,58,199832,1,0,0:0:0:0:
162,125,199998,1,0,0:0:0:0:
261,357,200165,6,0,P|278:285|266:235,1,100,2|0,0:0|0:0,0:0:0:0:
162,125,200498,2,0,P|137:198|146:279,1,150
154,285,200832,1,2,0:0:0:0:
345,138,200998,1,0,0:0:0:0:
377,359,201165,1,0,0:0:0:0:
243,91,201332,1,0,0:0:0:0:
433,274,201498,6,0,L|433:167,1,100,2|0,0:0|0:0,0:0:0:0:
243,91,201832,2,0,P|174:101|88:93,1,150
79,69,202165,1,2,0:0:0:0:
294,7,202332,1,0,0:0:0:0:
264,250,202498,1,0,0:0:0:0:
56,183,202665,1,0,0:0:0:0:
264,250,202832,6,0,L|385:248,1,100,2|0,0:0|0:0,0:0:0:0:
186,332,203165,2,0,P|68:333|33:322,1,150
32,285,203498,1,2,0:0:0:0:
262,252,203665,1,0,0:0:0:0:
78,69,203832,1,0,0:0:0:0:
164,252,203998,1,0,0:0:0:0:
274,73,204165,6,0,P|328:66|429:107,1,134.999995880127,2|0,0:0|0:0,0:0:0:0:
376,172,204498,2,0,L|379:305,1,89.9999972534181,0|2,0:0|0:0,0:0:0:0:
337,344,204832,1,0,0:0:0:0:
473,214,204998,1,0,0:0:0:0:
274,73,205165,1,2,0:0:0:0:
251,263,205332,1,0,0:0:0:0:
404,88,205498,6,0,L|498:89,1,89.9999972534181,2|0,0:0|0:0,0:0:0:0:
251,263,205832,2,0,P|171:262|111:240,1,134.999995880127
118,213,206165,1,2,0:0:0:0:
274,73,206332,1,0,0:0:0:0:
245,363,206498,2,0,L|143:356,1,89.9999972534181
400,310,206832,6,0,P|415:263|389:168,2,120,2|0|0,0:0|0:0|0:0,0:0:0:0:
337,157,207498,2,0,P|388:119|424:125,1,80,2|0,0:0|0:0,0:0:0:0:
500,273,207832,1,0,0:0:0:0:
266,283,207998,1,0,0:0:0:0:
263,117,208165,2,0,P|274:41|316:-15,2,120,2|0|0,0:0|0:0|0:0,0:0:0:0:
337,157,208832,2,0,L|333:251,1,80,2|0,0:0|0:0,0:0:0:0:
225,199,209165,1,0,0:0:0:0:
437,227,209332,1,0,0:0:0:0:
268,283,209498,6,0,P|201:287|153:261,2,104.999996795654,2|0|0,0:0|0:0|0:0,0:0:0:0:
225,199,210165,2,0,L|153:163,1,69.9999978637696,2|0,0:0|0:0,0:0:0:0:
260,116,210498,2,0,L|188:80,1,69.9999978637696
86,73,210832,6,0,L|75:196,2,104.999996795654,2|0|0,0:0|0:0|0:0,0:0:0:0:
197,84,211498,1,2,0:0:0:0:
226,201,211665,1,0,0:0:0:0:
335,81,211832,1,0,0:0:0:0:
343,275,211998,1,0,0:0:0:0:
450,36,212165,1,4,0:0:0:0:
