osu file format v14

[General]
AudioFilename: Helblinde Heavens Fall bpm200.mp3
AudioLeadIn: 0
PreviewTime: -1
Countdown: 0
SampleSet: Normal
StackLeniency: 0.7
Mode: 1
LetterboxInBreaks: 0
WidescreenStoryboard: 1

[Editor]
Bookmarks: 38416,78016,123616
DistanceSpacing: 1.6
BeatDivisor: 4
GridSize: 32
TimelineZoom: 2.699999

[Metadata]
Title:Heaven's Fall (Speed Up Ver.)
TitleUnicode:Heaven's Fall (Speed Up Ver.)
Artist:Helblinde
ArtistUnicode:Helblinde
Creator:hoku-4625
Version:petu's Warrior(BPM200)
Source:
Tags:
BeatmapID:1610538
BeatmapSetID:764382

[Difficulty]
HPDrainRate:5
CircleSize:2
OverallDifficulty:5
ApproachRate:10
SliderMultiplier:1.4
SliderTickRate:1

[Events]
//Background and Video events
0,0,"arunodoa.jpg",0,0
//Break Periods
//Storyboard Layer 0 (Background)
//Storyboard Layer 1 (Fail)
//Storyboard Layer 2 (Pass)
//Storyboard Layer 3 (Foreground)
//Storyboard Sound Samples

[TimingPoints]
16,300,4,1,0,40,1,0
27278,-100,4,1,0,50,0,0
33578,-100,4,1,0,60,0,0
37478,-100,4,1,0,80,0,0
37778,-100,4,1,0,90,0,0
102016,-100,4,1,0,90,0,1
123616,-100,4,1,0,90,0,0
171616,-100,4,1,0,90,0,1
186016,-100,4,1,0,90,0,0
195616,-100,4,1,0,90,0,1
210016,-100,4,1,0,90,0,0

[HitObjects]
256,192,16,5,0,0:0:0:0:
256,192,166,1,0,0:0:0:0:
256,192,316,1,8,0:0:0:0:
256,192,466,1,0,0:0:0:0:
256,192,541,1,8,0:0:0:0:
256,192,616,1,0,0:0:0:0:
256,192,691,1,0,0:0:0:0:
256,192,766,1,8,0:0:0:0:
256,192,916,1,8,0:0:0:0:
256,192,991,1,0,0:0:0:0:
256,192,1066,1,8,0:0:0:0:
256,192,1141,1,8,0:0:0:0:
256,192,1216,1,0,0:0:0:0:
256,192,1366,1,0,0:0:0:0:
256,192,1516,1,8,0:0:0:0:
256,192,1666,1,0,0:0:0:0:
256,192,1816,1,0,0:0:0:0:
256,192,1891,1,0,0:0:0:0:
256,192,1966,1,8,0:0:0:0:
256,192,2116,1,8,0:0:0:0:
256,192,2191,1,0,0:0:0:0:
256,192,2266,1,8,0:0:0:0:
256,192,2341,1,8,0:0:0:0:
256,192,2416,1,0,0:0:0:0:
256,192,2566,1,8,0:0:0:0:
256,192,2716,1,0,0:0:0:0:
256,192,2866,1,8,0:0:0:0:
256,192,3016,1,0,0:0:0:0:
256,192,3091,1,0,0:0:0:0:
256,192,3166,1,0,0:0:0:0:
256,192,3241,1,0,0:0:0:0:
256,192,3316,1,8,0:0:0:0:
256,192,3391,1,8,0:0:0:0:
256,192,3466,1,8,0:0:0:0:
256,192,3541,1,8,0:0:0:0:
256,192,3616,1,0,0:0:0:0:
256,192,3766,1,8,0:0:0:0:
256,192,3916,1,0,0:0:0:0:
256,192,4066,1,8,0:0:0:0:
256,192,4216,1,0,0:0:0:0:
256,192,4291,1,0,0:0:0:0:
256,192,4366,1,0,0:0:0:0:
256,192,4441,1,0,0:0:0:0:
256,192,4516,1,8,0:0:0:0:
256,192,4591,1,8,0:0:0:0:
256,192,4666,1,8,0:0:0:0:
256,192,4741,1,8,0:0:0:0:
256,192,4816,1,0,0:0:0:0:
256,192,4966,1,8,0:0:0:0:
256,192,5041,1,0,0:0:0:0:
256,192,5116,1,8,0:0:0:0:
256,192,5266,1,8,0:0:0:0:
256,192,5341,1,8,0:0:0:0:
256,192,5416,1,0,0:0:0:0:
256,192,5491,1,0,0:0:0:0:
256,192,5566,1,8,0:0:0:0:
256,192,5641,1,0,0:0:0:0:
256,192,5716,1,8,0:0:0:0:
256,192,5791,1,8,0:0:0:0:
256,192,5866,1,0,0:0:0:0:
256,192,5941,1,8,0:0:0:0:
256,192,6016,1,0,0:0:0:0:
256,192,6166,1,0,0:0:0:0:
256,192,6241,1,0,0:0:0:0:
256,192,6316,1,8,0:0:0:0:
256,192,6466,1,0,0:0:0:0:
256,192,6616,1,0,0:0:0:0:
256,192,6691,1,0,0:0:0:0:
256,192,6766,1,8,0:0:0:0:
256,192,6916,1,0,0:0:0:0:
256,192,6991,1,8,0:0:0:0:
256,192,7066,1,0,0:0:0:0:
256,192,7141,1,0,0:0:0:0:
256,192,7216,1,8,0:0:0:0:
256,192,7291,1,8,0:0:0:0:
256,192,7366,1,0,0:0:0:0:
256,192,7441,1,0,0:0:0:0:
256,192,7516,1,8,0:0:0:0:
256,192,7666,1,0,0:0:0:0:
256,192,7741,1,0,0:0:0:0:
256,192,7816,1,8,0:0:0:0:
256,192,7891,1,8,0:0:0:0:
256,192,7966,1,0,0:0:0:0:
256,192,8041,1,0,0:0:0:0:
256,192,8116,1,8,0:0:0:0:
256,192,8266,1,0,0:0:0:0:
256,192,8341,1,8,0:0:0:0:
256,192,8416,1,0,0:0:0:0:
256,192,8566,1,0,0:0:0:0:
256,192,8716,1,8,0:0:0:0:
256,192,8866,1,0,0:0:0:0:
256,192,8941,1,8,0:0:0:0:
256,192,9016,1,0,0:0:0:0:
256,192,9091,1,0,0:0:0:0:
256,192,9166,1,8,0:0:0:0:
256,192,9316,1,8,0:0:0:0:
256,192,9466,1,0,0:0:0:0:
256,192,9541,1,8,0:0:0:0:
256,192,9616,1,0,0:0:0:0:
256,192,9766,1,0,0:0:0:0:
256,192,9916,1,8,0:0:0:0:
256,192,10066,1,0,0:0:0:0:
256,192,10141,1,8,0:0:0:0:
256,192,10216,1,0,0:0:0:0:
256,192,10291,1,0,0:0:0:0:
256,192,10366,1,0,0:0:0:0:
256,192,10516,1,0,0:0:0:0:
256,192,10591,1,8,0:0:0:0:
256,192,10666,1,0,0:0:0:0:
256,192,10741,1,8,0:0:0:0:
256,192,10816,1,0,0:0:0:0:
256,192,10966,1,0,0:0:0:0:
256,192,11116,1,8,0:0:0:0:
256,192,11266,1,8,0:0:0:0:
256,192,11341,1,8,0:0:0:0:
256,192,11416,1,0,0:0:0:0:
256,192,11491,1,0,0:0:0:0:
256,192,11566,1,8,0:0:0:0:
256,192,11716,1,8,0:0:0:0:
256,192,11791,1,0,0:0:0:0:
256,192,11866,1,8,0:0:0:0:
256,192,11941,1,8,0:0:0:0:
256,192,12016,1,0,0:0:0:0:
256,192,12166,1,0,0:0:0:0:
256,192,12316,1,8,0:0:0:0:
256,192,12466,1,0,0:0:0:0:
256,192,12541,1,0,0:0:0:0:
256,192,12616,1,8,0:0:0:0:
256,192,12766,1,0,0:0:0:0:
256,192,12841,1,0,0:0:0:0:
256,192,12916,1,8,0:0:0:0:
256,192,13066,1,0,0:0:0:0:
256,192,13141,1,0,0:0:0:0:
256,192,13216,1,8,0:0:0:0:
256,192,13291,1,8,0:0:0:0:
256,192,13366,1,8,0:0:0:0:
256,192,13441,1,0,0:0:0:0:
256,192,13516,1,8,0:0:0:0:
256,192,13666,1,0,0:0:0:0:
256,192,13741,1,0,0:0:0:0:
256,192,13816,1,8,0:0:0:0:
256,192,13891,1,8,0:0:0:0:
256,192,13966,1,0,0:0:0:0:
256,192,14041,1,8,0:0:0:0:
256,192,14116,1,0,0:0:0:0:
256,192,14191,1,0,0:0:0:0:
256,192,14266,1,8,0:0:0:0:
256,192,14341,1,0,0:0:0:0:
256,192,14416,1,8,0:0:0:0:
256,192,14491,1,8,0:0:0:0:
256,192,14566,1,0,0:0:0:0:
256,192,14641,1,0,0:0:0:0:
256,192,14716,1,8,0:0:0:0:
256,192,14791,1,8,0:0:0:0:
256,192,14866,1,0,0:0:0:0:
256,192,14941,1,8,0:0:0:0:
256,192,15016,1,0,0:0:0:0:
256,192,15166,1,8,0:0:0:0:
256,192,15316,1,8,0:0:0:0:
256,192,15391,1,0,0:0:0:0:
256,192,15466,1,0,0:0:0:0:
256,192,15541,1,8,0:0:0:0:
256,192,15616,1,0,0:0:0:0:
256,192,15766,1,0,0:0:0:0:
256,192,15916,1,8,0:0:0:0:
256,192,16066,1,0,0:0:0:0:
256,192,16141,1,8,0:0:0:0:
256,192,16216,1,0,0:0:0:0:
256,192,16291,1,0,0:0:0:0:
256,192,16366,1,8,0:0:0:0:
256,192,16516,1,8,0:0:0:0:
256,192,16591,1,0,0:0:0:0:
256,192,16666,1,8,0:0:0:0:
256,192,16741,1,8,0:0:0:0:
256,192,16816,1,0,0:0:0:0:
256,192,16966,1,8,0:0:0:0:
256,192,17116,1,0,0:0:0:0:
256,192,17266,1,8,0:0:0:0:
256,192,17416,1,0,0:0:0:0:
256,192,17491,1,0,0:0:0:0:
256,192,17566,1,0,0:0:0:0:
256,192,17641,1,0,0:0:0:0:
256,192,17716,1,8,0:0:0:0:
256,192,17791,1,8,0:0:0:0:
256,192,17866,1,8,0:0:0:0:
256,192,17941,1,8,0:0:0:0:
256,192,18016,1,0,0:0:0:0:
256,192,18166,1,8,0:0:0:0:
256,192,18316,1,0,0:0:0:0:
256,192,18466,1,8,0:0:0:0:
256,192,18616,1,0,0:0:0:0:
256,192,18691,1,0,0:0:0:0:
256,192,18766,1,0,0:0:0:0:
256,192,18841,1,0,0:0:0:0:
256,192,18916,1,8,0:0:0:0:
256,192,18991,1,0,0:0:0:0:
256,192,19066,1,8,0:0:0:0:
256,192,19141,1,8,0:0:0:0:
256,192,19216,1,0,0:0:0:0:
256,192,19291,1,0,0:0:0:0:
256,192,19366,1,8,0:0:0:0:
256,192,19441,1,0,0:0:0:0:
256,192,19516,1,8,0:0:0:0:
256,192,19591,1,8,0:0:0:0:
256,192,19666,1,0,0:0:0:0:
256,192,19741,1,8,0:0:0:0:
256,192,19816,1,0,0:0:0:0:
256,192,19891,1,0,0:0:0:0:
256,192,19966,1,0,0:0:0:0:
256,192,20041,1,0,0:0:0:0:
256,192,20116,1,8,0:0:0:0:
256,192,20191,1,8,0:0:0:0:
256,192,20266,1,0,0:0:0:0:
256,192,20341,1,8,0:0:0:0:
256,192,20416,1,0,0:0:0:0:
256,192,20491,1,0,0:0:0:0:
256,192,20566,1,0,0:0:0:0:
256,192,20641,1,0,0:0:0:0:
256,192,20716,1,8,0:0:0:0:
256,192,20791,1,8,0:0:0:0:
256,192,20866,1,0,0:0:0:0:
256,192,20941,1,8,0:0:0:0:
256,192,21016,1,0,0:0:0:0:
256,192,21091,1,0,0:0:0:0:
256,192,21166,1,8,0:0:0:0:
256,192,21241,1,0,0:0:0:0:
256,192,21316,1,8,0:0:0:0:
256,192,21391,1,8,0:0:0:0:
256,192,21466,1,0,0:0:0:0:
256,192,21541,1,8,0:0:0:0:
256,192,21616,1,0,0:0:0:0:
256,192,21766,1,0,0:0:0:0:
256,192,21916,1,8,0:0:0:0:
256,192,22066,1,8,0:0:0:0:
256,192,22141,1,8,0:0:0:0:
256,192,22216,1,0,0:0:0:0:
256,192,22291,1,0,0:0:0:0:
256,192,22366,1,8,0:0:0:0:
256,192,22516,1,0,0:0:0:0:
256,192,22591,1,8,0:0:0:0:
256,192,22666,1,0,0:0:0:0:
256,192,22741,1,8,0:0:0:0:
256,192,22816,1,0,0:0:0:0:
256,192,22966,1,0,0:0:0:0:
256,192,23116,1,8,0:0:0:0:
256,192,23266,1,8,0:0:0:0:
256,192,23341,1,8,0:0:0:0:
256,192,23416,1,0,0:0:0:0:
256,192,23491,1,0,0:0:0:0:
256,192,23566,1,8,0:0:0:0:
256,192,23716,1,8,0:0:0:0:
256,192,23791,1,0,0:0:0:0:
256,192,23866,1,8,0:0:0:0:
256,192,23941,1,8,0:0:0:0:
256,192,24016,1,0,0:0:0:0:
256,192,24166,1,0,0:0:0:0:
256,192,24316,1,8,0:0:0:0:
256,192,24466,1,0,0:0:0:0:
256,192,24541,1,8,0:0:0:0:
256,192,24616,1,0,0:0:0:0:
256,192,24691,1,0,0:0:0:0:
256,192,24766,1,8,0:0:0:0:
256,192,24916,1,0,0:0:0:0:
256,192,24991,1,8,0:0:0:0:
256,192,25066,1,0,0:0:0:0:
256,192,25141,1,8,0:0:0:0:
256,192,25216,1,0,0:0:0:0:
256,192,25366,1,0,0:0:0:0:
256,192,25516,1,8,0:0:0:0:
256,192,25666,1,0,0:0:0:0:
256,192,25741,1,8,0:0:0:0:
256,192,25816,1,0,0:0:0:0:
256,192,25891,1,0,0:0:0:0:
256,192,25966,1,8,0:0:0:0:
256,192,26116,1,8,0:0:0:0:
256,192,26191,1,0,0:0:0:0:
256,192,26266,1,8,0:0:0:0:
256,192,26341,1,8,0:0:0:0:
256,192,26416,1,0,0:0:0:0:
256,192,26566,1,8,0:0:0:0:
256,192,26716,1,0,0:0:0:0:
256,192,26866,1,8,0:0:0:0:
256,192,27016,1,0,0:0:0:0:
256,192,27166,1,0,0:0:0:0:
256,192,27316,1,8,0:0:0:0:
256,192,27391,1,8,0:0:0:0:
256,192,27466,1,8,0:0:0:0:
256,192,27541,1,8,0:0:0:0:
256,192,27616,1,0,0:0:0:0:
256,192,27666,1,0,0:0:0:0:
256,192,27766,1,0,0:0:0:0:
256,192,27816,1,0,0:0:0:0:
256,192,27916,1,8,0:0:0:0:
256,192,27991,1,8,0:0:0:0:
256,192,28066,1,0,0:0:0:0:
256,192,28141,1,0,0:0:0:0:
256,192,28216,1,8,0:0:0:0:
256,192,28266,1,8,0:0:0:0:
256,192,28316,1,8,0:0:0:0:
256,192,28366,1,8,0:0:0:0:
256,192,28516,1,0,0:0:0:0:
256,192,28816,1,4,0:0:0:0:
256,192,29116,1,8,0:0:0:0:
256,192,29416,1,8,0:0:0:0:
256,192,29716,1,8,0:0:0:0:
256,192,30016,1,8,0:0:0:0:
256,192,30316,1,8,0:0:0:0:
256,192,30616,1,8,0:0:0:0:
256,192,30916,1,8,0:0:0:0:
256,192,31216,1,8,0:0:0:0:
256,192,31516,1,8,0:0:0:0:
256,192,31816,1,8,0:0:0:0:
256,192,32116,1,8,0:0:0:0:
256,192,32416,1,8,0:0:0:0:
256,192,32716,1,8,0:0:0:0:
256,192,33016,1,8,0:0:0:0:
256,192,33316,1,8,0:0:0:0:
256,192,33616,1,8,0:0:0:0:
256,192,33766,1,8,0:0:0:0:
256,192,33916,1,8,0:0:0:0:
256,192,34066,1,8,0:0:0:0:
256,192,34216,1,8,0:0:0:0:
256,192,34366,1,8,0:0:0:0:
256,192,34516,1,8,0:0:0:0:
256,192,34666,1,8,0:0:0:0:
256,192,34816,1,8,0:0:0:0:
256,192,34966,1,8,0:0:0:0:
256,192,35116,1,8,0:0:0:0:
256,192,35266,1,8,0:0:0:0:
256,192,35416,1,8,0:0:0:0:
256,192,35566,1,8,0:0:0:0:
256,192,35716,1,8,0:0:0:0:
256,192,35866,1,8,0:0:0:0:
256,192,36016,1,8,0:0:0:0:
256,192,36091,1,8,0:0:0:0:
256,192,36166,1,8,0:0:0:0:
256,192,36241,1,8,0:0:0:0:
256,192,36316,1,8,0:0:0:0:
256,192,36391,1,8,0:0:0:0:
256,192,36466,1,8,0:0:0:0:
256,192,36541,1,8,0:0:0:0:
256,192,36616,1,8,0:0:0:0:
256,192,36691,1,8,0:0:0:0:
256,192,36766,1,8,0:0:0:0:
256,192,36841,1,8,0:0:0:0:
256,192,36916,1,8,0:0:0:0:
256,192,36991,1,8,0:0:0:0:
256,192,37066,1,8,0:0:0:0:
256,192,37141,1,8,0:0:0:0:
256,192,37216,1,0,0:0:0:0:
256,192,37516,5,4,0:0:0:0:
256,192,37816,1,0,0:0:0:0:
256,192,37866,1,0,0:0:0:0:
256,192,37916,1,0,0:0:0:0:
256,192,37966,1,0,0:0:0:0:
256,192,38116,1,12,0:0:0:0:
256,192,38416,1,8,0:0:0:0:
256,192,38566,1,0,0:0:0:0:
256,192,38641,1,0,0:0:0:0:
256,192,38716,1,8,0:0:0:0:
256,192,38866,1,0,0:0:0:0:
256,192,39016,1,8,0:0:0:0:
256,192,39091,1,0,0:0:0:0:
256,192,39166,1,0,0:0:0:0:
256,192,39241,1,0,0:0:0:0:
256,192,39316,1,8,0:0:0:0:
256,192,39391,1,8,0:0:0:0:
256,192,39466,1,0,0:0:0:0:
256,192,39616,1,0,0:0:0:0:
256,192,39766,1,8,0:0:0:0:
256,192,39841,1,8,0:0:0:0:
256,192,39916,1,0,0:0:0:0:
256,192,40066,1,8,0:0:0:0:
256,192,40216,1,0,0:0:0:0:
256,192,40291,1,0,0:0:0:0:
256,192,40366,1,8,0:0:0:0:
256,192,40441,1,0,0:0:0:0:
256,192,40516,1,8,0:0:0:0:
256,192,40591,1,8,0:0:0:0:
256,192,40666,1,0,0:0:0:0:
256,192,40741,1,0,0:0:0:0:
256,192,40816,1,8,0:0:0:0:
256,192,40891,1,0,0:0:0:0:
256,192,40966,1,8,0:0:0:0:
256,192,41041,1,8,0:0:0:0:
256,192,41116,1,0,0:0:0:0:
256,192,41191,1,0,0:0:0:0:
256,192,41266,1,8,0:0:0:0:
256,192,41416,1,0,0:0:0:0:
256,192,41566,1,0,0:0:0:0:
256,192,41641,1,8,0:0:0:0:
256,192,41716,1,0,0:0:0:0:
256,192,41866,1,8,0:0:0:0:
256,192,42016,1,0,0:0:0:0:
256,192,42166,1,8,0:0:0:0:
256,192,42216,1,8,0:0:0:0:
256,192,42266,1,8,0:0:0:0:
256,192,42316,1,0,0:0:0:0:
256,192,42466,1,8,0:0:0:0:
256,192,42616,1,0,0:0:0:0:
256,192,42766,1,0,0:0:0:0:
256,192,42916,1,0,0:0:0:0:
256,192,43066,1,0,0:0:0:0:
256,192,43216,1,0,0:0:0:0:
256,192,43366,1,0,0:0:0:0:
256,192,43441,1,8,0:0:0:0:
256,192,43516,1,0,0:0:0:0:
256,192,43666,1,8,0:0:0:0:
256,192,43816,1,0,0:0:0:0:
256,192,43891,1,0,0:0:0:0:
256,192,43966,1,8,0:0:0:0:
256,192,44116,1,0,0:0:0:0:
256,192,44266,1,8,0:0:0:0:
256,192,44341,1,8,0:0:0:0:
256,192,44416,1,0,0:0:0:0:
256,192,44566,1,0,0:0:0:0:
256,192,44641,1,8,0:0:0:0:
256,192,44716,1,0,0:0:0:0:
256,192,44866,1,8,0:0:0:0:
256,192,45016,1,0,0:0:0:0:
256,192,45091,1,0,0:0:0:0:
256,192,45166,1,8,0:0:0:0:
256,192,45316,1,8,0:0:0:0:
256,192,45466,1,8,0:0:0:0:
256,192,45616,1,4,0:0:0:0:
256,192,45766,1,0,0:0:0:0:
256,192,45841,1,8,0:0:0:0:
256,192,45916,1,0,0:0:0:0:
256,192,46066,1,8,0:0:0:0:
256,192,46216,1,0,0:0:0:0:
256,192,46291,1,0,0:0:0:0:
256,192,46366,1,8,0:0:0:0:
256,192,46441,1,0,0:0:0:0:
256,192,46516,1,8,0:0:0:0:
256,192,46591,1,8,0:0:0:0:
256,192,46666,1,0,0:0:0:0:
256,192,46816,1,0,0:0:0:0:
256,192,46966,1,8,0:0:0:0:
256,192,47041,1,8,0:0:0:0:
256,192,47116,1,0,0:0:0:0:
256,192,47191,1,0,0:0:0:0:
256,192,47266,1,0,0:0:0:0:
256,192,47341,1,0,0:0:0:0:
256,192,47416,1,0,0:0:0:0:
256,192,47491,1,0,0:0:0:0:
256,192,47566,1,0,0:0:0:0:
256,192,47641,1,0,0:0:0:0:
256,192,47716,1,0,0:0:0:0:
256,192,47866,1,0,0:0:0:0:
256,192,48016,1,4,0:0:0:0:
256,192,48166,1,0,0:0:0:0:
256,192,48241,1,8,0:0:0:0:
256,192,48316,1,0,0:0:0:0:
256,192,48391,1,0,0:0:0:0:
256,192,48466,1,8,0:0:0:0:
256,192,48616,1,0,0:0:0:0:
256,192,48691,1,0,0:0:0:0:
256,192,48841,1,8,0:0:0:0:
256,192,48916,1,0,0:0:0:0:
256,192,48991,1,0,0:0:0:0:
256,192,49066,1,8,0:0:0:0:
256,192,49216,1,0,0:0:0:0:
256,192,49366,1,8,0:0:0:0:
256,192,49441,1,8,0:0:0:0:
256,192,49516,1,0,0:0:0:0:
256,192,49666,1,8,0:0:0:0:
256,192,49816,1,0,0:0:0:0:
256,192,49891,1,0,0:0:0:0:
256,192,49966,1,8,0:0:0:0:
256,192,50041,1,8,0:0:0:0:
256,192,50116,1,0,0:0:0:0:
256,192,50266,1,8,0:0:0:0:
256,192,50416,1,0,0:0:0:0:
256,192,50566,1,0,0:0:0:0:
256,192,50641,1,0,0:0:0:0:
256,192,50716,1,8,0:0:0:0:
256,192,50866,1,8,0:0:0:0:
256,192,51016,1,0,0:0:0:0:
256,192,51166,1,8,0:0:0:0:
256,192,51241,1,8,0:0:0:0:
256,192,51316,1,0,0:0:0:0:
256,192,51366,1,0,0:0:0:0:
256,192,51416,1,8,0:0:0:0:
256,192,51466,1,0,0:0:0:0:
256,192,51541,1,0,0:0:0:0:
256,192,51616,1,8,0:0:0:0:
256,192,51653,1,8,0:0:0:0:
256,192,51766,1,8,0:0:0:0:
256,192,51803,1,8,0:0:0:0:
256,192,51916,1,8,0:0:0:0:
256,192,51953,1,8,0:0:0:0:
256,192,52066,1,0,0:0:0:0:
256,192,52666,1,8,0:0:0:0:
256,192,52716,1,8,0:0:0:0:
256,192,52766,1,8,0:0:0:0:
256,192,52816,1,0,0:0:0:0:
256,192,53116,1,0,0:0:0:0:
256,192,53191,1,0,0:0:0:0:
256,192,53266,1,8,0:0:0:0:
256,192,53416,1,0,0:0:0:0:
256,192,53566,1,8,0:0:0:0:
256,192,53641,1,8,0:0:0:0:
256,192,53716,1,0,0:0:0:0:
256,192,53866,1,8,0:0:0:0:
256,192,54016,1,0,0:0:0:0:
256,192,54091,1,0,0:0:0:0:
256,192,54166,1,8,0:0:0:0:
256,192,54241,1,0,0:0:0:0:
256,192,54316,1,8,0:0:0:0:
256,192,54466,1,0,0:0:0:0:
256,192,54541,1,0,0:0:0:0:
256,192,54616,1,8,0:0:0:0:
256,192,54766,1,0,0:0:0:0:
256,192,54841,1,0,0:0:0:0:
256,192,54916,1,8,0:0:0:0:
256,192,54991,1,8,0:0:0:0:
256,192,55066,1,0,0:0:0:0:
256,192,55216,5,0,0:0:0:0:
256,192,55266,5,0,0:0:0:0:
256,192,55366,1,0,0:0:0:0:
256,192,55416,1,0,0:0:0:0:
256,192,55516,1,8,0:0:0:0:
256,192,55566,1,8,0:0:0:0:
256,192,55616,1,8,0:0:0:0:
256,192,55666,1,0,0:0:0:0:
256,192,55816,1,0,0:0:0:0:
256,192,55966,1,8,0:0:0:0:
256,192,56041,1,8,0:0:0:0:
256,192,56116,1,0,0:0:0:0:
256,192,56166,1,0,0:0:0:0:
256,192,56216,1,0,0:0:0:0:
256,192,56266,1,0,0:0:0:0:
256,192,56416,1,8,0:0:0:0:
256,192,56466,1,8,0:0:0:0:
256,192,56566,1,8,0:0:0:0:
256,192,56616,1,8,0:0:0:0:
256,192,56716,1,0,0:0:0:0:
256,192,56791,1,0,0:0:0:0:
256,192,56866,1,8,0:0:0:0:
256,192,56941,1,0,0:0:0:0:
256,192,57016,1,8,0:0:0:0:
256,192,57066,1,8,0:0:0:0:
256,192,57116,1,8,0:0:0:0:
256,192,57166,1,8,0:0:0:0:
256,192,57316,1,4,0:0:0:0:
256,192,57616,1,4,0:0:0:0:
256,192,57766,1,8,0:0:0:0:
256,192,57841,1,8,0:0:0:0:
256,192,57916,1,0,0:0:0:0:
256,192,58066,1,8,0:0:0:0:
256,192,58216,1,0,0:0:0:0:
256,192,58291,1,0,0:0:0:0:
256,192,58441,1,8,0:0:0:0:
256,192,58516,1,0,0:0:0:0:
256,192,58591,1,0,0:0:0:0:
256,192,58666,1,8,0:0:0:0:
256,192,58816,1,0,0:0:0:0:
256,192,58891,1,8,0:0:0:0:
256,192,58966,1,8,0:0:0:0:
256,192,59041,1,8,0:0:0:0:
256,192,59116,1,0,0:0:0:0:
256,192,59191,1,0,0:0:0:0:
256,192,59266,1,8,0:0:0:0:
256,192,59416,1,0,0:0:0:0:
256,192,59641,1,8,0:0:0:0:
256,192,59716,1,0,0:0:0:0:
256,192,59866,1,8,0:0:0:0:
256,192,60016,1,4,0:0:0:0:
256,192,60166,1,8,0:0:0:0:
256,192,60241,1,0,0:0:0:0:
256,192,60316,1,8,0:0:0:0:
256,192,60466,1,8,0:0:0:0:
256,192,60616,1,0,0:0:0:0:
256,192,60691,1,8,0:0:0:0:
256,192,60841,1,8,0:0:0:0:
256,192,60916,1,0,0:0:0:0:
256,192,60991,1,0,0:0:0:0:
256,192,61066,1,8,0:0:0:0:
256,192,61216,1,0,0:0:0:0:
256,192,61366,1,0,0:0:0:0:
256,192,61516,1,0,0:0:0:0:
256,192,61666,1,0,0:0:0:0:
256,192,61816,1,0,0:0:0:0:
256,192,61891,1,8,0:0:0:0:
256,192,61966,1,0,0:0:0:0:
256,192,62116,1,0,0:0:0:0:
256,192,62266,1,8,0:0:0:0:
256,192,62416,1,0,0:0:0:0:
256,192,62491,1,0,0:0:0:0:
256,192,62566,1,0,0:0:0:0:
256,192,62641,1,0,0:0:0:0:
256,192,62716,1,8,0:0:0:0:
256,192,62866,1,8,0:0:0:0:
256,192,63016,1,0,0:0:0:0:
256,192,63091,1,0,0:0:0:0:
256,192,63166,1,8,0:0:0:0:
256,192,63241,1,8,0:0:0:0:
256,192,63316,1,0,0:0:0:0:
256,192,63466,1,8,0:0:0:0:
256,192,63616,1,8,0:0:0:0:
256,192,63691,1,8,0:0:0:0:
256,192,63766,1,0,0:0:0:0:
256,192,63841,1,0,0:0:0:0:
256,192,63916,1,8,0:0:0:0:
256,192,63991,1,8,0:0:0:0:
256,192,64066,1,0,0:0:0:0:
256,192,64141,1,0,0:0:0:0:
256,192,64216,1,8,0:0:0:0:
256,192,64291,1,0,0:0:0:0:
256,192,64366,1,0,0:0:0:0:
256,192,64441,1,0,0:0:0:0:
256,192,64516,1,8,0:0:0:0:
256,192,64591,1,8,0:0:0:0:
256,192,64666,1,8,0:0:0:0:
256,192,64741,1,8,0:0:0:0:
256,192,64816,1,0,0:0:0:0:
256,192,64891,1,0,0:0:0:0:
256,192,64966,1,0,0:0:0:0:
256,192,65041,1,0,0:0:0:0:
256,192,65116,1,8,0:0:0:0:
256,192,65266,1,8,0:0:0:0:
256,192,65416,1,0,0:0:0:0:
256,192,65566,1,0,0:0:0:0:
256,192,65641,1,0,0:0:0:0:
256,192,65716,1,8,0:0:0:0:
256,192,65866,1,8,0:0:0:0:
256,192,66016,1,0,0:0:0:0:
256,192,66091,1,0,0:0:0:0:
256,192,66166,1,0,0:0:0:0:
256,192,66241,1,0,0:0:0:0:
256,192,66316,1,8,0:0:0:0:
256,192,66466,1,8,0:0:0:0:
256,192,66616,1,0,0:0:0:0:
256,192,66691,1,8,0:0:0:0:
256,192,66766,1,0,0:0:0:0:
256,192,66916,1,0,0:0:0:0:
256,192,67066,1,0,0:0:0:0:
256,192,67216,1,4,0:0:0:0:
256,192,67366,1,8,0:0:0:0:
256,192,67441,1,8,0:0:0:0:
256,192,67516,1,0,0:0:0:0:
256,192,67666,1,8,0:0:0:0:
256,192,67816,1,0,0:0:0:0:
256,192,67891,1,0,0:0:0:0:
256,192,68041,1,8,0:0:0:0:
256,192,68116,1,0,0:0:0:0:
256,192,68191,1,0,0:0:0:0:
256,192,68266,1,8,0:0:0:0:
256,192,68416,1,0,0:0:0:0:
256,192,68491,1,8,0:0:0:0:
256,192,68566,1,8,0:0:0:0:
256,192,68641,1,8,0:0:0:0:
256,192,68716,1,0,0:0:0:0:
256,192,68791,1,0,0:0:0:0:
256,192,68866,1,8,0:0:0:0:
256,192,69016,1,0,0:0:0:0:
256,192,69241,1,8,0:0:0:0:
256,192,69316,1,0,0:0:0:0:
256,192,69466,1,8,0:0:0:0:
256,192,69616,1,4,0:0:0:0:
256,192,69766,1,8,0:0:0:0:
256,192,69841,1,0,0:0:0:0:
256,192,69916,1,8,0:0:0:0:
256,192,70066,1,8,0:0:0:0:
256,192,70216,1,0,0:0:0:0:
256,192,70291,1,8,0:0:0:0:
256,192,70441,1,8,0:0:0:0:
256,192,70516,1,0,0:0:0:0:
256,192,70591,1,0,0:0:0:0:
256,192,70666,1,8,0:0:0:0:
256,192,70816,1,0,0:0:0:0:
256,192,70891,1,0,0:0:0:0:
256,192,70966,1,8,0:0:0:0:
256,192,71041,1,0,0:0:0:0:
256,192,71116,1,8,0:0:0:0:
256,192,71191,1,8,0:0:0:0:
256,192,71266,1,0,0:0:0:0:
256,192,71416,1,0,0:0:0:0:
256,192,71491,1,8,0:0:0:0:
256,192,71566,1,0,0:0:0:0:
256,192,71716,1,0,0:0:0:0:
256,192,71866,1,8,0:0:0:0:
256,192,72016,1,0,0:0:0:0:
256,192,72091,1,0,0:0:0:0:
256,192,72166,1,0,0:0:0:0:
256,192,72241,1,0,0:0:0:0:
256,192,72316,1,8,0:0:0:0:
256,192,72466,1,8,0:0:0:0:
256,192,72616,1,0,0:0:0:0:
256,192,72691,1,0,0:0:0:0:
256,192,72766,1,8,0:0:0:0:
256,192,72841,1,8,0:0:0:0:
256,192,72916,1,0,0:0:0:0:
256,192,73066,1,8,0:0:0:0:
256,192,73216,1,8,0:0:0:0:
256,192,73291,1,8,0:0:0:0:
256,192,73366,1,0,0:0:0:0:
256,192,73441,1,0,0:0:0:0:
256,192,73516,1,8,0:0:0:0:
256,192,73591,1,0,0:0:0:0:
256,192,73666,1,0,0:0:0:0:
256,192,73741,1,0,0:0:0:0:
256,192,73816,1,8,0:0:0:0:
256,192,73891,1,8,0:0:0:0:
256,192,73966,1,0,0:0:0:0:
256,192,74041,1,0,0:0:0:0:
256,192,74116,1,8,0:0:0:0:
256,192,74191,1,8,0:0:0:0:
256,192,74266,1,8,0:0:0:0:
256,192,74341,1,8,0:0:0:0:
256,192,74416,1,0,0:0:0:0:
256,192,74566,1,0,0:0:0:0:
256,192,74866,1,0,0:0:0:0:
256,192,75166,1,0,0:0:0:0:
256,192,75466,1,0,0:0:0:0:
256,192,75766,1,0,0:0:0:0:
256,192,75841,1,0,0:0:0:0:
256,192,75916,1,0,0:0:0:0:
256,192,75991,1,0,0:0:0:0:
256,192,76066,1,0,0:0:0:0:
256,192,76141,1,0,0:0:0:0:
256,192,76216,1,0,0:0:0:0:
256,192,76291,1,0,0:0:0:0:
256,192,76366,1,0,0:0:0:0:
256,192,76441,1,0,0:0:0:0:
256,192,76516,1,0,0:0:0:0:
256,192,76816,12,0,77716,0:0:0:0:
256,192,78016,5,0,0:0:0:0:
256,192,78166,1,0,0:0:0:0:
256,192,78316,1,8,0:0:0:0:
256,192,78766,1,0,0:0:0:0:
256,192,78916,1,8,0:0:0:0:
256,192,79216,1,0,0:0:0:0:
256,192,79516,1,8,0:0:0:0:
256,192,79666,1,8,0:0:0:0:
256,192,79966,1,0,0:0:0:0:
256,192,80116,1,8,0:0:0:0:
256,192,80166,1,8,0:0:0:0:
256,192,80216,1,8,0:0:0:0:
256,192,80266,1,8,0:0:0:0:
256,192,80316,1,8,0:0:0:0:
256,192,80366,1,8,0:0:0:0:
256,192,80416,1,0,0:0:0:0:
256,192,80716,1,8,0:0:0:0:
256,192,80866,1,8,0:0:0:0:
256,192,81166,1,0,0:0:0:0:
256,192,81316,1,8,0:0:0:0:
256,192,81616,1,0,0:0:0:0:
256,192,81916,1,8,0:0:0:0:
256,192,82066,1,0,0:0:0:0:
256,192,82366,1,0,0:0:0:0:
256,192,82516,1,8,0:0:0:0:
256,192,82816,1,0,0:0:0:0:
256,192,82891,1,0,0:0:0:0:
256,192,82966,1,0,0:0:0:0:
256,192,83041,1,0,0:0:0:0:
256,192,83116,1,8,0:0:0:0:
256,192,83266,1,8,0:0:0:0:
256,192,83566,1,0,0:0:0:0:
256,192,83716,1,8,0:0:0:0:
256,192,83866,1,8,0:0:0:0:
256,192,84016,1,0,0:0:0:0:
256,192,84316,1,8,0:0:0:0:
256,192,84466,1,0,0:0:0:0:
256,192,84766,1,0,0:0:0:0:
256,192,84916,1,8,0:0:0:0:
256,192,85216,1,0,0:0:0:0:
256,192,85516,1,8,0:0:0:0:
256,192,85816,1,8,0:0:0:0:
256,192,85966,1,0,0:0:0:0:
256,192,86116,1,8,0:0:0:0:
256,192,86416,1,0,0:0:0:0:
256,192,86716,1,8,0:0:0:0:
256,192,87166,1,0,0:0:0:0:
256,192,87316,1,8,0:0:0:0:
256,192,87616,1,0,0:0:0:0:
256,192,87916,1,8,0:0:0:0:
256,192,88366,1,0,0:0:0:0:
256,192,88516,1,8,0:0:0:0:
256,192,88816,1,0,0:0:0:0:
256,192,89116,1,8,0:0:0:0:
256,192,89266,1,8,0:0:0:0:
256,192,89566,1,0,0:0:0:0:
256,192,89716,5,8,0:0:0:0:
256,192,89766,1,8,0:0:0:0:
256,192,89816,1,8,0:0:0:0:
256,192,89866,1,8,0:0:0:0:
256,192,89916,1,8,0:0:0:0:
256,192,89966,1,8,0:0:0:0:
256,192,90016,1,0,0:0:0:0:
256,192,90316,1,8,0:0:0:0:
256,192,90466,1,8,0:0:0:0:
256,192,90766,1,0,0:0:0:0:
256,192,90916,1,8,0:0:0:0:
256,192,91216,1,0,0:0:0:0:
256,192,91516,1,8,0:0:0:0:
256,192,91966,1,0,0:0:0:0:
256,192,92116,1,8,0:0:0:0:
256,192,92416,1,0,0:0:0:0:
256,192,92716,1,8,0:0:0:0:
256,192,92866,1,0,0:0:0:0:
256,192,93166,1,0,0:0:0:0:
256,192,93316,1,8,0:0:0:0:
256,192,93616,1,0,0:0:0:0:
256,192,93766,1,0,0:0:0:0:
256,192,93916,1,8,0:0:0:0:
256,192,94066,1,0,0:0:0:0:
256,192,94366,1,0,0:0:0:0:
256,192,94516,1,8,0:0:0:0:
256,192,94816,1,0,0:0:0:0:
256,192,94966,1,0,0:0:0:0:
256,192,95116,1,8,0:0:0:0:
256,192,95266,1,0,0:0:0:0:
256,192,95566,1,0,0:0:0:0:
256,192,95716,1,8,0:0:0:0:
256,192,95866,1,8,0:0:0:0:
256,192,96016,1,0,0:0:0:0:
256,192,96316,1,8,0:0:0:0:
256,192,96616,1,8,0:0:0:0:
256,192,96916,1,8,0:0:0:0:
256,192,97216,5,0,0:0:0:0:
256,192,97516,1,0,0:0:0:0:
256,192,97666,1,0,0:0:0:0:
256,192,98266,1,0,0:0:0:0:
256,192,98416,1,0,0:0:0:0:
256,192,98866,1,0,0:0:0:0:
256,192,99166,1,0,0:0:0:0:
256,192,99316,1,0,0:0:0:0:
256,192,99616,5,8,0:0:0:0:
256,192,99766,1,8,0:0:0:0:
256,192,99916,1,0,0:0:0:0:
256,192,100066,1,8,0:0:0:0:
256,192,100216,1,0,0:0:0:0:
256,192,100366,1,0,0:0:0:0:
256,192,100516,1,8,0:0:0:0:
256,192,100666,1,8,0:0:0:0:
256,192,100816,5,0,0:0:0:0:
256,192,100891,1,0,0:0:0:0:
256,192,100966,1,8,0:0:0:0:
256,192,101041,1,0,0:0:0:0:
256,192,101116,1,8,0:0:0:0:
256,192,101191,1,8,0:0:0:0:
256,192,101266,1,0,0:0:0:0:
256,192,101341,1,8,0:0:0:0:
256,192,101416,5,0,0:0:0:0:
256,192,101466,1,0,0:0:0:0:
256,192,101516,1,0,0:0:0:0:
256,192,101566,1,0,0:0:0:0:
256,192,101616,1,0,0:0:0:0:
256,192,101666,1,0,0:0:0:0:
256,192,101716,1,8,0:0:0:0:
256,192,101866,1,8,0:0:0:0:
256,192,101916,1,8,0:0:0:0:
256,192,101966,1,8,0:0:0:0:
256,192,102016,1,0,0:0:0:0:
256,192,102166,1,8,0:0:0:0:
256,192,102241,1,8,0:0:0:0:
256,192,102316,1,0,0:0:0:0:
256,192,102466,1,8,0:0:0:0:
256,192,102616,1,0,0:0:0:0:
256,192,102691,1,8,0:0:0:0:
256,192,102841,1,8,0:0:0:0:
256,192,102916,1,0,0:0:0:0:
256,192,103066,1,8,0:0:0:0:
256,192,103216,1,0,0:0:0:0:
256,192,103366,1,8,0:0:0:0:
256,192,103441,1,8,0:0:0:0:
256,192,103516,1,0,0:0:0:0:
256,192,103666,1,8,0:0:0:0:
256,192,103816,1,0,0:0:0:0:
256,192,103891,1,0,0:0:0:0:
256,192,103966,1,8,0:0:0:0:
256,192,104041,1,8,0:0:0:0:
256,192,104116,1,0,0:0:0:0:
256,192,104166,1,0,0:0:0:0:
256,192,104216,1,0,0:0:0:0:
256,192,104266,1,8,0:0:0:0:
256,192,104416,1,0,0:0:0:0:
256,192,104566,1,0,0:0:0:0:
256,192,104641,1,0,0:0:0:0:
256,192,104716,1,8,0:0:0:0:
256,192,104866,1,0,0:0:0:0:
256,192,105016,1,8,0:0:0:0:
256,192,105091,1,0,0:0:0:0:
256,192,105166,1,8,0:0:0:0:
256,192,105241,1,8,0:0:0:0:
256,192,105316,1,0,0:0:0:0:
256,192,105391,1,0,0:0:0:0:
256,192,105466,1,8,0:0:0:0:
256,192,105616,1,0,0:0:0:0:
256,192,105766,1,8,0:0:0:0:
256,192,105816,1,8,0:0:0:0:
256,192,105866,1,8,0:0:0:0:
256,192,105916,1,0,0:0:0:0:
256,192,106066,1,8,0:0:0:0:
256,192,106216,1,0,0:0:0:0:
256,192,106291,1,0,0:0:0:0:
256,192,106366,1,0,0:0:0:0:
256,192,106441,1,0,0:0:0:0:
256,192,106516,1,8,0:0:0:0:
256,192,106666,1,8,0:0:0:0:
256,192,106741,1,8,0:0:0:0:
256,192,106816,1,0,0:0:0:0:
256,192,106891,1,0,0:0:0:0:
256,192,106966,1,0,0:0:0:0:
256,192,107041,1,0,0:0:0:0:
256,192,107116,1,8,0:0:0:0:
256,192,107191,1,8,0:0:0:0:
256,192,107266,1,0,0:0:0:0:
256,192,107416,1,8,0:0:0:0:
256,192,107466,1,8,0:0:0:0:
256,192,107516,1,8,0:0:0:0:
256,192,107566,1,0,0:0:0:0:
256,192,107641,1,0,0:0:0:0:
256,192,107716,1,8,0:0:0:0:
256,192,107766,1,8,0:0:0:0:
256,192,107816,1,8,0:0:0:0:
256,192,107866,1,0,0:0:0:0:
256,192,108016,1,8,0:0:0:0:
256,192,108166,1,0,0:0:0:0:
256,192,108241,1,0,0:0:0:0:
256,192,108316,1,8,0:0:0:0:
256,192,108391,1,8,0:0:0:0:
256,192,108466,1,0,0:0:0:0:
256,192,108541,1,0,0:0:0:0:
256,192,108616,1,8,0:0:0:0:
256,192,108666,1,0,0:0:0:0:
256,192,108716,1,0,0:0:0:0:
256,192,108766,1,8,0:0:0:0:
256,192,108841,1,8,0:0:0:0:
256,192,108916,1,0,0:0:0:0:
256,192,108991,1,0,0:0:0:0:
256,192,109066,1,8,0:0:0:0:
256,192,109216,1,0,0:0:0:0:
256,192,109291,1,0,0:0:0:0:
256,192,109366,1,8,0:0:0:0:
256,192,109516,1,0,0:0:0:0:
256,192,109666,1,8,0:0:0:0:
256,192,109716,1,8,0:0:0:0:
256,192,109766,1,8,0:0:0:0:
256,192,109816,1,0,0:0:0:0:
256,192,109966,1,8,0:0:0:0:
256,192,110116,1,0,0:0:0:0:
256,192,110266,1,0,0:0:0:0:
256,192,110341,1,8,0:0:0:0:
256,192,110416,1,0,0:0:0:0:
256,192,110491,1,0,0:0:0:0:
256,192,110566,1,8,0:0:0:0:
256,192,110641,1,0,0:0:0:0:
256,192,110716,1,8,0:0:0:0:
256,192,110791,1,8,0:0:0:0:
256,192,110866,1,8,0:0:0:0:
256,192,110941,1,8,0:0:0:0:
256,192,111016,1,0,0:0:0:0:
256,192,111066,1,0,0:0:0:0:
256,192,111116,1,0,0:0:0:0:
256,192,111166,1,8,0:0:0:0:
256,192,111316,1,0,0:0:0:0:
256,192,111466,1,0,0:0:0:0:
256,192,111616,1,12,0:0:0:0:
256,192,111916,1,0,0:0:0:0:
256,192,112066,1,0,0:0:0:0:
256,192,112141,1,8,0:0:0:0:
256,192,112216,1,0,0:0:0:0:
256,192,112366,1,8,0:0:0:0:
256,192,112516,1,0,0:0:0:0:
256,192,112591,1,0,0:0:0:0:
256,192,112666,1,8,0:0:0:0:
256,192,112741,1,8,0:0:0:0:
256,192,112816,1,0,0:0:0:0:
256,192,112966,1,8,0:0:0:0:
256,192,113116,1,0,0:0:0:0:
256,192,113191,1,0,0:0:0:0:
256,192,113266,1,8,0:0:0:0:
256,192,113416,1,0,0:0:0:0:
256,192,113466,1,0,0:0:0:0:
256,192,113516,1,0,0:0:0:0:
256,192,113566,1,8,0:0:0:0:
256,192,113641,1,8,0:0:0:0:
256,192,113716,1,0,0:0:0:0:
256,192,113766,1,0,0:0:0:0:
256,192,113816,1,0,0:0:0:0:
256,192,113866,1,8,0:0:0:0:
256,192,114016,1,4,0:0:0:0:
256,192,114166,1,8,0:0:0:0:
256,192,114241,1,8,0:0:0:0:
256,192,114316,1,0,0:0:0:0:
256,192,114466,1,8,0:0:0:0:
256,192,114616,1,0,0:0:0:0:
256,192,114691,1,0,0:0:0:0:
256,192,114766,1,8,0:0:0:0:
256,192,114841,1,0,0:0:0:0:
256,192,114916,1,8,0:0:0:0:
256,192,115066,1,8,0:0:0:0:
256,192,115216,1,0,0:0:0:0:
256,192,115291,1,8,0:0:0:0:
256,192,115441,1,8,0:0:0:0:
256,192,115516,1,0,0:0:0:0:
256,192,115591,1,0,0:0:0:0:
256,192,115666,1,8,0:0:0:0:
256,192,115816,1,0,0:0:0:0:
256,192,115966,1,0,0:0:0:0:
256,192,116016,1,0,0:0:0:0:
256,192,116066,1,0,0:0:0:0:
256,192,116116,1,8,0:0:0:0:
256,192,116266,1,8,0:0:0:0:
256,192,116416,1,0,0:0:0:0:
256,192,116491,1,0,0:0:0:0:
256,192,116566,1,0,0:0:0:0:
256,192,116641,1,0,0:0:0:0:
256,192,116716,1,0,0:0:0:0:
256,192,116866,1,8,0:0:0:0:
256,192,117016,1,0,0:0:0:0:
256,192,117091,1,8,0:0:0:0:
256,192,117166,1,8,0:0:0:0:
256,192,117241,1,8,0:0:0:0:
256,192,117316,1,0,0:0:0:0:
256,192,117391,1,0,0:0:0:0:
256,192,117466,1,8,0:0:0:0:
256,192,117541,1,8,0:0:0:0:
256,192,117616,1,0,0:0:0:0:
256,192,117841,1,8,0:0:0:0:
256,192,117916,1,0,0:0:0:0:
256,192,118066,1,8,0:0:0:0:
256,192,118216,1,0,0:0:0:0:
256,192,118291,1,0,0:0:0:0:
256,192,118366,1,8,0:0:0:0:
256,192,118441,1,0,0:0:0:0:
256,192,118516,1,8,0:0:0:0:
256,192,118566,1,8,0:0:0:0:
256,192,118616,1,8,0:0:0:0:
256,192,118666,1,0,0:0:0:0:
256,192,118816,1,8,0:0:0:0:
256,192,118891,1,0,0:0:0:0:
256,192,118966,1,0,0:0:0:0:
256,192,119041,1,0,0:0:0:0:
256,192,119116,1,8,0:0:0:0:
256,192,119266,1,0,0:0:0:0:
256,192,119416,1,8,0:0:0:0:
256,192,119491,1,0,0:0:0:0:
256,192,119566,1,8,0:0:0:0:
256,192,119641,1,8,0:0:0:0:
256,192,119716,1,0,0:0:0:0:
256,192,119791,1,0,0:0:0:0:
256,192,119866,1,8,0:0:0:0:
256,192,120016,1,0,0:0:0:0:
256,192,120091,1,0,0:0:0:0:
256,192,120241,1,8,0:0:0:0:
256,192,120316,1,0,0:0:0:0:
256,192,120466,1,8,0:0:0:0:
256,192,120616,1,0,0:0:0:0:
256,192,120766,1,8,0:0:0:0:
256,192,120841,1,8,0:0:0:0:
256,192,120916,1,0,0:0:0:0:
256,192,121066,1,8,0:0:0:0:
256,192,121216,1,4,0:0:0:0:
256,192,121516,1,4,0:0:0:0:
256,192,121666,1,4,0:0:0:0:
256,192,122116,1,4,0:0:0:0:
256,192,122416,1,4,0:0:0:0:
256,192,123016,1,0,0:0:0:0:
256,192,123066,1,0,0:0:0:0:
256,192,123116,1,0,0:0:0:0:
256,192,123166,1,0,0:0:0:0:
256,192,123216,1,0,0:0:0:0:
256,192,123266,1,0,0:0:0:0:
256,192,123316,1,8,0:0:0:0:
256,192,123616,1,4,0:0:0:0:
256,192,123766,1,8,0:0:0:0:
256,192,123841,1,8,0:0:0:0:
256,192,123916,5,0,0:0:0:0:
256,192,124066,1,8,0:0:0:0:
256,192,124216,1,0,0:0:0:0:
256,192,124291,1,0,0:0:0:0:
256,192,124366,1,8,0:0:0:0:
256,192,124516,1,0,0:0:0:0:
256,192,124591,1,0,0:0:0:0:
256,192,124666,1,8,0:0:0:0:
256,192,124741,1,8,0:0:0:0:
256,192,124816,1,0,0:0:0:0:
256,192,124966,1,8,0:0:0:0:
256,192,125116,1,0,0:0:0:0:
256,192,125191,1,0,0:0:0:0:
256,192,125266,1,8,0:0:0:0:
256,192,125416,1,0,0:0:0:0:
256,192,125491,1,8,0:0:0:0:
256,192,125566,1,8,0:0:0:0:
256,192,125641,1,8,0:0:0:0:
256,192,125716,1,0,0:0:0:0:
256,192,125791,1,0,0:0:0:0:
256,192,125866,1,8,0:0:0:0:
256,192,126016,1,0,0:0:0:0:
256,192,126166,1,8,0:0:0:0:
256,192,126241,1,8,0:0:0:0:
256,192,126316,1,0,0:0:0:0:
256,192,126466,1,8,0:0:0:0:
256,192,126616,1,0,0:0:0:0:
256,192,126691,1,0,0:0:0:0:
256,192,126766,1,8,0:0:0:0:
256,192,126916,1,0,0:0:0:0:
256,192,127066,1,8,0:0:0:0:
256,192,127216,1,0,0:0:0:0:
256,192,127291,1,0,0:0:0:0:
256,192,127366,1,0,0:0:0:0:
256,192,127516,1,8,0:0:0:0:
256,192,127666,1,8,0:0:0:0:
256,192,127741,1,8,0:0:0:0:
256,192,127816,1,0,0:0:0:0:
256,192,127891,1,8,0:0:0:0:
256,192,127966,1,0,0:0:0:0:
256,192,128116,1,8,0:0:0:0:
256,192,128191,1,8,0:0:0:0:
256,192,128266,1,8,0:0:0:0:
256,192,128341,1,8,0:0:0:0:
256,192,128416,1,0,0:0:0:0:
256,192,128566,1,8,0:0:0:0:
256,192,128716,1,0,0:0:0:0:
256,192,128791,1,0,0:0:0:0:
256,192,128866,1,8,0:0:0:0:
256,192,129016,1,0,0:0:0:0:
256,192,129166,1,8,0:0:0:0:
256,192,129241,1,8,0:0:0:0:
256,192,129316,1,0,0:0:0:0:
256,192,129466,1,8,0:0:0:0:
256,192,129616,1,0,0:0:0:0:
256,192,129691,1,0,0:0:0:0:
256,192,129766,1,8,0:0:0:0:
256,192,129841,1,8,0:0:0:0:
256,192,129916,1,0,0:0:0:0:
256,192,130066,1,8,0:0:0:0:
256,192,130216,1,0,0:0:0:0:
256,192,130291,1,0,0:0:0:0:
256,192,130366,1,8,0:0:0:0:
256,192,130441,1,8,0:0:0:0:
256,192,130516,1,0,0:0:0:0:
256,192,130591,1,8,0:0:0:0:
256,192,130666,1,8,0:0:0:0:
256,192,130816,1,0,0:0:0:0:
256,192,130891,1,0,0:0:0:0:
256,192,130966,1,8,0:0:0:0:
256,192,131116,1,0,0:0:0:0:
256,192,131266,1,8,0:0:0:0:
256,192,131341,1,8,0:0:0:0:
256,192,131416,1,0,0:0:0:0:
256,192,131566,1,8,0:0:0:0:
256,192,131716,1,0,0:0:0:0:
256,192,131791,1,8,0:0:0:0:
256,192,131866,1,8,0:0:0:0:
256,192,131941,1,8,0:0:0:0:
256,192,132016,1,4,0:0:0:0:
256,192,132166,1,8,0:0:0:0:
256,192,132316,1,4,0:0:0:0:
256,192,132466,1,8,0:0:0:0:
256,192,132616,1,4,0:0:0:0:
256,192,132766,1,8,0:0:0:0:
256,192,132841,1,8,0:0:0:0:
256,192,132916,1,0,0:0:0:0:
256,192,132991,1,8,0:0:0:0:
256,192,133066,1,8,0:0:0:0:
256,192,133141,1,8,0:0:0:0:
256,192,133216,1,4,0:0:0:0:
256,192,133816,1,4,0:0:0:0:
256,192,134416,1,4,0:0:0:0:
256,192,135016,1,0,0:0:0:0:
256,192,135091,1,0,0:0:0:0:
256,192,135166,1,8,0:0:0:0:
256,192,135316,1,0,0:0:0:0:
256,192,135391,1,0,0:0:0:0:
256,192,135466,1,8,0:0:0:0:
256,192,135541,1,8,0:0:0:0:
256,192,135616,1,0,0:0:0:0:
256,192,135916,1,8,0:0:0:0:
256,192,135966,1,8,0:0:0:0:
256,192,136016,1,8,0:0:0:0:
256,192,136066,1,8,0:0:0:0:
256,192,136116,1,8,0:0:0:0:
256,192,136166,1,8,0:0:0:0:
256,192,136216,1,0,0:0:0:0:
256,192,136516,1,8,0:0:0:0:
256,192,136541,1,8,0:0:0:0:
256,192,136666,1,8,0:0:0:0:
256,192,136691,1,8,0:0:0:0:
256,192,136816,1,0,0:0:0:0:
256,192,137116,1,8,0:0:0:0:
256,192,137191,1,8,0:0:0:0:
256,192,137266,1,8,0:0:0:0:
256,192,137341,1,8,0:0:0:0:
256,192,137416,1,0,0:0:0:0:
256,192,137566,1,0,0:0:0:0:
256,192,137716,1,8,0:0:0:0:
256,192,137866,1,8,0:0:0:0:
256,192,137941,1,8,0:0:0:0:
256,192,138016,1,0,0:0:0:0:
256,192,138316,1,0,0:0:0:0:
256,192,138616,1,0,0:0:0:0:
256,192,138916,1,0,0:0:0:0:
256,192,139216,1,0,0:0:0:0:
256,192,139516,1,0,0:0:0:0:
256,192,139816,1,0,0:0:0:0:
256,192,139891,1,0,0:0:0:0:
256,192,139966,1,8,0:0:0:0:
256,192,140041,1,8,0:0:0:0:
256,192,140116,1,0,0:0:0:0:
256,192,140191,1,8,0:0:0:0:
256,192,140266,1,8,0:0:0:0:
256,192,140341,1,8,0:0:0:0:
256,192,140416,1,0,0:0:0:0:
256,192,140716,1,0,0:0:0:0:
256,192,141016,1,0,0:0:0:0:
256,192,141316,1,0,0:0:0:0:
256,192,141616,1,0,0:0:0:0:
256,192,141691,1,0,0:0:0:0:
256,192,141766,1,0,0:0:0:0:
256,192,141841,1,0,0:0:0:0:
256,192,141916,1,0,0:0:0:0:
256,192,141991,1,0,0:0:0:0:
256,192,142066,1,0,0:0:0:0:
256,192,142141,1,0,0:0:0:0:
256,192,142216,1,0,0:0:0:0:
256,192,142291,1,0,0:0:0:0:
256,192,142366,1,0,0:0:0:0:
256,192,142516,1,4,0:0:0:0:
256,192,142816,5,0,0:0:0:0:
256,192,142891,1,0,0:0:0:0:
256,192,142966,1,0,0:0:0:0:
256,192,143041,1,0,0:0:0:0:
256,192,143116,1,8,0:0:0:0:
256,192,143191,1,8,0:0:0:0:
256,192,143266,1,0,0:0:0:0:
256,192,143341,1,0,0:0:0:0:
256,192,143416,1,8,0:0:0:0:
256,192,143491,1,0,0:0:0:0:
256,192,143566,1,0,0:0:0:0:
256,192,143641,1,0,0:0:0:0:
256,192,143716,1,8,0:0:0:0:
256,192,143791,1,8,0:0:0:0:
256,192,143866,1,0,0:0:0:0:
256,192,143941,1,0,0:0:0:0:
256,192,144016,1,8,0:0:0:0:
256,192,144091,1,0,0:0:0:0:
256,192,144166,1,8,0:0:0:0:
256,192,144241,1,8,0:0:0:0:
256,192,144316,1,0,0:0:0:0:
256,192,144391,1,0,0:0:0:0:
256,192,144466,1,0,0:0:0:0:
256,192,144541,1,0,0:0:0:0:
256,192,144616,1,8,0:0:0:0:
256,192,144691,1,8,0:0:0:0:
256,192,144766,1,8,0:0:0:0:
256,192,144841,1,8,0:0:0:0:
256,192,144916,1,0,0:0:0:0:
256,192,144991,1,8,0:0:0:0:
256,192,145066,1,0,0:0:0:0:
256,192,145141,1,0,0:0:0:0:
256,192,145216,1,8,0:0:0:0:
256,192,145291,1,8,0:0:0:0:
256,192,145366,1,0,0:0:0:0:
256,192,145441,1,0,0:0:0:0:
256,192,145516,1,8,0:0:0:0:
256,192,145591,1,8,0:0:0:0:
256,192,145666,1,0,0:0:0:0:
256,192,145741,1,0,0:0:0:0:
256,192,145816,1,8,0:0:0:0:
256,192,145891,1,0,0:0:0:0:
256,192,145966,1,0,0:0:0:0:
256,192,146041,1,0,0:0:0:0:
256,192,146116,1,8,0:0:0:0:
256,192,146191,1,0,0:0:0:0:
256,192,146266,1,0,0:0:0:0:
256,192,146341,1,0,0:0:0:0:
256,192,146416,1,8,0:0:0:0:
256,192,146491,1,0,0:0:0:0:
256,192,146566,1,8,0:0:0:0:
256,192,146641,1,8,0:0:0:0:
256,192,146716,1,0,0:0:0:0:
256,192,146791,1,0,0:0:0:0:
256,192,146866,1,0,0:0:0:0:
256,192,146941,1,0,0:0:0:0:
256,192,147016,1,8,0:0:0:0:
256,192,147091,1,0,0:0:0:0:
256,192,147166,1,0,0:0:0:0:
256,192,147241,1,0,0:0:0:0:
256,192,147316,1,8,0:0:0:0:
256,192,147391,1,8,0:0:0:0:
256,192,147466,1,0,0:0:0:0:
256,192,147541,1,0,0:0:0:0:
256,192,147616,1,8,0:0:0:0:
256,192,147691,1,0,0:0:0:0:
256,192,147766,1,8,0:0:0:0:
256,192,147841,1,8,0:0:0:0:
256,192,147916,1,0,0:0:0:0:
256,192,147991,1,0,0:0:0:0:
256,192,148066,1,0,0:0:0:0:
256,192,148141,1,0,0:0:0:0:
256,192,148216,1,8,0:0:0:0:
256,192,148291,1,0,0:0:0:0:
256,192,148366,1,0,0:0:0:0:
256,192,148441,1,0,0:0:0:0:
256,192,148516,1,8,0:0:0:0:
256,192,148591,1,8,0:0:0:0:
256,192,148666,1,0,0:0:0:0:
256,192,148741,1,0,0:0:0:0:
256,192,148816,1,8,0:0:0:0:
256,192,148891,1,0,0:0:0:0:
256,192,148966,1,0,0:0:0:0:
256,192,149041,1,0,0:0:0:0:
256,192,149116,1,8,0:0:0:0:
256,192,149191,1,8,0:0:0:0:
256,192,149266,1,0,0:0:0:0:
256,192,149341,1,0,0:0:0:0:
256,192,149416,1,8,0:0:0:0:
256,192,149491,1,0,0:0:0:0:
256,192,149566,1,8,0:0:0:0:
256,192,149641,1,8,0:0:0:0:
256,192,149716,1,0,0:0:0:0:
256,192,149791,1,0,0:0:0:0:
256,192,149866,1,0,0:0:0:0:
256,192,149941,1,0,0:0:0:0:
256,192,150016,1,8,0:0:0:0:
256,192,150091,1,8,0:0:0:0:
256,192,150166,1,0,0:0:0:0:
256,192,150241,1,0,0:0:0:0:
256,192,150316,1,8,0:0:0:0:
256,192,150391,1,0,0:0:0:0:
256,192,150466,1,0,0:0:0:0:
256,192,150541,1,0,0:0:0:0:
256,192,150616,1,8,0:0:0:0:
256,192,150691,1,8,0:0:0:0:
256,192,150766,1,0,0:0:0:0:
256,192,150841,1,0,0:0:0:0:
256,192,150916,1,8,0:0:0:0:
256,192,150991,1,0,0:0:0:0:
256,192,151066,1,0,0:0:0:0:
256,192,151141,1,0,0:0:0:0:
256,192,151216,1,8,0:0:0:0:
256,192,151291,1,0,0:0:0:0:
256,192,151366,1,8,0:0:0:0:
256,192,151441,1,8,0:0:0:0:
256,192,151516,1,0,0:0:0:0:
256,192,151591,1,0,0:0:0:0:
256,192,151666,1,0,0:0:0:0:
256,192,151741,1,0,0:0:0:0:
256,192,151816,1,8,0:0:0:0:
256,192,151891,1,0,0:0:0:0:
256,192,151966,1,0,0:0:0:0:
256,192,152041,1,0,0:0:0:0:
256,192,152116,1,8,0:0:0:0:
256,192,152191,1,8,0:0:0:0:
256,192,152266,1,0,0:0:0:0:
256,192,152341,1,0,0:0:0:0:
256,192,152416,1,8,0:0:0:0:
256,192,152491,1,0,0:0:0:0:
256,192,152566,1,0,0:0:0:0:
256,192,152641,1,0,0:0:0:0:
256,192,152716,1,8,0:0:0:0:
256,192,152791,1,8,0:0:0:0:
256,192,152866,1,0,0:0:0:0:
256,192,152941,1,0,0:0:0:0:
256,192,153016,1,8,0:0:0:0:
256,192,153091,1,0,0:0:0:0:
256,192,153166,1,0,0:0:0:0:
256,192,153241,1,0,0:0:0:0:
256,192,153316,1,8,0:0:0:0:
256,192,153391,1,0,0:0:0:0:
256,192,153466,1,0,0:0:0:0:
256,192,153541,1,0,0:0:0:0:
256,192,153616,1,8,0:0:0:0:
256,192,153691,1,0,0:0:0:0:
256,192,153766,1,8,0:0:0:0:
256,192,153841,1,8,0:0:0:0:
256,192,153916,1,0,0:0:0:0:
256,192,153991,1,0,0:0:0:0:
256,192,154066,1,0,0:0:0:0:
256,192,154141,1,0,0:0:0:0:
256,192,154216,1,8,0:0:0:0:
256,192,154291,1,8,0:0:0:0:
256,192,154366,1,0,0:0:0:0:
256,192,154441,1,0,0:0:0:0:
256,192,154516,1,8,0:0:0:0:
256,192,154591,1,0,0:0:0:0:
256,192,154666,1,0,0:0:0:0:
256,192,154741,1,0,0:0:0:0:
256,192,154816,1,8,0:0:0:0:
256,192,154891,1,0,0:0:0:0:
256,192,154966,1,8,0:0:0:0:
256,192,155041,1,8,0:0:0:0:
256,192,155116,1,0,0:0:0:0:
256,192,155191,1,0,0:0:0:0:
256,192,155266,1,0,0:0:0:0:
256,192,155341,1,0,0:0:0:0:
256,192,155416,1,8,0:0:0:0:
256,192,155491,1,0,0:0:0:0:
256,192,155566,1,8,0:0:0:0:
256,192,155641,1,8,0:0:0:0:
256,192,155716,1,0,0:0:0:0:
256,192,155791,1,0,0:0:0:0:
256,192,155866,1,0,0:0:0:0:
256,192,155941,1,0,0:0:0:0:
256,192,156016,1,8,0:0:0:0:
256,192,156091,1,0,0:0:0:0:
256,192,156166,1,0,0:0:0:0:
256,192,156241,1,0,0:0:0:0:
256,192,156316,1,8,0:0:0:0:
256,192,156391,1,8,0:0:0:0:
256,192,156466,1,0,0:0:0:0:
256,192,156541,1,0,0:0:0:0:
256,192,156616,1,8,0:0:0:0:
256,192,156691,1,8,0:0:0:0:
256,192,156766,1,0,0:0:0:0:
256,192,156841,1,0,0:0:0:0:
256,192,156916,1,8,0:0:0:0:
256,192,156991,1,0,0:0:0:0:
256,192,157066,1,0,0:0:0:0:
256,192,157141,1,0,0:0:0:0:
256,192,157216,1,8,0:0:0:0:
256,192,157291,1,8,0:0:0:0:
256,192,157366,1,8,0:0:0:0:
256,192,157441,1,8,0:0:0:0:
256,192,157516,1,0,0:0:0:0:
256,192,157591,1,0,0:0:0:0:
256,192,157666,1,0,0:0:0:0:
256,192,157741,1,0,0:0:0:0:
256,192,157816,1,8,0:0:0:0:
256,192,157891,1,8,0:0:0:0:
256,192,157966,1,0,0:0:0:0:
256,192,158041,1,0,0:0:0:0:
256,192,158116,1,8,0:0:0:0:
256,192,158191,1,0,0:0:0:0:
256,192,158266,1,0,0:0:0:0:
256,192,158341,1,0,0:0:0:0:
256,192,158416,1,8,0:0:0:0:
256,192,158491,1,8,0:0:0:0:
256,192,158566,1,0,0:0:0:0:
256,192,158641,1,0,0:0:0:0:
256,192,158716,1,8,0:0:0:0:
256,192,158791,1,8,0:0:0:0:
256,192,158866,1,0,0:0:0:0:
256,192,158941,1,0,0:0:0:0:
256,192,159016,1,8,0:0:0:0:
256,192,159091,1,0,0:0:0:0:
256,192,159166,1,0,0:0:0:0:
256,192,159241,1,0,0:0:0:0:
256,192,159316,1,8,0:0:0:0:
256,192,159391,1,0,0:0:0:0:
256,192,159466,1,0,0:0:0:0:
256,192,159541,1,0,0:0:0:0:
256,192,159616,1,8,0:0:0:0:
256,192,159691,1,8,0:0:0:0:
256,192,159766,1,8,0:0:0:0:
256,192,159841,1,8,0:0:0:0:
256,192,159916,1,0,0:0:0:0:
256,192,159991,1,0,0:0:0:0:
256,192,160066,1,0,0:0:0:0:
256,192,160141,1,0,0:0:0:0:
256,192,160216,1,8,0:0:0:0:
256,192,160291,1,0,0:0:0:0:
256,192,160366,1,0,0:0:0:0:
256,192,160441,1,0,0:0:0:0:
256,192,160516,1,8,0:0:0:0:
256,192,160591,1,8,0:0:0:0:
256,192,160666,1,0,0:0:0:0:
256,192,160741,1,0,0:0:0:0:
256,192,160816,1,8,0:0:0:0:
256,192,160891,1,8,0:0:0:0:
256,192,160966,1,8,0:0:0:0:
256,192,161041,1,8,0:0:0:0:
256,192,161116,1,0,0:0:0:0:
256,192,161191,1,8,0:0:0:0:
256,192,161266,1,8,0:0:0:0:
256,192,161341,1,8,0:0:0:0:
256,192,161416,1,0,0:0:0:0:
256,192,161491,1,0,0:0:0:0:
256,192,161566,1,8,0:0:0:0:
256,192,161641,1,8,0:0:0:0:
256,192,161716,1,0,0:0:0:0:
256,192,161791,1,8,0:0:0:0:
256,192,161866,1,8,0:0:0:0:
256,192,161941,1,8,0:0:0:0:
256,192,162016,1,0,0:0:0:0:
256,192,164416,12,0,166516,0:0:0:0:
256,192,166816,5,0,0:0:0:0:
256,192,167116,1,8,0:0:0:0:
256,192,167266,1,0,0:0:0:0:
256,192,167566,1,0,0:0:0:0:
256,192,167716,1,0,0:0:0:0:
256,192,168016,1,0,0:0:0:0:
256,192,168316,1,0,0:0:0:0:
256,192,168616,1,0,0:0:0:0:
256,192,168916,1,0,0:0:0:0:
256,192,169216,1,0,0:0:0:0:
256,192,169666,1,0,0:0:0:0:
256,192,170116,1,0,0:0:0:0:
256,192,170416,5,4,0:0:0:0:
256,192,170566,1,4,0:0:0:0:
256,192,170716,1,4,0:0:0:0:
256,192,170866,1,4,0:0:0:0:
256,192,171016,1,4,0:0:0:0:
256,192,171166,1,4,0:0:0:0:
256,192,171316,5,12,0:0:0:0:
256,192,171616,5,0,0:0:0:0:
256,192,171691,1,0,0:0:0:0:
256,192,171766,1,8,0:0:0:0:
256,192,171841,1,0,0:0:0:0:
256,192,171916,1,8,0:0:0:0:
256,192,171966,1,8,0:0:0:0:
256,192,172016,1,8,0:0:0:0:
256,192,172066,1,0,0:0:0:0:
256,192,172216,5,0,0:0:0:0:
256,192,172291,1,0,0:0:0:0:
256,192,172366,1,8,0:0:0:0:
256,192,172441,1,0,0:0:0:0:
256,192,172516,1,8,0:0:0:0:
256,192,172591,5,8,0:0:0:0:
256,192,172666,1,0,0:0:0:0:
256,192,172741,1,0,0:0:0:0:
256,192,172816,1,8,0:0:0:0:
256,192,172866,1,8,0:0:0:0:
256,192,172916,1,8,0:0:0:0:
256,192,172966,5,0,0:0:0:0:
256,192,173041,1,0,0:0:0:0:
256,192,173116,1,8,0:0:0:0:
256,192,173166,1,8,0:0:0:0:
256,192,173216,1,8,0:0:0:0:
256,192,173266,1,0,0:0:0:0:
256,192,173341,1,0,0:0:0:0:
256,192,173416,1,8,0:0:0:0:
256,192,173491,1,0,0:0:0:0:
256,192,173566,1,8,0:0:0:0:
256,192,173641,1,8,0:0:0:0:
256,192,173716,1,0,0:0:0:0:
256,192,173866,1,8,0:0:0:0:
256,192,174016,1,8,0:0:0:0:
256,192,174091,1,0,0:0:0:0:
256,192,174166,1,8,0:0:0:0:
256,192,174241,1,8,0:0:0:0:
256,192,174316,1,0,0:0:0:0:
256,192,174466,1,8,0:0:0:0:
256,192,174616,1,0,0:0:0:0:
256,192,174691,1,0,0:0:0:0:
256,192,174766,1,8,0:0:0:0:
256,192,174841,1,8,0:0:0:0:
256,192,174916,1,0,0:0:0:0:
256,192,175066,1,0,0:0:0:0:
256,192,175116,1,0,0:0:0:0:
256,192,175166,1,0,0:0:0:0:
256,192,175216,1,8,0:0:0:0:
256,192,175366,1,8,0:0:0:0:
256,192,175441,1,8,0:0:0:0:
256,192,175516,1,0,0:0:0:0:
256,192,175666,1,8,0:0:0:0:
256,192,175816,1,0,0:0:0:0:
256,192,175866,1,0,0:0:0:0:
256,192,175916,1,0,0:0:0:0:
256,192,175966,1,8,0:0:0:0:
256,192,176041,1,8,0:0:0:0:
256,192,176116,1,0,0:0:0:0:
256,192,176166,1,0,0:0:0:0:
256,192,176216,1,0,0:0:0:0:
256,192,176266,1,8,0:0:0:0:
256,192,176416,1,12,0:0:0:0:
256,192,176566,1,0,0:0:0:0:
256,192,176641,1,0,0:0:0:0:
256,192,176716,1,8,0:0:0:0:
256,192,176866,1,0,0:0:0:0:
256,192,177016,1,0,0:0:0:0:
256,192,177091,1,8,0:0:0:0:
256,192,177166,1,0,0:0:0:0:
256,192,177316,1,0,0:0:0:0:
256,192,177466,1,8,0:0:0:0:
256,192,177541,1,8,0:0:0:0:
256,192,177616,1,0,0:0:0:0:
256,192,177691,1,0,0:0:0:0:
256,192,177766,1,0,0:0:0:0:
256,192,177841,1,0,0:0:0:0:
256,192,177916,1,8,0:0:0:0:
256,192,177991,1,8,0:0:0:0:
256,192,178066,1,0,0:0:0:0:
256,192,178216,1,8,0:0:0:0:
256,192,178266,1,8,0:0:0:0:
256,192,178316,1,8,0:0:0:0:
256,192,178366,1,0,0:0:0:0:
256,192,178441,1,0,0:0:0:0:
256,192,178516,1,8,0:0:0:0:
256,192,178566,1,8,0:0:0:0:
256,192,178616,1,8,0:0:0:0:
256,192,178666,1,0,0:0:0:0:
256,192,178816,1,12,0:0:0:0:
256,192,178966,1,0,0:0:0:0:
256,192,179041,1,0,0:0:0:0:
256,192,179116,1,8,0:0:0:0:
256,192,179191,1,8,0:0:0:0:
256,192,179266,1,0,0:0:0:0:
256,192,179341,1,0,0:0:0:0:
256,192,179416,1,8,0:0:0:0:
256,192,179491,1,0,0:0:0:0:
256,192,179566,1,8,0:0:0:0:
256,192,179716,1,0,0:0:0:0:
256,192,179791,1,0,0:0:0:0:
256,192,179941,1,8,0:0:0:0:
256,192,180016,1,0,0:0:0:0:
256,192,180091,1,0,0:0:0:0:
256,192,180166,1,8,0:0:0:0:
256,192,180316,1,0,0:0:0:0:
256,192,180466,1,8,0:0:0:0:
256,192,180516,1,8,0:0:0:0:
256,192,180566,1,8,0:0:0:0:
256,192,180616,1,0,0:0:0:0:
256,192,180766,1,8,0:0:0:0:
256,192,180916,1,0,0:0:0:0:
256,192,180991,1,0,0:0:0:0:
256,192,181066,1,8,0:0:0:0:
256,192,181216,1,0,0:0:0:0:
256,192,181291,1,0,0:0:0:0:
256,192,181366,1,8,0:0:0:0:
256,192,181441,1,0,0:0:0:0:
256,192,181516,1,8,0:0:0:0:
256,192,181591,1,8,0:0:0:0:
256,192,181666,1,8,0:0:0:0:
256,192,181741,1,8,0:0:0:0:
256,192,181816,1,0,0:0:0:0:
256,192,181891,1,0,0:0:0:0:
256,192,181966,1,8,0:0:0:0:
256,192,182041,1,0,0:0:0:0:
256,192,182116,1,8,0:0:0:0:
256,192,182191,1,8,0:0:0:0:
256,192,182266,1,0,0:0:0:0:
256,192,182341,1,0,0:0:0:0:
256,192,182416,1,8,0:0:0:0:
256,192,182566,1,0,0:0:0:0:
256,192,182641,1,0,0:0:0:0:
256,192,182716,1,8,0:0:0:0:
256,192,182866,1,0,0:0:0:0:
256,192,182941,1,8,0:0:0:0:
256,192,183016,1,0,0:0:0:0:
256,192,183166,1,8,0:0:0:0:
256,192,183316,1,0,0:0:0:0:
256,192,183391,1,0,0:0:0:0:
256,192,183466,1,8,0:0:0:0:
256,192,183541,1,8,0:0:0:0:
256,192,183616,1,0,0:0:0:0:
256,192,183766,1,8,0:0:0:0:
256,192,183916,1,0,0:0:0:0:
256,192,183991,1,0,0:0:0:0:
256,192,184066,1,8,0:0:0:0:
256,192,184216,1,0,0:0:0:0:
256,192,184291,1,0,0:0:0:0:
256,192,184366,1,8,0:0:0:0:
256,192,184441,1,0,0:0:0:0:
256,192,184516,1,8,0:0:0:0:
256,192,184591,1,8,0:0:0:0:
256,192,184666,1,0,0:0:0:0:
256,192,184816,1,4,0:0:0:0:
256,192,184966,1,8,0:0:0:0:
256,192,185041,1,8,0:0:0:0:
256,192,185116,1,0,0:0:0:0:
256,192,185266,1,8,0:0:0:0:
256,192,185416,1,8,0:0:0:0:
256,192,185466,1,8,0:0:0:0:
256,192,185516,1,8,0:0:0:0:
256,192,185566,1,8,0:0:0:0:
256,192,185716,1,0,0:0:0:0:
256,192,185866,1,8,0:0:0:0:
256,192,186016,1,0,0:0:0:0:
256,192,186241,1,8,0:0:0:0:
256,192,186316,1,0,0:0:0:0:
256,192,186466,1,8,0:0:0:0:
256,192,186616,1,0,0:0:0:0:
256,192,186916,1,8,0:0:0:0:
256,192,187066,1,8,0:0:0:0:
256,192,187216,1,0,0:0:0:0:
256,192,187516,1,0,0:0:0:0:
256,192,187666,1,8,0:0:0:0:
256,192,187816,1,0,0:0:0:0:
256,192,187966,1,0,0:0:0:0:
256,192,188116,1,0,0:0:0:0:
256,192,188266,1,8,0:0:0:0:
256,192,188416,1,0,0:0:0:0:
256,192,188641,1,8,0:0:0:0:
256,192,188716,1,0,0:0:0:0:
256,192,188866,1,8,0:0:0:0:
256,192,189016,1,0,0:0:0:0:
256,192,189091,1,0,0:0:0:0:
256,192,189166,1,8,0:0:0:0:
256,192,189316,1,0,0:0:0:0:
256,192,189466,1,8,0:0:0:0:
256,192,189616,1,0,0:0:0:0:
256,192,189841,1,0,0:0:0:0:
256,192,189916,1,8,0:0:0:0:
256,192,190066,1,0,0:0:0:0:
256,192,190216,1,0,0:0:0:0:
256,192,190291,1,8,0:0:0:0:
256,192,190441,1,8,0:0:0:0:
256,192,190516,1,0,0:0:0:0:
256,192,190591,1,0,0:0:0:0:
256,192,190666,1,8,0:0:0:0:
256,192,190816,1,0,0:0:0:0:
256,192,190891,1,0,0:0:0:0:
256,192,191041,1,8,0:0:0:0:
256,192,191116,1,0,0:0:0:0:
256,192,191266,1,8,0:0:0:0:
256,192,191416,1,0,0:0:0:0:
256,192,191566,1,0,0:0:0:0:
256,192,191716,1,8,0:0:0:0:
256,192,191866,1,8,0:0:0:0:
256,192,192016,1,0,0:0:0:0:
256,192,192241,1,8,0:0:0:0:
256,192,192316,1,0,0:0:0:0:
256,192,192466,1,8,0:0:0:0:
256,192,192616,1,0,0:0:0:0:
256,192,192841,1,8,0:0:0:0:
256,192,192916,1,0,0:0:0:0:
256,192,193066,1,8,0:0:0:0:
256,192,193216,1,0,0:0:0:0:
256,192,193516,1,0,0:0:0:0:
256,192,193666,1,8,0:0:0:0:
256,192,193816,1,0,0:0:0:0:
256,192,194116,1,8,0:0:0:0:
256,192,194266,1,8,0:0:0:0:
256,192,194416,1,0,0:0:0:0:
256,192,194566,1,8,0:0:0:0:
256,192,194866,1,0,0:0:0:0:
256,192,195016,1,8,0:0:0:0:
256,192,195091,1,8,0:0:0:0:
256,192,195166,1,0,0:0:0:0:
256,192,195616,1,0,0:0:0:0:
256,192,195691,1,0,0:0:0:0:
256,192,195766,1,0,0:0:0:0:
256,192,195841,1,0,0:0:0:0:
256,192,195916,1,8,0:0:0:0:
256,192,195991,1,8,0:0:0:0:
256,192,196066,1,0,0:0:0:0:
256,192,196141,1,0,0:0:0:0:
256,192,196216,1,8,0:0:0:0:
256,192,196291,1,0,0:0:0:0:
256,192,196366,1,0,0:0:0:0:
256,192,196441,1,0,0:0:0:0:
256,192,196516,1,8,0:0:0:0:
256,192,196591,1,0,0:0:0:0:
256,192,196666,1,8,0:0:0:0:
256,192,196741,1,8,0:0:0:0:
256,192,196816,1,0,0:0:0:0:
256,192,196891,1,0,0:0:0:0:
256,192,196966,1,0,0:0:0:0:
256,192,197041,1,0,0:0:0:0:
256,192,197116,1,8,0:0:0:0:
256,192,197191,1,8,0:0:0:0:
256,192,197266,1,0,0:0:0:0:
256,192,197341,1,0,0:0:0:0:
256,192,197416,1,8,0:0:0:0:
256,192,197466,1,0,0:0:0:0:
256,192,197516,1,0,0:0:0:0:
256,192,197566,1,8,0:0:0:0:
256,192,197641,1,8,0:0:0:0:
256,192,197716,1,0,0:0:0:0:
256,192,197766,1,0,0:0:0:0:
256,192,197816,1,0,0:0:0:0:
256,192,197866,1,8,0:0:0:0:
256,192,198016,1,0,0:0:0:0:
256,192,198091,1,0,0:0:0:0:
256,192,198166,1,0,0:0:0:0:
256,192,198241,1,0,0:0:0:0:
256,192,198316,1,8,0:0:0:0:
256,192,198391,1,8,0:0:0:0:
256,192,198466,1,0,0:0:0:0:
256,192,198541,1,0,0:0:0:0:
256,192,198616,1,8,0:0:0:0:
256,192,198691,1,0,0:0:0:0:
256,192,198766,1,0,0:0:0:0:
256,192,198841,1,0,0:0:0:0:
256,192,198916,1,8,0:0:0:0:
256,192,198991,1,8,0:0:0:0:
256,192,199066,1,0,0:0:0:0:
256,192,199141,1,0,0:0:0:0:
256,192,199216,1,8,0:0:0:0:
256,192,199366,1,0,0:0:0:0:
256,192,199441,1,0,0:0:0:0:
256,192,199516,1,8,0:0:0:0:
256,192,199666,1,0,0:0:0:0:
256,192,199816,1,0,0:0:0:0:
256,192,199866,1,0,0:0:0:0:
256,192,199916,1,0,0:0:0:0:
256,192,199966,1,8,0:0:0:0:
256,192,200041,1,8,0:0:0:0:
256,192,200116,1,0,0:0:0:0:
256,192,200166,1,0,0:0:0:0:
256,192,200216,1,0,0:0:0:0:
256,192,200266,1,8,0:0:0:0:
256,192,200416,1,0,0:0:0:0:
256,192,200491,1,0,0:0:0:0:
256,192,200566,1,0,0:0:0:0:
256,192,200641,1,0,0:0:0:0:
256,192,200716,1,8,0:0:0:0:
256,192,200866,1,0,0:0:0:0:
256,192,200941,1,0,0:0:0:0:
256,192,201016,1,8,0:0:0:0:
256,192,201091,1,0,0:0:0:0:
256,192,201166,1,8,0:0:0:0:
256,192,201241,1,8,0:0:0:0:
256,192,201316,1,0,0:0:0:0:
256,192,201466,1,8,0:0:0:0:
256,192,201616,1,0,0:0:0:0:
256,192,201766,1,8,0:0:0:0:
256,192,201816,1,8,0:0:0:0:
256,192,201866,1,8,0:0:0:0:
256,192,201916,1,0,0:0:0:0:
256,192,202066,1,0,0:0:0:0:
256,192,202216,1,8,0:0:0:0:
256,192,202291,1,8,0:0:0:0:
256,192,202366,1,0,0:0:0:0:
256,192,202516,1,0,0:0:0:0:
256,192,202591,1,0,0:0:0:0:
256,192,202666,1,8,0:0:0:0:
256,192,202816,1,0,0:0:0:0:
256,192,202891,1,0,0:0:0:0:
256,192,202966,1,8,0:0:0:0:
256,192,203041,1,0,0:0:0:0:
256,192,203116,1,8,0:0:0:0:
256,192,203191,1,8,0:0:0:0:
256,192,203266,1,8,0:0:0:0:
256,192,203341,1,8,0:0:0:0:
256,192,203416,1,0,0:0:0:0:
256,192,203491,1,0,0:0:0:0:
256,192,203566,1,8,0:0:0:0:
256,192,203641,1,0,0:0:0:0:
256,192,203716,1,8,0:0:0:0:
256,192,203791,1,8,0:0:0:0:
256,192,203866,1,0,0:0:0:0:
256,192,203941,1,0,0:0:0:0:
256,192,204016,1,8,0:0:0:0:
256,192,204166,1,0,0:0:0:0:
256,192,204216,1,0,0:0:0:0:
256,192,204266,5,0,0:0:0:0:
256,192,204316,1,8,0:0:0:0:
256,192,204466,1,0,0:0:0:0:
256,192,204616,1,0,0:0:0:0:
256,192,204691,1,0,0:0:0:0:
256,192,204766,1,8,0:0:0:0:
256,192,204816,1,8,0:0:0:0:
256,192,204866,1,8,0:0:0:0:
256,192,204916,1,0,0:0:0:0:
256,192,205066,1,8,0:0:0:0:
256,192,205216,1,0,0:0:0:0:
256,192,205516,1,0,0:0:0:0:
256,192,205666,1,0,0:0:0:0:
256,192,205816,1,0,0:0:0:0:
256,192,206116,1,8,0:0:0:0:
256,192,206153,1,8,0:0:0:0:
256,192,206416,1,8,0:0:0:0:
256,192,206453,1,8,0:0:0:0:
256,192,206716,1,8,0:0:0:0:
256,192,206753,1,8,0:0:0:0:
256,192,207016,1,8,0:0:0:0:
256,192,207053,1,8,0:0:0:0:
256,192,207316,1,8,0:0:0:0:
256,192,207353,1,8,0:0:0:0:
256,192,207616,1,8,0:0:0:0:
256,192,207653,1,8,0:0:0:0:
256,192,207916,1,8,0:0:0:0:
256,192,207953,1,8,0:0:0:0:
256,192,208216,1,8,0:0:0:0:
256,192,208253,1,8,0:0:0:0:
256,192,208516,1,8,0:0:0:0:
256,192,208553,1,8,0:0:0:0:
256,192,208816,1,8,0:0:0:0:
256,192,208966,1,8,0:0:0:0:
256,192,209116,1,8,0:0:0:0:
256,192,209266,1,8,0:0:0:0:
256,192,209416,1,8,0:0:0:0:
256,192,209566,1,8,0:0:0:0:
256,192,209716,1,8,0:0:0:0:
256,192,209766,5,0,0:0:0:0:
256,192,209816,1,0,0:0:0:0:
256,192,209866,1,8,0:0:0:0:
256,192,209916,1,8,0:0:0:0:
256,192,209966,1,8,0:0:0:0:
256,192,210016,1,4,0:0:0:0:
256,192,210166,1,8,0:0:0:0:
256,192,210241,1,8,0:0:0:0:
256,192,210316,1,0,0:0:0:0:
256,192,210466,1,8,0:0:0:0:
256,192,210616,1,0,0:0:0:0:
256,192,210691,1,0,0:0:0:0:
256,192,210766,1,8,0:0:0:0:
256,192,210916,1,0,0:0:0:0:
256,192,211066,1,8,0:0:0:0:
256,192,211216,1,0,0:0:0:0:
256,192,211291,1,0,0:0:0:0:
256,192,211366,1,8,0:0:0:0:
256,192,211441,1,8,0:0:0:0:
256,192,211516,1,0,0:0:0:0:
256,192,211666,1,8,0:0:0:0:
256,192,211816,1,0,0:0:0:0:
256,192,211891,1,0,0:0:0:0:
256,192,211966,1,8,0:0:0:0:
256,192,212116,1,0,0:0:0:0:
256,192,212266,1,8,0:0:0:0:
256,192,212341,1,8,0:0:0:0:
256,192,212416,1,0,0:0:0:0:
256,192,212566,1,8,0:0:0:0:
256,192,212716,1,0,0:0:0:0:
256,192,212791,1,0,0:0:0:0:
256,192,212941,1,8,0:0:0:0:
256,192,213016,1,0,0:0:0:0:
256,192,213166,1,8,0:0:0:0:
256,192,213241,1,8,0:0:0:0:
256,192,213316,1,0,0:0:0:0:
256,192,213466,1,8,0:0:0:0:
256,192,213616,1,0,0:0:0:0:
256,192,213691,1,8,0:0:0:0:
256,192,213766,1,8,0:0:0:0:
256,192,213841,1,8,0:0:0:0:
256,192,213916,1,0,0:0:0:0:
256,192,213991,1,0,0:0:0:0:
256,192,214066,1,8,0:0:0:0:
256,192,214141,1,8,0:0:0:0:
256,192,214216,1,0,0:0:0:0:
256,192,214291,1,8,0:0:0:0:
256,192,214366,1,8,0:0:0:0:
256,192,214441,1,8,0:0:0:0:
256,192,214516,1,0,0:0:0:0:
256,192,214816,1,0,0:0:0:0:
256,192,214891,1,8,0:0:0:0:
256,192,214966,1,8,0:0:0:0:
256,192,215041,1,8,0:0:0:0:
256,192,215116,1,0,0:0:0:0:
256,192,215266,1,8,0:0:0:0:
256,192,215341,1,8,0:0:0:0:
256,192,215416,1,0,0:0:0:0:
256,192,215566,1,8,0:0:0:0:
256,192,215716,1,0,0:0:0:0:
256,192,215791,1,0,0:0:0:0:
256,192,215866,1,8,0:0:0:0:
256,160,216016,1,0,0:0:0:0:
256,192,216166,1,8,0:0:0:0:
256,192,216241,1,8,0:0:0:0:
256,192,216316,1,0,0:0:0:0:
256,192,216466,1,8,0:0:0:0:
256,192,216616,1,0,0:0:0:0:
256,192,216691,1,0,0:0:0:0:
256,192,216766,1,8,0:0:0:0:
256,192,216916,1,0,0:0:0:0:
256,192,217066,1,8,0:0:0:0:
256,192,217216,1,0,0:0:0:0:
256,192,217366,1,8,0:0:0:0:
256,192,217441,1,8,0:0:0:0:
256,192,217516,1,0,0:0:0:0:
256,192,217666,1,8,0:0:0:0:
256,192,217816,1,0,0:0:0:0:
256,192,217891,1,0,0:0:0:0:
256,192,217966,1,8,0:0:0:0:
256,192,218116,1,0,0:0:0:0:
256,192,218266,1,8,0:0:0:0:
256,192,218341,1,8,0:0:0:0:
256,192,218416,1,0,0:0:0:0:
256,192,218566,1,8,0:0:0:0:
256,192,218716,1,0,0:0:0:0:
256,192,218866,1,8,0:0:0:0:
256,192,219016,1,4,0:0:0:0:
256,192,219616,1,4,0:0:0:0:
256,192,219766,1,8,0:0:0:0:
256,192,219841,1,8,0:0:0:0:
256,192,219916,1,0,0:0:0:0:
256,192,220066,1,8,0:0:0:0:
256,192,220216,1,0,0:0:0:0:
256,192,220291,1,0,0:0:0:0:
256,192,220366,1,8,0:0:0:0:
256,192,220516,1,0,0:0:0:0:
256,192,220666,1,8,0:0:0:0:
256,192,220816,1,0,0:0:0:0:
256,192,220891,1,0,0:0:0:0:
256,192,220966,1,8,0:0:0:0:
256,192,221041,1,8,0:0:0:0:
256,192,221116,1,0,0:0:0:0:
256,192,221266,1,8,0:0:0:0:
256,192,221416,1,0,0:0:0:0:
256,192,221491,1,0,0:0:0:0:
256,192,221566,1,8,0:0:0:0:
256,192,221716,1,0,0:0:0:0:
256,192,221866,1,8,0:0:0:0:
256,192,221941,1,8,0:0:0:0:
256,192,222016,1,0,0:0:0:0:
256,192,222166,1,8,0:0:0:0:
256,192,222316,1,0,0:0:0:0:
256,192,222391,1,0,0:0:0:0:
256,192,222541,1,8,0:0:0:0:
256,192,222616,1,0,0:0:0:0:
256,192,222766,1,8,0:0:0:0:
256,192,222841,1,8,0:0:0:0:
256,192,222916,1,0,0:0:0:0:
256,192,223066,1,8,0:0:0:0:
256,192,223216,1,0,0:0:0:0:
256,192,223291,1,8,0:0:0:0:
256,192,223366,1,8,0:0:0:0:
256,192,223441,1,8,0:0:0:0:
256,192,223516,1,0,0:0:0:0:
256,192,223591,1,0,0:0:0:0:
256,192,223666,1,8,0:0:0:0:
256,192,223741,1,8,0:0:0:0:
256,192,223816,1,0,0:0:0:0:
256,192,223891,1,8,0:0:0:0:
256,192,223966,1,8,0:0:0:0:
256,192,224041,1,8,0:0:0:0:
256,192,224116,1,0,0:0:0:0:
256,192,224191,1,0,0:0:0:0:
256,192,224266,1,8,0:0:0:0:
256,192,224341,1,8,0:0:0:0:
256,192,224416,1,0,0:0:0:0:
256,192,224641,1,8,0:0:0:0:
256,192,224716,1,0,0:0:0:0:
256,192,224866,1,8,0:0:0:0:
256,192,224941,1,8,0:0:0:0:
256,192,225016,1,0,0:0:0:0:
256,192,225166,1,8,0:0:0:0:
256,192,225316,1,0,0:0:0:0:
256,192,225391,1,0,0:0:0:0:
256,192,225466,1,8,0:0:0:0:
256,192,225616,1,0,0:0:0:0:
256,192,225766,1,8,0:0:0:0:
256,192,225841,1,8,0:0:0:0:
256,192,225916,1,0,0:0:0:0:
256,192,226066,1,8,0:0:0:0:
256,192,226216,1,0,0:0:0:0:
256,192,226291,1,0,0:0:0:0:
256,192,226366,1,8,0:0:0:0:
256,192,226516,1,0,0:0:0:0:
256,192,226666,1,8,0:0:0:0:
256,192,226816,1,0,0:0:0:0:
256,192,226966,1,8,0:0:0:0:
256,192,227041,1,8,0:0:0:0:
256,192,227116,1,0,0:0:0:0:
256,192,227266,1,8,0:0:0:0:
256,192,227416,1,0,0:0:0:0:
256,192,227491,1,0,0:0:0:0:
256,192,227566,1,8,0:0:0:0:
256,192,227716,1,0,0:0:0:0:
256,192,227866,1,8,0:0:0:0:
256,192,227941,1,8,0:0:0:0:
256,192,228016,1,0,0:0:0:0:
256,192,228166,1,8,0:0:0:0:
256,192,228241,1,8,0:0:0:0:
256,192,228316,1,0,0:0:0:0:
256,192,228391,1,0,0:0:0:0:
256,192,228466,1,8,0:0:0:0:
256,192,228616,1,0,0:0:0:0:
256,192,228766,1,8,0:0:0:0:
256,192,229216,1,0,0:0:0:0:
256,192,229441,1,8,0:0:0:0:
256,192,229516,1,0,0:0:0:0:
256,192,229666,1,8,0:0:0:0:
256,192,229816,1,0,0:0:0:0:
256,192,229891,1,0,0:0:0:0:
256,192,229966,1,8,0:0:0:0:
256,192,230116,1,0,0:0:0:0:
256,192,230191,1,8,0:0:0:0:
256,192,230266,1,8,0:0:0:0:
256,192,230341,1,8,0:0:0:0:
256,192,230416,1,0,0:0:0:0:
256,192,230566,1,8,0:0:0:0:
256,192,230641,1,8,0:0:0:0:
256,192,230716,1,0,0:0:0:0:
256,192,230866,1,8,0:0:0:0:
256,192,231016,1,0,0:0:0:0:
256,192,231091,1,0,0:0:0:0:
256,192,231166,1,8,0:0:0:0:
256,192,231316,1,0,0:0:0:0:
256,192,231466,1,8,0:0:0:0:
256,192,231541,1,8,0:0:0:0:
256,192,231616,1,0,0:0:0:0:
256,192,231766,1,8,0:0:0:0:
256,192,231916,1,0,0:0:0:0:
256,192,232066,1,8,0:0:0:0:
256,192,232141,1,8,0:0:0:0:
256,192,232216,1,0,0:0:0:0:
256,192,232366,1,8,0:0:0:0:
256,192,232516,1,0,0:0:0:0:
256,192,232591,1,0,0:0:0:0:
256,192,232666,1,8,0:0:0:0:
256,192,232816,1,0,0:0:0:0:
256,192,232966,1,8,0:0:0:0:
256,192,233041,1,8,0:0:0:0:
256,192,233116,1,0,0:0:0:0:
256,192,233266,1,8,0:0:0:0:
256,192,233416,1,0,0:0:0:0:
256,192,233491,1,8,0:0:0:0:
256,192,233641,1,8,0:0:0:0:
256,192,233716,1,0,0:0:0:0:
256,192,233866,1,8,0:0:0:0:
256,192,234016,1,0,0:0:0:0:
256,192,234091,1,0,0:0:0:0:
256,192,234166,1,8,0:0:0:0:
256,192,234316,1,0,0:0:0:0:
256,192,234466,1,8,0:0:0:0:
256,192,234541,1,8,0:0:0:0:
256,192,234616,1,0,0:0:0:0:
256,192,234766,1,8,0:0:0:0:
256,192,234916,1,0,0:0:0:0:
256,192,234991,1,0,0:0:0:0:
256,192,235066,1,8,0:0:0:0:
256,192,235216,1,0,0:0:0:0:
256,192,235366,1,8,0:0:0:0:
256,192,235516,1,0,0:0:0:0:
256,192,235591,1,0,0:0:0:0:
256,192,235666,1,8,0:0:0:0:
256,192,235816,1,0,0:0:0:0:
256,192,235966,1,8,0:0:0:0:
256,192,236041,1,8,0:0:0:0:
256,192,236116,1,0,0:0:0:0:
256,192,236266,1,8,0:0:0:0:
256,192,236416,1,0,0:0:0:0:
256,192,236641,1,8,0:0:0:0:
256,192,236716,1,0,0:0:0:0:
256,192,236866,1,8,0:0:0:0:
256,192,237016,1,0,0:0:0:0:
256,192,237091,1,0,0:0:0:0:
256,192,237166,1,8,0:0:0:0:
256,192,237316,1,0,0:0:0:0:
256,192,237466,1,8,0:0:0:0:
256,192,237616,5,0,0:0:0:0:
256,192,237691,1,0,0:0:0:0:
256,192,237766,1,8,0:0:0:0:
256,192,237841,1,8,0:0:0:0:
256,192,237916,1,0,0:0:0:0:
256,192,237991,1,0,0:0:0:0:
256,192,238066,1,8,0:0:0:0:
256,192,238141,1,8,0:0:0:0:
256,192,238216,1,0,0:0:0:0:
256,192,238291,1,8,0:0:0:0:
256,192,238366,1,8,0:0:0:0:
256,192,238441,1,8,0:0:0:0:
256,192,238516,1,0,0:0:0:0:
256,192,238591,1,0,0:0:0:0:
256,192,238666,1,8,0:0:0:0:
256,192,238741,1,8,0:0:0:0:
256,192,238816,1,0,0:0:0:0:
256,192,239041,1,8,0:0:0:0:
256,192,239116,1,0,0:0:0:0:
256,192,239266,1,8,0:0:0:0:
256,192,239416,1,0,0:0:0:0:
256,192,239491,1,0,0:0:0:0:
256,192,239566,1,8,0:0:0:0:
256,192,239716,1,0,0:0:0:0:
256,192,239866,1,8,0:0:0:0:
256,192,239941,1,8,0:0:0:0:
256,192,240016,1,0,0:0:0:0:
256,192,240166,1,8,0:0:0:0:
256,192,240316,1,0,0:0:0:0:
256,192,240391,1,0,0:0:0:0:
256,192,240466,1,8,0:0:0:0:
256,192,240616,1,0,0:0:0:0:
256,192,240766,1,8,0:0:0:0:
256,192,240841,1,8,0:0:0:0:
256,192,240916,1,0,0:0:0:0:
256,192,241066,1,8,0:0:0:0:
256,192,241216,1,0,0:0:0:0:
256,192,241291,1,8,0:0:0:0:
256,192,241441,1,8,0:0:0:0:
256,192,241516,1,0,0:0:0:0:
256,192,241666,1,8,0:0:0:0:
256,192,241816,1,0,0:0:0:0:
256,192,241966,1,8,0:0:0:0:
256,192,242116,1,0,0:0:0:0:
256,192,242191,1,0,0:0:0:0:
256,192,242266,1,8,0:0:0:0:
256,192,242416,1,0,0:0:0:0:
256,192,242566,1,8,0:0:0:0:
256,192,242716,1,0,0:0:0:0:
256,192,242866,1,8,0:0:0:0:
256,192,243016,1,0,0:0:0:0:
256,192,243316,1,0,0:0:0:0:
256,192,243466,1,8,0:0:0:0:
256,192,243616,1,0,0:0:0:0:
256,192,243916,1,0,0:0:0:0:
256,192,244066,1,8,0:0:0:0:
256,192,244366,1,8,0:0:0:0:
256,192,244666,1,8,0:0:0:0:
256,192,244816,1,0,0:0:0:0:
256,192,245116,1,0,0:0:0:0:
256,192,245266,1,8,0:0:0:0:
256,192,245566,1,0,0:0:0:0:
256,192,245716,1,8,0:0:0:0:
256,192,245866,1,8,0:0:0:0:
256,192,246016,1,0,0:0:0:0:
256,192,246316,1,0,0:0:0:0:
256,192,246466,1,8,0:0:0:0:
256,192,246766,1,8,0:0:0:0:
256,192,247066,1,8,0:0:0:0:
256,192,247216,5,8,0:0:0:0:
256,192,247291,1,0,0:0:0:0:
256,192,247366,1,0,0:0:0:0:
256,192,247441,1,8,0:0:0:0:
256,192,247516,1,0,0:0:0:0:
256,192,247591,1,0,0:0:0:0:
256,192,247666,1,8,0:0:0:0:
256,192,247741,1,8,0:0:0:0:
256,192,247816,1,0,0:0:0:0:
256,192,247891,1,8,0:0:0:0:
256,192,247966,1,8,0:0:0:0:
256,192,248041,1,8,0:0:0:0:
256,192,248116,1,0,0:0:0:0:
256,192,248191,1,0,0:0:0:0:
256,192,248266,1,8,0:0:0:0:
256,192,248341,1,8,0:0:0:0:
256,192,248416,5,0,0:0:0:0:
256,192,251816,1,12,0:0:0:0:
