osu file format v14

[General]
AudioFilename: Helblinde Heavens Fall bpm220.mp3
AudioLeadIn: 0
PreviewTime: -1
Countdown: 0
SampleSet: Normal
StackLeniency: 0.7
Mode: 1
LetterboxInBreaks: 0
WidescreenStoryboard: 1

[Editor]
Bookmarks: 34924
DistanceSpacing: 1.6
BeatDivisor: 4
GridSize: 4
TimelineZoom: 3.299999

[Metadata]
Title:Heaven's Fall (Speed Up Ver.)
TitleUnicode:Heaven's Fall (Speed Up Ver.)
Artist:Helblinde
ArtistUnicode:Helblinde
Creator:hoku-4625
Version:Yuni's Warrior(BPM220)
Source:
Tags:
BeatmapID:1610531
BeatmapSetID:764382

[Difficulty]
HPDrainRate:4.7
CircleSize:5
OverallDifficulty:5.7
ApproachRate:5
SliderMultiplier:1.4
SliderTickRate:1

[Events]
//Background and Video events
0,0,"arunodoa.jpg",0,0
//Break Periods
//Storyboard Layer 0 (Background)
//Storyboard Layer 1 (Fail)
//Storyboard Layer 2 (Pass)
//Storyboard Layer 3 (Foreground)
//Storyboard Sound Samples

[TimingPoints]
15.1799830380376,272.727272727273,4,1,0,100,1,0
92742,-100,4,1,0,100,0,1
110196,-100,4,1,0,100,0,0
129833,-100,4,1,0,100,0,1
147287,-100,4,1,0,100,0,0
156015,-100,4,1,0,100,0,1
169106,-100,4,1,0,100,0,0
177833,-100,4,1,0,100,0,1
186560,-100,4,1,0,100,0,0

[HitObjects]
216,200,15,5,0,0:0:0:0:
180,156,287,1,2,0:0:0:0:
128,136,696,1,0,0:0:0:0:
128,136,833,1,2,0:0:0:0:
140,144,1106,1,0,0:0:0:0:
140,144,1378,1,2,0:0:0:0:
136,104,1651,1,2,0:0:0:0:
136,104,1787,1,0,0:0:0:0:
136,104,1924,1,2,0:0:0:0:
136,104,2196,1,0,0:0:0:0:
140,68,2469,1,2,0:0:0:0:
160,84,2606,1,2,0:0:0:0:
152,68,2878,1,0,0:0:0:0:
152,68,3015,1,2,0:0:0:0:
140,116,3083,1,2,0:0:0:0:
140,116,3151,1,2,0:0:0:0:
140,116,3287,1,0,0:0:0:0:
140,116,3424,1,0,0:0:0:0:
140,116,3560,1,0,0:0:0:0:
140,116,3833,1,2,0:0:0:0:
140,116,3969,1,0,0:0:0:0:
140,116,4106,1,2,0:0:0:0:
140,116,4174,1,2,0:0:0:0:
140,116,4242,1,2,0:0:0:0:
140,116,4378,1,0,0:0:0:0:
140,56,4651,1,2,0:0:0:0:
140,116,5060,1,0,0:0:0:0:
140,116,5196,1,2,0:0:0:0:
140,116,5265,1,2,0:0:0:0:
140,116,5333,1,0,0:0:0:0:
140,116,5401,1,2,0:0:0:0:
140,116,5469,1,0,0:0:0:0:
104,160,5742,1,0,0:0:0:0:
132,76,6015,1,0,0:0:0:0:
168,52,6151,1,2,0:0:0:0:
160,104,6287,1,0,0:0:0:0:
160,104,6424,1,2,0:0:0:0:
160,104,6560,1,0,0:0:0:0:
160,104,6628,1,0,0:0:0:0:
160,104,6696,1,2,0:0:0:0:
160,104,6765,1,2,0:0:0:0:
160,104,6833,1,0,0:0:0:0:
160,104,6969,1,0,0:0:0:0:
160,104,7106,1,2,0:0:0:0:
160,104,7242,1,2,0:0:0:0:
160,104,7310,1,2,0:0:0:0:
160,104,7378,1,0,0:0:0:0:
132,148,7651,1,0,0:0:0:0:
140,84,7924,1,2,0:0:0:0:
132,148,8060,1,0,0:0:0:0:
132,148,8196,1,2,0:0:0:0:
132,148,8333,1,2,0:0:0:0:
132,148,8469,1,0,0:0:0:0:
132,148,8537,1,0,0:0:0:0:
132,148,8606,1,2,0:0:0:0:
132,148,8742,1,0,0:0:0:0:
132,124,9015,1,2,0:0:0:0:
144,120,9424,1,0,0:0:0:0:
144,120,9560,1,2,0:0:0:0:
144,120,9696,1,2,0:0:0:0:
144,120,9765,1,2,0:0:0:0:
144,120,9833,1,0,0:0:0:0:
144,120,10106,1,0,0:0:0:0:
144,120,10378,1,0,0:0:0:0:
144,120,10515,1,2,0:0:0:0:
144,120,10651,1,0,0:0:0:0:
144,120,10719,1,0,0:0:0:0:
144,120,10787,1,2,0:0:0:0:
124,104,10924,1,2,0:0:0:0:
144,120,11196,1,2,0:0:0:0:
144,120,11469,1,2,0:0:0:0:
144,120,11606,1,0,0:0:0:0:
144,120,11674,1,0,0:0:0:0:
144,120,11742,1,2,0:0:0:0:
124,104,12015,1,0,0:0:0:0:
124,104,12083,1,0,0:0:0:0:
124,104,12151,1,0,0:0:0:0:
124,104,12219,1,0,0:0:0:0:
124,104,12287,1,2,0:0:0:0:
124,104,12424,1,2,0:0:0:0:
124,104,12560,1,0,0:0:0:0:
124,104,12628,1,0,0:0:0:0:
124,104,12696,1,2,0:0:0:0:
124,104,12765,1,2,0:0:0:0:
124,104,12833,1,0,0:0:0:0:
124,104,12969,1,2,0:0:0:0:
124,104,13037,1,2,0:0:0:0:
124,104,13106,1,0,0:0:0:0:
96,104,13242,1,0,0:0:0:0:
96,104,13310,1,0,0:0:0:0:
96,104,13378,1,2,0:0:0:0:
96,104,13446,1,0,0:0:0:0:
96,104,13515,1,2,0:0:0:0:
96,104,13583,1,2,0:0:0:0:
96,104,13651,1,0,0:0:0:0:
96,104,13787,1,2,0:0:0:0:
96,104,13924,1,0,0:0:0:0:
104,104,13992,1,0,0:0:0:0:
104,104,14060,1,0,0:0:0:0:
104,104,14128,1,0,0:0:0:0:
104,104,14196,1,2,0:0:0:0:
104,104,14333,1,2,0:0:0:0:
104,104,14469,1,0,0:0:0:0:
108,72,14606,1,2,0:0:0:0:
104,104,14742,1,0,0:0:0:0:
104,104,14878,1,2,0:0:0:0:
104,104,15015,1,0,0:0:0:0:
108,72,15151,1,0,0:0:0:0:
108,72,15219,1,2,0:0:0:0:
108,72,15287,1,0,0:0:0:0:
108,72,15560,1,0,0:0:0:0:
108,72,15833,1,0,0:0:0:0:
152,124,15969,1,2,0:0:0:0:
108,72,16106,1,0,0:0:0:0:
108,72,16174,1,0,0:0:0:0:
108,72,16242,1,0,0:0:0:0:
108,72,16378,1,0,0:0:0:0:
108,72,16515,1,0,0:0:0:0:
108,72,16651,1,2,0:0:0:0:
108,72,16787,1,0,0:0:0:0:
108,72,16924,1,0,0:0:0:0:
108,72,16992,1,0,0:0:0:0:
108,72,17060,1,2,0:0:0:0:
108,72,17196,1,0,0:0:0:0:
108,72,17265,1,0,0:0:0:0:
108,72,17333,1,2,0:0:0:0:
108,72,17401,1,2,0:0:0:0:
108,72,17469,1,0,0:0:0:0:
152,124,17606,1,0,0:0:0:0:
152,124,17742,1,2,0:0:0:0:
152,124,17878,1,0,0:0:0:0:
152,124,17946,1,2,0:0:0:0:
152,124,18015,1,0,0:0:0:0:
152,124,18151,1,2,0:0:0:0:
152,124,18219,1,2,0:0:0:0:
152,124,18287,1,0,0:0:0:0:
152,124,18424,1,2,0:0:0:0:
152,124,18560,1,0,0:0:0:0:
152,124,18696,1,0,0:0:0:0:
152,124,18833,1,2,0:0:0:0:
152,124,18969,1,0,0:0:0:0:
152,124,19037,1,0,0:0:0:0:
152,124,19106,1,0,0:0:0:0:
152,76,19242,1,2,0:0:0:0:
152,108,19378,1,0,0:0:0:0:
152,108,19446,1,2,0:0:0:0:
152,108,19515,1,0,0:0:0:0:
152,108,19583,1,2,0:0:0:0:
152,108,19651,1,0,0:0:0:0:
152,108,19924,1,2,0:0:0:0:
152,108,20060,1,0,0:0:0:0:
152,108,20128,1,0,0:0:0:0:
152,108,20196,1,0,0:0:0:0:
152,108,20333,1,2,0:0:0:0:
152,108,20469,1,0,0:0:0:0:
152,108,20537,1,2,0:0:0:0:
152,108,20606,1,0,0:0:0:0:
152,108,20674,1,2,0:0:0:0:
152,108,20742,1,0,0:0:0:0:
152,108,20878,1,0,0:0:0:0:
152,108,21015,1,2,0:0:0:0:
152,108,21151,1,0,0:0:0:0:
152,108,21219,1,0,0:0:0:0:
152,108,21287,1,0,0:0:0:0:
152,108,21424,1,2,0:0:0:0:
152,108,21560,1,0,0:0:0:0:
152,108,21628,1,2,0:0:0:0:
152,108,21696,1,0,0:0:0:0:
152,108,21765,1,2,0:0:0:0:
152,108,21833,1,0,0:0:0:0:
152,108,22106,1,2,0:0:0:0:
152,108,22242,1,0,0:0:0:0:
152,108,22310,1,0,0:0:0:0:
152,108,22378,1,0,0:0:0:0:
152,108,22515,1,2,0:0:0:0:
152,108,22651,1,0,0:0:0:0:
152,108,22719,1,2,0:0:0:0:
152,108,22787,1,0,0:0:0:0:
152,108,22856,1,2,0:0:0:0:
152,108,22924,1,0,0:0:0:0:
152,108,23060,1,0,0:0:0:0:
152,108,23196,1,2,0:0:0:0:
152,108,23333,1,0,0:0:0:0:
152,108,23401,1,0,0:0:0:0:
152,108,23469,1,0,0:0:0:0:
152,108,23606,1,2,0:0:0:0:
152,108,23742,1,0,0:0:0:0:
152,108,23810,1,0,0:0:0:0:
152,108,23878,1,2,0:0:0:0:
152,108,23946,1,2,0:0:0:0:
152,108,24015,1,0,0:0:0:0:
168,116,24287,1,0,0:0:0:0:
152,128,24560,1,0,0:0:0:0:
168,116,24696,1,0,0:0:0:0:
168,116,24833,1,2,0:0:0:0:
168,116,24901,1,0,0:0:0:0:
168,116,24969,1,0,0:0:0:0:
168,116,25037,1,0,0:0:0:0:
168,116,25106,1,2,0:0:0:0:
152,108,25174,1,2,0:0:0:0:
152,108,25242,1,0,0:0:0:0:
152,112,25310,1,2,0:0:0:0:
168,116,25378,1,0,0:0:0:0:
96,64,25446,1,0,0:0:0:0:
96,64,25515,1,0,0:0:0:0:
168,116,25651,1,2,0:0:0:0:
136,48,25696,1,2,0:0:0:0:
136,48,25742,1,2,0:0:0:0:
136,48,25787,1,2,0:0:0:0:
160,104,25924,1,0,0:0:0:0:
160,104,25969,1,0,0:0:0:0:
160,104,26015,1,0,0:0:0:0:
160,104,26060,1,0,0:0:0:0:
168,116,26196,1,4,0:0:0:0:
168,116,27287,1,2,0:0:0:0:
168,116,27560,1,2,0:0:0:0:
168,116,27833,1,2,0:0:0:0:
168,116,28106,1,2,0:0:0:0:
168,40,28378,1,0,0:0:0:0:
168,128,28651,1,2,0:0:0:0:
168,128,28924,1,2,0:0:0:0:
168,128,29196,1,2,0:0:0:0:
168,128,29469,1,2,0:0:0:0:
168,128,29742,1,2,0:0:0:0:
168,128,30015,1,2,0:0:0:0:
168,128,30287,1,2,0:0:0:0:
168,128,30560,1,0,0:0:0:0:
168,128,30696,1,2,0:0:0:0:
168,128,30833,1,2,0:0:0:0:
168,128,30969,1,2,0:0:0:0:
168,128,31106,1,2,0:0:0:0:
168,128,31242,1,2,0:0:0:0:
168,128,31378,1,2,0:0:0:0:
168,128,31515,1,2,0:0:0:0:
180,144,31651,1,0,0:0:0:0:
180,144,31787,1,2,0:0:0:0:
180,144,31924,1,2,0:0:0:0:
180,144,32060,1,2,0:0:0:0:
180,144,32196,1,2,0:0:0:0:
172,100,32333,1,2,0:0:0:0:
172,100,32469,1,2,0:0:0:0:
172,100,32606,1,2,0:0:0:0:
216,160,32742,1,2,0:0:0:0:
216,160,32810,1,0,0:0:0:0:
216,160,32878,1,0,0:0:0:0:
216,160,32946,1,0,0:0:0:0:
216,160,33015,1,2,0:0:0:0:
216,160,33083,1,0,0:0:0:0:
216,160,33151,1,0,0:0:0:0:
216,160,33219,1,0,0:0:0:0:
216,160,33287,1,2,0:0:0:0:
216,160,33356,1,2,0:0:0:0:
216,160,33424,1,0,0:0:0:0:
216,160,33492,1,0,0:0:0:0:
216,160,33560,1,2,0:0:0:0:
216,160,33628,1,2,0:0:0:0:
216,160,33696,1,0,0:0:0:0:
216,160,33765,1,0,0:0:0:0:
216,160,33833,1,2,0:0:0:0:
216,160,33969,1,0,0:0:0:0:
216,160,34106,1,2,0:0:0:0:
216,160,34242,1,0,0:0:0:0:
216,160,34378,1,4,0:0:0:0:
216,160,34651,1,2,0:0:0:0:
216,160,34719,1,2,0:0:0:0:
216,160,34787,1,0,0:0:0:0:
216,160,34924,1,4,0:0:0:0:
216,160,35196,1,2,0:0:0:0:
216,160,35333,1,0,0:0:0:0:
168,112,35469,1,2,0:0:0:0:
216,160,35537,1,2,0:0:0:0:
168,112,35606,1,0,0:0:0:0:
168,112,35742,1,0,0:0:0:0:
168,112,35878,1,2,0:0:0:0:
168,112,36015,1,0,0:0:0:0:
168,112,36151,1,0,0:0:0:0:
168,112,36219,1,0,0:0:0:0:
168,112,36287,1,2,0:0:0:0:
168,112,36424,1,0,0:0:0:0:
168,112,36560,1,2,0:0:0:0:
168,112,36628,1,0,0:0:0:0:
168,112,36696,1,0,0:0:0:0:
168,112,36765,1,0,0:0:0:0:
168,112,36833,1,2,0:0:0:0:
168,112,36969,1,2,0:0:0:0:
168,112,37106,1,0,0:0:0:0:
168,112,37378,1,2,0:0:0:0:
168,112,37515,1,0,0:0:0:0:
168,112,37583,1,0,0:0:0:0:
168,112,37651,1,2,0:0:0:0:
168,112,37787,1,0,0:0:0:0:
168,112,37924,1,2,0:0:0:0:
168,112,38060,1,2,0:0:0:0:
168,112,38128,1,2,0:0:0:0:
168,112,38196,1,0,0:0:0:0:
168,112,38265,1,0,0:0:0:0:
168,112,38333,1,2,0:0:0:0:
168,112,38401,1,0,0:0:0:0:
168,112,38469,1,2,0:0:0:0:
168,112,38606,1,2,0:0:0:0:
168,112,38674,1,2,0:0:0:0:
168,112,38742,1,0,0:0:0:0:
168,112,38878,1,0,0:0:0:0:
168,112,38946,1,2,0:0:0:0:
168,112,39015,1,0,0:0:0:0:
168,112,39083,1,0,0:0:0:0:
168,112,39151,1,2,0:0:0:0:
168,112,39219,1,2,0:0:0:0:
168,112,39287,1,0,0:0:0:0:
172,108,39560,1,2,0:0:0:0:
172,108,39696,1,0,0:0:0:0:
172,108,39765,1,0,0:0:0:0:
116,104,39833,1,0,0:0:0:0:
160,72,39969,1,2,0:0:0:0:
172,108,40106,1,0,0:0:0:0:
160,52,40174,1,2,0:0:0:0:
160,52,40242,1,2,0:0:0:0:
128,128,40378,1,0,0:0:0:0:
160,52,40515,1,0,0:0:0:0:
160,52,40583,1,2,0:0:0:0:
160,52,40651,1,0,0:0:0:0:
160,52,40787,1,0,0:0:0:0:
160,52,40924,1,2,0:0:0:0:
160,52,40992,1,0,0:0:0:0:
160,52,41060,1,2,0:0:0:0:
160,52,41128,1,2,0:0:0:0:
160,52,41196,1,0,0:0:0:0:
160,52,41333,1,0,0:0:0:0:
160,52,41469,1,2,0:0:0:0:
164,108,41674,1,2,0:0:0:0:
164,108,41742,1,0,0:0:0:0:
164,108,41878,1,2,0:0:0:0:
164,108,42015,1,0,0:0:0:0:
164,108,42083,1,0,0:0:0:0:
164,108,42151,1,2,0:0:0:0:
164,108,42287,1,0,0:0:0:0:
164,108,42356,1,0,0:0:0:0:
164,108,42424,1,2,0:0:0:0:
164,108,42492,1,2,0:0:0:0:
164,108,42560,1,0,0:0:0:0:
164,108,42696,1,0,0:0:0:0:
164,108,42833,1,2,0:0:0:0:
164,108,42901,1,0,0:0:0:0:
164,108,42969,1,0,0:0:0:0:
164,108,43037,1,0,0:0:0:0:
164,108,43106,1,2,0:0:0:0:
164,108,43174,1,2,0:0:0:0:
164,108,43242,1,0,0:0:0:0:
164,108,43310,1,0,0:0:0:0:
164,108,43378,1,2,0:0:0:0:
164,108,43515,1,2,0:0:0:0:
216,160,43651,1,4,0:0:0:0:
136,132,43787,1,0,0:0:0:0:
136,132,43856,1,0,0:0:0:0:
216,160,43923,1,2,0:0:0:0:
216,160,44060,1,0,0:0:0:0:
168,112,44196,1,2,0:0:0:0:
216,160,44264,1,2,0:0:0:0:
168,112,44333,1,0,0:0:0:0:
168,112,44469,1,0,0:0:0:0:
168,112,44605,1,2,0:0:0:0:
168,112,44742,1,0,0:0:0:0:
168,112,44878,1,0,0:0:0:0:
168,112,44946,1,0,0:0:0:0:
168,112,45014,1,2,0:0:0:0:
168,112,45151,1,0,0:0:0:0:
168,112,45287,1,2,0:0:0:0:
168,112,45355,1,0,0:0:0:0:
168,112,45423,1,0,0:0:0:0:
168,112,45492,1,0,0:0:0:0:
168,112,45560,1,2,0:0:0:0:
168,112,45696,1,2,0:0:0:0:
168,112,45833,1,0,0:0:0:0:
136,136,45969,1,0,0:0:0:0:
136,136,46037,1,0,0:0:0:0:
168,112,46105,1,2,0:0:0:0:
180,96,46174,1,2,0:0:0:0:
168,112,46242,1,0,0:0:0:0:
152,88,46378,1,0,0:0:0:0:
176,76,46515,1,2,0:0:0:0:
176,76,46583,1,0,0:0:0:0:
176,76,46651,1,0,0:0:0:0:
168,112,46787,1,2,0:0:0:0:
168,112,46855,1,2,0:0:0:0:
168,112,46923,1,0,0:0:0:0:
168,112,46992,1,0,0:0:0:0:
168,112,47060,1,2,0:0:0:0:
168,112,47128,1,0,0:0:0:0:
168,112,47196,1,2,0:0:0:0:
160,192,47265,1,0,0:0:0:0:
168,112,47333,1,2,0:0:0:0:
168,112,47401,1,2,0:0:0:0:
168,112,47469,1,0,0:0:0:0:
160,192,47537,1,0,0:0:0:0:
168,112,47605,1,0,0:0:0:0:
168,112,47673,1,2,0:0:0:0:
168,112,47742,1,0,0:0:0:0:
168,112,47810,1,0,0:0:0:0:
168,112,47878,1,2,0:0:0:0:
168,112,47946,1,2,0:0:0:0:
168,112,48014,1,0,0:0:0:0:
172,108,48287,1,2,0:0:0:0:
172,108,48423,1,0,0:0:0:0:
172,108,48492,1,0,0:0:0:0:
116,104,48560,1,0,0:0:0:0:
160,72,48696,1,2,0:0:0:0:
172,108,48833,1,0,0:0:0:0:
160,52,48901,1,2,0:0:0:0:
160,52,48969,1,2,0:0:0:0:
128,128,49105,1,0,0:0:0:0:
160,52,49242,1,0,0:0:0:0:
160,52,49310,1,2,0:0:0:0:
160,52,49378,1,0,0:0:0:0:
160,52,49514,1,0,0:0:0:0:
160,52,49651,1,2,0:0:0:0:
160,52,49719,1,0,0:0:0:0:
160,52,49787,1,2,0:0:0:0:
160,52,49855,1,2,0:0:0:0:
160,52,49923,1,0,0:0:0:0:
160,52,50060,1,0,0:0:0:0:
112,156,50196,1,0,0:0:0:0:
160,116,50265,1,0,0:0:0:0:
160,116,50333,1,2,0:0:0:0:
112,156,50401,1,0,0:0:0:0:
112,156,50469,1,2,0:0:0:0:
160,116,50537,1,2,0:0:0:0:
112,156,50606,1,0,0:0:0:0:
112,156,50742,1,2,0:0:0:0:
140,64,50787,1,2,0:0:0:0:
140,64,50833,1,2,0:0:0:0:
140,64,50878,1,2,0:0:0:0:
172,112,51015,1,0,0:0:0:0:
200,108,51083,1,0,0:0:0:0:
200,108,51151,1,0,0:0:0:0:
172,112,51287,1,0,0:0:0:0:
172,112,51356,1,2,0:0:0:0:
172,112,51424,1,0,0:0:0:0:
172,112,51492,1,0,0:0:0:0:
172,112,51560,1,2,0:0:0:0:
172,112,51628,1,2,0:0:0:0:
172,112,51696,1,0,0:0:0:0:
176,92,51833,1,2,0:0:0:0:
176,96,51878,1,2,0:0:0:0:
176,96,51924,1,2,0:0:0:0:
176,92,51969,1,2,0:0:0:0:
176,96,52106,1,0,0:0:0:0:
176,96,52378,1,4,0:0:0:0:
132,88,52515,1,0,0:0:0:0:
132,88,52583,1,0,0:0:0:0:
132,88,52651,1,2,0:0:0:0:
132,88,52787,1,0,0:0:0:0:
132,88,52924,1,0,0:0:0:0:
132,88,52992,1,0,0:0:0:0:
132,88,53060,1,2,0:0:0:0:
132,88,53128,1,2,0:0:0:0:
132,88,53196,1,0,0:0:0:0:
132,88,53333,1,2,0:0:0:0:
132,88,53469,1,0,0:0:0:0:
140,88,53606,1,0,0:0:0:0:
140,88,53674,1,0,0:0:0:0:
140,88,53742,1,2,0:0:0:0:
144,96,53878,1,0,0:0:0:0:
144,96,53946,1,0,0:0:0:0:
144,96,54015,1,2,0:0:0:0:
144,96,54083,1,0,0:0:0:0:
140,92,54151,1,0,0:0:0:0:
140,92,54219,1,0,0:0:0:0:
140,92,54287,1,2,0:0:0:0:
144,96,54424,1,2,0:0:0:0:
140,92,54560,1,0,0:0:0:0:
140,92,54696,1,0,0:0:0:0:
140,92,54765,1,0,0:0:0:0:
140,92,54833,1,2,0:0:0:0:
140,92,54969,1,0,0:0:0:0:
140,92,55106,1,0,0:0:0:0:
140,92,55174,1,0,0:0:0:0:
140,92,55242,1,2,0:0:0:0:
140,92,55310,1,2,0:0:0:0:
140,92,55378,1,0,0:0:0:0:
140,80,55515,1,2,0:0:0:0:
140,80,55651,1,0,0:0:0:0:
140,80,55787,1,0,0:0:0:0:
140,80,55924,1,2,0:0:0:0:
140,80,56060,1,0,0:0:0:0:
140,80,56196,1,2,0:0:0:0:
144,116,56333,1,2,0:0:0:0:
120,72,56469,1,0,0:0:0:0:
164,88,56606,1,0,0:0:0:0:
120,72,56742,1,0,0:0:0:0:
160,92,56878,1,0,0:0:0:0:
160,92,56946,1,0,0:0:0:0:
160,92,57015,1,2,0:0:0:0:
160,92,57151,1,0,0:0:0:0:
160,92,57287,1,2,0:0:0:0:
144,120,57356,1,0,0:0:0:0:
144,120,57424,1,2,0:0:0:0:
144,120,57492,1,2,0:0:0:0:
144,120,57560,1,0,0:0:0:0:
144,120,57696,1,2,0:0:0:0:
144,120,57833,1,0,0:0:0:0:
144,120,57969,1,0,0:0:0:0:
144,120,58037,1,0,0:0:0:0:
144,120,58106,1,2,0:0:0:0:
144,120,58242,1,0,0:0:0:0:
144,120,58378,1,2,0:0:0:0:
144,120,58446,1,2,0:0:0:0:
144,120,58515,1,0,0:0:0:0:
144,120,58651,1,0,0:0:0:0:
144,120,58787,1,2,0:0:0:0:
144,120,58924,1,0,0:0:0:0:
144,120,58992,1,0,0:0:0:0:
144,120,59060,1,2,0:0:0:0:
144,120,59128,1,0,0:0:0:0:
144,120,59196,1,0,0:0:0:0:
136,80,59333,1,2,0:0:0:0:
136,80,59469,1,0,0:0:0:0:
136,80,59537,1,0,0:0:0:0:
136,80,59606,1,2,0:0:0:0:
136,80,59674,1,2,0:0:0:0:
136,80,59742,1,0,0:0:0:0:
136,80,59810,1,0,0:0:0:0:
136,80,59878,1,2,0:0:0:0:
144,92,60015,1,0,0:0:0:0:
100,160,60083,1,0,0:0:0:0:
100,160,60151,1,0,0:0:0:0:
100,160,60219,1,0,0:0:0:0:
100,160,60287,1,2,0:0:0:0:
100,160,60424,1,0,0:0:0:0:
100,160,60560,1,2,0:0:0:0:
144,120,60696,1,0,0:0:0:0:
144,136,60833,1,2,0:0:0:0:
144,136,60969,1,2,0:0:0:0:
176,96,61106,1,4,0:0:0:0:
132,88,61243,1,0,0:0:0:0:
132,88,61311,1,0,0:0:0:0:
132,88,61379,1,2,0:0:0:0:
128,56,61515,1,0,0:0:0:0:
128,56,61583,1,2,0:0:0:0:
132,88,61652,1,0,0:0:0:0:
132,88,61720,1,0,0:0:0:0:
132,88,61788,1,2,0:0:0:0:
132,88,61856,1,2,0:0:0:0:
132,88,61924,1,0,0:0:0:0:
168,104,62060,1,2,0:0:0:0:
168,104,62128,1,2,0:0:0:0:
132,88,62197,1,0,0:0:0:0:
140,88,62334,1,0,0:0:0:0:
140,88,62402,1,0,0:0:0:0:
140,88,62470,1,2,0:0:0:0:
128,60,62537,1,2,0:0:0:0:
144,96,62606,1,0,0:0:0:0:
144,96,62743,1,2,0:0:0:0:
144,96,62811,1,0,0:0:0:0:
140,92,62879,1,0,0:0:0:0:
140,92,62947,1,0,0:0:0:0:
140,92,63015,1,2,0:0:0:0:
116,88,63083,1,2,0:0:0:0:
144,96,63152,1,2,0:0:0:0:
140,92,63288,1,0,0:0:0:0:
140,92,63424,1,0,0:0:0:0:
140,92,63493,1,0,0:0:0:0:
140,92,63561,1,2,0:0:0:0:
140,92,63697,1,0,0:0:0:0:
156,56,63765,1,2,0:0:0:0:
140,92,63834,1,0,0:0:0:0:
140,92,63902,1,0,0:0:0:0:
140,92,63970,1,2,0:0:0:0:
140,92,64038,1,2,0:0:0:0:
140,92,64106,1,0,0:0:0:0:
140,80,64243,1,2,0:0:0:0:
128,56,64310,1,2,0:0:0:0:
140,80,64379,1,0,0:0:0:0:
140,80,64515,1,0,0:0:0:0:
128,56,64583,1,0,0:0:0:0:
140,80,64652,1,2,0:0:0:0:
128,60,64719,1,2,0:0:0:0:
140,80,64788,1,0,0:0:0:0:
116,88,64924,1,2,0:0:0:0:
116,88,64992,1,0,0:0:0:0:
144,116,65061,1,2,0:0:0:0:
120,100,65128,1,2,0:0:0:0:
120,72,65197,1,0,0:0:0:0:
120,100,65265,1,0,0:0:0:0:
180,96,65333,1,2,0:0:0:0:
120,72,65470,1,0,0:0:0:0:
160,92,65606,1,0,0:0:0:0:
160,92,65674,1,0,0:0:0:0:
160,92,65743,1,2,0:0:0:0:
160,92,65879,1,0,0:0:0:0:
128,184,65946,1,0,0:0:0:0:
160,92,66015,1,2,0:0:0:0:
144,120,66084,1,0,0:0:0:0:
144,120,66152,1,2,0:0:0:0:
144,120,66220,1,2,0:0:0:0:
144,120,66288,1,0,0:0:0:0:
136,124,66356,1,0,0:0:0:0:
144,120,66424,1,2,0:0:0:0:
144,120,66561,1,0,0:0:0:0:
144,120,66697,1,0,0:0:0:0:
144,120,66765,1,0,0:0:0:0:
144,120,66834,1,2,0:0:0:0:
160,60,66969,1,2,0:0:0:0:
128,184,67037,1,2,0:0:0:0:
164,68,67106,1,0,0:0:0:0:
164,68,67174,1,0,0:0:0:0:
152,56,67242,1,2,0:0:0:0:
152,56,67310,1,0,0:0:0:0:
144,120,67379,1,0,0:0:0:0:
136,124,67446,1,0,0:0:0:0:
144,120,67515,1,2,0:0:0:0:
152,132,67651,1,4,0:0:0:0:
152,132,67787,1,4,0:0:0:0:
152,132,68060,1,12,0:0:0:0:
152,132,68333,1,12,0:0:0:0:
152,132,68606,1,4,0:0:0:0:
152,132,68878,1,2,0:0:0:0:
152,132,68946,1,2,0:0:0:0:
152,132,69015,1,0,0:0:0:0:
152,132,69083,1,0,0:0:0:0:
152,132,69151,1,0,0:0:0:0:
152,132,69219,1,0,0:0:0:0:
152,132,69287,1,2,0:0:0:0:
152,132,69356,1,2,0:0:0:0:
152,132,69424,1,0,0:0:0:0:
152,132,69492,1,0,0:0:0:0:
152,132,69560,1,2,0:0:0:0:
256,192,69833,12,0,70787,0:0:0:0:
152,132,70924,5,0,0:0:0:0:
204,152,71196,1,2,0:0:0:0:
232,160,71333,1,0,0:0:0:0:
204,152,71606,1,0,0:0:0:0:
204,152,71742,1,2,0:0:0:0:
204,152,72015,1,0,0:0:0:0:
204,152,72287,1,2,0:0:0:0:
188,128,72424,1,2,0:0:0:0:
196,104,72560,1,0,0:0:0:0:
188,128,72696,1,0,0:0:0:0:
188,144,72833,1,2,0:0:0:0:
136,88,72969,1,0,0:0:0:0:
152,108,73037,1,2,0:0:0:0:
188,148,73106,1,0,0:0:0:0:
232,160,73378,1,2,0:0:0:0:
232,160,73515,1,2,0:0:0:0:
196,104,73787,1,0,0:0:0:0:
196,104,73924,1,2,0:0:0:0:
196,104,74196,1,0,0:0:0:0:
176,120,74469,1,0,0:0:0:0:
136,88,74606,1,2,0:0:0:0:
136,88,74742,1,0,0:0:0:0:
136,88,74878,1,0,0:0:0:0:
136,88,75015,1,2,0:0:0:0:
152,96,75287,1,0,0:0:0:0:
152,104,75356,1,0,0:0:0:0:
180,80,75424,1,0,0:0:0:0:
136,88,75492,1,0,0:0:0:0:
136,88,75560,1,2,0:0:0:0:
172,88,75696,1,2,0:0:0:0:
172,88,75765,1,2,0:0:0:0:
172,88,75833,1,0,0:0:0:0:
172,88,75969,1,0,0:0:0:0:
172,88,76106,1,2,0:0:0:0:
168,124,76242,1,2,0:0:0:0:
168,124,76378,1,0,0:0:0:0:
168,104,76651,1,2,0:0:0:0:
160,88,76787,1,0,0:0:0:0:
256,48,76924,1,0,0:0:0:0:
160,88,77060,1,0,0:0:0:0:
160,92,77196,1,2,0:0:0:0:
256,48,77333,1,2,0:0:0:0:
160,92,77469,1,0,0:0:0:0:
160,72,77742,1,2,0:0:0:0:
168,72,77878,1,0,0:0:0:0:
168,72,78015,1,2,0:0:0:0:
160,72,78151,1,0,0:0:0:0:
160,72,78287,1,2,0:0:0:0:
168,72,78424,1,2,0:0:0:0:
164,68,78560,1,0,0:0:0:0:
164,68,78696,1,0,0:0:0:0:
164,68,78765,1,0,0:0:0:0:
164,68,78833,1,2,0:0:0:0:
164,68,78969,1,0,0:0:0:0:
164,68,79106,1,2,0:0:0:0:
164,68,79174,1,0,0:0:0:0:
164,68,79242,1,0,0:0:0:0:
164,68,79378,1,2,0:0:0:0:
164,68,79651,1,0,0:0:0:0:
164,68,79924,1,2,0:0:0:0:
164,68,80060,1,0,0:0:0:0:
164,68,80128,1,0,0:0:0:0:
164,68,80196,1,0,0:0:0:0:
164,68,80333,1,0,0:0:0:0:
164,68,80469,1,2,0:0:0:0:
164,68,80606,1,0,0:0:0:0:
164,68,80742,1,0,0:0:0:0:
164,68,81015,1,2,0:0:0:0:
184,96,81151,1,2,0:0:0:0:
184,96,81287,1,2,0:0:0:0:
184,96,81356,1,0,0:0:0:0:
184,96,81424,1,0,0:0:0:0:
184,96,81560,1,2,0:0:0:0:
184,96,81696,1,2,0:0:0:0:
168,72,81765,1,2,0:0:0:0:
184,96,81833,1,0,0:0:0:0:
184,96,82106,1,2,0:0:0:0:
184,96,82242,1,0,0:0:0:0:
184,96,82310,1,0,0:0:0:0:
184,96,82378,1,0,0:0:0:0:
184,96,82515,1,0,0:0:0:0:
184,96,82651,1,2,0:0:0:0:
184,96,82924,1,0,0:0:0:0:
168,68,83060,1,0,0:0:0:0:
168,68,83196,1,2,0:0:0:0:
168,68,83333,1,0,0:0:0:0:
168,68,83469,1,2,0:0:0:0:
168,68,83606,1,0,0:0:0:0:
168,68,83742,1,2,0:0:0:0:
168,68,83878,1,2,0:0:0:0:
168,68,84015,1,0,0:0:0:0:
156,88,84287,1,2,0:0:0:0:
156,88,84424,1,0,0:0:0:0:
156,88,84492,1,0,0:0:0:0:
136,120,84560,1,2,0:0:0:0:
156,88,84696,1,0,0:0:0:0:
156,88,84833,1,2,0:0:0:0:
156,88,84969,1,0,0:0:0:0:
156,88,85037,1,0,0:0:0:0:
156,88,85106,1,0,0:0:0:0:
156,88,85242,1,0,0:0:0:0:
156,88,85378,1,2,0:0:0:0:
156,88,85515,1,0,0:0:0:0:
156,88,85583,1,0,0:0:0:0:
172,80,85651,1,2,0:0:0:0:
172,88,85787,1,0,0:0:0:0:
172,88,85924,1,2,0:0:0:0:
172,88,86060,1,2,0:0:0:0:
172,88,86128,1,2,0:0:0:0:
172,88,86196,1,0,0:0:0:0:
172,88,86469,1,2,0:0:0:0:
172,88,86606,1,0,0:0:0:0:
172,88,86674,1,0,0:0:0:0:
172,88,86742,1,0,0:0:0:0:
172,88,86878,1,0,0:0:0:0:
172,88,87015,1,2,0:0:0:0:
172,88,87151,1,0,0:0:0:0:
172,88,87219,1,0,0:0:0:0:
172,88,87287,1,2,0:0:0:0:
172,88,87424,1,0,0:0:0:0:
172,88,87560,1,2,0:0:0:0:
172,88,87696,1,2,0:0:0:0:
172,88,87765,1,2,0:0:0:0:
172,88,87833,1,0,0:0:0:0:
172,88,87969,1,2,0:0:0:0:
172,88,88106,1,0,0:0:0:0:
172,88,88174,1,0,0:0:0:0:
172,88,88242,1,0,0:0:0:0:
172,88,88378,1,4,0:0:0:0:
172,92,88651,1,4,0:0:0:0:
172,92,88787,1,4,0:0:0:0:
184,80,89333,1,4,0:0:0:0:
152,104,89469,1,4,0:0:0:0:
188,88,89878,1,4,0:0:0:0:
188,88,90151,1,4,0:0:0:0:
188,88,90287,1,4,0:0:0:0:
180,44,90560,1,4,0:0:0:0:
180,44,90696,1,2,0:0:0:0:
140,68,90833,1,2,0:0:0:0:
140,68,90969,1,2,0:0:0:0:
140,68,91106,1,2,0:0:0:0:
140,68,91242,1,2,0:0:0:0:
144,72,91378,1,2,0:0:0:0:
144,72,91515,1,2,0:0:0:0:
144,72,91651,1,2,0:0:0:0:
156,64,91719,1,2,0:0:0:0:
156,64,91787,1,0,0:0:0:0:
156,64,91856,1,0,0:0:0:0:
156,64,91924,1,2,0:0:0:0:
156,64,91992,1,2,0:0:0:0:
156,64,92060,1,0,0:0:0:0:
136,136,92128,1,0,0:0:0:0:
136,136,92196,1,2,0:0:0:0:
164,88,92248,1,2,0:0:0:0:
164,88,92333,1,2,0:0:0:0:
164,88,92384,1,2,0:0:0:0:
176,120,92469,1,0,0:0:0:0:
176,120,92520,1,0,0:0:0:0:
176,120,92606,1,2,0:0:0:0:
176,120,92657,1,2,0:0:0:0:
176,120,92742,1,4,0:0:0:0:
256,112,92878,1,0,0:0:0:0:
256,112,92946,1,0,0:0:0:0:
256,112,93015,1,2,0:0:0:0:
136,76,93083,1,0,0:0:0:0:
136,76,93151,1,2,0:0:0:0:
136,76,93287,1,0,0:0:0:0:
136,76,93356,1,0,0:0:0:0:
136,76,93424,1,2,0:0:0:0:
260,116,93492,1,0,0:0:0:0:
136,76,93560,1,2,0:0:0:0:
136,76,93628,1,2,0:0:0:0:
260,116,93696,1,0,0:0:0:0:
260,116,93833,1,2,0:0:0:0:
260,116,93969,1,0,0:0:0:0:
264,124,94106,1,2,0:0:0:0:
264,124,94174,1,2,0:0:0:0:
264,124,94242,1,0,0:0:0:0:
264,124,94310,1,0,0:0:0:0:
264,124,94378,1,2,0:0:0:0:
268,128,94515,1,0,0:0:0:0:
268,128,94651,1,2,0:0:0:0:
268,132,94719,1,2,0:0:0:0:
268,132,94787,1,0,0:0:0:0:
196,100,94856,1,0,0:0:0:0:
196,100,94924,1,2,0:0:0:0:
196,100,94992,1,0,0:0:0:0:
196,100,95060,1,0,0:0:0:0:
196,100,95128,1,0,0:0:0:0:
196,100,95196,1,2,0:0:0:0:
196,100,95333,1,2,0:0:0:0:
196,100,95401,1,2,0:0:0:0:
196,100,95469,1,0,0:0:0:0:
196,104,95606,1,0,0:0:0:0:
196,104,95674,1,0,0:0:0:0:
196,104,95742,1,2,0:0:0:0:
196,104,95810,1,0,0:0:0:0:
196,104,95878,1,0,0:0:0:0:
200,108,95946,1,0,0:0:0:0:
200,108,96015,1,2,0:0:0:0:
200,108,96151,1,0,0:0:0:0:
200,108,96287,1,2,0:0:0:0:
164,68,96356,1,0,0:0:0:0:
164,68,96424,1,0,0:0:0:0:
160,64,96492,1,0,0:0:0:0:
164,68,96560,1,2,0:0:0:0:
164,68,96628,1,2,0:0:0:0:
164,72,96696,1,0,0:0:0:0:
164,68,96765,1,0,0:0:0:0:
164,68,96833,1,2,0:0:0:0:
164,68,96969,1,2,0:0:0:0:
164,68,97106,1,0,0:0:0:0:
164,68,97242,1,0,0:0:0:0:
164,68,97310,1,0,0:0:0:0:
168,72,97378,1,2,0:0:0:0:
168,72,97446,1,0,0:0:0:0:
168,72,97515,1,2,0:0:0:0:
168,76,97583,1,2,0:0:0:0:
168,80,97651,1,0,0:0:0:0:
168,76,97787,1,0,0:0:0:0:
168,80,97856,1,0,0:0:0:0:
168,76,97924,1,2,0:0:0:0:
168,80,98060,1,0,0:0:0:0:
168,80,98196,1,2,0:0:0:0:
168,80,98265,1,2,0:0:0:0:
168,80,98333,1,0,0:0:0:0:
168,80,98401,1,0,0:0:0:0:
168,80,98469,1,2,0:0:0:0:
168,80,98537,1,0,0:0:0:0:
168,80,98606,1,0,0:0:0:0:
168,80,98674,1,0,0:0:0:0:
168,80,98742,1,2,0:0:0:0:
168,80,98810,1,2,0:0:0:0:
168,80,98878,1,0,0:0:0:0:
168,80,98946,1,0,0:0:0:0:
168,80,99015,1,2,0:0:0:0:
168,80,99151,1,0,0:0:0:0:
168,80,99287,1,2,0:0:0:0:
152,64,99356,1,0,0:0:0:0:
152,64,99424,1,0,0:0:0:0:
152,64,99492,1,0,0:0:0:0:
152,64,99560,1,2,0:0:0:0:
152,64,99628,1,0,0:0:0:0:
152,64,99696,1,2,0:0:0:0:
156,68,99765,1,2,0:0:0:0:
156,68,99833,1,0,0:0:0:0:
156,68,99901,1,0,0:0:0:0:
156,68,99969,1,2,0:0:0:0:
156,68,100037,1,0,0:0:0:0:
156,68,100106,1,2,0:0:0:0:
156,68,100174,1,2,0:0:0:0:
156,68,100242,1,2,0:0:0:0:
156,68,100378,1,0,0:0:0:0:
112,60,100446,1,0,0:0:0:0:
112,60,100515,1,2,0:0:0:0:
112,60,100583,1,2,0:0:0:0:
196,64,100651,1,0,0:0:0:0:
196,64,100719,1,2,0:0:0:0:
196,64,100787,1,0,0:0:0:0:
196,64,100856,1,0,0:0:0:0:
116,60,100924,1,2,0:0:0:0:
116,60,100992,1,2,0:0:0:0:
116,60,101060,1,0,0:0:0:0:
116,60,101128,1,0,0:0:0:0:
116,60,101196,1,2,0:0:0:0:
160,56,101333,1,0,0:0:0:0:
160,56,101469,1,0,0:0:0:0:
160,56,101674,1,0,0:0:0:0:
160,56,101742,1,2,0:0:0:0:
160,56,101878,1,2,0:0:0:0:
160,60,101946,1,2,0:0:0:0:
160,60,102015,1,0,0:0:0:0:
160,60,102083,1,0,0:0:0:0:
160,60,102151,1,2,0:0:0:0:
160,60,102287,1,0,0:0:0:0:
160,60,102424,1,2,0:0:0:0:
160,60,102492,1,2,0:0:0:0:
160,60,102560,1,0,0:0:0:0:
160,60,102696,1,2,0:0:0:0:
160,60,102833,1,0,0:0:0:0:
160,60,102901,1,0,0:0:0:0:
160,60,102969,1,2,0:0:0:0:
160,60,103037,1,0,0:0:0:0:
160,60,103106,1,0,0:0:0:0:
160,60,103242,1,2,0:0:0:0:
160,60,103378,1,0,0:0:0:0:
160,60,103446,1,0,0:0:0:0:
160,60,103515,1,2,0:0:0:0:
160,60,103651,1,0,0:0:0:0:
160,60,103856,1,0,0:0:0:0:
160,60,103924,1,2,0:0:0:0:
160,60,104060,1,2,0:0:0:0:
160,60,104128,1,2,0:0:0:0:
160,60,104196,1,0,0:0:0:0:
156,16,104265,1,0,0:0:0:0:
156,16,104333,1,2,0:0:0:0:
160,24,104469,1,0,0:0:0:0:
160,24,104606,1,2,0:0:0:0:
160,24,104674,1,2,0:0:0:0:
160,24,104742,1,0,0:0:0:0:
160,24,104878,1,2,0:0:0:0:
160,24,105015,1,0,0:0:0:0:
160,24,105083,1,0,0:0:0:0:
160,24,105151,1,2,0:0:0:0:
160,24,105287,1,0,0:0:0:0:
196,64,105356,1,0,0:0:0:0:
196,64,105424,1,0,0:0:0:0:
196,64,105492,1,0,0:0:0:0:
196,64,105560,1,2,0:0:0:0:
196,64,105696,1,0,0:0:0:0:
196,64,105833,1,2,0:0:0:0:
196,64,106037,1,0,0:0:0:0:
196,64,106106,1,2,0:0:0:0:
172,80,106242,1,0,0:0:0:0:
172,88,106378,1,2,0:0:0:0:
172,88,106446,1,0,0:0:0:0:
172,88,106515,1,0,0:0:0:0:
172,88,106651,1,2,0:0:0:0:
176,64,106787,1,2,0:0:0:0:
176,64,106856,1,2,0:0:0:0:
176,64,106924,1,0,0:0:0:0:
176,64,107060,1,2,0:0:0:0:
176,64,107128,1,0,0:0:0:0:
176,64,107196,1,2,0:0:0:0:
160,48,107265,1,2,0:0:0:0:
160,48,107333,1,0,0:0:0:0:
160,48,107469,1,0,0:0:0:0:
160,48,107606,1,0,0:0:0:0:
160,48,107674,1,0,0:0:0:0:
160,48,107742,1,2,0:0:0:0:
156,40,107878,1,2,0:0:0:0:
156,40,108015,1,0,0:0:0:0:
156,40,108151,1,0,0:0:0:0:
156,40,108219,1,0,0:0:0:0:
156,40,108287,1,2,0:0:0:0:
156,40,108356,1,0,0:0:0:0:
156,40,108424,1,0,0:0:0:0:
156,40,108560,1,0,0:0:0:0:
156,40,108696,1,2,0:0:0:0:
156,40,108765,1,2,0:0:0:0:
156,40,108833,1,0,0:0:0:0:
156,40,108969,1,2,0:0:0:0:
156,40,109106,1,0,0:0:0:0:
156,40,109174,1,0,0:0:0:0:
156,40,109242,1,2,0:0:0:0:
156,40,109310,1,2,0:0:0:0:
156,40,109378,1,0,0:0:0:0:
156,40,109515,1,2,0:0:0:0:
156,40,109651,1,0,0:0:0:0:
156,40,109787,1,0,0:0:0:0:
156,40,109856,1,0,0:0:0:0:
156,40,109924,1,2,0:0:0:0:
156,40,110060,1,0,0:0:0:0:
156,40,110196,1,4,0:0:0:0:
156,40,110469,1,4,0:0:0:0:
156,40,110606,1,4,0:0:0:0:
156,40,111015,1,4,0:0:0:0:
156,40,111287,1,4,0:0:0:0:
156,40,111833,1,0,0:0:0:0:
252,40,111878,1,0,0:0:0:0:
252,40,111924,1,0,0:0:0:0:
252,40,111969,1,0,0:0:0:0:
252,40,112015,1,0,0:0:0:0:
252,40,112060,1,0,0:0:0:0:
252,40,112106,1,0,0:0:0:0:
252,40,112378,1,4,0:0:0:0:
208,80,112515,1,2,0:0:0:0:
208,80,112651,1,0,0:0:0:0:
208,88,112787,1,2,0:0:0:0:
208,88,112924,1,0,0:0:0:0:
208,96,113060,1,2,0:0:0:0:
208,96,113196,1,0,0:0:0:0:
208,96,113333,1,2,0:0:0:0:
208,96,113469,1,0,0:0:0:0:
208,96,113606,1,2,0:0:0:0:
208,96,113742,1,0,0:0:0:0:
200,112,113878,1,2,0:0:0:0:
200,112,114015,1,0,0:0:0:0:
200,112,114083,1,0,0:0:0:0:
200,112,114151,1,2,0:0:0:0:
200,112,114219,1,2,0:0:0:0:
200,112,114287,1,0,0:0:0:0:
200,112,114356,1,0,0:0:0:0:
200,120,114424,1,2,0:0:0:0:
188,120,114492,1,2,0:0:0:0:
200,120,114560,1,0,0:0:0:0:
200,120,114696,1,2,0:0:0:0:
200,120,114833,1,0,0:0:0:0:
200,120,114969,1,2,0:0:0:0:
200,120,115106,1,0,0:0:0:0:
200,120,115242,1,2,0:0:0:0:
204,124,115378,1,0,0:0:0:0:
204,124,115515,1,2,0:0:0:0:
204,124,115651,1,0,0:0:0:0:
204,124,115924,1,2,0:0:0:0:
204,124,116060,1,0,0:0:0:0:
204,124,116128,1,0,0:0:0:0:
204,124,116196,1,0,0:0:0:0:
204,124,116333,1,0,0:0:0:0:
204,124,116469,1,2,0:0:0:0:
204,124,116606,1,2,0:0:0:0:
204,124,116674,1,2,0:0:0:0:
204,124,116742,1,0,0:0:0:0:
204,124,116878,1,2,0:0:0:0:
204,124,117015,1,0,0:0:0:0:
204,124,117151,1,2,0:0:0:0:
204,124,117287,1,0,0:0:0:0:
204,124,117424,1,2,0:0:0:0:
204,124,117560,1,0,0:0:0:0:
204,124,117696,1,2,0:0:0:0:
204,124,117833,1,0,0:0:0:0:
196,120,117969,1,2,0:0:0:0:
196,120,118106,1,0,0:0:0:0:
196,120,118242,1,2,0:0:0:0:
196,120,118378,1,0,0:0:0:0:
196,120,118446,1,0,0:0:0:0:
196,120,118515,1,2,0:0:0:0:
196,120,118583,1,2,0:0:0:0:
196,120,118651,1,0,0:0:0:0:
196,120,118719,1,0,0:0:0:0:
196,120,118787,1,2,0:0:0:0:
196,120,118856,1,2,0:0:0:0:
196,120,118924,1,0,0:0:0:0:
196,120,119060,1,2,0:0:0:0:
196,120,119196,1,0,0:0:0:0:
200,124,119333,1,2,0:0:0:0:
200,124,119469,1,0,0:0:0:0:
200,124,119606,1,2,0:0:0:0:
200,124,119742,1,0,0:0:0:0:
200,124,119878,1,2,0:0:0:0:
200,124,120015,1,0,0:0:0:0:
200,132,120151,1,2,0:0:0:0:
200,132,120287,1,0,0:0:0:0:
168,64,120424,1,2,0:0:0:0:
168,64,120560,1,0,0:0:0:0:
188,128,120628,1,0,0:0:0:0:
188,128,120696,1,2,0:0:0:0:
188,128,120765,1,0,0:0:0:0:
188,128,120833,1,0,0:0:0:0:
188,136,120901,1,0,0:0:0:0:
188,136,120969,1,2,0:0:0:0:
188,136,121037,1,2,0:0:0:0:
188,136,121106,1,0,0:0:0:0:
188,132,121651,1,0,0:0:0:0:
188,132,122196,1,0,0:0:0:0:
184,148,122742,1,0,0:0:0:0:
184,144,122810,1,0,0:0:0:0:
184,144,122878,1,0,0:0:0:0:
184,144,122946,1,0,0:0:0:0:
184,144,123015,1,2,0:0:0:0:
184,144,123083,1,2,0:0:0:0:
184,144,123151,1,2,0:0:0:0:
184,144,123219,1,2,0:0:0:0:
184,144,123287,1,0,0:0:0:0:
184,144,123560,1,2,0:0:0:0:
136,92,123606,1,2,0:0:0:0:
136,92,123651,1,2,0:0:0:0:
136,92,123696,1,2,0:0:0:0:
136,100,123833,1,0,0:0:0:0:
136,100,124106,1,2,0:0:0:0:
136,100,124151,1,2,0:0:0:0:
136,100,124196,1,2,0:0:0:0:
136,100,124242,1,0,0:0:0:0:
136,100,124378,1,0,0:0:0:0:
136,100,124651,1,2,0:0:0:0:
136,100,124696,1,0,0:0:0:0:
136,100,124742,1,0,0:0:0:0:
136,100,124787,1,0,0:0:0:0:
160,88,124924,1,0,0:0:0:0:
160,88,125060,1,0,0:0:0:0:
180,68,125196,1,2,0:0:0:0:
180,68,125265,1,0,0:0:0:0:
180,68,125333,1,0,0:0:0:0:
180,68,125401,1,0,0:0:0:0:
180,68,125469,1,0,0:0:0:0:
132,148,125606,1,2,0:0:0:0:
152,76,125674,1,2,0:0:0:0:
152,76,125742,1,0,0:0:0:0:
152,76,125878,1,2,0:0:0:0:
152,76,126015,1,0,0:0:0:0:
152,76,126083,1,0,0:0:0:0:
152,76,126151,1,2,0:0:0:0:
152,76,126287,1,0,0:0:0:0:
152,76,126424,1,2,0:0:0:0:
152,76,126492,1,2,0:0:0:0:
152,76,126560,1,0,0:0:0:0:
152,76,126628,1,0,0:0:0:0:
152,76,126696,1,2,0:0:0:0:
152,76,126833,1,0,0:0:0:0:
160,104,126969,1,2,0:0:0:0:
160,104,127037,1,2,0:0:0:0:
160,104,127106,1,0,0:0:0:0:
160,104,127174,1,0,0:0:0:0:
160,104,127242,1,2,0:0:0:0:
160,104,127310,1,2,0:0:0:0:
160,104,127378,1,0,0:0:0:0:
160,104,127446,1,0,0:0:0:0:
160,104,127515,1,2,0:0:0:0:
160,76,127583,1,2,0:0:0:0:
164,80,127651,1,0,0:0:0:0:
164,80,127787,1,2,0:0:0:0:
164,80,127856,1,2,0:0:0:0:
164,80,127924,1,0,0:0:0:0:
164,80,128060,1,2,0:0:0:0:
168,100,128196,1,0,0:0:0:0:
168,100,128265,1,0,0:0:0:0:
168,100,128333,1,2,0:0:0:0:
160,64,128469,1,0,0:0:0:0:
160,64,128606,1,2,0:0:0:0:
160,64,128674,1,2,0:0:0:0:
160,64,128742,1,0,0:0:0:0:
160,64,128810,1,2,0:0:0:0:
160,64,128878,1,0,0:0:0:0:
160,64,128946,1,0,0:0:0:0:
160,64,129015,1,2,0:0:0:0:
160,64,129083,1,0,0:0:0:0:
160,64,129151,1,2,0:0:0:0:
160,64,129219,1,2,0:0:0:0:
160,64,129287,1,0,0:0:0:0:
160,64,129356,1,0,0:0:0:0:
160,64,129424,1,0,0:0:0:0:
160,64,129492,1,0,0:0:0:0:
160,64,129560,1,0,0:0:0:0:
160,64,129833,1,0,0:0:0:0:
160,64,129901,1,0,0:0:0:0:
160,64,129969,1,0,0:0:0:0:
160,64,130037,1,0,0:0:0:0:
160,64,130106,1,2,0:0:0:0:
152,68,130174,1,0,0:0:0:0:
160,64,130242,1,0,0:0:0:0:
160,64,130310,1,0,0:0:0:0:
152,72,130378,1,2,0:0:0:0:
152,72,130446,1,2,0:0:0:0:
160,64,130515,1,0,0:0:0:0:
160,64,130583,1,0,0:0:0:0:
160,64,130651,1,2,0:0:0:0:
152,68,130719,1,2,0:0:0:0:
160,64,130787,1,0,0:0:0:0:
160,64,130856,1,0,0:0:0:0:
160,64,130924,1,2,0:0:0:0:
152,72,130992,1,0,0:0:0:0:
112,108,131060,1,0,0:0:0:0:
152,68,131128,1,0,0:0:0:0:
152,68,131196,1,2,0:0:0:0:
152,68,131265,1,2,0:0:0:0:
152,68,131333,1,0,0:0:0:0:
152,72,131401,1,0,0:0:0:0:
152,72,131469,1,2,0:0:0:0:
152,72,131537,1,0,0:0:0:0:
156,60,131606,1,2,0:0:0:0:
160,116,131674,1,0,0:0:0:0:
156,60,131742,1,2,0:0:0:0:
184,72,131810,1,2,0:0:0:0:
160,64,131878,1,0,0:0:0:0:
156,60,131946,1,0,0:0:0:0:
156,60,132015,1,2,0:0:0:0:
160,64,132083,1,0,0:0:0:0:
160,64,132151,1,0,0:0:0:0:
160,64,132219,1,0,0:0:0:0:
160,64,132287,1,2,0:0:0:0:
152,68,132356,1,0,0:0:0:0:
160,64,132424,1,0,0:0:0:0:
160,64,132492,1,0,0:0:0:0:
160,64,132560,1,2,0:0:0:0:
152,68,132628,1,2,0:0:0:0:
152,68,132696,1,0,0:0:0:0:
152,68,132765,1,0,0:0:0:0:
152,68,132833,1,2,0:0:0:0:
152,68,132901,1,2,0:0:0:0:
152,68,132969,1,0,0:0:0:0:
152,68,133037,1,0,0:0:0:0:
208,192,133106,1,2,0:0:0:0:
208,192,133174,1,0,0:0:0:0:
208,192,133242,1,0,0:0:0:0:
208,192,133310,1,0,0:0:0:0:
208,196,133378,1,2,0:0:0:0:
208,196,133446,1,2,0:0:0:0:
208,196,133515,1,0,0:0:0:0:
208,196,133583,1,0,0:0:0:0:
208,196,133651,1,2,0:0:0:0:
208,196,133719,1,0,0:0:0:0:
156,60,133787,1,2,0:0:0:0:
208,196,133856,1,0,0:0:0:0:
208,196,133924,1,2,0:0:0:0:
208,196,133992,1,0,0:0:0:0:
208,196,134060,1,2,0:0:0:0:
208,196,134128,1,2,0:0:0:0:
160,64,134196,1,0,0:0:0:0:
160,64,134264,1,0,0:0:0:0:
160,64,134332,1,0,0:0:0:0:
160,64,134400,1,0,0:0:0:0:
160,64,134469,1,2,0:0:0:0:
172,104,134537,1,0,0:0:0:0:
160,64,134605,1,0,0:0:0:0:
160,64,134673,1,0,0:0:0:0:
152,72,134741,1,2,0:0:0:0:
152,72,134809,1,2,0:0:0:0:
160,64,134878,1,0,0:0:0:0:
160,64,134946,1,0,0:0:0:0:
160,64,135014,1,2,0:0:0:0:
152,68,135082,1,2,0:0:0:0:
160,64,135150,1,0,0:0:0:0:
160,64,135219,1,0,0:0:0:0:
160,64,135287,1,2,0:0:0:0:
152,72,135355,1,0,0:0:0:0:
176,24,135424,1,0,0:0:0:0:
152,68,135491,1,0,0:0:0:0:
152,68,135559,1,2,0:0:0:0:
152,68,135628,1,2,0:0:0:0:
152,68,135696,1,0,0:0:0:0:
160,52,135765,1,0,0:0:0:0:
160,56,135833,1,2,0:0:0:0:
152,72,135900,1,0,0:0:0:0:
184,36,135969,1,2,0:0:0:0:
160,64,136037,1,0,0:0:0:0:
160,64,136105,1,2,0:0:0:0:
160,64,136173,1,2,0:0:0:0:
160,64,136241,1,0,0:0:0:0:
172,28,136310,1,0,0:0:0:0:
156,60,136378,1,2,0:0:0:0:
160,96,136446,1,0,0:0:0:0:
168,120,136515,1,2,0:0:0:0:
168,120,136583,1,2,0:0:0:0:
168,120,136651,1,0,0:0:0:0:
168,120,136719,1,0,0:0:0:0:
168,120,136787,1,2,0:0:0:0:
172,32,136856,1,2,0:0:0:0:
172,32,136924,1,0,0:0:0:0:
144,96,136992,1,0,0:0:0:0:
172,40,137060,1,2,0:0:0:0:
172,40,137128,1,2,0:0:0:0:
172,40,137196,1,0,0:0:0:0:
168,20,137265,1,0,0:0:0:0:
128,68,137333,1,2,0:0:0:0:
128,68,137401,1,0,0:0:0:0:
128,68,137469,1,2,0:0:0:0:
128,80,137537,1,0,0:0:0:0:
128,80,137606,1,2,0:0:0:0:
128,80,137674,1,2,0:0:0:0:
164,24,137742,1,0,0:0:0:0:
164,24,137810,1,0,0:0:0:0:
128,80,137878,1,2,0:0:0:0:
164,24,137946,1,2,0:0:0:0:
128,80,138015,1,0,0:0:0:0:
128,80,138083,1,0,0:0:0:0:
128,80,138151,1,2,0:0:0:0:
128,80,138219,1,2,0:0:0:0:
128,80,138287,1,0,0:0:0:0:
128,80,138356,1,0,0:0:0:0:
132,84,138424,1,2,0:0:0:0:
132,84,138492,1,2,0:0:0:0:
132,84,138560,1,0,0:0:0:0:
156,80,138696,1,0,0:0:0:0:
160,92,138765,1,0,0:0:0:0:
160,92,138833,1,2,0:0:0:0:
160,92,138969,1,0,0:0:0:0:
160,92,139106,1,2,0:0:0:0:
160,92,139174,1,0,0:0:0:0:
160,92,139242,1,0,0:0:0:0:
140,68,139378,1,2,0:0:0:0:
144,72,139515,1,0,0:0:0:0:
144,80,139651,1,0,0:0:0:0:
144,80,139719,1,0,0:0:0:0:
144,80,139787,1,0,0:0:0:0:
144,80,139924,1,2,0:0:0:0:
144,80,140060,1,0,0:0:0:0:
144,80,140196,1,2,0:0:0:0:
144,80,140265,1,2,0:0:0:0:
144,80,140333,1,0,0:0:0:0:
144,80,140401,1,0,0:0:0:0:
144,80,140469,1,2,0:0:0:0:
144,80,140606,1,2,0:0:0:0:
144,80,140742,1,0,0:0:0:0:
144,80,140878,1,0,0:0:0:0:
144,80,140946,1,0,0:0:0:0:
144,80,141015,1,2,0:0:0:0:
144,80,141151,1,0,0:0:0:0:
144,88,141287,1,2,0:0:0:0:
144,88,141356,1,2,0:0:0:0:
144,88,141424,1,0,0:0:0:0:
144,88,141560,1,2,0:0:0:0:
144,88,141696,1,0,0:0:0:0:
144,88,141833,1,0,0:0:0:0:
152,116,141901,1,0,0:0:0:0:
152,116,141969,1,0,0:0:0:0:
152,116,142106,1,2,0:0:0:0:
152,116,142242,1,0,0:0:0:0:
152,116,142378,1,2,0:0:0:0:
152,116,142446,1,0,0:0:0:0:
152,116,142515,1,0,0:0:0:0:
144,72,142651,1,2,0:0:0:0:
144,72,142787,1,0,0:0:0:0:
144,72,142924,1,0,0:0:0:0:
24,168,142992,1,0,0:0:0:0:
104,176,143060,1,2,0:0:0:0:
144,72,143128,1,0,0:0:0:0:
144,72,143196,1,2,0:0:0:0:
152,112,143265,1,2,0:0:0:0:
144,72,143333,1,0,0:0:0:0:
152,120,143401,1,0,0:0:0:0:
144,72,143469,1,2,0:0:0:0:
168,80,143537,1,0,0:0:0:0:
168,80,143606,1,0,0:0:0:0:
152,120,143674,1,0,0:0:0:0:
168,80,143742,1,2,0:0:0:0:
152,120,143810,1,2,0:0:0:0:
168,80,143878,1,0,0:0:0:0:
168,80,144015,1,0,0:0:0:0:
168,84,144083,1,0,0:0:0:0:
152,120,144151,1,0,0:0:0:0:
168,84,144219,1,0,0:0:0:0:
168,84,144287,1,2,0:0:0:0:
168,84,144356,1,2,0:0:0:0:
168,84,144424,1,0,0:0:0:0:
152,120,144492,1,0,0:0:0:0:
168,84,144560,1,2,0:0:0:0:
168,84,144628,1,0,0:0:0:0:
168,84,144696,1,0,0:0:0:0:
168,84,144765,1,0,0:0:0:0:
168,84,144833,1,2,0:0:0:0:
168,84,144901,1,2,0:0:0:0:
168,84,144969,1,0,0:0:0:0:
152,120,145106,1,0,0:0:0:0:
152,120,145174,1,0,0:0:0:0:
180,100,145242,1,0,0:0:0:0:
180,100,145310,1,0,0:0:0:0:
180,100,145378,1,2,0:0:0:0:
152,120,145446,1,0,0:0:0:0:
180,100,145515,1,0,0:0:0:0:
152,120,145583,1,0,0:0:0:0:
168,84,145651,1,2,0:0:0:0:
144,140,145719,1,0,0:0:0:0:
148,140,145787,1,2,0:0:0:0:
168,84,145856,1,0,0:0:0:0:
168,84,145924,1,2,0:0:0:0:
148,140,145992,1,2,0:0:0:0:
168,84,146060,1,0,0:0:0:0:
152,120,146128,1,0,0:0:0:0:
152,120,146196,1,2,0:0:0:0:
152,120,146265,1,2,0:0:0:0:
152,120,146333,1,0,0:0:0:0:
168,108,146401,1,2,0:0:0:0:
152,120,146469,1,0,0:0:0:0:
152,120,146537,1,0,0:0:0:0:
152,120,146606,1,2,0:0:0:0:
168,84,146674,1,0,0:0:0:0:
168,84,146742,1,2,0:0:0:0:
168,84,146810,1,2,0:0:0:0:
168,84,146878,1,0,0:0:0:0:
168,84,146946,1,0,0:0:0:0:
168,84,147015,1,2,0:0:0:0:
168,84,147083,1,2,0:0:0:0:
168,84,147151,1,0,0:0:0:0:
168,84,147219,1,2,0:0:0:0:
168,84,147287,1,0,0:0:0:0:
168,88,147560,1,2,0:0:0:0:
168,88,147628,1,2,0:0:0:0:
168,88,147696,1,2,0:0:0:0:
168,88,147833,1,0,0:0:0:0:
172,92,148106,1,2,0:0:0:0:
172,92,148378,1,0,0:0:0:0:
180,48,148651,1,2,0:0:0:0:
180,48,148924,1,0,0:0:0:0:
148,48,149060,1,0,0:0:0:0:
152,60,149196,1,2,0:0:0:0:
152,60,149469,1,0,0:0:0:0:
144,56,149742,1,2,0:0:0:0:
144,60,149878,1,2,0:0:0:0:
144,60,149946,1,2,0:0:0:0:
144,60,150015,1,0,0:0:0:0:
144,60,150151,1,2,0:0:0:0:
144,60,150287,1,0,0:0:0:0:
144,60,150356,1,0,0:0:0:0:
144,60,150424,1,0,0:0:0:0:
144,60,150492,1,0,0:0:0:0:
144,60,150560,1,0,0:0:0:0:
160,72,150628,1,0,0:0:0:0:
160,80,150696,1,0,0:0:0:0:
160,80,150765,1,0,0:0:0:0:
160,80,150833,1,0,0:0:0:0:
160,80,150901,1,0,0:0:0:0:
160,80,150969,1,0,0:0:0:0:
160,80,151037,1,0,0:0:0:0:
160,80,151106,1,0,0:0:0:0:
160,80,151174,1,0,0:0:0:0:
160,80,151242,1,0,0:0:0:0:
160,80,151310,1,0,0:0:0:0:
160,80,151378,1,2,0:0:0:0:
160,80,151651,1,4,0:0:0:0:
160,80,152060,1,0,0:0:0:0:
160,80,152469,1,0,0:0:0:0:
160,80,152742,1,0,0:0:0:0:
172,164,153015,1,0,0:0:0:0:
172,164,153151,1,2,0:0:0:0:
172,164,153287,1,0,0:0:0:0:
172,164,153424,1,2,0:0:0:0:
172,164,153560,1,0,0:0:0:0:
172,164,153833,1,0,0:0:0:0:
172,164,154242,1,0,0:0:0:0:
164,160,154651,1,0,0:0:0:0:
164,160,154924,1,0,0:0:0:0:
164,160,155060,1,0,0:0:0:0:
164,160,155196,1,0,0:0:0:0:
164,160,155333,1,0,0:0:0:0:
164,160,155469,1,0,0:0:0:0:
164,160,155606,1,0,0:0:0:0:
164,160,155742,1,2,0:0:0:0:
136,132,156015,1,4,0:0:0:0:
164,68,156151,1,0,0:0:0:0:
164,68,156219,1,0,0:0:0:0:
168,72,156287,1,2,0:0:0:0:
168,72,156355,1,0,0:0:0:0:
168,72,156424,1,2,0:0:0:0:
168,76,156492,1,2,0:0:0:0:
168,80,156560,1,0,0:0:0:0:
168,76,156696,1,0,0:0:0:0:
168,80,156765,1,0,0:0:0:0:
168,76,156833,1,2,0:0:0:0:
168,80,156969,1,0,0:0:0:0:
168,80,157105,1,2,0:0:0:0:
168,80,157174,1,2,0:0:0:0:
168,80,157242,1,0,0:0:0:0:
168,80,157310,1,0,0:0:0:0:
168,80,157378,1,2,0:0:0:0:
168,80,157446,1,0,0:0:0:0:
168,80,157515,1,0,0:0:0:0:
168,80,157583,1,0,0:0:0:0:
168,80,157651,1,2,0:0:0:0:
168,80,157719,1,2,0:0:0:0:
168,80,157787,1,0,0:0:0:0:
168,80,157855,1,0,0:0:0:0:
168,80,157924,1,2,0:0:0:0:
168,80,158060,1,0,0:0:0:0:
168,80,158196,1,2,0:0:0:0:
152,64,158265,1,0,0:0:0:0:
152,64,158333,1,0,0:0:0:0:
152,64,158401,1,0,0:0:0:0:
152,64,158469,1,2,0:0:0:0:
152,64,158537,1,0,0:0:0:0:
152,64,158605,1,2,0:0:0:0:
156,68,158674,1,2,0:0:0:0:
156,68,158742,1,0,0:0:0:0:
156,68,158810,1,0,0:0:0:0:
156,68,158878,1,2,0:0:0:0:
156,68,158946,1,0,0:0:0:0:
156,68,159015,1,2,0:0:0:0:
156,68,159083,1,2,0:0:0:0:
156,68,159151,1,2,0:0:0:0:
156,68,159287,1,0,0:0:0:0:
112,60,159355,1,0,0:0:0:0:
112,60,159424,1,2,0:0:0:0:
112,60,159492,1,2,0:0:0:0:
196,64,159560,1,0,0:0:0:0:
196,64,159628,1,2,0:0:0:0:
196,64,159696,1,0,0:0:0:0:
196,64,159765,1,0,0:0:0:0:
116,60,159833,1,2,0:0:0:0:
116,60,159901,1,2,0:0:0:0:
116,60,159969,1,0,0:0:0:0:
116,60,160037,1,0,0:0:0:0:
116,60,160105,1,2,0:0:0:0:
160,56,160242,1,0,0:0:0:0:
160,56,160378,1,0,0:0:0:0:
136,132,160446,1,0,0:0:0:0:
160,56,160583,1,0,0:0:0:0:
160,56,160651,1,2,0:0:0:0:
160,56,160787,1,2,0:0:0:0:
160,60,160855,1,2,0:0:0:0:
160,60,160924,1,0,0:0:0:0:
160,60,160992,1,0,0:0:0:0:
160,60,161060,1,2,0:0:0:0:
160,60,161196,1,0,0:0:0:0:
160,60,161333,1,2,0:0:0:0:
160,60,161401,1,2,0:0:0:0:
160,60,161469,1,0,0:0:0:0:
160,60,161605,1,2,0:0:0:0:
160,60,161742,1,0,0:0:0:0:
160,60,161810,1,0,0:0:0:0:
160,60,161878,1,2,0:0:0:0:
160,60,161946,1,0,0:0:0:0:
160,60,162015,1,0,0:0:0:0:
160,60,162151,1,2,0:0:0:0:
160,60,162287,1,0,0:0:0:0:
160,60,162355,1,0,0:0:0:0:
160,60,162424,1,2,0:0:0:0:
160,60,162560,1,0,0:0:0:0:
136,132,162628,1,0,0:0:0:0:
160,60,162765,1,0,0:0:0:0:
160,60,162833,1,2,0:0:0:0:
160,60,162969,1,2,0:0:0:0:
160,60,163037,1,2,0:0:0:0:
160,60,163105,1,0,0:0:0:0:
156,16,163174,1,0,0:0:0:0:
156,16,163242,1,2,0:0:0:0:
160,24,163378,1,0,0:0:0:0:
160,24,163515,1,2,0:0:0:0:
160,24,163583,1,2,0:0:0:0:
160,24,163651,1,0,0:0:0:0:
160,24,163787,1,2,0:0:0:0:
160,24,163924,1,0,0:0:0:0:
160,24,163992,1,0,0:0:0:0:
160,24,164060,1,2,0:0:0:0:
160,24,164196,1,0,0:0:0:0:
196,64,164265,1,0,0:0:0:0:
196,64,164333,1,0,0:0:0:0:
196,64,164401,1,0,0:0:0:0:
196,64,164469,1,2,0:0:0:0:
196,64,164605,1,0,0:0:0:0:
196,64,164742,1,2,0:0:0:0:
136,132,164810,1,0,0:0:0:0:
196,64,164946,1,0,0:0:0:0:
196,64,165015,1,2,0:0:0:0:
136,132,165083,1,2,0:0:0:0:
172,80,165151,1,0,0:0:0:0:
172,88,165287,1,2,0:0:0:0:
172,88,165355,1,0,0:0:0:0:
172,88,165424,1,0,0:0:0:0:
172,88,165560,1,2,0:0:0:0:
176,64,165696,1,2,0:0:0:0:
176,64,165765,1,2,0:0:0:0:
176,64,165833,1,0,0:0:0:0:
176,64,165969,1,2,0:0:0:0:
176,64,166037,1,0,0:0:0:0:
176,64,166105,1,2,0:0:0:0:
160,48,166174,1,2,0:0:0:0:
160,48,166242,1,0,0:0:0:0:
160,48,166378,1,0,0:0:0:0:
136,132,166446,1,0,0:0:0:0:
136,132,166515,1,2,0:0:0:0:
160,48,166583,1,0,0:0:0:0:
160,48,166651,1,2,0:0:0:0:
136,132,166719,1,2,0:0:0:0:
136,132,166787,1,0,0:0:0:0:
136,132,166856,1,2,0:0:0:0:
156,40,166924,1,0,0:0:0:0:
156,40,167060,1,0,0:0:0:0:
156,40,167128,1,0,0:0:0:0:
156,40,167196,1,2,0:0:0:0:
156,40,167265,1,0,0:0:0:0:
136,132,167333,1,2,0:0:0:0:
132,136,167401,1,0,0:0:0:0:
156,40,167469,1,0,0:0:0:0:
156,40,167605,1,2,0:0:0:0:
156,40,167674,1,2,0:0:0:0:
156,40,167742,1,0,0:0:0:0:
156,40,167878,1,2,0:0:0:0:
156,40,168015,1,0,0:0:0:0:
156,40,168083,1,0,0:0:0:0:
156,40,168151,1,2,0:0:0:0:
156,40,168219,1,2,0:0:0:0:
156,40,168287,1,0,0:0:0:0:
156,40,168424,1,2,0:0:0:0:
148,120,168560,1,0,0:0:0:0:
136,76,168628,1,0,0:0:0:0:
136,76,168696,1,0,0:0:0:0:
136,76,168765,1,0,0:0:0:0:
136,76,168833,1,2,0:0:0:0:
136,76,169106,1,0,0:0:0:0:
136,76,169378,1,2,0:0:0:0:
136,76,169651,1,0,0:0:0:0:
136,76,169924,1,2,0:0:0:0:
172,100,170060,1,0,0:0:0:0:
136,76,170196,1,0,0:0:0:0:
172,100,170469,1,2,0:0:0:0:
184,60,170742,1,0,0:0:0:0:
184,172,171015,1,2,0:0:0:0:
160,104,171151,1,2,0:0:0:0:
160,112,171287,1,0,0:0:0:0:
160,112,171560,1,2,0:0:0:0:
160,112,171833,1,0,0:0:0:0:
160,112,172106,1,2,0:0:0:0:
144,112,172378,1,0,0:0:0:0:
144,112,172651,1,2,0:0:0:0:
144,124,172924,1,0,0:0:0:0:
152,80,173196,1,2,0:0:0:0:
152,80,173333,1,0,0:0:0:0:
152,80,173469,1,0,0:0:0:0:
152,80,173742,1,2,0:0:0:0:
152,80,174015,1,0,0:0:0:0:
176,48,174287,1,2,0:0:0:0:
176,48,174560,1,0,0:0:0:0:
176,44,174833,1,0,0:0:0:0:
168,80,174969,1,2,0:0:0:0:
168,80,175106,1,0,0:0:0:0:
168,80,175378,1,2,0:0:0:0:
168,80,175515,1,2,0:0:0:0:
168,80,175651,1,0,0:0:0:0:
168,80,175924,1,2,0:0:0:0:
168,80,176060,1,0,0:0:0:0:
168,80,176196,1,0,0:0:0:0:
168,80,176469,1,2,0:0:0:0:
168,80,176606,1,2,0:0:0:0:
168,80,176742,1,0,0:0:0:0:
168,80,176878,1,2,0:0:0:0:
168,88,177015,1,0,0:0:0:0:
176,100,177151,1,0,0:0:0:0:
176,100,177287,1,2,0:0:0:0:
176,100,177356,1,0,0:0:0:0:
176,100,177424,1,0,0:0:0:0:
140,152,177560,1,0,0:0:0:0:
160,56,177833,1,0,0:0:0:0:
168,120,177969,1,0,0:0:0:0:
160,56,178038,1,0,0:0:0:0:
160,56,178106,1,2,0:0:0:0:
140,152,178174,1,0,0:0:0:0:
160,56,178242,1,2,0:0:0:0:
160,60,178310,1,2,0:0:0:0:
160,60,178379,1,0,0:0:0:0:
160,60,178447,1,0,0:0:0:0:
160,60,178515,1,2,0:0:0:0:
160,60,178651,1,0,0:0:0:0:
160,60,178788,1,2,0:0:0:0:
160,60,178856,1,2,0:0:0:0:
160,60,178924,1,0,0:0:0:0:
160,60,179060,1,2,0:0:0:0:
160,60,179197,1,0,0:0:0:0:
160,60,179265,1,0,0:0:0:0:
160,60,179333,1,2,0:0:0:0:
160,60,179401,1,0,0:0:0:0:
160,60,179470,1,0,0:0:0:0:
160,60,179606,1,2,0:0:0:0:
160,60,179742,1,0,0:0:0:0:
160,60,179810,1,0,0:0:0:0:
160,60,179879,1,2,0:0:0:0:
160,60,180015,1,0,0:0:0:0:
144,80,180083,1,0,0:0:0:0:
144,80,180151,1,0,0:0:0:0:
160,60,180220,1,0,0:0:0:0:
160,60,180288,1,2,0:0:0:0:
140,144,180356,1,0,0:0:0:0:
160,60,180424,1,2,0:0:0:0:
160,60,180492,1,2,0:0:0:0:
160,60,180560,1,0,0:0:0:0:
156,16,180629,1,0,0:0:0:0:
156,16,180697,1,2,0:0:0:0:
156,52,180765,1,2,0:0:0:0:
160,24,180833,1,0,0:0:0:0:
160,24,180970,1,2,0:0:0:0:
160,24,181038,1,2,0:0:0:0:
160,24,181106,1,0,0:0:0:0:
160,24,181242,1,2,0:0:0:0:
160,24,181379,1,0,0:0:0:0:
160,24,181447,1,0,0:0:0:0:
160,24,181515,1,2,0:0:0:0:
160,24,181651,1,0,0:0:0:0:
196,64,181720,1,0,0:0:0:0:
196,64,181788,1,0,0:0:0:0:
196,64,181856,1,0,0:0:0:0:
196,64,181924,1,2,0:0:0:0:
196,64,182060,1,0,0:0:0:0:
196,64,182197,1,2,0:0:0:0:
136,132,182265,1,0,0:0:0:0:
144,80,182333,1,0,0:0:0:0:
196,64,182401,1,0,0:0:0:0:
196,64,182470,1,2,0:0:0:0:
184,64,182537,1,0,0:0:0:0:
184,64,182606,1,2,0:0:0:0:
184,64,182674,1,2,0:0:0:0:
172,28,182742,1,0,0:0:0:0:
172,88,182879,1,0,0:0:0:0:
160,40,182946,1,0,0:0:0:0:
172,88,183015,1,2,0:0:0:0:
176,64,183151,1,2,0:0:0:0:
124,64,183219,1,2,0:0:0:0:
160,40,183287,1,0,0:0:0:0:
128,48,183424,1,0,0:0:0:0:
124,64,183492,1,0,0:0:0:0:
176,64,183560,1,2,0:0:0:0:
160,48,183629,1,2,0:0:0:0:
160,48,183697,1,0,0:0:0:0:
160,48,183833,1,0,0:0:0:0:
136,132,183901,1,0,0:0:0:0:
124,64,183969,1,0,0:0:0:0:
160,48,184038,1,0,0:0:0:0:
160,48,184106,1,2,0:0:0:0:
136,132,184174,1,2,0:0:0:0:
136,132,184242,1,0,0:0:0:0:
180,132,184378,1,2,0:0:0:0:
160,92,184446,1,0,0:0:0:0:
180,132,184515,1,0,0:0:0:0:
180,132,184583,1,0,0:0:0:0:
180,132,184651,1,2,0:0:0:0:
176,120,184719,1,0,0:0:0:0:
180,132,184787,1,2,0:0:0:0:
180,132,184856,1,2,0:0:0:0:
180,132,184924,1,0,0:0:0:0:
160,60,184992,1,0,0:0:0:0:
144,68,185060,1,2,0:0:0:0:
144,68,185128,1,2,0:0:0:0:
144,68,185196,1,0,0:0:0:0:
160,60,185265,1,0,0:0:0:0:
156,40,185333,1,2,0:0:0:0:
136,48,185401,1,0,0:0:0:0:
128,88,185469,1,0,0:0:0:0:
156,40,185538,1,0,0:0:0:0:
156,40,185606,1,2,0:0:0:0:
156,40,185674,1,2,0:0:0:0:
156,40,185742,1,0,0:0:0:0:
160,60,185810,1,0,0:0:0:0:
156,40,185879,1,2,0:0:0:0:
160,60,185946,1,2,0:0:0:0:
148,120,186015,1,0,0:0:0:0:
136,76,186083,1,0,0:0:0:0:
136,76,186151,1,0,0:0:0:0:
136,76,186220,1,0,0:0:0:0:
136,76,186288,1,2,0:0:0:0:
160,60,186424,1,2,0:0:0:0:
156,40,186560,1,4,0:0:0:0:
144,44,186833,1,4,0:0:0:0:
144,44,186969,1,4,0:0:0:0:
144,48,187106,1,4,0:0:0:0:
172,104,187378,1,2,0:0:0:0:
172,104,187651,1,2,0:0:0:0:
172,104,187924,1,2,0:0:0:0:
172,104,188196,1,2,0:0:0:0:
156,32,188469,1,2,0:0:0:0:
156,32,188742,1,2,0:0:0:0:
164,104,188878,1,2,0:0:0:0:
168,72,189015,1,2,0:0:0:0:
164,104,189151,1,2,0:0:0:0:
168,72,189287,1,2,0:0:0:0:
164,104,189424,1,2,0:0:0:0:
152,48,189560,1,2,0:0:0:0:
164,104,189696,1,2,0:0:0:0:
152,56,189833,1,2,0:0:0:0:
164,104,189901,1,0,0:0:0:0:
104,132,189969,1,2,0:0:0:0:
164,104,190037,1,0,0:0:0:0:
104,132,190106,1,2,0:0:0:0:
164,104,190174,1,0,0:0:0:0:
168,112,190242,1,2,0:0:0:0:
168,112,190310,1,0,0:0:0:0:
104,132,190378,1,2,0:0:0:0:
176,92,190429,1,2,0:0:0:0:
180,80,190515,1,2,0:0:0:0:
180,80,190566,1,2,0:0:0:0:
208,112,190651,1,2,0:0:0:0:
220,68,190702,1,2,0:0:0:0:
180,80,190787,1,2,0:0:0:0:
180,80,190839,1,2,0:0:0:0:
180,80,190924,1,4,0:0:0:0:
148,132,191196,1,2,0:0:0:0:
148,12,191378,1,0,0:0:0:0:
148,24,191469,1,2,0:0:0:0:
168,96,191742,1,0,0:0:0:0:
168,104,191833,1,0,0:0:0:0:
168,104,191924,1,0,0:0:0:0:
168,104,192015,1,2,0:0:0:0:
168,104,192287,1,0,0:0:0:0:
168,104,192378,1,2,0:0:0:0:
168,104,192469,1,2,0:0:0:0:
168,104,192560,1,0,0:0:0:0:
104,104,192742,1,2,0:0:0:0:
104,104,192833,1,0,0:0:0:0:
104,104,192924,1,0,0:0:0:0:
104,104,193015,1,2,0:0:0:0:
104,104,193106,1,0,0:0:0:0:
168,140,193242,1,0,0:0:0:0:
180,56,193378,1,2,0:0:0:0:
180,56,193469,1,0,0:0:0:0:
180,56,193560,1,0,0:0:0:0:
180,56,193651,1,2,0:0:0:0:
152,28,193833,1,2,0:0:0:0:
152,28,193924,1,0,0:0:0:0:
152,28,194015,1,0,0:0:0:0:
180,56,194106,1,2,0:0:0:0:
180,56,194196,1,2,0:0:0:0:
152,28,194469,1,0,0:0:0:0:
152,28,194560,1,2,0:0:0:0:
152,28,194651,1,2,0:0:0:0:
152,28,194742,1,0,0:0:0:0:
180,56,194924,1,2,0:0:0:0:
180,56,195015,1,0,0:0:0:0:
180,56,195106,1,2,0:0:0:0:
180,56,195196,1,2,0:0:0:0:
180,56,195287,1,0,0:0:0:0:
184,84,195492,1,0,0:0:0:0:
180,56,195560,1,2,0:0:0:0:
184,84,195696,1,2,0:0:0:0:
184,84,195765,1,2,0:0:0:0:
184,84,195833,1,0,0:0:0:0:
184,84,195969,1,2,0:0:0:0:
184,84,196106,1,0,0:0:0:0:
184,84,196174,1,0,0:0:0:0:
184,84,196242,1,2,0:0:0:0:
184,84,196310,1,2,0:0:0:0:
184,84,196378,1,0,0:0:0:0:
184,84,196583,1,0,0:0:0:0:
192,96,196651,1,2,0:0:0:0:
184,76,196787,1,2,0:0:0:0:
184,76,196856,1,2,0:0:0:0:
184,76,196924,1,0,0:0:0:0:
184,56,197060,1,2,0:0:0:0:
184,56,197196,1,0,0:0:0:0:
184,56,197265,1,0,0:0:0:0:
184,56,197333,1,2,0:0:0:0:
184,56,197401,1,2,0:0:0:0:
184,56,197469,1,0,0:0:0:0:
176,96,197537,1,0,0:0:0:0:
184,56,197674,1,0,0:0:0:0:
184,56,197742,1,2,0:0:0:0:
184,56,197878,1,2,0:0:0:0:
184,56,197946,1,2,0:0:0:0:
184,56,198015,1,0,0:0:0:0:
184,56,198151,1,2,0:0:0:0:
184,56,198287,1,0,0:0:0:0:
184,56,198356,1,0,0:0:0:0:
184,56,198424,1,2,0:0:0:0:
184,56,198492,1,0,0:0:0:0:
184,56,198560,1,0,0:0:0:0:
172,96,198628,1,0,0:0:0:0:
172,96,198696,1,2,0:0:0:0:
184,56,198765,1,0,0:0:0:0:
184,56,198833,1,2,0:0:0:0:
184,56,198969,1,2,0:0:0:0:
184,56,199037,1,2,0:0:0:0:
184,56,199106,1,0,0:0:0:0:
140,52,199378,1,2,0:0:0:0:
172,96,199651,1,0,0:0:0:0:
216,72,199924,1,2,0:0:0:0:
212,104,200106,1,0,0:0:0:0:
212,104,200196,1,2,0:0:0:0:
212,104,200469,1,0,0:0:0:0:
212,104,200560,1,0,0:0:0:0:
212,104,200651,1,0,0:0:0:0:
212,104,200742,1,2,0:0:0:0:
212,104,201015,1,0,0:0:0:0:
212,104,201106,1,2,0:0:0:0:
212,104,201196,1,2,0:0:0:0:
212,104,201287,1,0,0:0:0:0:
212,104,201560,1,0,0:0:0:0:
124,76,201833,1,0,0:0:0:0:
124,76,202106,1,0,0:0:0:0:
180,80,202196,1,2,0:0:0:0:
180,80,202287,1,2,0:0:0:0:
128,84,202378,1,0,0:0:0:0:
176,92,202651,1,0,0:0:0:0:
164,36,202742,1,2,0:0:0:0:
164,44,202833,1,2,0:0:0:0:
176,64,202924,1,0,0:0:0:0:
176,64,202992,1,0,0:0:0:0:
176,64,203060,1,2,0:0:0:0:
176,64,203128,1,0,0:0:0:0:
176,64,203196,1,2,0:0:0:0:
184,44,203333,1,2,0:0:0:0:
184,44,203401,1,2,0:0:0:0:
184,44,203469,1,0,0:0:0:0:
184,96,203606,1,2,0:0:0:0:
184,96,203742,1,0,0:0:0:0:
184,44,204015,1,0,0:0:0:0:
184,44,204287,1,2,0:0:0:0:
184,44,204424,1,0,0:0:0:0:
184,44,204492,1,0,0:0:0:0:
184,44,204560,1,0,0:0:0:0:
184,44,204696,1,0,0:0:0:0:
184,44,204833,1,2,0:0:0:0:
184,44,204969,1,0,0:0:0:0:
184,44,205037,1,0,0:0:0:0:
184,44,205106,1,2,0:0:0:0:
184,44,205378,1,2,0:0:0:0:
160,64,205515,1,2,0:0:0:0:
160,64,205583,1,2,0:0:0:0:
160,68,205651,1,0,0:0:0:0:
160,68,205787,1,0,0:0:0:0:
152,32,205924,1,2,0:0:0:0:
160,48,206060,1,0,0:0:0:0:
160,52,206128,1,2,0:0:0:0:
160,48,206196,1,0,0:0:0:0:
160,48,206401,1,0,0:0:0:0:
160,48,206469,1,2,0:0:0:0:
160,48,206606,1,2,0:0:0:0:
152,24,206674,1,2,0:0:0:0:
152,44,206742,1,0,0:0:0:0:
160,48,206878,1,2,0:0:0:0:
164,56,207015,1,0,0:0:0:0:
164,80,207083,1,0,0:0:0:0:
164,56,207151,1,2,0:0:0:0:
164,56,207287,1,0,0:0:0:0:
164,84,207424,1,2,0:0:0:0:
164,84,207492,1,0,0:0:0:0:
164,84,207560,1,0,0:0:0:0:
164,84,207696,1,2,0:0:0:0:
164,84,207833,1,0,0:0:0:0:
204,164,207901,1,0,0:0:0:0:
204,164,207969,1,2,0:0:0:0:
204,164,208037,1,2,0:0:0:0:
204,164,208106,1,0,0:0:0:0:
204,160,208378,1,4,0:0:0:0:
204,160,208651,1,2,0:0:0:0:
204,160,208787,1,0,0:0:0:0:
204,160,208856,1,0,0:0:0:0:
204,160,208924,1,0,0:0:0:0:
164,72,209060,1,0,0:0:0:0:
204,160,209196,1,2,0:0:0:0:
204,160,209333,1,2,0:0:0:0:
204,160,209469,1,0,0:0:0:0:
204,160,209742,1,2,0:0:0:0:
204,160,209878,1,0,0:0:0:0:
204,160,210015,1,0,0:0:0:0:
176,112,210151,1,2,0:0:0:0:
176,112,210287,1,0,0:0:0:0:
176,112,210424,1,2,0:0:0:0:
144,112,210492,1,2,0:0:0:0:
176,112,210560,1,0,0:0:0:0:
176,112,210833,1,2,0:0:0:0:
176,112,210969,1,0,0:0:0:0:
176,112,211037,1,2,0:0:0:0:
176,112,211106,1,0,0:0:0:0:
164,72,211242,1,2,0:0:0:0:
164,72,211378,1,0,0:0:0:0:
164,72,211446,1,0,0:0:0:0:
176,112,211515,1,2,0:0:0:0:
164,72,211583,1,2,0:0:0:0:
176,112,211651,1,0,0:0:0:0:
176,112,211787,1,2,0:0:0:0:
176,112,211856,1,2,0:0:0:0:
176,112,211924,1,0,0:0:0:0:
176,112,212060,1,2,0:0:0:0:
176,112,212196,1,0,0:0:0:0:
176,112,212265,1,0,0:0:0:0:
176,112,212333,1,2,0:0:0:0:
176,112,212469,1,0,0:0:0:0:
160,20,212606,1,2,0:0:0:0:
176,112,212742,1,0,0:0:0:0:
176,112,213015,1,2,0:0:0:0:
176,112,213151,1,0,0:0:0:0:
176,112,213219,1,0,0:0:0:0:
176,112,213287,1,0,0:0:0:0:
164,72,213424,1,0,0:0:0:0:
176,112,213560,1,2,0:0:0:0:
164,72,213696,1,2,0:0:0:0:
164,72,213833,1,0,0:0:0:0:
172,76,214106,1,2,0:0:0:0:
172,76,214242,1,0,0:0:0:0:
172,48,214378,1,0,0:0:0:0:
160,88,214515,1,2,0:0:0:0:
164,92,214651,1,0,0:0:0:0:
168,80,214719,1,0,0:0:0:0:
168,80,214787,1,2,0:0:0:0:
164,92,214924,1,0,0:0:0:0:
164,88,215196,1,2,0:0:0:0:
164,88,215333,1,2,0:0:0:0:
164,88,215401,1,2,0:0:0:0:
164,88,215469,1,0,0:0:0:0:
164,88,215606,1,2,0:0:0:0:
164,88,215742,1,0,0:0:0:0:
164,88,215810,1,0,0:0:0:0:
164,88,215878,1,2,0:0:0:0:
164,88,215946,1,2,0:0:0:0:
124,64,216015,1,0,0:0:0:0:
124,64,216083,1,2,0:0:0:0:
124,64,216151,1,0,0:0:0:0:
164,88,216219,1,2,0:0:0:0:
164,88,216287,1,0,0:0:0:0:
164,88,216356,1,0,0:0:0:0:
124,64,216424,1,2,0:0:0:0:
124,64,216492,1,2,0:0:0:0:
124,64,216560,1,0,0:0:0:0:
124,64,216628,1,0,0:0:0:0:
124,64,216696,1,2,0:0:0:0:
124,64,216765,1,0,0:0:0:0:
124,64,216833,1,2,0:0:0:0:
124,64,216901,1,2,0:0:0:0:
124,64,216969,1,0,0:0:0:0:
124,64,217037,1,2,0:0:0:0:
204,160,217106,1,4,0:0:0:0:
204,160,217379,1,2,0:0:0:0:
204,160,217515,1,0,0:0:0:0:
160,72,217583,1,0,0:0:0:0:
204,160,217652,1,0,0:0:0:0:
160,72,217787,1,0,0:0:0:0:
204,160,217924,1,2,0:0:0:0:
204,160,218061,1,2,0:0:0:0:
204,160,218197,1,0,0:0:0:0:
204,160,218470,1,2,0:0:0:0:
204,160,218606,1,0,0:0:0:0:
204,160,218743,1,0,0:0:0:0:
176,112,218879,1,2,0:0:0:0:
176,112,219015,1,0,0:0:0:0:
168,24,219151,1,2,0:0:0:0:
168,52,219219,1,2,0:0:0:0:
176,112,219288,1,0,0:0:0:0:
176,112,219561,1,2,0:0:0:0:
176,112,219697,1,0,0:0:0:0:
176,112,219765,1,2,0:0:0:0:
176,112,219834,1,0,0:0:0:0:
164,72,219970,1,2,0:0:0:0:
164,72,220106,1,0,0:0:0:0:
164,72,220174,1,0,0:0:0:0:
176,112,220243,1,2,0:0:0:0:
164,72,220311,1,2,0:0:0:0:
176,112,220379,1,0,0:0:0:0:
176,112,220515,1,2,0:0:0:0:
176,112,220584,1,2,0:0:0:0:
176,112,220652,1,0,0:0:0:0:
176,112,220788,1,2,0:0:0:0:
176,112,220924,1,0,0:0:0:0:
176,112,220993,1,0,0:0:0:0:
176,112,221061,1,2,0:0:0:0:
176,112,221197,1,0,0:0:0:0:
160,20,221334,1,2,0:0:0:0:
176,112,221470,1,0,0:0:0:0:
176,112,221743,1,2,0:0:0:0:
164,72,222152,1,0,0:0:0:0:
176,112,222288,1,2,0:0:0:0:
164,72,222561,1,0,0:0:0:0:
172,76,222834,1,2,0:0:0:0:
156,32,223242,1,0,0:0:0:0:
136,24,223378,1,2,0:0:0:0:
136,24,223515,1,0,0:0:0:0:
164,92,223652,1,0,0:0:0:0:
164,88,223924,1,2,0:0:0:0:
164,88,224061,1,2,0:0:0:0:
164,88,224129,1,2,0:0:0:0:
164,88,224197,1,0,0:0:0:0:
164,88,224334,1,2,0:0:0:0:
164,88,224470,1,0,0:0:0:0:
164,88,224538,1,0,0:0:0:0:
164,88,224606,1,2,0:0:0:0:
164,88,224674,1,2,0:0:0:0:
124,64,224743,1,0,0:0:0:0:
124,64,224811,1,2,0:0:0:0:
124,64,224879,1,0,0:0:0:0:
164,88,224947,1,2,0:0:0:0:
164,88,225015,1,0,0:0:0:0:
164,88,225084,1,0,0:0:0:0:
124,64,225152,1,2,0:0:0:0:
124,64,225220,1,2,0:0:0:0:
124,64,225288,1,0,0:0:0:0:
124,64,225356,1,0,0:0:0:0:
124,64,225424,1,2,0:0:0:0:
124,64,225493,1,0,0:0:0:0:
124,64,225561,1,2,0:0:0:0:
124,64,225629,1,2,0:0:0:0:
124,64,225697,1,0,0:0:0:0:
124,64,225765,1,2,0:0:0:0:
256,192,225833,12,0,233469,0:0:0:0:
