osu file format v14

[General]
AudioFilename: audio.mp3
AudioLeadIn: 0
PreviewTime: -1
Countdown: 0
SampleSet: Normal
StackLeniency: 0.7
Mode: 1
LetterboxInBreaks: 0
WidescreenStoryboard: 0

[Editor]
DistanceSpacing: 1.6
BeatDivisor: 4
GridSize: 4
TimelineZoom: 2.699999

[Metadata]
Title:Heaven's Fall (Speed Up Ver.)
TitleUnicode:Heaven's Fall (Speed Up Ver.)
Artist:Helblinde
ArtistUnicode:Helblinde
Creator:hoku-4625
Version:Warrior(BPM240)
Source:
Tags:
BeatmapID:1607363
BeatmapSetID:764382

[Difficulty]
HPDrainRate:5
CircleSize:5
OverallDifficulty:5
ApproachRate:5
SliderMultiplier:1.4
SliderTickRate:1

[Events]
//Background and Video events
0,0,"arunodoa.jpg",0,0
//Break Periods
//Storyboard Layer 0 (Background)
//Storyboard Layer 1 (Fail)
//Storyboard Layer 2 (Pass)
//Storyboard Layer 3 (Foreground)
//Storyboard Sound Samples

[TimingPoints]
36,250,4,1,0,100,1,0
32036,-100,4,1,0,100,0,1
48036,-100,4,1,0,100,0,0
65036,-117.647058823529,4,1,0,100,0,0
81036,-111.111111111111,4,1,0,100,0,0
83036,-105.263157894737,4,1,0,100,0,0
84036,-95.2380952380951,4,1,0,100,0,0
85036,-90.9090909090909,4,1,0,100,0,1
103036,-90.9090909090909,4,1,0,100,0,0
103286,-100,4,1,0,100,0,0
118036,-95.2380952380952,4,1,0,100,0,0
119036,-90.9090909090909,4,1,0,100,0,1
135036,-90.9090909090909,4,1,0,100,0,0
135286,-100,4,1,0,100,0,0
138036,-76.9230769230769,4,1,0,100,0,0
139036,-111.111111111111,4,1,0,100,0,0
142036,-105.263157894737,4,1,0,100,0,0
142286,-103.092783505155,4,1,0,100,0,0
142294,-100,4,1,0,100,0,0
142536,-95.2380952380951,4,1,0,100,0,0
143036,-90.9090909090909,4,1,0,100,0,1
173036,-83.3333333333333,4,1,0,100,0,1
173536,-79.9999999999999,4,1,0,100,0,1
174036,-76.9230769230769,4,1,0,100,0,1
174161,-75.187969924812,4,1,0,100,0,1
174286,-73.5294117647059,4,1,0,100,0,1
174411,-71.9424460431655,4,1,0,100,0,1
174536,-70.4225352112676,4,1,0,100,0,1
174661,-68.9655172413793,4,1,0,100,0,1
174786,-67.5675675675676,4,1,0,100,0,1
174911,-66.6666666666667,4,1,0,100,0,1
175036,-65.359477124183,4,1,0,100,0,0
175286,-100,4,1,0,100,0,0

[HitObjects]
296,184,36,5,0,0:0:0:0:
228,244,286,1,8,0:0:0:0:
280,164,411,1,0,0:0:0:0:
280,164,473,1,0,0:0:0:0:
248,172,536,1,0,0:0:0:0:
264,104,661,1,0,0:0:0:0:
272,116,786,1,8,0:0:0:0:
400,160,911,1,0,0:0:0:0:
392,160,973,1,8,0:0:0:0:
392,160,1036,1,0,0:0:0:0:
236,180,1161,1,0,0:0:0:0:
212,184,1286,1,8,0:0:0:0:
204,188,1411,1,0,0:0:0:0:
216,188,1473,1,0,0:0:0:0:
380,152,1536,1,0,0:0:0:0:
336,152,1598,1,0,0:0:0:0:
328,152,1661,1,8,0:0:0:0:
328,152,1786,1,8,0:0:0:0:
328,156,1848,1,0,0:0:0:0:
328,156,1911,1,8,0:0:0:0:
328,156,1973,1,0,0:0:0:0:
328,160,2036,1,0,0:0:0:0:
144,252,2161,1,0,0:0:0:0:
144,252,2286,1,8,0:0:0:0:
144,252,2411,1,0,0:0:0:0:
192,212,2536,1,0,0:0:0:0:
192,212,2598,1,0,0:0:0:0:
192,212,2661,1,0,0:0:0:0:
192,212,2723,1,0,0:0:0:0:
192,212,2786,1,8,0:0:0:0:
192,212,2848,1,8,0:0:0:0:
192,212,2911,1,8,0:0:0:0:
192,212,2973,1,8,0:0:0:0:
192,212,3036,1,0,0:0:0:0:
248,176,3161,1,0,0:0:0:0:
260,176,3286,1,8,0:0:0:0:
260,176,3348,1,8,0:0:0:0:
260,176,3411,1,0,0:0:0:0:
260,176,3536,1,8,0:0:0:0:
232,160,3598,1,8,0:0:0:0:
232,160,3661,1,0,0:0:0:0:
232,160,3723,1,8,0:0:0:0:
232,160,3786,1,0,0:0:0:0:
232,160,3848,1,0,0:0:0:0:
232,160,3911,1,8,0:0:0:0:
232,160,3973,1,8,0:0:0:0:
232,160,4036,1,0,0:0:0:0:
232,160,4161,1,0,0:0:0:0:
232,160,4286,1,8,0:0:0:0:
232,160,4411,1,0,0:0:0:0:
232,160,4473,1,0,0:0:0:0:
232,160,4536,1,8,0:0:0:0:
328,200,4661,1,0,0:0:0:0:
328,200,4723,1,0,0:0:0:0:
300,212,4786,1,8,0:0:0:0:
316,192,4848,1,8,0:0:0:0:
316,192,4911,1,8,0:0:0:0:
316,192,4973,1,8,0:0:0:0:
316,192,5036,1,0,0:0:0:0:
128,188,5161,1,0,0:0:0:0:
144,188,5286,1,8,0:0:0:0:
144,188,5411,1,0,0:0:0:0:
144,188,5473,1,0,0:0:0:0:
144,188,5536,1,0,0:0:0:0:
384,200,5661,1,0,0:0:0:0:
328,196,5786,1,8,0:0:0:0:
320,216,5848,1,0,0:0:0:0:
384,216,5911,1,8,0:0:0:0:
384,216,5973,1,8,0:0:0:0:
404,212,6036,1,0,0:0:0:0:
404,208,6098,1,0,0:0:0:0:
404,212,6161,1,8,0:0:0:0:
404,212,6223,1,0,0:0:0:0:
404,192,6286,1,8,0:0:0:0:
204,184,6411,1,8,0:0:0:0:
176,184,6473,1,8,0:0:0:0:
176,184,6536,1,0,0:0:0:0:
176,184,6598,1,0,0:0:0:0:
176,184,6661,1,8,0:0:0:0:
176,184,6723,1,0,0:0:0:0:
176,184,6786,1,8,0:0:0:0:
280,128,6911,1,8,0:0:0:0:
264,128,7036,1,0,0:0:0:0:
56,168,7161,1,0,0:0:0:0:
204,152,7223,1,0,0:0:0:0:
56,168,7286,1,8,0:0:0:0:
204,176,7411,1,8,0:0:0:0:
204,176,7473,1,8,0:0:0:0:
204,176,7536,1,0,0:0:0:0:
204,176,7598,1,0,0:0:0:0:
204,176,7661,1,8,0:0:0:0:
204,176,7786,1,0,0:0:0:0:
204,176,7848,1,8,0:0:0:0:
204,176,7911,1,8,0:0:0:0:
204,176,7973,1,8,0:0:0:0:
204,176,8036,1,0,0:0:0:0:
204,176,8161,1,0,0:0:0:0:
204,176,8286,1,8,0:0:0:0:
226,143,8411,1,0,0:0:0:0:
342,113,8473,1,8,0:0:0:0:
342,113,8536,1,0,0:0:0:0:
342,113,8661,1,0,0:0:0:0:
342,113,8786,1,8,0:0:0:0:
342,113,8848,1,8,0:0:0:0:
342,113,8911,1,8,0:0:0:0:
342,113,8973,1,8,0:0:0:0:
342,113,9036,1,0,0:0:0:0:
355,115,9161,1,0,0:0:0:0:
354,116,9286,1,8,0:0:0:0:
344,141,9411,1,0,0:0:0:0:
339,143,9473,1,0,0:0:0:0:
339,143,9536,1,0,0:0:0:0:
330,147,9661,1,8,0:0:0:0:
295,204,9786,1,0,0:0:0:0:
316,207,9848,1,8,0:0:0:0:
317,207,9911,1,8,0:0:0:0:
322,198,9973,1,0,0:0:0:0:
322,198,10036,1,8,0:0:0:0:
361,188,10161,1,0,0:0:0:0:
349,190,10286,1,8,0:0:0:0:
367,134,10411,1,0,0:0:0:0:
216,163,10473,1,8,0:0:0:0:
367,134,10536,1,8,0:0:0:0:
287,267,10661,1,0,0:0:0:0:
352,153,10723,1,0,0:0:0:0:
381,253,10786,1,8,0:0:0:0:
395,224,10848,1,8,0:0:0:0:
395,224,10911,1,0,0:0:0:0:
308,214,11036,1,0,0:0:0:0:
308,214,11098,1,0,0:0:0:0:
308,214,11161,1,8,0:0:0:0:
308,214,11223,1,0,0:0:0:0:
308,214,11286,1,8,0:0:0:0:
92,201,11411,1,8,0:0:0:0:
92,201,11473,1,8,0:0:0:0:
99,205,11536,1,0,0:0:0:0:
99,205,11598,1,0,0:0:0:0:
99,205,11661,1,8,0:0:0:0:
99,205,11723,1,0,0:0:0:0:
184,184,11786,1,8,0:0:0:0:
183,189,11848,1,0,0:0:0:0:
183,189,11911,1,8,0:0:0:0:
183,189,11973,1,8,0:0:0:0:
183,189,12036,1,0,0:0:0:0:
273,153,12161,1,0,0:0:0:0:
273,153,12286,1,8,0:0:0:0:
340,150,12411,1,0,0:0:0:0:
340,150,12473,1,0,0:0:0:0:
340,150,12536,1,0,0:0:0:0:
323,168,12661,1,8,0:0:0:0:
331,166,12786,1,0,0:0:0:0:
330,164,12848,1,8,0:0:0:0:
182,158,12911,1,0,0:0:0:0:
330,164,12973,1,8,0:0:0:0:
305,192,13036,1,0,0:0:0:0:
73,148,13161,1,0,0:0:0:0:
111,207,13286,1,8,0:0:0:0:
201,193,13411,1,0,0:0:0:0:
201,193,13473,1,0,0:0:0:0:
201,193,13536,1,0,0:0:0:0:
201,193,13598,1,0,0:0:0:0:
201,193,13661,1,8,0:0:0:0:
150,137,13786,1,0,0:0:0:0:
201,193,13848,1,0,0:0:0:0:
316,145,13911,1,8,0:0:0:0:
218,94,13973,1,8,0:0:0:0:
218,94,14036,1,0,0:0:0:0:
144,226,14161,1,0,0:0:0:0:
236,138,14286,1,8,0:0:0:0:
236,138,14348,1,8,0:0:0:0:
236,138,14411,1,0,0:0:0:0:
291,149,14536,1,0,0:0:0:0:
291,149,14598,1,0,0:0:0:0:
291,149,14661,1,0,0:0:0:0:
291,149,14723,1,0,0:0:0:0:
291,149,14786,1,8,0:0:0:0:
286,152,14848,1,8,0:0:0:0:
284,152,14911,1,8,0:0:0:0:
279,153,14973,1,8,0:0:0:0:
279,153,15036,1,0,0:0:0:0:
318,138,15161,1,0,0:0:0:0:
318,148,15286,1,8,0:0:0:0:
318,148,15348,1,0,0:0:0:0:
317,151,15411,1,8,0:0:0:0:
317,151,15473,1,8,0:0:0:0:
317,151,15536,1,0,0:0:0:0:
268,189,15598,1,0,0:0:0:0:
268,189,15661,1,8,0:0:0:0:
161,228,15786,1,0,0:0:0:0:
166,228,15848,1,8,0:0:0:0:
148,237,15911,1,8,0:0:0:0:
150,237,15973,1,8,0:0:0:0:
151,235,16036,1,0,0:0:0:0:
225,136,16286,1,8,0:0:0:0:
366,211,16411,1,0,0:0:0:0:
366,211,16473,1,0,0:0:0:0:
393,166,16536,1,8,0:0:0:0:
227,148,16661,1,8,0:0:0:0:
228,148,16723,1,8,0:0:0:0:
228,148,16786,1,0,0:0:0:0:
228,148,16848,1,0,0:0:0:0:
201,100,16911,1,8,0:0:0:0:
228,148,16973,1,0,0:0:0:0:
228,148,17036,1,8,0:0:0:0:
260,248,17161,1,0,0:0:0:0:
243,187,17223,1,0,0:0:0:0:
243,187,17286,1,8,0:0:0:0:
243,187,17348,1,8,0:0:0:0:
243,188,17411,1,0,0:0:0:0:
243,188,17473,1,0,0:0:0:0:
243,188,17536,1,8,0:0:0:0:
284,158,17598,1,0,0:0:0:0:
204,138,17661,1,8,0:0:0:0:
204,138,17723,1,8,0:0:0:0:
201,138,17786,1,0,0:0:0:0:
120,107,17848,1,0,0:0:0:0:
201,138,17911,1,8,0:0:0:0:
201,138,17973,1,8,0:0:0:0:
198,134,18036,1,0,0:0:0:0:
377,244,18161,1,0,0:0:0:0:
378,249,18286,1,8,0:0:0:0:
306,176,18411,1,0,0:0:0:0:
306,176,18473,1,0,0:0:0:0:
306,176,18536,1,0,0:0:0:0:
306,176,18661,1,8,0:0:0:0:
306,176,18786,1,0,0:0:0:0:
306,176,18848,1,0,0:0:0:0:
306,176,18911,1,0,0:0:0:0:
306,176,18973,1,8,0:0:0:0:
306,176,19036,1,0,0:0:0:0:
275,222,19161,1,0,0:0:0:0:
252,173,19223,1,0,0:0:0:0:
117,217,19286,1,8,0:0:0:0:
117,217,19348,1,8,0:0:0:0:
117,217,19411,1,0,0:0:0:0:
117,217,19473,1,0,0:0:0:0:
117,217,19536,1,8,0:0:0:0:
117,217,19661,1,0,0:0:0:0:
117,217,19723,1,0,0:0:0:0:
117,217,19786,1,8,0:0:0:0:
117,217,19848,1,8,0:0:0:0:
106,219,19911,1,8,0:0:0:0:
106,219,19973,1,8,0:0:0:0:
106,219,20036,1,0,0:0:0:0:
297,171,20161,1,0,0:0:0:0:
293,184,20286,1,8,0:0:0:0:
176,150,20411,1,8,0:0:0:0:
176,150,20473,1,8,0:0:0:0:
176,150,20536,1,0,0:0:0:0:
176,150,20661,1,8,0:0:0:0:
171,147,20786,1,0,0:0:0:0:
171,146,20848,1,0,0:0:0:0:
171,146,20911,1,8,0:0:0:0:
159,148,20973,1,0,0:0:0:0:
159,148,21036,1,0,0:0:0:0:
195,273,21161,1,0,0:0:0:0:
260,206,21286,1,8,0:0:0:0:
260,206,21348,1,8,0:0:0:0:
260,206,21411,1,0,0:0:0:0:
260,206,21473,1,0,0:0:0:0:
260,206,21536,1,8,0:0:0:0:
260,206,21661,1,0,0:0:0:0:
258,212,21723,1,8,0:0:0:0:
258,217,21786,1,0,0:0:0:0:
186,203,21848,1,0,0:0:0:0:
173,212,21911,1,8,0:0:0:0:
166,218,21973,1,8,0:0:0:0:
163,217,22036,1,0,0:0:0:0:
163,217,22161,1,0,0:0:0:0:
164,217,22286,1,8,0:0:0:0:
164,217,22411,1,0,0:0:0:0:
300,154,22536,1,0,0:0:0:0:
300,154,22598,1,0,0:0:0:0:
300,154,22661,1,8,0:0:0:0:
301,163,22723,1,8,0:0:0:0:
301,163,22786,1,0,0:0:0:0:
301,166,22911,1,0,0:0:0:0:
301,166,22973,1,0,0:0:0:0:
301,166,23036,1,8,0:0:0:0:
273,199,23161,1,0,0:0:0:0:
288,173,23223,1,0,0:0:0:0:
288,173,23286,1,8,0:0:0:0:
288,173,23348,1,0,0:0:0:0:
288,173,23411,1,8,0:0:0:0:
293,138,23473,1,8,0:0:0:0:
293,138,23536,1,0,0:0:0:0:
293,138,23598,1,0,0:0:0:0:
293,143,23661,1,8,0:0:0:0:
294,146,23723,1,0,0:0:0:0:
294,146,23786,1,8,0:0:0:0:
245,179,23848,1,8,0:0:0:0:
160,161,23911,1,0,0:0:0:0:
346,179,23973,1,0,0:0:0:0:
206,183,24036,1,0,0:0:0:0:
351,179,24286,1,0,0:0:0:0:
296,168,24536,1,0,0:0:0:0:
294,168,24786,1,0,0:0:0:0:
282,178,25036,1,0,0:0:0:0:
285,175,25286,1,0,0:0:0:0:
284,177,25536,1,0,0:0:0:0:
190,217,25786,1,0,0:0:0:0:
190,217,26036,1,4,0:0:0:0:
190,217,26286,1,0,0:0:0:0:
190,217,26536,1,0,0:0:0:0:
190,217,26786,1,0,0:0:0:0:
210,147,27036,1,0,0:0:0:0:
242,145,27286,1,8,0:0:0:0:
242,145,27536,1,8,0:0:0:0:
242,145,27786,1,8,0:0:0:0:
315,191,28036,1,4,0:0:0:0:
211,165,28161,1,0,0:0:0:0:
371,213,28286,1,0,0:0:0:0:
211,165,28411,1,0,0:0:0:0:
211,165,28536,1,8,0:0:0:0:
223,162,28661,1,8,0:0:0:0:
425,173,28786,1,8,0:0:0:0:
223,163,28911,1,8,0:0:0:0:
223,166,29036,1,0,0:0:0:0:
223,168,29161,1,0,0:0:0:0:
222,168,29286,1,8,0:0:0:0:
222,168,29411,1,0,0:0:0:0:
217,170,29536,1,8,0:0:0:0:
219,173,29661,1,8,0:0:0:0:
219,173,29786,1,0,0:0:0:0:
219,177,29911,1,8,0:0:0:0:
288,169,30036,1,0,0:0:0:0:
288,169,30098,1,0,0:0:0:0:
288,169,30161,1,0,0:0:0:0:
276,169,30223,1,0,0:0:0:0:
155,264,30286,1,8,0:0:0:0:
161,258,30348,1,8,0:0:0:0:
238,184,30411,1,8,0:0:0:0:
209,157,30473,1,8,0:0:0:0:
201,186,30536,1,0,0:0:0:0:
202,186,30598,1,0,0:0:0:0:
202,186,30661,1,8,0:0:0:0:
194,112,30723,1,0,0:0:0:0:
194,112,30786,1,8,0:0:0:0:
194,112,30848,1,8,0:0:0:0:
194,112,30911,1,0,0:0:0:0:
194,112,30973,1,0,0:0:0:0:
201,186,31036,1,0,0:0:0:0:
194,112,31286,1,0,0:0:0:0:
233,106,31536,1,8,0:0:0:0:
228,111,31598,1,0,0:0:0:0:
228,112,31661,1,0,0:0:0:0:
228,112,31723,1,0,0:0:0:0:
228,112,31786,1,8,0:0:0:0:
216,103,32036,1,4,0:0:0:0:
137,192,32286,1,8,0:0:0:0:
219,224,32411,1,0,0:0:0:0:
219,224,32473,1,8,0:0:0:0:
219,224,32536,1,0,0:0:0:0:
219,224,32661,1,0,0:0:0:0:
219,224,32786,1,8,0:0:0:0:
303,160,32911,1,0,0:0:0:0:
303,160,32973,1,0,0:0:0:0:
303,160,33036,1,0,0:0:0:0:
303,160,33161,1,0,0:0:0:0:
303,160,33286,1,8,0:0:0:0:
179,173,33411,1,0,0:0:0:0:
179,173,33473,1,0,0:0:0:0:
179,173,33536,1,8,0:0:0:0:
179,173,33598,1,8,0:0:0:0:
179,173,33661,1,0,0:0:0:0:
154,184,33786,1,8,0:0:0:0:
154,184,33848,1,8,0:0:0:0:
154,184,33911,1,0,0:0:0:0:
154,184,33973,1,0,0:0:0:0:
154,184,34036,1,0,0:0:0:0:
154,184,34161,1,0,0:0:0:0:
154,189,34286,1,8,0:0:0:0:
187,198,34411,1,0,0:0:0:0:
181,217,34473,1,0,0:0:0:0:
181,217,34536,1,8,0:0:0:0:
311,188,34661,1,8,0:0:0:0:
311,188,34723,1,0,0:0:0:0:
311,188,34786,1,8,0:0:0:0:
312,201,34848,1,0,0:0:0:0:
312,201,34911,1,0,0:0:0:0:
312,203,34973,1,0,0:0:0:0:
311,203,35036,1,8,0:0:0:0:
207,190,35161,1,0,0:0:0:0:
205,191,35223,1,8,0:0:0:0:
207,198,35286,1,0,0:0:0:0:
146,219,35411,1,0,0:0:0:0:
146,219,35536,1,8,0:0:0:0:
271,158,35661,1,0,0:0:0:0:
271,158,35723,1,0,0:0:0:0:
271,158,35786,1,8,0:0:0:0:
271,158,35848,1,8,0:0:0:0:
271,158,35911,1,8,0:0:0:0:
271,158,35973,1,8,0:0:0:0:
271,158,36036,1,0,0:0:0:0:
276,159,36161,1,0,0:0:0:0:
276,160,36286,1,8,0:0:0:0:
253,182,36411,1,8,0:0:0:0:
253,182,36473,1,8,0:0:0:0:
253,182,36536,1,0,0:0:0:0:
352,180,36661,1,0,0:0:0:0:
352,180,36786,1,8,0:0:0:0:
144,156,36911,1,0,0:0:0:0:
208,112,36973,1,8,0:0:0:0:
144,156,37036,1,0,0:0:0:0:
144,156,37161,1,0,0:0:0:0:
144,156,37286,1,8,0:0:0:0:
144,156,37411,1,0,0:0:0:0:
144,156,37473,1,0,0:0:0:0:
144,160,37536,1,8,0:0:0:0:
144,160,37598,1,8,0:0:0:0:
144,160,37661,1,0,0:0:0:0:
144,160,37786,1,8,0:0:0:0:
144,160,37911,1,8,0:0:0:0:
144,160,37973,1,8,0:0:0:0:
144,160,38036,1,0,0:0:0:0:
284,192,38161,1,0,0:0:0:0:
284,192,38286,1,8,0:0:0:0:
312,180,38411,1,0,0:0:0:0:
208,112,38473,1,8,0:0:0:0:
312,180,38536,1,0,0:0:0:0:
208,112,38598,1,0,0:0:0:0:
312,180,38661,1,0,0:0:0:0:
208,112,38786,1,8,0:0:0:0:
208,112,38911,1,0,0:0:0:0:
208,112,38973,1,0,0:0:0:0:
208,112,39036,1,0,0:0:0:0:
208,112,39161,1,0,0:0:0:0:
183,186,39286,5,8,0:0:0:0:
183,186,39348,1,8,0:0:0:0:
183,186,39411,1,8,0:0:0:0:
183,186,39473,1,8,0:0:0:0:
183,186,39536,1,0,0:0:0:0:
183,186,39598,1,0,0:0:0:0:
183,186,39661,1,0,0:0:0:0:
183,186,39723,1,0,0:0:0:0:
183,186,39786,1,8,0:0:0:0:
252,180,39911,1,8,0:0:0:0:
252,180,40036,1,4,0:0:0:0:
208,112,40286,1,8,0:0:0:0:
200,216,40411,1,0,0:0:0:0:
176,220,40473,1,0,0:0:0:0:
176,220,40536,1,0,0:0:0:0:
196,268,40661,1,0,0:0:0:0:
196,268,40786,1,8,0:0:0:0:
292,200,40911,1,8,0:0:0:0:
292,200,40973,1,8,0:0:0:0:
292,200,41036,1,0,0:0:0:0:
292,200,41161,1,0,0:0:0:0:
292,200,41286,1,8,0:0:0:0:
232,212,41411,1,0,0:0:0:0:
208,112,41473,1,8,0:0:0:0:
232,212,41536,1,0,0:0:0:0:
232,212,41598,1,8,0:0:0:0:
232,212,41661,1,0,0:0:0:0:
208,112,41786,1,8,0:0:0:0:
208,112,41848,1,0,0:0:0:0:
208,112,41911,1,8,0:0:0:0:
208,112,41973,1,8,0:0:0:0:
208,112,42036,1,8,0:0:0:0:
208,112,42161,1,0,0:0:0:0:
208,112,42286,1,8,0:0:0:0:
132,184,42411,1,0,0:0:0:0:
132,184,42473,1,0,0:0:0:0:
132,184,42536,1,8,0:0:0:0:
212,164,42598,1,8,0:0:0:0:
132,184,42661,1,0,0:0:0:0:
132,184,42723,1,0,0:0:0:0:
132,184,42786,1,8,0:0:0:0:
132,184,42911,1,0,0:0:0:0:
132,184,43036,1,8,0:0:0:0:
212,156,43161,1,8,0:0:0:0:
212,156,43286,1,8,0:0:0:0:
212,164,43411,1,0,0:0:0:0:
212,164,43661,1,0,0:0:0:0:
212,164,43786,1,8,0:0:0:0:
212,164,43911,1,8,0:0:0:0:
212,164,44036,1,4,0:0:0:0:
168,204,44286,1,8,0:0:0:0:
160,216,44411,1,0,0:0:0:0:
160,216,44473,1,0,0:0:0:0:
160,216,44536,1,0,0:0:0:0:
160,216,44661,1,0,0:0:0:0:
160,216,44786,1,8,0:0:0:0:
160,216,44911,1,0,0:0:0:0:
224,152,45036,1,8,0:0:0:0:
224,152,45098,1,8,0:0:0:0:
224,152,45161,1,0,0:0:0:0:
224,152,45223,1,0,0:0:0:0:
224,152,45286,1,8,0:0:0:0:
224,152,45411,1,0,0:0:0:0:
281,188,45473,1,0,0:0:0:0:
224,168,45536,1,8,0:0:0:0:
223,178,45661,1,0,0:0:0:0:
223,178,45786,1,8,0:0:0:0:
221,210,46036,1,4,0:0:0:0:
221,210,46161,1,0,0:0:0:0:
416,141,46223,1,8,0:0:0:0:
221,210,46286,1,0,0:0:0:0:
221,210,46411,1,0,0:0:0:0:
221,210,46536,1,8,0:0:0:0:
222,200,46786,1,0,0:0:0:0:
346,92,46911,1,0,0:0:0:0:
222,200,47036,1,8,0:0:0:0:
222,200,47161,1,8,0:0:0:0:
271,171,47223,1,0,0:0:0:0:
223,200,47286,1,8,0:0:0:0:
314,184,47411,1,0,0:0:0:0:
223,200,47536,1,8,0:0:0:0:
226,209,47786,1,4,0:0:0:0:
227,198,48036,1,12,0:0:0:0:
238,119,48286,1,8,0:0:0:0:
322,215,48411,1,0,0:0:0:0:
322,215,48473,1,0,0:0:0:0:
322,215,48536,1,0,0:0:0:0:
322,215,48661,1,0,0:0:0:0:
322,215,48786,1,8,0:0:0:0:
144,203,48911,1,0,0:0:0:0:
169,227,48973,1,0,0:0:0:0:
161,226,49036,1,8,0:0:0:0:
169,227,49161,1,0,0:0:0:0:
307,250,49286,1,8,0:0:0:0:
307,250,49348,1,8,0:0:0:0:
307,250,49411,1,0,0:0:0:0:
307,250,49536,1,8,0:0:0:0:
209,200,49598,1,8,0:0:0:0:
307,250,49661,1,0,0:0:0:0:
343,199,49723,1,0,0:0:0:0:
286,208,49786,1,8,0:0:0:0:
269,200,49848,1,0,0:0:0:0:
268,199,49911,1,0,0:0:0:0:
268,199,49973,1,0,0:0:0:0:
268,199,50036,1,8,0:0:0:0:
307,162,50161,1,0,0:0:0:0:
312,158,50286,1,8,0:0:0:0:
242,219,50411,1,0,0:0:0:0:
242,219,50473,1,0,0:0:0:0:
108,179,50536,1,8,0:0:0:0:
242,219,50598,1,0,0:0:0:0:
242,219,50661,1,0,0:0:0:0:
97,168,50786,1,8,0:0:0:0:
276,142,50911,1,8,0:0:0:0:
144,176,50973,5,8,0:0:0:0:
96,169,51036,1,0,0:0:0:0:
96,169,51161,1,0,0:0:0:0:
96,169,51286,1,0,0:0:0:0:
96,169,51411,1,0,0:0:0:0:
96,169,51536,1,0,0:0:0:0:
212,269,51598,1,0,0:0:0:0:
212,269,51661,1,8,0:0:0:0:
97,168,51786,1,0,0:0:0:0:
264,136,51848,1,0,0:0:0:0:
264,136,51911,1,8,0:0:0:0:
240,133,51973,1,8,0:0:0:0:
262,126,52036,1,0,0:0:0:0:
106,201,52161,1,0,0:0:0:0:
106,201,52286,1,8,0:0:0:0:
106,201,52411,1,8,0:0:0:0:
106,201,52473,1,8,0:0:0:0:
106,201,52536,1,0,0:0:0:0:
106,201,52661,1,0,0:0:0:0:
106,201,52786,1,8,0:0:0:0:
106,201,52848,1,8,0:0:0:0:
106,201,52911,1,8,0:0:0:0:
106,201,52973,1,8,0:0:0:0:
106,201,53036,1,0,0:0:0:0:
106,201,53161,1,0,0:0:0:0:
106,201,53286,1,8,0:0:0:0:
226,143,53411,1,0,0:0:0:0:
226,143,53473,1,0,0:0:0:0:
226,143,53536,1,8,0:0:0:0:
226,143,53661,1,0,0:0:0:0:
216,248,53786,1,8,0:0:0:0:
216,248,53848,1,8,0:0:0:0:
216,248,53911,1,0,0:0:0:0:
216,248,53973,1,8,0:0:0:0:
216,248,54036,1,0,0:0:0:0:
216,256,54161,1,0,0:0:0:0:
227,252,54286,1,8,0:0:0:0:
225,185,54411,1,0,0:0:0:0:
225,185,54473,1,0,0:0:0:0:
225,185,54536,1,8,0:0:0:0:
439,149,54661,1,0,0:0:0:0:
204,172,54723,1,0,0:0:0:0:
353,188,54786,1,8,0:0:0:0:
353,188,54848,1,8,0:0:0:0:
353,188,54911,1,0,0:0:0:0:
353,188,54973,1,0,0:0:0:0:
204,172,55036,1,0,0:0:0:0:
331,190,55161,1,0,0:0:0:0:
330,190,55286,1,8,0:0:0:0:
336,133,55411,1,8,0:0:0:0:
336,133,55473,1,8,0:0:0:0:
336,133,55536,1,0,0:0:0:0:
263,125,55661,1,8,0:0:0:0:
343,97,55786,1,0,0:0:0:0:
252,127,55848,1,0,0:0:0:0:
345,105,55911,1,0,0:0:0:0:
252,127,55973,1,0,0:0:0:0:
311,108,56036,1,8,0:0:0:0:
311,108,56286,1,8,0:0:0:0:
208,208,56411,1,0,0:0:0:0:
208,208,56473,1,0,0:0:0:0:
208,208,56536,1,8,0:0:0:0:
286,267,56661,1,8,0:0:0:0:
286,267,56786,1,0,0:0:0:0:
341,185,56911,1,0,0:0:0:0:
341,185,56973,1,8,0:0:0:0:
341,185,57036,1,8,0:0:0:0:
326,161,57161,1,0,0:0:0:0:
326,161,57286,1,8,0:0:0:0:
326,161,57348,1,0,0:0:0:0:
326,161,57411,1,0,0:0:0:0:
326,161,57473,1,0,0:0:0:0:
326,161,57536,1,8,0:0:0:0:
76,198,57661,1,0,0:0:0:0:
76,198,57786,1,8,0:0:0:0:
76,198,57848,1,8,0:0:0:0:
76,198,57911,1,8,0:0:0:0:
76,198,57973,1,8,0:0:0:0:
76,198,58036,1,0,0:0:0:0:
76,198,58161,1,0,0:0:0:0:
76,198,58286,1,8,0:0:0:0:
364,128,58411,1,0,0:0:0:0:
364,128,58473,1,8,0:0:0:0:
364,128,58536,1,0,0:0:0:0:
252,120,58598,1,0,0:0:0:0:
364,128,58661,1,0,0:0:0:0:
364,128,58786,1,8,0:0:0:0:
372,128,58911,1,0,0:0:0:0:
268,201,59036,1,8,0:0:0:0:
270,206,59098,1,8,0:0:0:0:
272,100,59161,1,0,0:0:0:0:
272,100,59223,1,0,0:0:0:0:
272,100,59286,1,8,0:0:0:0:
192,176,59348,1,0,0:0:0:0:
180,180,59411,1,8,0:0:0:0:
180,180,59473,1,8,0:0:0:0:
180,180,59536,1,0,0:0:0:0:
180,180,59598,1,0,0:0:0:0:
180,180,59661,1,8,0:0:0:0:
189,154,59723,1,0,0:0:0:0:
189,154,59786,1,8,0:0:0:0:
272,128,59911,1,8,0:0:0:0:
272,128,59973,1,8,0:0:0:0:
272,128,60036,1,0,0:0:0:0:
272,128,60161,1,0,0:0:0:0:
264,124,60286,1,8,0:0:0:0:
188,224,60411,1,0,0:0:0:0:
188,224,60473,1,0,0:0:0:0:
192,224,60536,1,0,0:0:0:0:
192,224,60661,1,0,0:0:0:0:
192,224,60786,1,8,0:0:0:0:
248,136,60911,1,0,0:0:0:0:
196,224,61036,1,0,0:0:0:0:
196,224,61098,1,0,0:0:0:0:
196,224,61161,1,8,0:0:0:0:
212,200,61286,1,8,0:0:0:0:
280,160,61348,1,0,0:0:0:0:
212,200,61411,1,0,0:0:0:0:
280,160,61536,1,8,0:0:0:0:
280,160,61598,1,8,0:0:0:0:
280,160,61661,1,0,0:0:0:0:
280,160,61723,1,0,0:0:0:0:
280,160,61786,1,8,0:0:0:0:
280,160,61911,1,0,0:0:0:0:
232,168,62036,1,12,0:0:0:0:
232,168,62161,1,4,0:0:0:0:
220,216,62411,1,12,0:0:0:0:
276,168,62661,1,4,0:0:0:0:
280,168,62911,1,4,0:0:0:0:
280,168,63161,1,0,0:0:0:0:
280,168,63223,1,0,0:0:0:0:
280,168,63286,1,8,0:0:0:0:
280,168,63348,1,0,0:0:0:0:
280,168,63411,1,0,0:0:0:0:
276,168,63473,1,0,0:0:0:0:
276,168,63536,1,8,0:0:0:0:
276,168,63598,1,8,0:0:0:0:
276,168,63661,1,0,0:0:0:0:
280,168,63723,1,0,0:0:0:0:
280,168,63786,1,8,0:0:0:0:
212,232,63848,1,0,0:0:0:0:
212,232,63911,1,0,0:0:0:0:
212,232,63973,1,0,0:0:0:0:
212,232,64036,1,8,0:0:0:0:
256,192,64161,12,8,64786,0:0:0:0:
320,176,65036,5,4,0:0:0:0:
288,220,65161,1,0,0:0:0:0:
288,220,65286,1,8,0:0:0:0:
288,220,65411,1,0,0:0:0:0:
280,228,65473,1,0,0:0:0:0:
280,228,65536,1,0,0:0:0:0:
280,228,65661,1,0,0:0:0:0:
280,228,65786,1,8,0:0:0:0:
280,228,65911,1,0,0:0:0:0:
244,240,65973,1,0,0:0:0:0:
244,240,66036,1,8,0:0:0:0:
256,188,66161,1,0,0:0:0:0:
332,280,66286,1,8,0:0:0:0:
332,280,66348,1,8,0:0:0:0:
332,280,66411,1,0,0:0:0:0:
332,280,66473,1,0,0:0:0:0:
332,280,66536,1,8,0:0:0:0:
344,248,66661,1,8,0:0:0:0:
344,248,66786,1,0,0:0:0:0:
344,248,66848,1,0,0:0:0:0:
336,164,66911,1,8,0:0:0:0:
336,164,66952,1,8,0:0:0:0:
336,164,66994,1,8,0:0:0:0:
336,164,67036,1,0,0:0:0:0:
256,156,67286,1,8,0:0:0:0:
236,244,67411,1,0,0:0:0:0:
220,248,67473,1,8,0:0:0:0:
216,244,67536,1,0,0:0:0:0:
216,244,67661,1,0,0:0:0:0:
212,244,67786,1,8,0:0:0:0:
240,88,67911,1,0,0:0:0:0:
152,168,68036,1,8,0:0:0:0:
144,188,68098,1,8,0:0:0:0:
152,192,68161,1,0,0:0:0:0:
132,184,68223,1,0,0:0:0:0:
124,180,68286,1,8,0:0:0:0:
124,160,68411,1,8,0:0:0:0:
128,160,68473,1,8,0:0:0:0:
128,160,68536,1,0,0:0:0:0:
160,152,68661,1,0,0:0:0:0:
156,272,68786,1,8,0:0:0:0:
196,204,68911,1,8,0:0:0:0:
260,156,69036,1,0,0:0:0:0:
260,156,69098,1,0,0:0:0:0:
260,156,69161,1,0,0:0:0:0:
260,156,69223,1,0,0:0:0:0:
252,152,69286,1,8,0:0:0:0:
152,144,69536,1,0,0:0:0:0:
144,152,69661,1,0,0:0:0:0:
168,152,69786,1,8,0:0:0:0:
144,132,69911,1,8,0:0:0:0:
144,128,69973,1,8,0:0:0:0:
144,128,70036,1,0,0:0:0:0:
144,128,70161,1,0,0:0:0:0:
144,128,70286,1,8,0:0:0:0:
144,128,70411,1,0,0:0:0:0:
144,128,70473,1,0,0:0:0:0:
144,128,70536,1,8,0:0:0:0:
176,196,70661,1,0,0:0:0:0:
176,196,70786,1,8,0:0:0:0:
176,196,70848,1,0,0:0:0:0:
176,196,70911,1,0,0:0:0:0:
176,196,70973,1,0,0:0:0:0:
176,196,71036,1,8,0:0:0:0:
152,176,71161,1,0,0:0:0:0:
152,176,71223,1,0,0:0:0:0:
152,176,71286,1,0,0:0:0:0:
152,176,71411,1,0,0:0:0:0:
212,216,71536,1,8,0:0:0:0:
196,212,71661,1,0,0:0:0:0:
192,212,71786,1,8,0:0:0:0:
192,212,71911,1,8,0:0:0:0:
192,212,71973,1,8,0:0:0:0:
192,212,72036,1,0,0:0:0:0:
192,212,72161,1,0,0:0:0:0:
196,208,72286,1,8,0:0:0:0:
196,220,72411,1,0,0:0:0:0:
192,228,72473,1,8,0:0:0:0:
192,236,72536,1,0,0:0:0:0:
192,240,72661,1,8,0:0:0:0:
116,140,72786,1,0,0:0:0:0:
112,152,72848,1,8,0:0:0:0:
108,156,72911,1,8,0:0:0:0:
108,156,72973,1,8,0:0:0:0:
108,156,73036,1,0,0:0:0:0:
108,156,73286,1,8,0:0:0:0:
128,320,73411,1,0,0:0:0:0:
128,320,73473,1,0,0:0:0:0:
128,320,73536,1,0,0:0:0:0:
128,320,73661,1,0,0:0:0:0:
128,320,73786,5,8,0:0:0:0:
216,164,73911,1,8,0:0:0:0:
208,156,73973,1,0,0:0:0:0:
208,156,74036,1,8,0:0:0:0:
208,156,74161,1,0,0:0:0:0:
208,156,74286,1,8,0:0:0:0:
264,144,74411,1,0,0:0:0:0:
264,144,74473,1,0,0:0:0:0:
260,152,74536,1,8,0:0:0:0:
260,152,74598,1,8,0:0:0:0:
260,152,74661,1,0,0:0:0:0:
261,158,74786,1,8,0:0:0:0:
261,158,74848,1,0,0:0:0:0:
396,160,74911,5,8,0:0:0:0:
396,160,74952,1,8,0:0:0:0:
396,160,74994,1,8,0:0:0:0:
396,160,75036,1,0,0:0:0:0:
199,180,75286,1,8,0:0:0:0:
199,180,75411,1,0,0:0:0:0:
199,180,75473,1,0,0:0:0:0:
199,180,75536,1,0,0:0:0:0:
199,180,75661,1,0,0:0:0:0:
182,158,75786,1,8,0:0:0:0:
182,158,75911,1,0,0:0:0:0:
182,158,75973,1,8,0:0:0:0:
182,158,76036,1,0,0:0:0:0:
182,158,76161,1,0,0:0:0:0:
182,158,76286,1,8,0:0:0:0:
182,158,76411,1,0,0:0:0:0:
182,158,76473,1,0,0:0:0:0:
182,158,76536,1,8,0:0:0:0:
186,163,76661,1,0,0:0:0:0:
186,163,76786,1,8,0:0:0:0:
186,163,76848,1,8,0:0:0:0:
186,163,76911,1,8,0:0:0:0:
186,163,76973,1,8,0:0:0:0:
186,163,77036,1,0,0:0:0:0:
189,208,77286,1,8,0:0:0:0:
215,168,77411,1,8,0:0:0:0:
215,168,77473,1,8,0:0:0:0:
215,168,77536,1,0,0:0:0:0:
215,168,77661,1,0,0:0:0:0:
161,152,77786,1,8,0:0:0:0:
253,189,77911,1,0,0:0:0:0:
253,189,77973,1,0,0:0:0:0:
253,189,78036,1,8,0:0:0:0:
456,192,78161,1,0,0:0:0:0:
149,198,78286,1,8,0:0:0:0:
149,198,78348,1,8,0:0:0:0:
126,164,78411,1,8,0:0:0:0:
259,168,78536,1,0,0:0:0:0:
259,168,78598,1,0,0:0:0:0:
257,174,78661,1,8,0:0:0:0:
257,174,78723,1,0,0:0:0:0:
256,174,78786,1,8,0:0:0:0:
256,174,78911,1,8,0:0:0:0:
256,174,78973,1,0,0:0:0:0:
256,174,79036,1,0,0:0:0:0:
256,174,79286,1,8,0:0:0:0:
259,211,79411,1,0,0:0:0:0:
259,211,79473,1,8,0:0:0:0:
259,204,79536,1,0,0:0:0:0:
261,203,79661,1,0,0:0:0:0:
261,201,79786,1,8,0:0:0:0:
261,201,79911,1,0,0:0:0:0:
341,147,80036,1,8,0:0:0:0:
341,147,80098,1,0,0:0:0:0:
341,147,80161,1,0,0:0:0:0:
341,147,80223,1,0,0:0:0:0:
341,147,80286,1,8,0:0:0:0:
341,147,80348,1,8,0:0:0:0:
341,147,80411,1,0,0:0:0:0:
341,147,80473,1,0,0:0:0:0:
344,142,80536,1,8,0:0:0:0:
240,156,80661,1,0,0:0:0:0:
240,156,80723,1,0,0:0:0:0:
240,156,80786,1,8,0:0:0:0:
91,178,80911,1,0,0:0:0:0:
186,217,81036,1,12,0:0:0:0:
214,188,81286,1,4,0:0:0:0:
210,194,81411,1,4,0:0:0:0:
273,163,81911,1,4,0:0:0:0:
273,163,82036,1,12,0:0:0:0:
249,103,82411,1,12,0:0:0:0:
299,153,82661,1,12,0:0:0:0:
299,153,82786,1,12,0:0:0:0:
299,153,83036,1,4,0:0:0:0:
169,157,83161,1,8,0:0:0:0:
169,157,83286,1,8,0:0:0:0:
169,157,83411,1,8,0:0:0:0:
169,157,83536,1,8,0:0:0:0:
169,157,83661,1,8,0:0:0:0:
169,157,83786,1,8,0:0:0:0:
169,157,83911,1,8,0:0:0:0:
79,176,84036,1,0,0:0:0:0:
79,181,84098,1,0,0:0:0:0:
78,187,84161,1,8,0:0:0:0:
76,195,84223,1,0,0:0:0:0:
76,193,84286,1,8,0:0:0:0:
72,191,84348,1,8,0:0:0:0:
72,191,84411,1,0,0:0:0:0:
199,216,84473,1,0,0:0:0:0:
232,89,84536,1,8,0:0:0:0:
189,144,84598,1,8,0:0:0:0:
189,144,84661,1,0,0:0:0:0:
189,144,84723,1,0,0:0:0:0:
189,144,84786,1,8,0:0:0:0:
291,199,84911,1,8,0:0:0:0:
224,181,85036,1,4,0:0:0:0:
133,175,85286,1,8,0:0:0:0:
269,169,85411,1,0,0:0:0:0:
269,173,85473,1,0,0:0:0:0:
269,169,85536,1,0,0:0:0:0:
269,169,85661,1,0,0:0:0:0:
269,169,85786,1,8,0:0:0:0:
272,134,85911,1,0,0:0:0:0:
176,192,86036,1,8,0:0:0:0:
176,192,86098,1,8,0:0:0:0:
176,192,86161,1,0,0:0:0:0:
176,192,86223,1,0,0:0:0:0:
176,192,86286,1,8,0:0:0:0:
236,192,86411,1,0,0:0:0:0:
280,164,86536,1,8,0:0:0:0:
120,124,86598,1,8,0:0:0:0:
268,152,86661,1,0,0:0:0:0:
216,176,86723,1,0,0:0:0:0:
272,152,86786,1,8,0:0:0:0:
264,160,86848,1,0,0:0:0:0:
260,120,86911,1,8,0:0:0:0:
260,120,86973,1,0,0:0:0:0:
260,96,87036,1,0,0:0:0:0:
260,100,87161,1,0,0:0:0:0:
260,100,87286,1,8,0:0:0:0:
256,96,87411,1,0,0:0:0:0:
260,104,87473,1,0,0:0:0:0:
256,108,87536,1,8,0:0:0:0:
200,100,87661,1,0,0:0:0:0:
212,192,87786,1,8,0:0:0:0:
212,192,87848,1,8,0:0:0:0:
212,192,87911,1,0,0:0:0:0:
160,208,87973,1,0,0:0:0:0:
160,208,88036,1,0,0:0:0:0:
160,208,88161,1,0,0:0:0:0:
160,208,88286,1,8,0:0:0:0:
160,208,88411,1,0,0:0:0:0:
160,208,88473,1,0,0:0:0:0:
160,208,88536,1,8,0:0:0:0:
224,176,88661,1,8,0:0:0:0:
224,176,88786,1,0,0:0:0:0:
272,208,88848,1,0,0:0:0:0:
264,232,88911,1,8,0:0:0:0:
264,232,88973,1,8,0:0:0:0:
272,208,89036,1,0,0:0:0:0:
252,184,89161,1,0,0:0:0:0:
252,184,89286,1,8,0:0:0:0:
224,176,89411,1,0,0:0:0:0:
224,176,89536,1,8,0:0:0:0:
204,180,89598,1,0,0:0:0:0:
200,172,89661,1,0,0:0:0:0:
208,168,89723,1,0,0:0:0:0:
208,168,89786,1,8,0:0:0:0:
232,156,89911,1,0,0:0:0:0:
232,156,89973,1,8,0:0:0:0:
232,156,90036,1,8,0:0:0:0:
232,156,90161,1,0,0:0:0:0:
256,216,90286,1,8,0:0:0:0:
224,144,90411,1,0,0:0:0:0:
216,144,90473,1,8,0:0:0:0:
204,120,90536,1,8,0:0:0:0:
204,120,90598,1,0,0:0:0:0:
196,124,90661,1,8,0:0:0:0:
176,144,90786,1,0,0:0:0:0:
176,144,90848,1,0,0:0:0:0:
176,144,90911,1,8,0:0:0:0:
176,144,90973,1,0,0:0:0:0:
176,144,91036,1,8,0:0:0:0:
176,144,91161,1,0,0:0:0:0:
176,144,91286,1,8,0:0:0:0:
176,144,91411,1,0,0:0:0:0:
176,144,91473,1,0,0:0:0:0:
176,144,91536,1,8,0:0:0:0:
176,152,91661,1,0,0:0:0:0:
176,152,91786,1,8,0:0:0:0:
176,152,91848,1,8,0:0:0:0:
176,152,91911,1,0,0:0:0:0:
176,152,92036,1,8,0:0:0:0:
176,152,92098,1,8,0:0:0:0:
176,152,92161,1,0,0:0:0:0:
160,160,92223,1,0,0:0:0:0:
160,160,92286,1,8,0:0:0:0:
160,160,92411,1,8,0:0:0:0:
348,136,92473,1,8,0:0:0:0:
160,160,92536,1,0,0:0:0:0:
160,160,92598,1,0,0:0:0:0:
160,160,92661,1,8,0:0:0:0:
240,220,92723,1,0,0:0:0:0:
240,220,92786,1,8,0:0:0:0:
240,220,92848,1,0,0:0:0:0:
240,220,92911,1,0,0:0:0:0:
288,256,92973,1,0,0:0:0:0:
288,240,93036,1,8,0:0:0:0:
200,204,93286,1,8,0:0:0:0:
200,204,93411,1,0,0:0:0:0:
128,124,93473,1,0,0:0:0:0:
128,124,93536,1,8,0:0:0:0:
192,116,93598,1,0,0:0:0:0:
192,116,93661,1,8,0:0:0:0:
192,116,93786,1,8,0:0:0:0:
192,116,93911,1,0,0:0:0:0:
192,116,93973,1,0,0:0:0:0:
192,116,94036,1,0,0:0:0:0:
192,116,94161,1,0,0:0:0:0:
192,116,94286,1,8,0:0:0:0:
192,116,94411,1,0,0:0:0:0:
192,116,94473,1,0,0:0:0:0:
192,116,94536,1,8,0:0:0:0:
192,116,94598,1,8,0:0:0:0:
192,116,94661,1,0,0:0:0:0:
211,183,94723,1,0,0:0:0:0:
192,116,94786,1,8,0:0:0:0:
192,116,94848,1,8,0:0:0:0:
192,116,94911,1,8,0:0:0:0:
192,116,94973,1,8,0:0:0:0:
184,120,95036,1,0,0:0:0:0:
184,120,95161,1,0,0:0:0:0:
184,120,95286,1,8,0:0:0:0:
264,188,95411,1,0,0:0:0:0:
264,188,95473,1,0,0:0:0:0:
264,188,95536,1,8,0:0:0:0:
264,188,95661,1,8,0:0:0:0:
264,188,95723,1,8,0:0:0:0:
264,188,95786,1,0,0:0:0:0:
264,188,95848,1,0,0:0:0:0:
264,188,95911,1,8,0:0:0:0:
264,188,95973,1,0,0:0:0:0:
264,188,96036,1,8,0:0:0:0:
264,188,96161,1,0,0:0:0:0:
264,188,96286,1,8,0:0:0:0:
264,188,96348,1,0,0:0:0:0:
264,188,96411,1,0,0:0:0:0:
264,188,96473,1,0,0:0:0:0:
264,188,96536,1,8,0:0:0:0:
264,188,96661,1,0,0:0:0:0:
264,188,96723,1,0,0:0:0:0:
261,178,96786,1,8,0:0:0:0:
183,181,96848,1,0,0:0:0:0:
151,174,96911,1,8,0:0:0:0:
151,174,96973,1,8,0:0:0:0:
151,174,97036,1,0,0:0:0:0:
164,172,97286,1,8,0:0:0:0:
256,193,97411,5,0,0:0:0:0:
260,207,97473,1,0,0:0:0:0:
255,213,97536,1,0,0:0:0:0:
218,207,97661,1,0,0:0:0:0:
148,238,97786,1,8,0:0:0:0:
148,238,97911,1,8,0:0:0:0:
155,117,97973,1,8,0:0:0:0:
155,117,98036,1,0,0:0:0:0:
161,102,98161,1,0,0:0:0:0:
245,182,98286,1,8,0:0:0:0:
292,224,98411,1,0,0:0:0:0:
292,224,98473,1,8,0:0:0:0:
292,224,98536,1,0,0:0:0:0:
292,224,98661,1,0,0:0:0:0:
291,170,98723,1,0,0:0:0:0:
292,224,98786,1,8,0:0:0:0:
292,224,98848,1,8,0:0:0:0:
292,224,98911,1,8,0:0:0:0:
292,224,98973,1,8,0:0:0:0:
292,224,99036,1,0,0:0:0:0:
287,166,99161,1,0,0:0:0:0:
276,158,99286,1,8,0:0:0:0:
145,142,99411,1,8,0:0:0:0:
145,142,99473,1,8,0:0:0:0:
147,138,99536,1,0,0:0:0:0:
211,210,99661,1,8,0:0:0:0:
273,133,99786,1,0,0:0:0:0:
273,133,99848,1,0,0:0:0:0:
273,133,99911,1,8,0:0:0:0:
148,138,99973,1,0,0:0:0:0:
148,138,100036,1,8,0:0:0:0:
148,138,100161,1,0,0:0:0:0:
148,138,100286,1,8,0:0:0:0:
148,138,100411,1,0,0:0:0:0:
153,138,100473,1,0,0:0:0:0:
153,138,100536,1,8,0:0:0:0:
256,138,100598,1,8,0:0:0:0:
239,159,100661,1,0,0:0:0:0:
239,159,100723,1,8,0:0:0:0:
239,159,100786,1,0,0:0:0:0:
239,159,100911,1,8,0:0:0:0:
245,182,101036,1,4,0:0:0:0:
245,182,101286,1,4,0:0:0:0:
245,182,101411,1,4,0:0:0:0:
253,198,101786,1,12,0:0:0:0:
255,200,102036,1,4,0:0:0:0:
230,157,102286,1,8,0:0:0:0:
278,227,102536,1,0,0:0:0:0:
278,227,102598,1,0,0:0:0:0:
278,227,102661,1,0,0:0:0:0:
278,227,102723,1,0,0:0:0:0:
278,227,102786,1,8,0:0:0:0:
232,213,102911,1,8,0:0:0:0:
247,198,103036,1,4,0:0:0:0:
372,138,103286,1,8,0:0:0:0:
232,144,103411,1,0,0:0:0:0:
232,144,103536,1,0,0:0:0:0:
244,252,103661,1,0,0:0:0:0:
244,252,103723,1,0,0:0:0:0:
244,252,103786,1,8,0:0:0:0:
244,252,103911,1,0,0:0:0:0:
184,216,104036,1,8,0:0:0:0:
184,216,104098,1,8,0:0:0:0:
184,216,104161,1,0,0:0:0:0:
184,216,104223,1,0,0:0:0:0:
184,216,104286,1,8,0:0:0:0:
184,216,104411,1,0,0:0:0:0:
200,144,104473,1,0,0:0:0:0:
184,216,104536,1,8,0:0:0:0:
232,200,104598,1,0,0:0:0:0:
220,192,104661,1,8,0:0:0:0:
216,192,104723,1,8,0:0:0:0:
216,192,104786,1,0,0:0:0:0:
216,188,104848,1,8,0:0:0:0:
216,188,104911,1,0,0:0:0:0:
216,192,104973,1,0,0:0:0:0:
256,116,105036,1,0,0:0:0:0:
256,116,105161,1,0,0:0:0:0:
256,128,105286,1,8,0:0:0:0:
304,172,105411,1,0,0:0:0:0:
304,172,105473,1,8,0:0:0:0:
304,172,105536,1,0,0:0:0:0:
200,140,105661,1,0,0:0:0:0:
268,92,105786,1,8,0:0:0:0:
268,92,105911,1,0,0:0:0:0:
236,248,106036,1,0,0:0:0:0:
236,248,106098,1,0,0:0:0:0:
236,248,106161,1,8,0:0:0:0:
216,152,106223,1,0,0:0:0:0:
216,152,106286,1,8,0:0:0:0:
232,248,106348,1,8,0:0:0:0:
232,248,106411,1,0,0:0:0:0:
176,156,106473,1,0,0:0:0:0:
152,144,106536,1,8,0:0:0:0:
196,120,106598,1,8,0:0:0:0:
196,128,106661,1,0,0:0:0:0:
332,224,106723,1,8,0:0:0:0:
332,224,106786,1,0,0:0:0:0:
200,188,106848,1,0,0:0:0:0:
200,188,106911,1,8,0:0:0:0:
200,188,106973,1,8,0:0:0:0:
200,188,107036,1,0,0:0:0:0:
296,164,107286,1,0,0:0:0:0:
284,144,107411,1,0,0:0:0:0:
284,144,107536,1,8,0:0:0:0:
232,160,107661,1,8,0:0:0:0:
232,160,107723,1,8,0:0:0:0:
232,160,107786,1,0,0:0:0:0:
128,104,107911,1,8,0:0:0:0:
232,160,108036,1,0,0:0:0:0:
232,140,108098,1,0,0:0:0:0:
232,140,108161,1,8,0:0:0:0:
232,136,108223,1,8,0:0:0:0:
232,136,108286,1,0,0:0:0:0:
248,224,108411,1,8,0:0:0:0:
248,224,108473,1,8,0:0:0:0:
248,224,108536,1,0,0:0:0:0:
248,216,108598,1,0,0:0:0:0:
248,216,108661,1,8,0:0:0:0:
248,216,108723,1,0,0:0:0:0:
76,184,108786,1,8,0:0:0:0:
76,184,108848,1,8,0:0:0:0:
76,184,108911,1,0,0:0:0:0:
76,184,108973,1,0,0:0:0:0:
76,184,109036,1,8,0:0:0:0:
192,152,109161,1,0,0:0:0:0:
192,152,109286,1,8,0:0:0:0:
288,128,109348,1,0,0:0:0:0:
288,128,109411,1,8,0:0:0:0:
192,152,109473,1,0,0:0:0:0:
192,152,109536,1,0,0:0:0:0:
288,128,109661,1,8,0:0:0:0:
308,176,109786,1,0,0:0:0:0:
308,176,109848,1,0,0:0:0:0:
308,176,109911,1,8,0:0:0:0:
200,204,110036,1,0,0:0:0:0:
200,204,110098,1,0,0:0:0:0:
200,204,110161,1,0,0:0:0:0:
200,204,110223,1,0,0:0:0:0:
200,204,110286,1,8,0:0:0:0:
244,116,110348,1,0,0:0:0:0:
244,116,110411,1,8,0:0:0:0:
244,116,110473,1,8,0:0:0:0:
244,116,110536,1,0,0:0:0:0:
259,190,110598,1,0,0:0:0:0:
125,201,110661,1,0,0:0:0:0:
202,234,110723,1,0,0:0:0:0:
201,234,110786,1,8,0:0:0:0:
209,242,110848,1,8,0:0:0:0:
209,242,110911,1,8,0:0:0:0:
210,239,110973,1,8,0:0:0:0:
210,239,111036,1,0,0:0:0:0:
224,116,111286,1,8,0:0:0:0:
225,117,111536,1,0,0:0:0:0:
326,155,111661,1,0,0:0:0:0:
224,116,111786,1,8,0:0:0:0:
224,116,112036,1,0,0:0:0:0:
224,116,112286,1,8,0:0:0:0:
225,117,112536,1,0,0:0:0:0:
326,155,112598,1,0,0:0:0:0:
348,195,112661,1,8,0:0:0:0:
348,195,112723,1,8,0:0:0:0:
348,195,112786,1,0,0:0:0:0:
348,195,112848,1,8,0:0:0:0:
348,195,112911,1,8,0:0:0:0:
348,195,112973,1,8,0:0:0:0:
348,195,113036,1,0,0:0:0:0:
224,116,113286,1,8,0:0:0:0:
225,117,113348,1,8,0:0:0:0:
225,117,113411,1,8,0:0:0:0:
225,117,113473,1,8,0:0:0:0:
225,117,113536,1,0,0:0:0:0:
224,116,113786,1,8,0:0:0:0:
224,116,113848,1,8,0:0:0:0:
224,116,113911,1,8,0:0:0:0:
224,116,113973,1,0,0:0:0:0:
224,116,114036,1,0,0:0:0:0:
224,116,114286,1,8,0:0:0:0:
225,117,114348,1,8,0:0:0:0:
225,117,114411,1,0,0:0:0:0:
225,117,114473,1,0,0:0:0:0:
225,117,114536,1,0,0:0:0:0:
348,195,114661,1,0,0:0:0:0:
348,195,114786,1,8,0:0:0:0:
215,184,115036,1,4,0:0:0:0:
299,213,115286,1,0,0:0:0:0:
357,187,115536,1,0,0:0:0:0:
357,187,115786,1,0,0:0:0:0:
357,187,115911,1,8,0:0:0:0:
357,187,116036,1,0,0:0:0:0:
227,83,116286,1,0,0:0:0:0:
354,204,116536,1,8,0:0:0:0:
355,204,116661,1,0,0:0:0:0:
355,205,116723,1,0,0:0:0:0:
355,205,116786,1,8,0:0:0:0:
355,205,116848,1,8,0:0:0:0:
355,205,116911,1,8,0:0:0:0:
351,208,116973,1,8,0:0:0:0:
312,217,117036,1,0,0:0:0:0:
312,217,117161,1,0,0:0:0:0:
312,217,117286,1,8,0:0:0:0:
295,227,117411,1,0,0:0:0:0:
295,227,117473,1,0,0:0:0:0:
295,227,117536,1,8,0:0:0:0:
303,191,117661,1,0,0:0:0:0:
303,191,117786,1,8,0:0:0:0:
140,236,117911,1,0,0:0:0:0:
188,248,118036,1,8,0:0:0:0:
192,248,118098,1,0,0:0:0:0:
192,248,118161,1,0,0:0:0:0:
196,248,118223,1,0,0:0:0:0:
208,248,118286,1,8,0:0:0:0:
208,248,118348,1,8,0:0:0:0:
208,248,118411,1,0,0:0:0:0:
208,248,118473,1,8,0:0:0:0:
208,248,118536,1,0,0:0:0:0:
204,256,118598,1,0,0:0:0:0:
203,263,118661,1,8,0:0:0:0:
203,263,118723,1,0,0:0:0:0:
206,263,118786,1,8,0:0:0:0:
215,145,119036,1,12,0:0:0:0:
215,145,119286,1,8,0:0:0:0:
378,143,119348,1,0,0:0:0:0:
189,168,119411,1,8,0:0:0:0:
189,168,119473,1,8,0:0:0:0:
189,168,119536,1,0,0:0:0:0:
248,96,119598,1,0,0:0:0:0:
248,96,119661,1,8,0:0:0:0:
249,87,119723,1,0,0:0:0:0:
189,168,119786,1,8,0:0:0:0:
189,168,119911,1,0,0:0:0:0:
143,175,120036,1,8,0:0:0:0:
143,175,120098,1,8,0:0:0:0:
143,175,120161,1,0,0:0:0:0:
143,175,120223,1,0,0:0:0:0:
274,168,120286,1,8,0:0:0:0:
274,168,120348,1,0,0:0:0:0:
274,168,120411,1,0,0:0:0:0:
274,168,120473,1,0,0:0:0:0:
274,168,120536,1,8,0:0:0:0:
258,167,120598,1,0,0:0:0:0:
257,167,120661,1,8,0:0:0:0:
257,167,120723,1,8,0:0:0:0:
257,167,120786,1,0,0:0:0:0:
257,167,120848,1,0,0:0:0:0:
257,166,120911,1,8,0:0:0:0:
256,168,120973,1,0,0:0:0:0:
256,168,121036,1,8,0:0:0:0:
151,173,121161,1,0,0:0:0:0:
151,173,121286,1,8,0:0:0:0:
381,139,121348,1,8,0:0:0:0:
385,134,121411,1,0,0:0:0:0:
385,134,121473,1,0,0:0:0:0:
385,134,121536,1,8,0:0:0:0:
385,136,121598,1,0,0:0:0:0:
381,139,121661,1,0,0:0:0:0:
254,190,121786,1,0,0:0:0:0:
253,186,121848,1,0,0:0:0:0:
253,185,121911,1,8,0:0:0:0:
183,203,122036,1,0,0:0:0:0:
183,203,122098,1,0,0:0:0:0:
183,203,122161,1,0,0:0:0:0:
183,203,122223,1,0,0:0:0:0:
223,170,122286,1,8,0:0:0:0:
223,170,122348,1,8,0:0:0:0:
223,170,122411,1,0,0:0:0:0:
223,170,122473,1,0,0:0:0:0:
223,170,122536,1,8,0:0:0:0:
223,170,122598,1,8,0:0:0:0:
223,170,122661,1,0,0:0:0:0:
223,170,122723,1,0,0:0:0:0:
223,170,122786,1,8,0:0:0:0:
223,170,122848,1,0,0:0:0:0:
223,170,122911,1,8,0:0:0:0:
223,170,122973,1,8,0:0:0:0:
223,170,123036,1,0,0:0:0:0:
165,175,123161,1,8,0:0:0:0:
165,175,123223,1,8,0:0:0:0:
169,168,123286,1,0,0:0:0:0:
169,168,123348,1,8,0:0:0:0:
172,163,123411,1,0,0:0:0:0:
172,163,123473,1,0,0:0:0:0:
172,163,123536,1,8,0:0:0:0:
172,163,123598,1,0,0:0:0:0:
171,154,123661,1,8,0:0:0:0:
124,149,123723,1,8,0:0:0:0:
361,234,123786,1,0,0:0:0:0:
352,240,123911,1,0,0:0:0:0:
131,104,123973,1,8,0:0:0:0:
131,104,124036,1,0,0:0:0:0:
231,122,124098,1,0,0:0:0:0:
213,161,124161,1,8,0:0:0:0:
213,161,124223,1,0,0:0:0:0:
213,161,124286,1,8,0:0:0:0:
213,161,124348,1,8,0:0:0:0:
213,161,124411,1,0,0:0:0:0:
213,161,124473,1,8,0:0:0:0:
213,161,124536,1,0,0:0:0:0:
217,158,124598,1,0,0:0:0:0:
216,156,124661,1,8,0:0:0:0:
288,120,124723,1,8,0:0:0:0:
288,120,124786,1,0,0:0:0:0:
288,120,124848,1,0,0:0:0:0:
164,164,124911,1,8,0:0:0:0:
288,120,124973,1,0,0:0:0:0:
288,120,125036,1,8,0:0:0:0:
408,224,125161,1,0,0:0:0:0:
408,224,125223,1,0,0:0:0:0:
408,224,125286,1,8,0:0:0:0:
408,224,125348,1,0,0:0:0:0:
408,224,125411,1,8,0:0:0:0:
408,224,125473,1,8,0:0:0:0:
408,216,125536,1,0,0:0:0:0:
408,216,125598,1,8,0:0:0:0:
408,216,125661,1,0,0:0:0:0:
408,208,125723,1,0,0:0:0:0:
408,208,125786,1,8,0:0:0:0:
152,172,125911,1,0,0:0:0:0:
152,172,125973,1,0,0:0:0:0:
188,192,126036,1,8,0:0:0:0:
188,192,126098,1,8,0:0:0:0:
188,192,126161,1,8,0:0:0:0:
188,192,126223,1,8,0:0:0:0:
188,200,126286,1,0,0:0:0:0:
188,200,126348,1,0,0:0:0:0:
264,140,126411,1,8,0:0:0:0:
264,140,126473,1,8,0:0:0:0:
264,140,126536,1,0,0:0:0:0:
264,140,126598,1,0,0:0:0:0:
264,140,126661,1,8,0:0:0:0:
264,140,126723,1,0,0:0:0:0:
264,140,126786,1,8,0:0:0:0:
264,140,126848,1,8,0:0:0:0:
236,192,126911,1,0,0:0:0:0:
236,192,126973,1,0,0:0:0:0:
236,192,127036,1,8,0:0:0:0:
364,224,127161,1,8,0:0:0:0:
104,176,127223,1,8,0:0:0:0:
352,228,127286,1,0,0:0:0:0:
180,112,127348,1,0,0:0:0:0:
180,112,127411,1,8,0:0:0:0:
220,152,127473,1,0,0:0:0:0:
228,124,127536,1,8,0:0:0:0:
232,116,127598,1,8,0:0:0:0:
240,96,127661,1,0,0:0:0:0:
240,96,127723,1,0,0:0:0:0:
256,188,127786,1,8,0:0:0:0:
160,132,127911,1,0,0:0:0:0:
184,196,128036,1,8,0:0:0:0:
188,200,128098,1,8,0:0:0:0:
188,200,128161,1,0,0:0:0:0:
188,200,128223,1,0,0:0:0:0:
188,200,128286,1,8,0:0:0:0:
188,200,128348,1,0,0:0:0:0:
184,196,128411,1,8,0:0:0:0:
176,184,128473,1,8,0:0:0:0:
192,120,128536,1,0,0:0:0:0:
188,128,128598,1,0,0:0:0:0:
392,216,128661,1,0,0:0:0:0:
392,216,128723,1,0,0:0:0:0:
261,213,128786,1,8,0:0:0:0:
261,213,128848,1,0,0:0:0:0:
261,213,128911,1,8,0:0:0:0:
261,213,128973,1,8,0:0:0:0:
256,210,129036,1,0,0:0:0:0:
250,195,129161,1,0,0:0:0:0:
284,148,129223,1,0,0:0:0:0:
284,148,129286,1,8,0:0:0:0:
169,122,129411,1,0,0:0:0:0:
178,120,129473,1,0,0:0:0:0:
180,117,129536,1,8,0:0:0:0:
197,112,129598,1,0,0:0:0:0:
197,112,129661,1,8,0:0:0:0:
197,112,129723,1,8,0:0:0:0:
183,118,129786,1,0,0:0:0:0:
290,229,129911,1,0,0:0:0:0:
290,229,129973,1,0,0:0:0:0:
154,200,130036,1,8,0:0:0:0:
154,200,130098,1,0,0:0:0:0:
154,200,130161,1,8,0:0:0:0:
154,200,130223,1,8,0:0:0:0:
154,200,130286,1,0,0:0:0:0:
154,200,130348,1,0,0:0:0:0:
154,200,130411,1,8,0:0:0:0:
175,134,130473,1,0,0:0:0:0:
172,135,130536,1,8,0:0:0:0:
172,135,130598,1,8,0:0:0:0:
172,135,130661,1,0,0:0:0:0:
172,135,130723,1,0,0:0:0:0:
112,177,130786,1,8,0:0:0:0:
178,166,130911,1,8,0:0:0:0:
201,163,131036,1,0,0:0:0:0:
230,213,131161,1,0,0:0:0:0:
235,213,131223,1,0,0:0:0:0:
244,168,131286,1,8,0:0:0:0:
244,168,131348,1,8,0:0:0:0:
244,168,131411,1,0,0:0:0:0:
244,168,131473,1,0,0:0:0:0:
244,168,131536,1,8,0:0:0:0:
239,166,131598,1,0,0:0:0:0:
239,166,131661,1,8,0:0:0:0:
239,165,131723,1,8,0:0:0:0:
255,118,131786,1,0,0:0:0:0:
152,148,131848,1,8,0:0:0:0:
160,160,131911,1,0,0:0:0:0:
192,168,131973,1,0,0:0:0:0:
192,172,132036,1,8,0:0:0:0:
196,168,132098,1,8,0:0:0:0:
196,168,132161,1,0,0:0:0:0:
217,165,132223,1,0,0:0:0:0:
217,165,132286,1,8,0:0:0:0:
106,157,132411,1,0,0:0:0:0:
106,157,132536,1,8,0:0:0:0:
141,148,132598,1,0,0:0:0:0:
106,157,132661,1,0,0:0:0:0:
106,157,132723,1,0,0:0:0:0:
106,157,132786,1,8,0:0:0:0:
99,159,132911,1,0,0:0:0:0:
276,158,133036,1,8,0:0:0:0:
142,140,133098,1,8,0:0:0:0:
141,148,133161,1,0,0:0:0:0:
141,148,133223,1,0,0:0:0:0:
166,204,133286,1,8,0:0:0:0:
141,148,133348,1,0,0:0:0:0:
142,178,133411,1,8,0:0:0:0:
166,204,133473,1,8,0:0:0:0:
168,198,133536,1,0,0:0:0:0:
168,198,133598,1,0,0:0:0:0:
168,198,133661,1,8,0:0:0:0:
310,145,133723,1,8,0:0:0:0:
310,145,133786,1,0,0:0:0:0:
310,145,133848,1,8,0:0:0:0:
310,145,133911,1,0,0:0:0:0:
296,156,133973,1,0,0:0:0:0:
153,190,134036,1,8,0:0:0:0:
287,252,134098,1,8,0:0:0:0:
284,174,134161,1,0,0:0:0:0:
289,158,134223,1,0,0:0:0:0:
290,159,134286,1,8,0:0:0:0:
287,252,134348,1,0,0:0:0:0:
287,252,134411,1,0,0:0:0:0:
287,252,134473,1,0,0:0:0:0:
287,252,134536,1,8,0:0:0:0:
287,252,134598,1,8,0:0:0:0:
287,252,134661,1,0,0:0:0:0:
287,252,134723,1,0,0:0:0:0:
287,252,134786,1,8,0:0:0:0:
276,251,134848,1,0,0:0:0:0:
276,251,134911,1,8,0:0:0:0:
276,251,134973,1,8,0:0:0:0:
276,251,135036,1,0,0:0:0:0:
235,195,135286,1,8,0:0:0:0:
132,208,135348,1,8,0:0:0:0:
132,208,135411,1,8,0:0:0:0:
132,208,135473,1,8,0:0:0:0:
132,208,135536,1,0,0:0:0:0:
188,172,135661,1,0,0:0:0:0:
188,172,135786,1,8,0:0:0:0:
244,152,135911,1,0,0:0:0:0:
244,152,136036,1,0,0:0:0:0:
244,152,136286,1,8,0:0:0:0:
132,224,136411,1,0,0:0:0:0:
128,224,136473,1,0,0:0:0:0:
128,224,136536,1,0,0:0:0:0:
124,216,136661,1,8,0:0:0:0:
312,184,136786,1,0,0:0:0:0:
280,180,136848,1,8,0:0:0:0:
232,200,136911,1,0,0:0:0:0:
232,200,136973,1,8,0:0:0:0:
232,204,137036,1,0,0:0:0:0:
176,204,137161,1,0,0:0:0:0:
88,228,137286,1,8,0:0:0:0:
336,140,137411,1,0,0:0:0:0:
320,148,137473,1,0,0:0:0:0:
320,148,137536,1,0,0:0:0:0:
192,184,137661,1,8,0:0:0:0:
264,184,137786,1,0,0:0:0:0:
272,180,137848,1,0,0:0:0:0:
280,224,137911,1,8,0:0:0:0:
384,164,137973,1,8,0:0:0:0:
256,192,138036,12,0,138786,0:0:0:0:
300,104,139036,5,4,0:0:0:0:
296,160,139286,1,0,0:0:0:0:
272,160,139411,1,0,0:0:0:0:
264,176,139786,1,8,0:0:0:0:
272,264,140036,1,0,0:0:0:0:
188,208,140286,1,0,0:0:0:0:
184,200,140536,1,0,0:0:0:0:
240,232,140786,1,0,0:0:0:0:
304,213,141036,1,4,0:0:0:0:
212,156,141286,1,8,0:0:0:0:
348,144,141411,1,8,0:0:0:0:
188,136,141786,1,0,0:0:0:0:
186,127,142036,1,8,0:0:0:0:
220,129,142161,1,0,0:0:0:0:
220,129,142286,1,8,0:0:0:0:
220,129,142411,1,0,0:0:0:0:
256,203,142536,1,8,0:0:0:0:
256,203,142598,1,8,0:0:0:0:
251,201,142661,1,0,0:0:0:0:
249,201,142723,1,0,0:0:0:0:
239,198,142786,1,8,0:0:0:0:
237,199,142911,1,8,0:0:0:0:
225,198,143036,1,4,0:0:0:0:
79,165,143286,1,8,0:0:0:0:
373,148,143411,1,0,0:0:0:0:
373,148,143473,1,0,0:0:0:0:
373,148,143536,1,0,0:0:0:0:
361,138,143661,1,0,0:0:0:0:
361,139,143786,1,8,0:0:0:0:
371,168,143911,1,0,0:0:0:0:
407,181,144036,1,8,0:0:0:0:
327,247,144098,1,0,0:0:0:0:
387,183,144161,1,0,0:0:0:0:
384,182,144223,1,0,0:0:0:0:
380,183,144286,1,8,0:0:0:0:
282,153,144411,1,0,0:0:0:0:
262,150,144473,1,0,0:0:0:0:
260,148,144536,1,8,0:0:0:0:
258,148,144598,1,0,0:0:0:0:
255,147,144661,1,8,0:0:0:0:
252,146,144723,1,8,0:0:0:0:
251,146,144786,1,0,0:0:0:0:
249,146,144848,1,0,0:0:0:0:
248,145,144911,1,8,0:0:0:0:
248,145,144973,1,0,0:0:0:0:
247,145,145036,1,8,0:0:0:0:
289,156,145161,1,0,0:0:0:0:
292,150,145223,1,8,0:0:0:0:
292,150,145286,1,0,0:0:0:0:
104,164,145411,1,0,0:0:0:0:
104,164,145536,1,8,0:0:0:0:
104,164,145661,1,8,0:0:0:0:
80,153,145723,1,8,0:0:0:0:
61,154,145786,1,0,0:0:0:0:
155,155,145911,1,0,0:0:0:0:
196,252,146036,1,8,0:0:0:0:
187,251,146098,1,8,0:0:0:0:
185,251,146161,1,0,0:0:0:0:
181,254,146223,1,8,0:0:0:0:
173,257,146286,1,0,0:0:0:0:
168,253,146348,1,0,0:0:0:0:
168,124,146411,1,8,0:0:0:0:
168,124,146473,1,8,0:0:0:0:
168,124,146536,1,0,0:0:0:0:
288,132,146661,1,8,0:0:0:0:
304,152,146723,1,8,0:0:0:0:
304,148,146786,1,0,0:0:0:0:
304,148,146848,1,0,0:0:0:0:
296,148,146911,1,8,0:0:0:0:
296,148,146973,1,0,0:0:0:0:
140,140,147036,1,0,0:0:0:0:
348,248,147161,1,0,0:0:0:0:
212,208,147286,1,8,0:0:0:0:
160,164,147411,1,0,0:0:0:0:
164,168,147473,1,8,0:0:0:0:
152,160,147536,1,0,0:0:0:0:
152,160,147598,1,0,0:0:0:0:
168,152,147661,1,8,0:0:0:0:
152,160,147723,1,0,0:0:0:0:
148,160,147786,1,8,0:0:0:0:
256,128,147911,1,8,0:0:0:0:
252,128,147973,1,8,0:0:0:0:
240,120,148036,1,0,0:0:0:0:
8,140,148161,1,0,0:0:0:0:
224,152,148286,1,8,0:0:0:0:
220,152,148348,1,8,0:0:0:0:
351,165,148411,1,8,0:0:0:0:
216,156,148473,1,8,0:0:0:0:
208,152,148536,1,0,0:0:0:0:
264,164,148598,1,0,0:0:0:0:
264,164,148661,1,8,0:0:0:0:
175,112,148723,1,8,0:0:0:0:
168,180,148786,1,0,0:0:0:0:
160,176,148848,1,0,0:0:0:0:
120,160,148911,1,8,0:0:0:0:
120,160,148973,1,8,0:0:0:0:
120,160,149036,1,0,0:0:0:0:
288,284,149161,1,0,0:0:0:0:
288,284,149286,1,8,0:0:0:0:
176,136,149411,1,0,0:0:0:0:
168,144,149473,1,8,0:0:0:0:
60,152,149536,1,0,0:0:0:0:
252,132,149598,1,0,0:0:0:0:
252,132,149661,1,0,0:0:0:0:
252,132,149786,1,8,0:0:0:0:
276,108,149911,1,8,0:0:0:0:
276,84,149973,1,0,0:0:0:0:
180,184,150036,1,0,0:0:0:0:
204,176,150161,1,0,0:0:0:0:
216,176,150286,1,8,0:0:0:0:
188,148,150411,1,8,0:0:0:0:
196,152,150473,1,8,0:0:0:0:
112,232,150536,1,0,0:0:0:0:
104,232,150598,1,0,0:0:0:0:
104,232,150661,1,8,0:0:0:0:
104,232,150723,1,0,0:0:0:0:
104,232,150786,1,8,0:0:0:0:
96,232,150848,1,8,0:0:0:0:
96,232,150911,1,0,0:0:0:0:
96,236,150973,1,8,0:0:0:0:
96,236,151036,1,0,0:0:0:0:
200,152,151286,1,8,0:0:0:0:
288,156,151411,1,0,0:0:0:0:
288,156,151473,1,8,0:0:0:0:
288,156,151536,1,0,0:0:0:0:
280,172,151661,1,0,0:0:0:0:
148,200,151786,1,8,0:0:0:0:
160,208,151848,1,0,0:0:0:0:
172,208,151911,1,8,0:0:0:0:
184,208,151973,1,8,0:0:0:0:
180,204,152036,1,0,0:0:0:0:
176,200,152161,1,0,0:0:0:0:
168,204,152286,1,8,0:0:0:0:
91,228,152348,1,8,0:0:0:0:
200,208,152411,1,0,0:0:0:0:
200,208,152473,1,0,0:0:0:0:
192,204,152536,1,8,0:0:0:0:
192,204,152598,1,0,0:0:0:0:
184,204,152661,1,8,0:0:0:0:
184,204,152723,1,8,0:0:0:0:
184,204,152786,1,0,0:0:0:0:
180,204,152848,1,0,0:0:0:0:
180,204,152911,1,8,0:0:0:0:
436,188,152973,1,0,0:0:0:0:
436,188,153036,1,8,0:0:0:0:
280,184,153161,1,0,0:0:0:0:
204,184,153286,1,8,0:0:0:0:
200,184,153348,1,8,0:0:0:0:
200,184,153411,1,0,0:0:0:0:
156,152,153473,1,8,0:0:0:0:
140,192,153536,1,0,0:0:0:0:
277,106,153598,1,0,0:0:0:0:
132,192,153661,1,8,0:0:0:0:
304,188,153786,1,0,0:0:0:0:
296,188,153848,1,0,0:0:0:0:
288,184,153911,1,8,0:0:0:0:
125,133,153973,1,0,0:0:0:0:
157,132,154036,1,0,0:0:0:0:
157,132,154161,1,0,0:0:0:0:
151,127,154286,1,8,0:0:0:0:
233,128,154348,1,8,0:0:0:0:
108,114,154411,1,0,0:0:0:0:
108,114,154473,1,0,0:0:0:0:
296,176,154536,1,8,0:0:0:0:
284,176,154577,1,8,0:0:0:0:
280,176,154619,1,8,0:0:0:0:
276,176,154661,1,0,0:0:0:0:
324,168,154723,1,0,0:0:0:0:
118,167,154786,1,8,0:0:0:0:
317,166,154911,1,8,0:0:0:0:
315,166,155036,1,4,0:0:0:0:
291,216,155286,1,8,0:0:0:0:
164,152,155536,1,0,0:0:0:0:
164,152,155661,1,0,0:0:0:0:
164,152,155786,1,8,0:0:0:0:
157,154,156036,1,0,0:0:0:0:
155,155,156286,1,8,0:0:0:0:
144,134,156536,1,0,0:0:0:0:
144,133,156786,1,0,0:0:0:0:
144,133,157036,1,0,0:0:0:0:
162,193,157286,1,8,0:0:0:0:
162,193,157536,1,0,0:0:0:0:
156,194,157661,1,0,0:0:0:0:
141,190,157786,1,8,0:0:0:0:
137,123,158036,1,0,0:0:0:0:
191,116,158161,1,0,0:0:0:0:
81,156,158286,1,8,0:0:0:0:
81,156,158411,1,8,0:0:0:0:
81,156,158536,1,0,0:0:0:0:
220,138,158661,1,8,0:0:0:0:
201,138,158786,1,8,0:0:0:0:
166,199,159036,1,4,0:0:0:0:
156,116,159286,1,8,0:0:0:0:
156,116,159536,1,0,0:0:0:0:
149,112,159661,1,0,0:0:0:0:
147,112,159786,1,8,0:0:0:0:
147,112,159911,1,8,0:0:0:0:
201,265,160036,1,0,0:0:0:0:
201,265,160286,1,0,0:0:0:0:
201,265,160536,1,0,0:0:0:0:
111,114,160786,1,8,0:0:0:0:
105,112,160911,1,0,0:0:0:0:
105,112,161036,1,0,0:0:0:0:
91,116,161286,1,8,0:0:0:0:
86,114,161536,1,0,0:0:0:0:
173,135,161661,1,0,0:0:0:0:
85,123,161786,1,8,0:0:0:0:
302,212,162036,1,0,0:0:0:0:
294,224,162161,1,0,0:0:0:0:
293,226,162286,1,8,0:0:0:0:
292,227,162411,1,0,0:0:0:0:
194,226,162536,1,8,0:0:0:0:
189,227,162598,1,8,0:0:0:0:
189,227,162661,1,0,0:0:0:0:
189,227,162723,1,0,0:0:0:0:
189,227,162786,1,8,0:0:0:0:
189,227,162911,1,8,0:0:0:0:
202,132,163036,1,4,0:0:0:0:
188,227,163161,1,0,0:0:0:0:
188,227,163286,1,8,0:0:0:0:
291,202,163348,1,0,0:0:0:0:
252,196,163411,1,8,0:0:0:0:
228,198,163473,1,8,0:0:0:0:
260,133,163536,1,0,0:0:0:0:
297,96,163598,1,8,0:0:0:0:
260,133,163661,1,0,0:0:0:0:
310,157,163723,1,0,0:0:0:0:
310,157,163786,1,8,0:0:0:0:
317,215,163911,1,8,0:0:0:0:
287,182,163973,1,8,0:0:0:0:
356,186,164036,1,0,0:0:0:0:
370,169,164161,1,0,0:0:0:0:
369,170,164223,1,0,0:0:0:0:
370,170,164286,1,8,0:0:0:0:
261,82,164348,1,0,0:0:0:0:
370,180,164411,1,0,0:0:0:0:
370,180,164473,1,0,0:0:0:0:
370,180,164536,1,8,0:0:0:0:
341,188,164598,1,8,0:0:0:0:
341,188,164661,1,0,0:0:0:0:
346,187,164723,1,8,0:0:0:0:
331,167,164786,1,0,0:0:0:0:
336,181,164848,1,0,0:0:0:0:
337,182,164911,1,8,0:0:0:0:
339,184,164973,1,8,0:0:0:0:
339,184,165036,1,0,0:0:0:0:
260,237,165161,1,0,0:0:0:0:
199,37,165286,1,8,0:0:0:0:
179,161,165348,1,8,0:0:0:0:
189,145,165411,1,0,0:0:0:0:
189,145,165473,1,0,0:0:0:0:
188,145,165536,1,8,0:0:0:0:
211,173,165661,1,0,0:0:0:0:
211,173,165723,1,0,0:0:0:0:
211,173,165786,1,8,0:0:0:0:
211,173,165848,1,8,0:0:0:0:
211,173,165911,1,0,0:0:0:0:
211,173,166036,1,0,0:0:0:0:
211,173,166098,1,0,0:0:0:0:
223,175,166161,1,8,0:0:0:0:
175,157,166223,1,0,0:0:0:0:
168,151,166286,1,8,0:0:0:0:
166,152,166348,1,8,0:0:0:0:
166,152,166411,1,0,0:0:0:0:
165,152,166473,1,0,0:0:0:0:
165,152,166536,1,8,0:0:0:0:
164,152,166598,1,0,0:0:0:0:
164,152,166661,1,8,0:0:0:0:
164,152,166723,1,8,0:0:0:0:
281,173,166786,1,0,0:0:0:0:
281,173,166848,1,0,0:0:0:0:
316,281,166911,1,8,0:0:0:0:
206,175,166973,1,0,0:0:0:0:
206,175,167036,1,8,0:0:0:0:
216,164,167161,1,0,0:0:0:0:
215,166,167286,1,8,0:0:0:0:
390,182,167348,1,8,0:0:0:0:
211,216,167411,1,0,0:0:0:0:
352,175,167473,1,8,0:0:0:0:
211,216,167536,1,8,0:0:0:0:
422,178,167598,1,8,0:0:0:0:
236,199,167661,1,0,0:0:0:0:
236,199,167786,1,8,0:0:0:0:
296,172,167911,1,0,0:0:0:0:
296,172,167973,1,8,0:0:0:0:
288,172,168036,1,0,0:0:0:0:
288,172,168161,1,0,0:0:0:0:
285,171,168286,1,8,0:0:0:0:
233,183,168411,1,8,0:0:0:0:
233,183,168473,1,8,0:0:0:0:
222,180,168536,1,0,0:0:0:0:
216,178,168661,1,8,0:0:0:0:
216,178,168786,1,0,0:0:0:0:
193,180,168848,1,8,0:0:0:0:
185,180,168911,1,8,0:0:0:0:
184,180,168973,1,8,0:0:0:0:
165,185,169036,1,0,0:0:0:0:
291,160,169161,1,0,0:0:0:0:
261,163,169286,1,8,0:0:0:0:
170,164,169411,1,0,0:0:0:0:
192,158,169473,1,0,0:0:0:0:
191,158,169536,1,0,0:0:0:0:
184,154,169598,1,8,0:0:0:0:
225,132,169661,1,0,0:0:0:0:
218,147,169723,1,0,0:0:0:0:
212,149,169786,1,8,0:0:0:0:
388,227,169911,1,0,0:0:0:0:
388,227,169973,1,0,0:0:0:0:
309,186,170036,1,8,0:0:0:0:
309,186,170098,5,0,0:0:0:0:
309,186,170161,1,0,0:0:0:0:
309,186,170223,1,0,0:0:0:0:
309,186,170286,1,8,0:0:0:0:
309,186,170348,1,0,0:0:0:0:
309,186,170411,1,8,0:0:0:0:
309,186,170473,1,8,0:0:0:0:
309,186,170536,1,0,0:0:0:0:
309,186,170598,1,0,0:0:0:0:
309,186,170661,1,8,0:0:0:0:
144,208,170723,1,0,0:0:0:0:
144,184,170786,1,8,0:0:0:0:
240,128,170848,1,8,0:0:0:0:
236,128,170911,1,0,0:0:0:0:
240,128,170973,1,0,0:0:0:0:
309,186,171036,1,0,0:0:0:0:
281,138,171286,5,0,0:0:0:0:
281,138,171411,1,0,0:0:0:0:
281,138,171536,1,0,0:0:0:0:
281,138,171786,1,0,0:0:0:0:
322,154,172036,1,8,0:0:0:0:
151,191,172286,1,8,0:0:0:0:
122,195,172536,1,8,0:0:0:0:
122,195,172786,1,8,0:0:0:0:
118,191,173036,1,8,0:0:0:0:
81,182,173286,1,8,0:0:0:0:
81,182,173536,1,8,0:0:0:0:
81,182,173786,1,8,0:0:0:0:
104,186,174036,1,8,0:0:0:0:
81,182,174161,1,8,0:0:0:0:
81,182,174286,1,8,0:0:0:0:
81,182,174411,1,8,0:0:0:0:
81,182,174536,1,8,0:0:0:0:
81,182,174661,1,8,0:0:0:0:
81,182,174786,1,8,0:0:0:0:
80,178,174911,1,8,0:0:0:0:
82,180,175036,1,4,0:0:0:0:
376,208,175286,1,8,0:0:0:0:
136,220,175411,1,0,0:0:0:0:
140,216,175473,1,0,0:0:0:0:
140,216,175536,1,0,0:0:0:0:
344,264,175661,1,0,0:0:0:0:
344,264,175786,1,8,0:0:0:0:
152,172,175911,1,0,0:0:0:0:
152,172,175973,1,8,0:0:0:0:
144,172,176036,1,0,0:0:0:0:
176,192,176161,1,0,0:0:0:0:
180,184,176286,1,8,0:0:0:0:
276,208,176411,1,8,0:0:0:0:
276,208,176473,1,8,0:0:0:0:
276,208,176536,1,0,0:0:0:0:
274,68,176661,1,0,0:0:0:0:
256,152,176786,1,8,0:0:0:0:
326,168,176848,1,0,0:0:0:0:
326,168,176911,1,8,0:0:0:0:
316,176,176973,1,8,0:0:0:0:
168,268,177036,1,0,0:0:0:0:
308,144,177161,1,0,0:0:0:0:
124,88,177286,1,8,0:0:0:0:
252,160,177411,1,0,0:0:0:0:
252,160,177473,1,0,0:0:0:0:
252,160,177536,1,0,0:0:0:0:
252,160,177661,1,0,0:0:0:0:
252,160,177786,1,8,0:0:0:0:
180,152,177911,1,0,0:0:0:0:
300,192,178036,1,0,0:0:0:0:
304,188,178098,1,0,0:0:0:0:
304,188,178161,1,8,0:0:0:0:
304,188,178223,1,8,0:0:0:0:
300,188,178286,1,0,0:0:0:0:
300,188,178348,1,0,0:0:0:0:
300,188,178411,1,8,0:0:0:0:
300,188,178473,1,0,0:0:0:0:
300,188,178536,1,8,0:0:0:0:
300,188,178598,1,8,0:0:0:0:
271,189,178661,1,0,0:0:0:0:
271,189,178723,1,0,0:0:0:0:
214,169,178786,1,8,0:0:0:0:
216,99,178911,1,8,0:0:0:0:
253,139,179036,1,4,0:0:0:0:
216,99,179286,1,8,0:0:0:0:
310,167,179411,1,0,0:0:0:0:
306,166,179473,1,0,0:0:0:0:
306,166,179536,1,0,0:0:0:0:
310,167,179661,1,0,0:0:0:0:
310,167,179786,1,8,0:0:0:0:
156,178,179911,1,8,0:0:0:0:
156,178,179973,1,8,0:0:0:0:
156,178,180036,1,0,0:0:0:0:
156,178,180161,1,0,0:0:0:0:
156,178,180286,1,8,0:0:0:0:
276,202,180411,1,0,0:0:0:0:
276,202,180473,1,0,0:0:0:0:
276,202,180536,1,8,0:0:0:0:
276,202,180661,1,0,0:0:0:0:
276,202,180723,1,0,0:0:0:0:
276,202,180786,1,8,0:0:0:0:
276,202,180848,1,8,0:0:0:0:
236,168,180911,1,8,0:0:0:0:
276,202,180973,1,8,0:0:0:0:
276,202,181036,1,0,0:0:0:0:
271,203,181161,1,0,0:0:0:0:
271,203,181286,1,8,0:0:0:0:
371,236,181411,1,0,0:0:0:0:
371,236,181473,1,0,0:0:0:0:
371,236,181536,1,0,0:0:0:0:
371,236,181661,1,0,0:0:0:0:
422,226,181786,1,8,0:0:0:0:
236,168,181848,1,8,0:0:0:0:
236,168,181911,1,0,0:0:0:0:
422,226,181973,1,0,0:0:0:0:
220,196,182036,1,8,0:0:0:0:
220,196,182098,1,8,0:0:0:0:
256,161,182161,1,0,0:0:0:0:
256,161,182223,1,0,0:0:0:0:
256,161,182286,1,8,0:0:0:0:
256,161,182348,1,0,0:0:0:0:
256,161,182411,1,8,0:0:0:0:
236,168,182473,1,0,0:0:0:0:
251,141,182536,1,0,0:0:0:0:
251,141,183036,1,4,0:0:0:0:
288,160,183286,1,8,0:0:0:0:
312,176,183411,1,0,0:0:0:0:
312,176,183473,1,0,0:0:0:0:
164,188,183536,1,0,0:0:0:0:
164,188,183661,1,0,0:0:0:0:
164,188,183786,1,8,0:0:0:0:
160,112,183911,1,8,0:0:0:0:
160,112,183973,1,0,0:0:0:0:
160,112,184036,1,0,0:0:0:0:
160,116,184161,1,0,0:0:0:0:
160,116,184286,1,8,0:0:0:0:
160,116,184411,1,0,0:0:0:0:
160,116,184473,1,0,0:0:0:0:
160,116,184536,1,0,0:0:0:0:
160,116,184598,1,8,0:0:0:0:
160,116,184661,1,0,0:0:0:0:
160,112,184786,1,8,0:0:0:0:
160,112,184911,1,8,0:0:0:0:
160,112,184973,1,8,0:0:0:0:
160,112,185036,1,0,0:0:0:0:
164,120,185161,1,0,0:0:0:0:
164,120,185286,1,8,0:0:0:0:
164,120,185411,1,0,0:0:0:0:
160,120,185473,1,8,0:0:0:0:
160,120,185536,1,0,0:0:0:0:
220,204,185661,1,0,0:0:0:0:
220,204,185786,1,8,0:0:0:0:
220,204,185911,1,0,0:0:0:0:
220,204,186036,1,0,0:0:0:0:
220,204,186098,1,0,0:0:0:0:
220,204,186161,1,8,0:0:0:0:
220,204,186223,1,0,0:0:0:0:
220,204,186286,1,8,0:0:0:0:
212,208,186348,1,8,0:0:0:0:
212,208,186411,1,0,0:0:0:0:
212,204,186473,1,0,0:0:0:0:
212,204,186536,1,8,0:0:0:0:
212,204,186598,1,0,0:0:0:0:
212,204,186661,1,8,0:0:0:0:
212,204,186723,1,8,0:0:0:0:
212,204,186786,1,0,0:0:0:0:
212,204,186848,1,0,0:0:0:0:
208,192,186911,1,8,0:0:0:0:
208,192,186973,1,8,0:0:0:0:
208,192,187036,1,0,0:0:0:0:
204,184,187161,1,0,0:0:0:0:
204,184,187286,1,8,0:0:0:0:
204,184,187411,1,0,0:0:0:0:
204,184,187473,1,0,0:0:0:0:
204,184,187536,1,0,0:0:0:0:
204,188,187661,1,0,0:0:0:0:
200,188,187786,1,8,0:0:0:0:
200,188,187848,1,8,0:0:0:0:
200,188,187911,1,0,0:0:0:0:
200,188,187973,1,0,0:0:0:0:
200,188,188036,1,0,0:0:0:0:
200,188,188161,1,0,0:0:0:0:
200,188,188286,1,8,0:0:0:0:
188,200,188411,1,0,0:0:0:0:
188,200,188473,1,8,0:0:0:0:
184,204,188536,1,0,0:0:0:0:
184,204,188661,1,8,0:0:0:0:
184,208,188786,1,0,0:0:0:0:
184,208,188848,1,8,0:0:0:0:
184,208,188911,1,8,0:0:0:0:
184,208,188973,1,8,0:0:0:0:
184,208,189036,1,0,0:0:0:0:
184,200,189161,1,0,0:0:0:0:
184,192,189286,1,8,0:0:0:0:
184,192,189411,1,0,0:0:0:0:
184,192,189473,1,0,0:0:0:0:
184,192,189536,1,8,0:0:0:0:
184,204,189661,1,0,0:0:0:0:
180,200,189786,1,8,0:0:0:0:
180,200,189848,1,8,0:0:0:0:
180,200,189911,1,0,0:0:0:0:
176,192,190036,1,8,0:0:0:0:
176,192,190098,1,8,0:0:0:0:
176,192,190161,1,0,0:0:0:0:
176,192,190223,1,0,0:0:0:0:
176,192,190286,1,8,0:0:0:0:
168,192,190348,1,8,0:0:0:0:
168,192,190411,1,0,0:0:0:0:
168,192,190473,1,0,0:0:0:0:
168,192,190536,1,8,0:0:0:0:
168,192,190661,1,0,0:0:0:0:
132,220,191036,1,4,0:0:0:0:
132,220,191286,1,8,0:0:0:0:
132,220,191411,1,0,0:0:0:0:
132,220,191473,1,0,0:0:0:0:
132,220,191536,1,0,0:0:0:0:
144,216,191661,1,0,0:0:0:0:
144,216,191786,1,8,0:0:0:0:
224,224,191911,1,8,0:0:0:0:
192,216,191973,1,0,0:0:0:0:
192,216,192036,1,0,0:0:0:0:
192,216,192161,1,0,0:0:0:0:
188,252,192286,1,8,0:0:0:0:
188,252,192411,1,0,0:0:0:0:
184,260,192473,1,0,0:0:0:0:
184,260,192536,1,0,0:0:0:0:
180,260,192661,1,0,0:0:0:0:
184,248,192786,1,8,0:0:0:0:
180,252,192848,1,0,0:0:0:0:
176,264,192911,1,8,0:0:0:0:
172,264,192973,1,8,0:0:0:0:
168,264,193036,1,0,0:0:0:0:
168,268,193161,1,0,0:0:0:0:
164,268,193286,1,8,0:0:0:0:
233,172,193411,1,0,0:0:0:0:
233,172,193473,1,0,0:0:0:0:
233,172,193536,1,0,0:0:0:0:
233,172,193661,1,0,0:0:0:0:
233,172,193786,1,8,0:0:0:0:
208,220,193911,5,8,0:0:0:0:
208,220,193973,1,8,0:0:0:0:
199,219,194036,1,0,0:0:0:0:
196,185,194161,1,0,0:0:0:0:
196,185,194286,1,8,0:0:0:0:
189,191,194411,1,0,0:0:0:0:
189,191,194473,1,0,0:0:0:0:
188,191,194536,1,8,0:0:0:0:
171,192,194661,1,8,0:0:0:0:
171,192,194723,1,8,0:0:0:0:
163,199,194786,1,0,0:0:0:0:
152,198,194848,1,0,0:0:0:0:
151,198,194911,1,8,0:0:0:0:
150,198,194973,1,0,0:0:0:0:
144,200,195036,1,0,0:0:0:0:
141,200,195161,1,0,0:0:0:0:
141,201,195286,1,8,0:0:0:0:
134,189,195411,1,0,0:0:0:0:
128,183,195473,1,8,0:0:0:0:
127,183,195536,1,8,0:0:0:0:
126,183,195661,1,0,0:0:0:0:
115,187,195786,1,8,0:0:0:0:
113,182,195911,1,8,0:0:0:0:
113,182,195973,1,0,0:0:0:0:
113,182,196036,1,0,0:0:0:0:
188,187,196161,1,0,0:0:0:0:
201,182,196286,1,8,0:0:0:0:
173,222,196411,1,0,0:0:0:0:
173,222,196473,1,8,0:0:0:0:
173,222,196536,1,0,0:0:0:0:
192,235,196661,1,0,0:0:0:0:
190,232,196723,1,0,0:0:0:0:
187,243,196786,1,8,0:0:0:0:
180,266,196848,1,0,0:0:0:0:
172,266,196911,1,8,0:0:0:0:
164,266,196973,1,8,0:0:0:0:
163,268,197036,1,0,0:0:0:0:
160,269,197161,1,0,0:0:0:0:
160,270,197286,1,8,0:0:0:0:
151,264,197411,1,8,0:0:0:0:
141,268,197473,1,0,0:0:0:0:
125,263,197536,1,0,0:0:0:0:
126,262,197661,1,0,0:0:0:0:
126,268,197786,1,8,0:0:0:0:
121,275,197911,1,0,0:0:0:0:
118,263,198036,1,8,0:0:0:0:
118,262,198098,1,0,0:0:0:0:
113,263,198161,1,0,0:0:0:0:
113,263,198223,1,0,0:0:0:0:
98,262,198286,1,8,0:0:0:0:
96,259,198348,1,8,0:0:0:0:
97,259,198411,1,0,0:0:0:0:
99,262,198473,1,0,0:0:0:0:
99,261,198536,1,8,0:0:0:0:
95,270,198598,1,0,0:0:0:0:
91,268,198661,1,0,0:0:0:0:
91,263,198723,1,0,0:0:0:0:
91,263,198786,1,8,0:0:0:0:
88,248,198848,1,8,0:0:0:0:
81,247,198911,1,0,0:0:0:0:
81,247,198973,1,0,0:0:0:0:
81,247,199036,1,0,0:0:0:0:
77,251,199286,1,8,0:0:0:0:
74,251,199411,1,0,0:0:0:0:
66,250,199473,1,0,0:0:0:0:
65,250,199536,1,0,0:0:0:0:
65,250,199661,1,0,0:0:0:0:
62,254,199786,1,8,0:0:0:0:
61,276,199911,1,8,0:0:0:0:
61,289,199973,1,0,0:0:0:0:
61,283,200036,1,0,0:0:0:0:
66,292,200161,1,0,0:0:0:0:
64,293,200286,1,8,0:0:0:0:
61,296,200411,1,0,0:0:0:0:
61,295,200473,1,0,0:0:0:0:
61,294,200536,1,8,0:0:0:0:
57,303,200661,1,0,0:0:0:0:
56,310,200786,1,0,0:0:0:0:
56,311,200848,1,8,0:0:0:0:
56,311,200911,1,0,0:0:0:0:
48,313,200973,1,0,0:0:0:0:
47,313,201036,1,0,0:0:0:0:
59,303,201161,1,0,0:0:0:0:
59,304,201286,1,8,0:0:0:0:
53,318,201411,1,0,0:0:0:0:
53,326,201473,1,8,0:0:0:0:
50,328,201536,1,0,0:0:0:0:
71,312,201661,1,0,0:0:0:0:
67,311,201786,1,8,0:0:0:0:
66,308,201911,1,8,0:0:0:0:
66,308,201973,1,8,0:0:0:0:
66,308,202036,1,0,0:0:0:0:
66,308,202161,1,0,0:0:0:0:
64,309,202223,1,0,0:0:0:0:
60,312,202286,1,8,0:0:0:0:
56,303,202411,1,0,0:0:0:0:
56,303,202473,1,0,0:0:0:0:
56,305,202536,1,8,0:0:0:0:
86,288,202598,1,8,0:0:0:0:
81,291,202661,1,0,0:0:0:0:
81,292,202723,1,0,0:0:0:0:
79,293,202786,1,8,0:0:0:0:
74,307,202848,1,0,0:0:0:0:
66,308,202911,1,8,0:0:0:0:
66,308,202973,1,8,0:0:0:0:
66,308,203036,1,0,0:0:0:0:
274,198,203286,1,8,0:0:0:0:
261,209,203536,1,0,0:0:0:0:
261,210,203661,1,0,0:0:0:0:
260,209,203786,1,8,0:0:0:0:
179,216,204036,1,0,0:0:0:0:
198,282,204286,1,8,0:0:0:0:
192,295,204536,1,0,0:0:0:0:
191,295,204661,1,0,0:0:0:0:
191,295,204786,1,8,0:0:0:0:
182,310,204911,1,0,0:0:0:0:
202,291,205036,1,0,0:0:0:0:
202,291,205098,1,0,0:0:0:0:
202,291,205161,1,0,0:0:0:0:
202,291,205223,1,0,0:0:0:0:
202,291,205286,1,8,0:0:0:0:
195,198,205411,1,0,0:0:0:0:
194,218,205536,1,8,0:0:0:0:
177,224,205598,1,0,0:0:0:0:
176,227,205661,1,0,0:0:0:0:
176,227,205723,1,0,0:0:0:0:
177,227,205786,1,8,0:0:0:0:
180,234,205911,1,0,0:0:0:0:
191,173,206036,1,8,0:0:0:0:
189,177,206098,1,8,0:0:0:0:
189,179,206161,1,8,0:0:0:0:
190,182,206223,1,8,0:0:0:0:
190,183,206286,1,0,0:0:0:0:
190,199,206348,1,0,0:0:0:0:
184,212,206411,1,8,0:0:0:0:
184,213,206473,1,0,0:0:0:0:
175,216,206536,1,8,0:0:0:0:
175,216,206598,1,8,0:0:0:0:
175,213,206661,1,0,0:0:0:0:
176,227,206723,1,0,0:0:0:0:
173,222,206786,1,8,0:0:0:0:
173,227,206848,1,0,0:0:0:0:
173,227,206911,1,8,0:0:0:0:
178,258,207036,1,4,0:0:0:0:
