osu file format v14

[General]
AudioFilename: Helblinde Heavens Fall bpm260.mp3
AudioLeadIn: 0
PreviewTime: -1
Countdown: 0
SampleSet: None
StackLeniency: 0.7
Mode: 1
LetterboxInBreaks: 0
WidescreenStoryboard: 1

[Editor]
DistanceSpacing: 1.6
BeatDivisor: 4
GridSize: 4
TimelineZoom: 3.199999

[Metadata]
Title:Heaven's Fall (Speed Up Ver.)
TitleUnicode:Heaven's Fall (Speed Up Ver.)
Artist:Helblinde
ArtistUnicode:Helblinde
Creator:hoku-4625
Version:Shallty's Warrior(BPM260)
Source:
Tags:
BeatmapID:1610536
BeatmapSetID:764382

[Difficulty]
HPDrainRate:5
CircleSize:5
OverallDifficulty:5
ApproachRate:5
SliderMultiplier:1.4
SliderTickRate:1

[Events]
//Background and Video events
0,0,"arunodoa.jpg",0,0
//Break Periods
//Storyboard Layer 0 (Background)
//Storyboard Layer 1 (Fail)
//Storyboard Layer 2 (Pass)
//Storyboard Layer 3 (Foreground)
//Storyboard Sound Samples

[TimingPoints]
65.4390813769248,230.769230769231,4,1,0,86,1,0
78526,-100,4,1,0,86,0,1
93296,-100,4,1,0,86,0,0
132065,-100,4,1,0,86,0,1
157911,-100,4,1,0,86,0,0

[HitObjects]
180,248,65,5,0,0:0:0:0:
248,248,757,5,0,0:0:0:0:
248,248,873,1,0,0:0:0:0:
248,248,988,1,8,0:0:0:0:
292,212,1219,1,0,0:0:0:0:
292,212,1450,1,8,0:0:0:0:
192,180,1565,1,0,0:0:0:0:
280,208,1680,1,0,0:0:0:0:
260,192,1911,1,8,0:0:0:0:
192,136,2142,1,8,0:0:0:0:
200,152,2257,1,0,0:0:0:0:
192,136,2373,1,8,0:0:0:0:
192,136,2603,1,0,0:0:0:0:
236,168,2950,1,0,0:0:0:0:
236,168,3065,1,8,0:0:0:0:
232,180,3296,1,0,0:0:0:0:
248,176,3411,1,8,0:0:0:0:
232,180,3526,1,0,0:0:0:0:
224,132,3757,1,0,0:0:0:0:
224,132,3988,1,0,0:0:0:0:
164,136,4103,1,0,0:0:0:0:
220,128,4219,1,8,0:0:0:0:
220,128,4450,1,8,0:0:0:0:
216,132,4680,1,0,0:0:0:0:
216,152,4911,1,0,0:0:0:0:
200,152,5026,1,0,0:0:0:0:
200,144,5142,1,8,0:0:0:0:
200,144,5373,1,0,0:0:0:0:
196,144,5488,1,8,0:0:0:0:
188,120,5719,1,0,0:0:0:0:
244,136,5834,1,0,0:0:0:0:
244,136,6065,1,8,0:0:0:0:
244,136,6296,1,0,0:0:0:0:
212,160,6526,1,0,0:0:0:0:
184,160,6642,1,0,0:0:0:0:
184,160,6757,1,0,0:0:0:0:
192,136,6988,1,8,0:0:0:0:
232,128,7103,1,0,0:0:0:0:
192,136,7219,1,0,0:0:0:0:
268,180,7450,1,0,0:0:0:0:
272,168,7680,1,8,0:0:0:0:
272,168,7911,1,0,0:0:0:0:
264,168,8026,1,8,0:0:0:0:
224,192,8257,1,8,0:0:0:0:
224,164,8373,1,0,0:0:0:0:
240,156,8603,1,0,0:0:0:0:
200,116,8719,1,0,0:0:0:0:
240,156,8834,1,8,0:0:0:0:
240,156,9065,1,8,0:0:0:0:
272,140,9296,1,0,0:0:0:0:
264,172,9526,1,8,0:0:0:0:
264,172,9642,1,8,0:0:0:0:
264,172,9757,1,0,0:0:0:0:
264,172,9988,1,8,0:0:0:0:
264,172,10219,1,0,0:0:0:0:
264,172,10334,1,0,0:0:0:0:
264,172,10450,1,0,0:0:0:0:
220,152,10680,1,8,0:0:0:0:
232,168,10796,1,0,0:0:0:0:
220,152,10911,1,0,0:0:0:0:
248,164,11142,1,0,0:0:0:0:
256,192,11603,1,8,0:0:0:0:
264,192,12065,1,8,0:0:0:0:
276,204,12526,1,8,0:0:0:0:
256,144,12757,1,0,0:0:0:0:
240,188,12988,1,0,0:0:0:0:
240,188,13219,1,8,0:0:0:0:
240,188,13334,1,0,0:0:0:0:
232,188,13450,1,0,0:0:0:0:
240,188,13680,1,8,0:0:0:0:
256,164,13911,1,0,0:0:0:0:
256,164,14026,1,0,0:0:0:0:
232,140,14142,1,0,0:0:0:0:
256,164,14257,1,8,0:0:0:0:
256,164,14372,1,0,0:0:0:0:
256,200,14603,1,8,0:0:0:0:
288,200,14834,1,0,0:0:0:0:
252,160,15065,1,0,0:0:0:0:
252,160,15180,1,0,0:0:0:0:
252,160,15296,1,8,0:0:0:0:
252,160,15411,1,0,0:0:0:0:
256,156,15526,1,8,0:0:0:0:
256,156,15757,1,8,0:0:0:0:
256,156,15988,1,8,0:0:0:0:
256,156,16219,1,8,0:0:0:0:
232,156,16334,1,8,0:0:0:0:
256,156,16450,1,8,0:0:0:0:
244,140,16680,1,0,0:0:0:0:
220,144,16911,1,8,0:0:0:0:
208,140,17026,1,8,0:0:0:0:
216,184,17142,1,0,0:0:0:0:
192,136,17373,1,8,0:0:0:0:
196,144,17488,1,0,0:0:0:0:
216,184,17603,1,8,0:0:0:0:
216,184,17834,1,0,0:0:0:0:
216,184,17950,1,8,0:0:0:0:
256,152,18180,1,0,0:0:0:0:
224,172,18296,1,8,0:0:0:0:
216,172,18526,1,0,0:0:0:0:
228,156,18757,1,8,0:0:0:0:
228,156,18873,1,8,0:0:0:0:
224,152,18988,1,0,0:0:0:0:
224,128,19103,1,8,0:0:0:0:
288,168,19219,1,0,0:0:0:0:
268,136,19334,1,0,0:0:0:0:
288,168,19450,1,8,0:0:0:0:
248,136,19680,1,0,0:0:0:0:
288,168,19796,1,8,0:0:0:0:
244,136,20026,1,0,0:0:0:0:
280,164,20142,1,8,0:0:0:0:
264,152,20373,1,0,0:0:0:0:
252,160,20603,1,8,0:0:0:0:
208,152,20719,1,0,0:0:0:0:
200,152,20834,1,0,0:0:0:0:
248,164,21065,1,8,0:0:0:0:
228,172,21296,1,4,0:0:0:0:
228,172,21526,1,4,0:0:0:0:
228,172,21757,1,12,0:0:0:0:
228,172,21988,1,4,0:0:0:0:
232,184,22219,5,4,0:0:0:0:
280,136,22450,1,8,0:0:0:0:
280,136,22680,1,8,0:0:0:0:
280,136,22911,1,8,0:0:0:0:
280,136,23142,1,8,0:0:0:0:
280,136,23373,1,8,0:0:0:0:
280,136,23603,1,8,0:0:0:0:
280,136,23834,1,8,0:0:0:0:
280,136,24065,1,8,0:0:0:0:
280,136,24296,1,8,0:0:0:0:
280,136,24526,1,8,0:0:0:0:
280,136,24757,1,8,0:0:0:0:
280,136,24988,1,8,0:0:0:0:
280,136,25219,1,8,0:0:0:0:
280,136,25450,1,8,0:0:0:0:
280,136,25680,1,8,0:0:0:0:
280,136,25911,1,8,0:0:0:0:
280,136,26026,1,8,0:0:0:0:
280,136,26142,1,8,0:0:0:0:
280,136,26257,1,8,0:0:0:0:
280,136,26373,1,0,0:0:0:0:
280,136,26489,1,8,0:0:0:0:
280,136,26604,1,8,0:0:0:0:
280,136,26719,1,8,0:0:0:0:
280,136,26834,1,0,0:0:0:0:
280,136,26950,1,8,0:0:0:0:
280,136,27065,1,8,0:0:0:0:
280,136,27181,1,8,0:0:0:0:
280,136,27296,1,0,0:0:0:0:
280,136,27411,1,8,0:0:0:0:
212,160,27526,1,8,0:0:0:0:
212,160,27642,1,8,0:0:0:0:
216,144,27757,1,0,0:0:0:0:
256,132,27815,1,0,0:0:0:0:
228,160,27873,1,8,0:0:0:0:
236,164,27930,1,0,0:0:0:0:
228,160,27988,1,8,0:0:0:0:
236,160,28046,1,8,0:0:0:0:
252,136,28103,1,0,0:0:0:0:
228,160,28161,1,8,0:0:0:0:
252,136,28219,1,0,0:0:0:0:
228,160,28276,1,8,0:0:0:0:
232,148,28334,1,8,0:0:0:0:
228,160,28392,1,8,0:0:0:0:
228,144,28450,1,0,0:0:0:0:
228,160,28507,1,8,0:0:0:0:
224,144,28565,1,8,0:0:0:0:
252,140,28623,1,8,0:0:0:0:
224,140,28680,1,0,0:0:0:0:
236,148,28911,1,0,0:0:0:0:
220,136,29142,1,0,0:0:0:0:
224,148,29200,1,0,0:0:0:0:
220,136,29257,1,0,0:0:0:0:
228,144,29315,1,0,0:0:0:0:
220,136,29373,1,8,0:0:0:0:
240,160,29603,1,4,0:0:0:0:
240,160,29834,1,4,0:0:0:0:
192,148,30065,1,8,0:0:0:0:
224,148,30123,1,8,0:0:0:0:
192,148,30180,1,0,0:0:0:0:
220,144,30296,1,8,0:0:0:0:
216,136,30411,1,0,0:0:0:0:
212,136,30469,1,0,0:0:0:0:
216,136,30526,1,0,0:0:0:0:
204,148,30642,1,0,0:0:0:0:
212,136,30700,1,0,0:0:0:0:
208,144,30757,1,8,0:0:0:0:
216,112,30873,1,8,0:0:0:0:
220,116,30988,1,0,0:0:0:0:
240,108,31046,1,0,0:0:0:0:
240,108,31103,1,0,0:0:0:0:
224,120,31161,1,0,0:0:0:0:
216,120,31219,1,8,0:0:0:0:
216,120,31334,1,8,0:0:0:0:
308,216,31450,1,0,0:0:0:0:
236,124,31565,1,8,0:0:0:0:
216,124,31623,1,8,0:0:0:0:
232,124,31680,1,0,0:0:0:0:
216,124,31796,1,8,0:0:0:0:
216,120,31853,1,8,0:0:0:0:
216,124,31911,1,0,0:0:0:0:
216,124,31969,1,8,0:0:0:0:
216,120,32084,1,8,0:0:0:0:
216,120,32142,1,0,0:0:0:0:
240,96,32257,1,8,0:0:0:0:
264,204,32373,1,0,0:0:0:0:
288,128,32526,1,0,0:0:0:0:
280,136,32603,1,8,0:0:0:0:
288,148,32719,1,0,0:0:0:0:
280,168,32834,1,8,0:0:0:0:
288,180,32892,1,0,0:0:0:0:
288,180,32950,1,8,0:0:0:0:
288,180,33007,1,0,0:0:0:0:
288,184,33065,1,8,0:0:0:0:
288,184,33180,1,8,0:0:0:0:
288,204,33296,1,0,0:0:0:0:
288,204,33411,1,8,0:0:0:0:
288,188,33469,1,8,0:0:0:0:
288,204,33526,1,0,0:0:0:0:
288,188,33642,1,8,0:0:0:0:
284,176,33700,1,8,0:0:0:0:
288,188,33757,1,0,0:0:0:0:
284,176,33815,1,0,0:0:0:0:
288,188,33873,1,8,0:0:0:0:
268,156,33988,1,0,0:0:0:0:
264,176,34046,1,0,0:0:0:0:
296,168,34103,1,8,0:0:0:0:
264,176,34219,1,0,0:0:0:0:
256,164,34334,1,8,0:0:0:0:
256,172,34392,1,0,0:0:0:0:
256,164,34450,1,8,0:0:0:0:
256,172,34507,1,8,0:0:0:0:
256,172,34565,1,0,0:0:0:0:
260,172,34680,1,8,0:0:0:0:
228,184,34796,1,0,0:0:0:0:
232,180,34853,1,0,0:0:0:0:
228,184,34911,1,8,0:0:0:0:
232,180,35026,1,8,0:0:0:0:
220,192,35142,1,0,0:0:0:0:
272,180,35257,1,0,0:0:0:0:
280,176,35315,1,0,0:0:0:0:
272,180,35373,1,8,0:0:0:0:
280,176,35488,1,0,0:0:0:0:
280,192,35546,1,0,0:0:0:0:
280,176,35603,1,8,0:0:0:0:
280,192,35661,1,0,0:0:0:0:
284,188,35776,1,0,0:0:0:0:
284,188,35834,1,8,0:0:0:0:
284,188,35950,1,8,0:0:0:0:
240,132,36065,1,0,0:0:0:0:
232,148,36123,1,0,0:0:0:0:
272,152,36180,1,8,0:0:0:0:
272,152,36296,1,8,0:0:0:0:
264,160,36353,1,8,0:0:0:0:
280,176,36411,1,8,0:0:0:0:
264,160,36469,1,8,0:0:0:0:
280,176,36526,1,0,0:0:0:0:
264,160,36584,1,0,0:0:0:0:
280,176,36642,1,0,0:0:0:0:
284,176,36700,1,0,0:0:0:0:
280,176,36757,1,8,0:0:0:0:
332,168,36988,1,4,0:0:0:0:
328,168,37219,1,4,0:0:0:0:
312,184,37450,1,0,0:0:0:0:
296,184,37507,1,0,0:0:0:0:
312,184,37565,1,8,0:0:0:0:
296,184,37680,1,8,0:0:0:0:
256,160,37738,1,0,0:0:0:0:
296,184,37796,1,8,0:0:0:0:
256,160,37853,1,8,0:0:0:0:
296,184,37911,1,0,0:0:0:0:
256,160,38026,1,8,0:0:0:0:
256,160,38084,1,8,0:0:0:0:
256,160,38142,1,0,0:0:0:0:
256,160,38257,1,8,0:0:0:0:
264,148,38373,1,0,0:0:0:0:
264,136,38430,1,0,0:0:0:0:
260,144,38488,1,8,0:0:0:0:
232,160,38603,1,0,0:0:0:0:
232,168,38661,1,8,0:0:0:0:
264,148,38719,1,0,0:0:0:0:
232,160,38776,1,0,0:0:0:0:
232,160,38834,1,8,0:0:0:0:
232,168,38950,1,0,0:0:0:0:
232,168,39007,1,8,0:0:0:0:
232,168,39065,1,0,0:0:0:0:
232,168,39180,1,8,0:0:0:0:
248,172,39296,1,0,0:0:0:0:
244,180,39353,1,0,0:0:0:0:
244,172,39411,1,8,0:0:0:0:
244,180,39526,1,8,0:0:0:0:
248,172,39584,1,0,0:0:0:0:
256,172,39642,1,8,0:0:0:0:
296,192,39757,1,0,0:0:0:0:
296,192,39834,1,8,0:0:0:0:
296,188,39911,1,8,0:0:0:0:
296,192,39988,1,8,0:0:0:0:
296,184,40103,1,8,0:0:0:0:
272,160,40219,1,0,0:0:0:0:
256,160,40334,1,8,0:0:0:0:
256,164,40392,1,8,0:0:0:0:
256,168,40450,1,0,0:0:0:0:
256,172,40565,1,8,0:0:0:0:
252,128,40680,1,4,0:0:0:0:
260,164,40911,1,8,0:0:0:0:
288,232,41026,1,0,0:0:0:0:
372,304,41084,1,0,0:0:0:0:
288,232,41142,1,8,0:0:0:0:
288,232,41257,1,0,0:0:0:0:
288,232,41373,1,8,0:0:0:0:
196,136,41488,1,8,0:0:0:0:
224,160,41603,1,0,0:0:0:0:
240,184,41661,1,0,0:0:0:0:
240,176,41719,1,0,0:0:0:0:
236,184,41834,1,8,0:0:0:0:
236,184,41950,1,0,0:0:0:0:
240,184,42007,1,8,0:0:0:0:
240,188,42123,1,8,0:0:0:0:
240,184,42180,1,8,0:0:0:0:
240,184,42296,1,0,0:0:0:0:
196,200,42353,1,0,0:0:0:0:
224,172,42411,1,8,0:0:0:0:
224,168,42526,1,4,0:0:0:0:
244,184,42757,1,8,0:0:0:0:
240,188,42988,1,8,0:0:0:0:
244,184,43219,1,0,0:0:0:0:
256,188,43450,1,8,0:0:0:0:
256,188,43565,1,8,0:0:0:0:
256,188,43680,1,8,0:0:0:0:
240,176,43911,1,0,0:0:0:0:
240,176,44142,1,8,0:0:0:0:
260,256,44373,1,0,0:0:0:0:
208,164,44488,1,0,0:0:0:0:
208,164,44603,1,8,0:0:0:0:
224,184,44834,1,0,0:0:0:0:
220,188,44892,1,0,0:0:0:0:
224,184,44950,1,0,0:0:0:0:
220,188,45065,1,8,0:0:0:0:
224,184,45180,1,0,0:0:0:0:
228,180,45411,1,0,0:0:0:0:
220,184,45526,1,8,0:0:0:0:
216,184,45642,1,8,0:0:0:0:
216,184,45757,1,0,0:0:0:0:
212,176,45873,1,8,0:0:0:0:
212,176,45930,1,8,0:0:0:0:
208,176,45988,1,0,0:0:0:0:
208,180,46103,1,8,0:0:0:0:
204,184,46219,1,0,0:0:0:0:
204,184,46334,1,0,0:0:0:0:
204,184,46450,1,8,0:0:0:0:
192,152,46680,1,0,0:0:0:0:
192,152,46911,1,8,0:0:0:0:
192,152,47027,1,0,0:0:0:0:
216,132,47142,1,8,0:0:0:0:
212,144,47200,1,8,0:0:0:0:
212,136,47257,1,0,0:0:0:0:
216,152,47373,1,8,0:0:0:0:
216,156,47488,1,8,0:0:0:0:
232,112,47603,1,0,0:0:0:0:
224,144,47661,1,8,0:0:0:0:
212,148,47719,1,0,0:0:0:0:
224,144,47776,1,0,0:0:0:0:
212,148,47834,1,8,0:0:0:0:
212,188,48065,1,0,0:0:0:0:
212,188,48180,1,0,0:0:0:0:
144,168,48296,1,8,0:0:0:0:
196,144,48411,1,0,0:0:0:0:
200,152,48469,1,0,0:0:0:0:
200,144,48526,1,8,0:0:0:0:
200,148,48642,1,8,0:0:0:0:
216,148,48700,1,8,0:0:0:0:
200,148,48757,1,0,0:0:0:0:
216,140,48873,1,8,0:0:0:0:
220,136,48988,1,0,0:0:0:0:
216,148,49046,1,0,0:0:0:0:
216,152,49103,1,0,0:0:0:0:
216,148,49161,1,0,0:0:0:0:
216,152,49219,1,8,0:0:0:0:
220,156,49334,1,8,0:0:0:0:
220,152,49450,1,0,0:0:0:0:
192,172,49565,1,8,0:0:0:0:
208,152,49623,1,8,0:0:0:0:
192,172,49680,1,0,0:0:0:0:
208,168,49796,1,8,0:0:0:0:
240,124,49911,1,0,0:0:0:0:
224,168,50142,1,8,0:0:0:0:
224,168,50257,1,8,0:0:0:0:
240,124,50373,1,0,0:0:0:0:
240,124,50430,1,8,0:0:0:0:
276,144,50488,1,0,0:0:0:0:
216,152,50603,1,8,0:0:0:0:
216,152,50719,1,8,0:0:0:0:
224,148,50834,1,0,0:0:0:0:
224,200,50950,1,8,0:0:0:0:
224,200,51007,1,8,0:0:0:0:
224,200,51065,1,0,0:0:0:0:
224,200,51180,1,8,0:0:0:0:
256,200,51296,1,0,0:0:0:0:
256,200,51411,1,0,0:0:0:0:
248,192,51526,1,8,0:0:0:0:
260,256,51757,1,0,0:0:0:0:
208,164,51872,1,0,0:0:0:0:
208,164,51987,1,8,0:0:0:0:
224,184,52218,1,0,0:0:0:0:
220,188,52276,1,0,0:0:0:0:
224,184,52334,1,0,0:0:0:0:
220,188,52449,1,8,0:0:0:0:
224,184,52564,1,0,0:0:0:0:
228,180,52795,1,0,0:0:0:0:
220,184,52910,1,8,0:0:0:0:
216,184,53026,1,8,0:0:0:0:
216,184,53141,1,0,0:0:0:0:
212,176,53257,1,8,0:0:0:0:
212,176,53314,1,8,0:0:0:0:
208,176,53372,1,0,0:0:0:0:
208,180,53487,1,8,0:0:0:0:
204,184,53603,1,0,0:0:0:0:
204,184,53718,1,0,0:0:0:0:
204,184,53834,1,8,0:0:0:0:
192,152,54064,1,0,0:0:0:0:
192,152,54295,1,8,0:0:0:0:
192,152,54411,1,0,0:0:0:0:
216,132,54526,1,8,0:0:0:0:
212,144,54584,1,8,0:0:0:0:
212,136,54641,1,0,0:0:0:0:
216,152,54757,1,8,0:0:0:0:
216,156,54872,1,8,0:0:0:0:
232,112,54987,1,0,0:0:0:0:
224,144,55045,1,8,0:0:0:0:
212,148,55103,1,0,0:0:0:0:
224,144,55160,1,0,0:0:0:0:
212,148,55218,1,8,0:0:0:0:
212,188,55449,1,0,0:0:0:0:
212,188,55564,1,0,0:0:0:0:
144,168,55680,1,8,0:0:0:0:
196,144,55795,1,0,0:0:0:0:
200,152,55853,1,0,0:0:0:0:
200,144,55910,1,8,0:0:0:0:
200,148,56026,1,8,0:0:0:0:
216,148,56084,1,8,0:0:0:0:
200,148,56141,1,0,0:0:0:0:
216,140,56257,1,8,0:0:0:0:
220,136,56372,1,0,0:0:0:0:
216,148,56430,1,8,0:0:0:0:
216,152,56487,1,0,0:0:0:0:
216,148,56545,1,0,0:0:0:0:
216,152,56603,1,8,0:0:0:0:
220,156,56718,1,8,0:0:0:0:
220,152,56834,1,0,0:0:0:0:
192,172,56949,1,8,0:0:0:0:
208,152,57007,1,8,0:0:0:0:
192,172,57064,1,0,0:0:0:0:
208,168,57180,1,8,0:0:0:0:
224,156,57296,1,4,0:0:0:0:
224,156,57411,1,4,0:0:0:0:
224,164,57642,1,4,0:0:0:0:
224,164,57873,1,4,0:0:0:0:
224,164,58103,1,4,0:0:0:0:
244,152,58334,1,0,0:0:0:0:
16,156,58392,1,0,0:0:0:0:
240,160,58450,1,8,0:0:0:0:
244,152,58507,1,0,0:0:0:0:
244,156,58565,1,8,0:0:0:0:
240,160,58623,1,0,0:0:0:0:
216,180,58680,1,8,0:0:0:0:
240,164,58738,1,8,0:0:0:0:
216,176,58796,1,0,0:0:0:0:
244,156,58853,1,0,0:0:0:0:
240,168,58911,1,8,0:0:0:0:
256,192,59142,12,0,59834,0:0:0:0:
248,160,60065,5,0,0:0:0:0:
252,172,60296,1,8,0:0:0:0:
252,172,60411,1,8,0:0:0:0:
248,176,60526,1,0,0:0:0:0:
268,208,60757,1,8,0:0:0:0:
268,208,60988,1,0,0:0:0:0:
268,208,61219,1,8,0:0:0:0:
268,208,61450,1,0,0:0:0:0:
268,208,61565,1,0,0:0:0:0:
268,208,61680,1,8,0:0:0:0:
288,176,61911,1,0,0:0:0:0:
288,176,62142,1,8,0:0:0:0:
288,176,62257,1,0,0:0:0:0:
256,192,62488,1,0,0:0:0:0:
256,192,62603,1,8,0:0:0:0:
256,192,62834,1,0,0:0:0:0:
256,192,63065,1,8,0:0:0:0:
256,192,63180,1,8,0:0:0:0:
256,192,63296,1,0,0:0:0:0:
248,192,63411,1,0,0:0:0:0:
248,192,63526,1,8,0:0:0:0:
308,212,63757,1,0,0:0:0:0:
240,136,63815,1,0,0:0:0:0:
296,208,63873,1,0,0:0:0:0:
308,216,63988,1,8,0:0:0:0:
296,220,64219,1,0,0:0:0:0:
292,224,64450,1,8,0:0:0:0:
292,224,64565,1,8,0:0:0:0:
292,224,64680,1,0,0:0:0:0:
264,176,64796,1,0,0:0:0:0:
264,180,64911,1,8,0:0:0:0:
224,192,65142,1,8,0:0:0:0:
224,192,65257,1,0,0:0:0:0:
224,192,65373,1,8,0:0:0:0:
232,168,65603,1,0,0:0:0:0:
232,168,65834,1,8,0:0:0:0:
224,168,65950,1,0,0:0:0:0:
224,172,66180,1,0,0:0:0:0:
224,172,66296,1,8,0:0:0:0:
224,176,66411,1,0,0:0:0:0:
216,148,66526,1,0,0:0:0:0:
224,148,66757,1,8,0:0:0:0:
224,148,66873,1,8,0:0:0:0:
224,148,66988,1,0,0:0:0:0:
224,152,67103,1,0,0:0:0:0:
224,152,67219,1,8,0:0:0:0:
208,136,67450,1,0,0:0:0:0:
216,140,67680,1,8,0:0:0:0:
216,140,67796,1,0,0:0:0:0:
224,152,68026,1,0,0:0:0:0:
216,144,68142,1,8,0:0:0:0:
216,144,68257,1,8,0:0:0:0:
232,128,68373,1,0,0:0:0:0:
236,164,68603,1,8,0:0:0:0:
236,164,68834,1,0,0:0:0:0:
236,164,68950,1,0,0:0:0:0:
248,184,69065,1,8,0:0:0:0:
276,168,69296,1,0,0:0:0:0:
276,168,69526,1,8,0:0:0:0:
268,176,69642,1,8,0:0:0:0:
264,176,69873,1,0,0:0:0:0:
264,180,69988,1,8,0:0:0:0:
272,144,70219,1,0,0:0:0:0:
260,164,70450,1,8,0:0:0:0:
256,168,70565,1,8,0:0:0:0:
256,168,70680,1,0,0:0:0:0:
256,168,70795,1,0,0:0:0:0:
188,144,70911,1,8,0:0:0:0:
180,132,71142,1,0,0:0:0:0:
176,132,71373,1,8,0:0:0:0:
176,136,71488,1,8,0:0:0:0:
160,144,71603,1,0,0:0:0:0:
156,144,71834,1,8,0:0:0:0:
156,144,72065,1,0,0:0:0:0:
220,144,72296,1,8,0:0:0:0:
220,144,72411,1,0,0:0:0:0:
220,144,72526,1,0,0:0:0:0:
220,148,72757,1,8,0:0:0:0:
224,140,72988,1,0,0:0:0:0:
260,188,73219,1,8,0:0:0:0:
260,188,73334,1,0,0:0:0:0:
264,196,73450,1,8,0:0:0:0:
264,196,73565,1,0,0:0:0:0:
264,200,73680,1,8,0:0:0:0:
248,184,73796,1,8,0:0:0:0:
232,128,73911,1,0,0:0:0:0:
260,148,74142,1,8,0:0:0:0:
264,152,74373,1,0,0:0:0:0:
264,160,74488,1,0,0:0:0:0:
256,164,74603,1,8,0:0:0:0:
248,152,74834,1,4,0:0:0:0:
248,156,75065,1,4,0:0:0:0:
248,160,75180,1,4,0:0:0:0:
220,120,75642,1,4,0:0:0:0:
220,120,75757,1,4,0:0:0:0:
216,108,76103,1,4,0:0:0:0:
216,108,76334,1,4,0:0:0:0:
216,108,76450,1,4,0:0:0:0:
240,120,76680,1,0,0:0:0:0:
240,120,76796,1,8,0:0:0:0:
240,120,76911,1,8,0:0:0:0:
240,120,77026,1,8,0:0:0:0:
240,120,77142,1,0,0:0:0:0:
240,120,77257,1,8,0:0:0:0:
240,120,77373,1,0,0:0:0:0:
240,120,77488,1,8,0:0:0:0:
220,112,77603,1,0,0:0:0:0:
220,120,77661,1,8,0:0:0:0:
220,112,77719,1,8,0:0:0:0:
208,120,77776,1,8,0:0:0:0:
220,120,77834,1,0,0:0:0:0:
208,136,77892,1,8,0:0:0:0:
204,136,77950,1,8,0:0:0:0:
212,120,78007,1,8,0:0:0:0:
248,140,78065,1,0,0:0:0:0:
272,124,78103,1,8,0:0:0:0:
288,144,78142,1,0,0:0:0:0:
288,136,78180,1,8,0:0:0:0:
288,132,78219,1,0,0:0:0:0:
276,128,78257,1,8,0:0:0:0:
280,128,78296,1,0,0:0:0:0:
296,152,78411,1,8,0:0:0:0:
228,232,78526,5,4,0:0:0:0:
228,232,78642,1,0,0:0:0:0:
136,136,78700,1,0,0:0:0:0:
144,144,78757,1,8,0:0:0:0:
184,140,78873,1,0,0:0:0:0:
192,148,78930,1,8,0:0:0:0:
152,152,78988,1,0,0:0:0:0:
184,144,79103,1,8,0:0:0:0:
192,148,79161,1,8,0:0:0:0:
344,252,79219,1,0,0:0:0:0:
212,128,79276,1,0,0:0:0:0:
264,200,79334,1,8,0:0:0:0:
264,200,79450,1,0,0:0:0:0:
264,200,79507,1,0,0:0:0:0:
264,200,79565,1,8,0:0:0:0:
240,184,79680,1,0,0:0:0:0:
216,144,79738,1,8,0:0:0:0:
236,148,79796,1,0,0:0:0:0:
236,188,79853,1,0,0:0:0:0:
232,208,79911,1,8,0:0:0:0:
236,188,79969,1,0,0:0:0:0:
232,208,80026,1,8,0:0:0:0:
236,188,80084,1,8,0:0:0:0:
232,208,80142,1,0,0:0:0:0:
232,208,80257,1,8,0:0:0:0:
216,88,80373,1,0,0:0:0:0:
240,184,80430,1,0,0:0:0:0:
216,96,80488,1,0,0:0:0:0:
216,104,80546,1,0,0:0:0:0:
240,184,80603,1,8,0:0:0:0:
244,188,80719,1,0,0:0:0:0:
232,200,80776,1,0,0:0:0:0:
248,180,80834,1,8,0:0:0:0:
232,200,80950,1,0,0:0:0:0:
244,188,81007,1,8,0:0:0:0:
232,200,81065,1,0,0:0:0:0:
232,200,81180,1,8,0:0:0:0:
248,152,81296,1,0,0:0:0:0:
240,184,81353,1,0,0:0:0:0:
248,152,81411,1,8,0:0:0:0:
236,188,81469,1,0,0:0:0:0:
240,184,81526,1,8,0:0:0:0:
236,188,81584,1,8,0:0:0:0:
236,192,81642,1,0,0:0:0:0:
236,192,81700,1,0,0:0:0:0:
236,192,81757,1,8,0:0:0:0:
236,192,81815,1,8,0:0:0:0:
236,192,81873,1,0,0:0:0:0:
236,188,81930,1,0,0:0:0:0:
236,192,81988,1,8,0:0:0:0:
236,188,82103,1,8,0:0:0:0:
260,168,82219,1,0,0:0:0:0:
260,172,82276,1,0,0:0:0:0:
260,168,82334,1,8,0:0:0:0:
260,172,82450,1,8,0:0:0:0:
260,168,82508,1,0,0:0:0:0:
192,132,82565,1,0,0:0:0:0:
204,124,82680,1,0,0:0:0:0:
200,136,82738,1,0,0:0:0:0:
200,136,82796,1,8,0:0:0:0:
204,124,82853,1,0,0:0:0:0:
212,136,82911,1,8,0:0:0:0:
200,136,82969,1,8,0:0:0:0:
212,136,83026,1,0,0:0:0:0:
232,100,83142,1,8,0:0:0:0:
220,120,83257,1,0,0:0:0:0:
232,100,83315,1,0,0:0:0:0:
220,120,83373,1,8,0:0:0:0:
232,148,83488,1,0,0:0:0:0:
260,152,83603,1,8,0:0:0:0:
264,168,83661,1,8,0:0:0:0:
260,152,83719,1,0,0:0:0:0:
264,168,83776,1,8,0:0:0:0:
260,152,83834,1,0,0:0:0:0:
264,168,83892,1,0,0:0:0:0:
268,164,83950,1,8,0:0:0:0:
264,128,84065,1,0,0:0:0:0:
236,136,84123,1,8,0:0:0:0:
232,148,84180,1,0,0:0:0:0:
228,144,84296,1,8,0:0:0:0:
212,124,84411,1,0,0:0:0:0:
212,148,84469,1,0,0:0:0:0:
216,160,84526,1,8,0:0:0:0:
212,148,84642,1,8,0:0:0:0:
216,120,84700,1,8,0:0:0:0:
212,152,84757,1,0,0:0:0:0:
212,148,84873,1,8,0:0:0:0:
168,152,84988,1,0,0:0:0:0:
252,156,85046,1,0,0:0:0:0:
168,152,85103,1,8,0:0:0:0:
252,156,85161,1,0,0:0:0:0:
168,152,85219,1,8,0:0:0:0:
252,156,85276,1,8,0:0:0:0:
168,152,85334,1,0,0:0:0:0:
168,152,85392,1,8,0:0:0:0:
168,152,85450,1,0,0:0:0:0:
204,92,85507,1,0,0:0:0:0:
196,104,85565,1,8,0:0:0:0:
196,104,85623,1,8,0:0:0:0:
196,104,85680,1,0,0:0:0:0:
224,180,85796,1,8,0:0:0:0:
228,164,85911,1,0,0:0:0:0:
232,160,85969,1,0,0:0:0:0:
224,144,86026,1,0,0:0:0:0:
232,160,86142,1,8,0:0:0:0:
228,124,86257,1,0,0:0:0:0:
248,164,86315,1,0,0:0:0:0:
248,144,86373,1,8,0:0:0:0:
228,128,86488,1,8,0:0:0:0:
248,164,86546,1,8,0:0:0:0:
228,128,86603,1,0,0:0:0:0:
248,164,86719,1,8,0:0:0:0:
244,112,86834,1,0,0:0:0:0:
220,112,86892,1,0,0:0:0:0:
224,112,86950,1,8,0:0:0:0:
220,112,87007,1,0,0:0:0:0:
212,112,87065,1,8,0:0:0:0:
220,112,87123,1,8,0:0:0:0:
240,116,87180,1,0,0:0:0:0:
252,184,87296,1,8,0:0:0:0:
256,180,87353,1,8,0:0:0:0:
256,152,87411,1,0,0:0:0:0:
256,184,87526,1,8,0:0:0:0:
260,184,87642,1,8,0:0:0:0:
216,172,87757,1,0,0:0:0:0:
216,184,87815,1,0,0:0:0:0:
216,172,87873,1,0,0:0:0:0:
216,184,87988,1,8,0:0:0:0:
200,76,88103,1,0,0:0:0:0:
216,184,88161,1,8,0:0:0:0:
196,104,88219,1,0,0:0:0:0:
196,104,88334,1,8,0:0:0:0:
220,124,88392,1,8,0:0:0:0:
200,112,88450,1,0,0:0:0:0:
220,124,88565,1,8,0:0:0:0:
236,148,88680,1,0,0:0:0:0:
224,160,88738,1,0,0:0:0:0:
236,148,88796,1,8,0:0:0:0:
224,160,88853,1,0,0:0:0:0:
208,160,88911,1,8,0:0:0:0:
140,136,88969,1,8,0:0:0:0:
236,148,89026,1,0,0:0:0:0:
208,164,89142,1,8,0:0:0:0:
168,120,89257,1,0,0:0:0:0:
212,112,89315,1,0,0:0:0:0:
184,136,89373,1,8,0:0:0:0:
168,120,89488,1,8,0:0:0:0:
152,112,89603,1,0,0:0:0:0:
200,144,89661,1,0,0:0:0:0:
216,148,89719,1,8,0:0:0:0:
200,144,89776,1,0,0:0:0:0:
216,148,89834,1,8,0:0:0:0:
200,144,89892,1,8,0:0:0:0:
160,120,89950,1,0,0:0:0:0:
212,148,90007,1,0,0:0:0:0:
172,136,90065,1,8,0:0:0:0:
168,120,90123,1,0,0:0:0:0:
160,140,90180,1,8,0:0:0:0:
172,136,90238,1,8,0:0:0:0:
144,144,90296,1,0,0:0:0:0:
160,140,90353,1,8,0:0:0:0:
144,144,90411,1,0,0:0:0:0:
160,140,90469,1,0,0:0:0:0:
144,144,90526,1,8,0:0:0:0:
176,144,90642,1,0,0:0:0:0:
168,148,90700,1,0,0:0:0:0:
172,144,90757,1,8,0:0:0:0:
168,148,90873,1,8,0:0:0:0:
216,160,90988,1,0,0:0:0:0:
212,172,91046,1,0,0:0:0:0:
216,160,91103,1,0,0:0:0:0:
212,172,91161,1,0,0:0:0:0:
216,160,91219,1,8,0:0:0:0:
204,176,91334,1,8,0:0:0:0:
224,212,91450,1,0,0:0:0:0:
220,168,91507,1,0,0:0:0:0:
224,212,91565,1,8,0:0:0:0:
216,168,91623,1,0,0:0:0:0:
216,168,91680,1,8,0:0:0:0:
216,168,91738,1,8,0:0:0:0:
224,212,91796,1,0,0:0:0:0:
216,168,91853,1,8,0:0:0:0:
216,172,91911,1,0,0:0:0:0:
224,212,91969,1,8,0:0:0:0:
216,168,92026,1,8,0:0:0:0:
224,212,92084,1,0,0:0:0:0:
216,168,92142,1,8,0:0:0:0:
204,156,92200,1,8,0:0:0:0:
200,148,92257,1,0,0:0:0:0:
224,212,92315,1,8,0:0:0:0:
196,144,92373,1,0,0:0:0:0:
224,212,92430,1,0,0:0:0:0:
196,144,92488,1,8,0:0:0:0:
196,144,92546,1,0,0:0:0:0:
224,212,92603,1,8,0:0:0:0:
192,148,92661,1,8,0:0:0:0:
224,212,92719,1,0,0:0:0:0:
192,148,92776,1,8,0:0:0:0:
224,212,92834,1,0,0:0:0:0:
192,148,92892,1,8,0:0:0:0:
192,144,92950,1,8,0:0:0:0:
224,212,93007,1,0,0:0:0:0:
192,140,93065,1,8,0:0:0:0:
184,136,93123,1,8,0:0:0:0:
208,160,93180,1,0,0:0:0:0:
188,148,93238,1,8,0:0:0:0:
224,120,93296,1,0,0:0:0:0:
200,124,93526,1,0,0:0:0:0:
196,120,93642,1,0,0:0:0:0:
192,120,93873,1,8,0:0:0:0:
192,120,93988,1,0,0:0:0:0:
180,148,94219,1,0,0:0:0:0:
160,148,94450,1,8,0:0:0:0:
216,120,94680,1,0,0:0:0:0:
192,132,94738,1,0,0:0:0:0:
208,128,94796,1,0,0:0:0:0:
192,132,94853,1,0,0:0:0:0:
200,132,94911,1,8,0:0:0:0:
220,148,95142,1,4,0:0:0:0:
240,192,95373,1,8,0:0:0:0:
240,192,95488,1,8,0:0:0:0:
240,192,95603,1,0,0:0:0:0:
240,192,95719,1,0,0:0:0:0:
240,192,95834,1,8,0:0:0:0:
240,192,95950,1,8,0:0:0:0:
240,192,96065,1,0,0:0:0:0:
248,188,96180,1,8,0:0:0:0:
248,188,96296,1,0,0:0:0:0:
248,188,96411,1,8,0:0:0:0:
244,148,96526,1,0,0:0:0:0:
240,156,96584,1,0,0:0:0:0:
248,188,96642,1,0,0:0:0:0:
216,144,96757,1,8,0:0:0:0:
276,168,96873,1,8,0:0:0:0:
276,168,96988,1,0,0:0:0:0:
248,188,97219,1,8,0:0:0:0:
248,188,97334,1,8,0:0:0:0:
248,188,97450,1,0,0:0:0:0:
252,192,97565,1,8,0:0:0:0:
252,188,97680,1,8,0:0:0:0:
252,188,97796,1,8,0:0:0:0:
252,188,97911,1,0,0:0:0:0:
168,148,97969,1,0,0:0:0:0:
200,152,98026,1,0,0:0:0:0:
200,152,98142,1,8,0:0:0:0:
200,152,98257,1,8,0:0:0:0:
196,140,98373,1,0,0:0:0:0:
204,136,98430,1,8,0:0:0:0:
200,140,98488,1,0,0:0:0:0:
200,136,98603,1,8,0:0:0:0:
292,232,98834,1,0,0:0:0:0:
292,232,99065,1,8,0:0:0:0:
292,232,99180,1,8,0:0:0:0:
292,232,99296,1,0,0:0:0:0:
292,232,99411,1,0,0:0:0:0:
292,232,99526,1,8,0:0:0:0:
292,232,99642,1,8,0:0:0:0:
292,232,99757,1,0,0:0:0:0:
292,232,99873,1,8,0:0:0:0:
292,232,99988,1,0,0:0:0:0:
292,232,100103,1,8,0:0:0:0:
292,232,100219,1,0,0:0:0:0:
296,216,100276,1,0,0:0:0:0:
292,232,100334,1,0,0:0:0:0:
296,220,100392,1,0,0:0:0:0:
292,232,100450,1,8,0:0:0:0:
296,220,100565,1,8,0:0:0:0:
296,220,100680,1,0,0:0:0:0:
264,156,100911,1,8,0:0:0:0:
264,156,101026,1,8,0:0:0:0:
264,156,101142,1,0,0:0:0:0:
264,156,101257,1,8,0:0:0:0:
264,156,101373,1,8,0:0:0:0:
264,156,101488,1,8,0:0:0:0:
264,156,101603,1,4,0:0:0:0:
296,172,101834,1,4,0:0:0:0:
288,184,102065,1,0,0:0:0:0:
280,184,102123,1,0,0:0:0:0:
276,176,102180,1,0,0:0:0:0:
276,180,102238,1,0,0:0:0:0:
276,176,102296,1,8,0:0:0:0:
276,180,102411,1,8,0:0:0:0:
248,176,102526,1,4,0:0:0:0:
224,132,102757,1,8,0:0:0:0:
224,144,102873,1,8,0:0:0:0:
248,176,102988,1,4,0:0:0:0:
240,144,103219,1,8,0:0:0:0:
248,176,103450,1,4,0:0:0:0:
248,152,103680,1,8,0:0:0:0:
248,152,103738,1,8,0:0:0:0:
248,152,103796,1,8,0:0:0:0:
256,192,103911,1,4,0:0:0:0:
248,152,104142,1,8,0:0:0:0:
264,176,104200,1,8,0:0:0:0:
264,176,104257,1,0,0:0:0:0:
252,152,104373,1,4,0:0:0:0:
224,140,104603,1,8,0:0:0:0:
224,140,104719,1,8,0:0:0:0:
280,176,104834,1,4,0:0:0:0:
216,136,105065,1,8,0:0:0:0:
280,176,105296,1,4,0:0:0:0:
224,140,105526,1,8,0:0:0:0:
224,140,105584,1,8,0:0:0:0:
224,140,105642,1,8,0:0:0:0:
240,164,105757,1,4,0:0:0:0:
220,116,105873,1,4,0:0:0:0:
272,140,105988,1,12,0:0:0:0:
252,180,106219,1,0,0:0:0:0:
284,200,106334,1,8,0:0:0:0:
284,200,106450,1,0,0:0:0:0:
248,176,106507,1,0,0:0:0:0:
284,200,106565,1,8,0:0:0:0:
284,200,106680,1,0,0:0:0:0:
284,200,106796,1,8,0:0:0:0:
260,192,106853,1,8,0:0:0:0:
284,200,106911,1,0,0:0:0:0:
284,200,107026,1,8,0:0:0:0:
260,192,107142,1,0,0:0:0:0:
260,192,107257,1,8,0:0:0:0:
260,192,107315,1,8,0:0:0:0:
224,168,107373,1,0,0:0:0:0:
228,168,107430,1,0,0:0:0:0:
224,168,107488,1,8,0:0:0:0:
216,180,107603,1,0,0:0:0:0:
216,164,107661,1,8,0:0:0:0:
216,180,107719,1,0,0:0:0:0:
216,164,107834,1,8,0:0:0:0:
208,184,107950,1,8,0:0:0:0:
216,136,108065,1,0,0:0:0:0:
216,136,108180,1,8,0:0:0:0:
208,136,108296,1,0,0:0:0:0:
208,136,108353,1,0,0:0:0:0:
252,172,108411,1,8,0:0:0:0:
204,164,108526,1,0,0:0:0:0:
204,164,108642,1,8,0:0:0:0:
212,172,108700,1,8,0:0:0:0:
204,164,108757,1,0,0:0:0:0:
212,172,108873,1,8,0:0:0:0:
212,176,108988,1,0,0:0:0:0:
248,144,109046,1,0,0:0:0:0:
248,144,109103,1,8,0:0:0:0:
248,144,109161,1,0,0:0:0:0:
248,144,109219,1,8,0:0:0:0:
248,144,109276,1,8,0:0:0:0:
248,144,109334,1,0,0:0:0:0:
248,144,109392,1,8,0:0:0:0:
152,128,109450,1,0,0:0:0:0:
160,132,109507,1,0,0:0:0:0:
152,128,109565,1,8,0:0:0:0:
160,132,109623,1,8,0:0:0:0:
288,216,109911,1,0,0:0:0:0:
288,216,110026,1,8,0:0:0:0:
296,208,110142,1,0,0:0:0:0:
176,136,110200,1,0,0:0:0:0:
296,208,110257,1,8,0:0:0:0:
284,184,110315,1,0,0:0:0:0:
296,208,110373,1,8,0:0:0:0:
284,192,110430,1,8,0:0:0:0:
284,184,110488,1,0,0:0:0:0:
296,216,110546,1,8,0:0:0:0:
284,192,110603,1,0,0:0:0:0:
284,192,110719,1,8,0:0:0:0:
284,196,110834,1,0,0:0:0:0:
236,168,110892,1,0,0:0:0:0:
244,168,110950,1,8,0:0:0:0:
236,168,111007,1,0,0:0:0:0:
236,168,111065,1,8,0:0:0:0:
244,168,111123,1,8,0:0:0:0:
240,172,111180,1,0,0:0:0:0:
240,176,111238,1,8,0:0:0:0:
244,168,111296,1,0,0:0:0:0:
240,172,111353,1,0,0:0:0:0:
244,172,111411,1,8,0:0:0:0:
232,180,111469,1,8,0:0:0:0:
244,172,111526,1,0,0:0:0:0:
240,180,111642,1,8,0:0:0:0:
240,180,111757,1,0,0:0:0:0:
280,168,111815,1,8,0:0:0:0:
240,180,111873,1,0,0:0:0:0:
240,180,111988,1,8,0:0:0:0:
280,168,112046,1,0,0:0:0:0:
296,176,112103,1,8,0:0:0:0:
272,168,112219,1,0,0:0:0:0:
296,180,112334,1,8,0:0:0:0:
272,168,112392,1,8,0:0:0:0:
272,168,112450,1,0,0:0:0:0:
224,112,112565,1,8,0:0:0:0:
260,140,112680,1,0,0:0:0:0:
244,152,112738,1,0,0:0:0:0:
260,140,112796,1,8,0:0:0:0:
260,140,112853,1,0,0:0:0:0:
244,152,112911,1,8,0:0:0:0:
244,152,112969,1,8,0:0:0:0:
240,152,113026,1,0,0:0:0:0:
252,140,113142,1,8,0:0:0:0:
240,152,113200,1,8,0:0:0:0:
184,112,113257,1,0,0:0:0:0:
212,144,113315,1,8,0:0:0:0:
240,152,113373,1,0,0:0:0:0:
236,144,113488,1,8,0:0:0:0:
288,168,113603,1,0,0:0:0:0:
236,144,113661,1,0,0:0:0:0:
200,100,113719,1,8,0:0:0:0:
240,144,113834,1,0,0:0:0:0:
200,100,113950,1,8,0:0:0:0:
232,136,114065,1,0,0:0:0:0:
156,180,114123,1,0,0:0:0:0:
224,144,114180,1,8,0:0:0:0:
156,180,114238,1,8,0:0:0:0:
156,180,114296,1,0,0:0:0:0:
136,192,114353,1,8,0:0:0:0:
140,184,114411,1,8,0:0:0:0:
136,184,114469,1,8,0:0:0:0:
136,176,114526,1,0,0:0:0:0:
132,176,114584,1,0,0:0:0:0:
132,168,114642,1,8,0:0:0:0:
232,168,114700,1,0,0:0:0:0:
200,188,114757,1,8,0:0:0:0:
188,192,114815,1,8,0:0:0:0:
200,188,114873,1,0,0:0:0:0:
188,192,114930,1,8,0:0:0:0:
200,188,114988,1,0,0:0:0:0:
188,192,115046,1,8,0:0:0:0:
220,172,115103,1,8,0:0:0:0:
188,192,115161,1,8,0:0:0:0:
212,180,115219,1,0,0:0:0:0:
188,192,115334,1,8,0:0:0:0:
288,152,115450,1,0,0:0:0:0:
248,204,115507,1,0,0:0:0:0:
288,152,115565,1,8,0:0:0:0:
248,204,115623,1,0,0:0:0:0:
264,156,115680,1,8,0:0:0:0:
248,204,115738,1,8,0:0:0:0:
252,200,115796,1,0,0:0:0:0:
248,204,115853,1,8,0:0:0:0:
252,200,115911,1,0,0:0:0:0:
256,200,115969,1,0,0:0:0:0:
256,200,116026,1,8,0:0:0:0:
252,200,116084,1,0,0:0:0:0:
256,200,116142,1,0,0:0:0:0:
252,200,116200,1,8,0:0:0:0:
248,204,116257,1,0,0:0:0:0:
252,200,116315,1,8,0:0:0:0:
248,204,116373,1,0,0:0:0:0:
248,172,116430,1,0,0:0:0:0:
248,204,116488,1,8,0:0:0:0:
256,200,116546,1,0,0:0:0:0:
248,204,116603,1,8,0:0:0:0:
256,204,116661,1,8,0:0:0:0:
248,204,116719,1,0,0:0:0:0:
256,204,116776,1,8,0:0:0:0:
256,204,116834,1,0,0:0:0:0:
248,204,116892,1,0,0:0:0:0:
252,204,116950,1,0,0:0:0:0:
256,200,117007,1,0,0:0:0:0:
280,160,117065,1,8,0:0:0:0:
224,180,117180,1,8,0:0:0:0:
248,160,117296,1,0,0:0:0:0:
248,160,117411,1,0,0:0:0:0:
240,168,117469,1,0,0:0:0:0:
232,160,117526,1,8,0:0:0:0:
232,160,117642,1,0,0:0:0:0:
240,168,117757,1,8,0:0:0:0:
212,144,117873,1,0,0:0:0:0:
208,148,117930,1,8,0:0:0:0:
212,144,117988,1,0,0:0:0:0:
204,120,118103,1,8,0:0:0:0:
232,160,118219,1,0,0:0:0:0:
280,200,118276,1,0,0:0:0:0:
272,184,118334,1,0,0:0:0:0:
272,204,118392,1,0,0:0:0:0:
272,184,118450,1,8,0:0:0:0:
152,168,118565,1,8,0:0:0:0:
244,160,118680,1,0,0:0:0:0:
312,152,118796,1,8,0:0:0:0:
288,160,118853,1,8,0:0:0:0:
312,152,118911,1,0,0:0:0:0:
288,160,119026,1,8,0:0:0:0:
288,164,119142,1,0,0:0:0:0:
328,168,119200,1,0,0:0:0:0:
304,152,119257,1,8,0:0:0:0:
328,168,119315,1,0,0:0:0:0:
304,152,119373,1,8,0:0:0:0:
328,168,119430,1,8,0:0:0:0:
328,168,119488,1,0,0:0:0:0:
304,152,119603,1,8,0:0:0:0:
304,152,119719,1,0,0:0:0:0:
300,156,119776,1,0,0:0:0:0:
300,156,119834,1,8,0:0:0:0:
280,152,119950,1,8,0:0:0:0:
280,152,120065,1,0,0:0:0:0:
272,216,120123,1,0,0:0:0:0:
224,180,120180,1,8,0:0:0:0:
276,208,120238,1,0,0:0:0:0:
272,216,120296,1,8,0:0:0:0:
272,216,120353,1,8,0:0:0:0:
264,212,120411,1,0,0:0:0:0:
272,216,120469,1,8,0:0:0:0:
276,208,120526,1,0,0:0:0:0:
264,212,120584,1,0,0:0:0:0:
276,208,120642,1,8,0:0:0:0:
272,216,120700,1,0,0:0:0:0:
280,216,120757,1,8,0:0:0:0:
260,168,120873,1,8,0:0:0:0:
248,140,120988,1,0,0:0:0:0:
256,140,121103,1,8,0:0:0:0:
240,152,121219,1,0,0:0:0:0:
240,152,121276,1,0,0:0:0:0:
144,104,121334,1,8,0:0:0:0:
152,108,121450,1,0,0:0:0:0:
184,128,121507,1,8,0:0:0:0:
152,108,121565,1,0,0:0:0:0:
184,128,121680,1,8,0:0:0:0:
224,140,121796,1,0,0:0:0:0:
216,124,121853,1,0,0:0:0:0:
224,140,121911,1,8,0:0:0:0:
216,124,122026,1,8,0:0:0:0:
216,132,122084,1,0,0:0:0:0:
216,124,122142,1,8,0:0:0:0:
216,132,122257,1,8,0:0:0:0:
216,132,122373,1,0,0:0:0:0:
224,152,122488,1,8,0:0:0:0:
200,160,122546,1,8,0:0:0:0:
224,152,122603,1,0,0:0:0:0:
200,160,122719,1,8,0:0:0:0:
312,260,122834,1,0,0:0:0:0:
312,260,122892,1,0,0:0:0:0:
312,260,122950,1,8,0:0:0:0:
304,280,123007,1,0,0:0:0:0:
312,260,123065,1,8,0:0:0:0:
304,252,123123,1,8,0:0:0:0:
304,280,123180,1,0,0:0:0:0:
312,260,123238,1,8,0:0:0:0:
312,260,123296,1,0,0:0:0:0:
304,280,123353,1,8,0:0:0:0:
312,260,123411,1,8,0:0:0:0:
304,280,123469,1,0,0:0:0:0:
312,260,123526,1,8,0:0:0:0:
304,280,123584,1,8,0:0:0:0:
296,256,123642,1,0,0:0:0:0:
304,280,123700,1,8,0:0:0:0:
296,256,123757,1,0,0:0:0:0:
304,280,123815,1,0,0:0:0:0:
296,256,123873,1,8,0:0:0:0:
304,280,123930,1,0,0:0:0:0:
296,256,123988,1,8,0:0:0:0:
296,256,124046,1,8,0:0:0:0:
296,256,124103,1,0,0:0:0:0:
296,256,124161,1,8,0:0:0:0:
296,256,124219,1,0,0:0:0:0:
296,256,124276,1,8,0:0:0:0:
292,256,124334,1,8,0:0:0:0:
296,256,124392,1,0,0:0:0:0:
292,256,124450,1,8,0:0:0:0:
296,256,124507,1,8,0:0:0:0:
296,256,124565,1,0,0:0:0:0:
296,256,124623,1,8,0:0:0:0:
284,248,124680,1,0,0:0:0:0:
212,148,125373,1,8,0:0:0:0:
256,192,125603,12,0,126526,0:0:0:0:
256,192,127450,12,0,128142,0:0:0:0:
276,204,128373,5,4,0:0:0:0:
256,168,128603,1,8,0:0:0:0:
256,172,128719,1,0,0:0:0:0:
256,172,128950,1,0,0:0:0:0:
256,172,129065,1,8,0:0:0:0:
208,168,129296,1,0,0:0:0:0:
208,168,129526,1,8,0:0:0:0:
208,168,129642,1,8,0:0:0:0:
208,168,129757,1,0,0:0:0:0:
228,144,129988,1,8,0:0:0:0:
244,216,130219,1,0,0:0:0:0:
244,216,130450,1,8,0:0:0:0:
244,216,130565,1,0,0:0:0:0:
224,224,130796,1,0,0:0:0:0:
216,232,130911,1,8,0:0:0:0:
220,244,131142,1,0,0:0:0:0:
224,248,131257,1,0,0:0:0:0:
224,244,131373,1,8,0:0:0:0:
224,244,131488,1,0,0:0:0:0:
224,248,131603,1,8,0:0:0:0:
224,248,131719,1,8,0:0:0:0:
224,248,131834,1,0,0:0:0:0:
224,248,131950,1,8,0:0:0:0:
260,168,132066,5,4,0:0:0:0:
260,168,132181,1,8,0:0:0:0:
260,172,132296,1,0,0:0:0:0:
260,168,132355,1,0,0:0:0:0:
192,132,132412,1,8,0:0:0:0:
204,124,132527,1,0,0:0:0:0:
200,136,132585,1,0,0:0:0:0:
200,136,132643,1,8,0:0:0:0:
204,124,132700,1,0,0:0:0:0:
212,136,132758,1,8,0:0:0:0:
200,136,132816,1,8,0:0:0:0:
212,136,132873,1,0,0:0:0:0:
232,100,132989,1,8,0:0:0:0:
220,120,133104,1,0,0:0:0:0:
232,100,133162,1,0,0:0:0:0:
220,120,133220,1,8,0:0:0:0:
232,148,133335,1,0,0:0:0:0:
260,152,133450,1,8,0:0:0:0:
264,168,133508,1,8,0:0:0:0:
260,152,133566,1,0,0:0:0:0:
264,168,133623,1,8,0:0:0:0:
260,152,133681,1,0,0:0:0:0:
264,168,133739,1,0,0:0:0:0:
268,164,133797,1,8,0:0:0:0:
264,128,133912,1,0,0:0:0:0:
236,136,133970,1,8,0:0:0:0:
232,148,134027,1,0,0:0:0:0:
228,144,134143,1,8,0:0:0:0:
212,124,134258,1,0,0:0:0:0:
212,148,134316,1,0,0:0:0:0:
216,160,134373,1,8,0:0:0:0:
212,148,134489,1,8,0:0:0:0:
216,120,134547,1,8,0:0:0:0:
212,152,134604,1,0,0:0:0:0:
212,148,134720,1,8,0:0:0:0:
168,152,134835,1,0,0:0:0:0:
252,156,134893,1,0,0:0:0:0:
168,152,134950,1,8,0:0:0:0:
252,156,135008,1,0,0:0:0:0:
168,152,135066,1,8,0:0:0:0:
252,156,135123,1,8,0:0:0:0:
168,152,135181,1,0,0:0:0:0:
168,152,135239,1,8,0:0:0:0:
168,152,135297,1,0,0:0:0:0:
204,92,135354,1,0,0:0:0:0:
196,104,135412,1,8,0:0:0:0:
196,104,135470,1,8,0:0:0:0:
196,104,135527,1,0,0:0:0:0:
224,180,135643,1,8,0:0:0:0:
228,164,135758,1,0,0:0:0:0:
232,160,135816,1,0,0:0:0:0:
224,144,135873,1,0,0:0:0:0:
232,160,135989,1,8,0:0:0:0:
228,124,136104,1,0,0:0:0:0:
248,164,136162,1,0,0:0:0:0:
248,144,136220,1,8,0:0:0:0:
228,128,136335,1,8,0:0:0:0:
248,164,136393,1,8,0:0:0:0:
228,128,136450,1,0,0:0:0:0:
248,164,136566,1,8,0:0:0:0:
244,112,136681,1,0,0:0:0:0:
220,112,136739,1,0,0:0:0:0:
224,112,136797,1,8,0:0:0:0:
220,112,136854,1,0,0:0:0:0:
212,112,136912,1,8,0:0:0:0:
220,112,136970,1,8,0:0:0:0:
240,116,137027,1,0,0:0:0:0:
252,184,137143,1,8,0:0:0:0:
256,180,137200,1,8,0:0:0:0:
256,152,137258,1,0,0:0:0:0:
256,184,137373,1,8,0:0:0:0:
260,184,137489,1,8,0:0:0:0:
216,172,137604,1,0,0:0:0:0:
216,184,137662,1,0,0:0:0:0:
216,172,137720,1,0,0:0:0:0:
216,184,137835,1,8,0:0:0:0:
200,76,137950,1,0,0:0:0:0:
216,184,138008,1,8,0:0:0:0:
196,104,138066,1,0,0:0:0:0:
196,104,138181,1,8,0:0:0:0:
220,124,138239,1,8,0:0:0:0:
200,112,138297,1,0,0:0:0:0:
220,124,138412,1,8,0:0:0:0:
236,148,138527,1,0,0:0:0:0:
224,160,138585,1,0,0:0:0:0:
236,148,138643,1,8,0:0:0:0:
224,160,138700,1,0,0:0:0:0:
208,160,138758,1,8,0:0:0:0:
140,136,138816,1,8,0:0:0:0:
236,148,138873,1,0,0:0:0:0:
208,164,138989,1,8,0:0:0:0:
168,120,139104,1,0,0:0:0:0:
212,112,139162,1,0,0:0:0:0:
184,136,139220,1,8,0:0:0:0:
168,120,139335,1,8,0:0:0:0:
152,112,139450,1,0,0:0:0:0:
200,144,139508,1,0,0:0:0:0:
216,148,139566,1,8,0:0:0:0:
200,144,139623,1,0,0:0:0:0:
216,148,139681,1,8,0:0:0:0:
200,144,139739,1,8,0:0:0:0:
160,120,139797,1,0,0:0:0:0:
212,148,139854,1,0,0:0:0:0:
172,136,139912,1,8,0:0:0:0:
168,120,139970,1,0,0:0:0:0:
160,140,140027,1,8,0:0:0:0:
172,136,140085,1,8,0:0:0:0:
144,144,140143,1,0,0:0:0:0:
160,140,140200,1,8,0:0:0:0:
144,144,140258,1,0,0:0:0:0:
160,140,140316,1,0,0:0:0:0:
144,144,140373,1,8,0:0:0:0:
176,144,140489,1,0,0:0:0:0:
168,148,140547,1,0,0:0:0:0:
172,144,140604,1,8,0:0:0:0:
168,148,140720,1,8,0:0:0:0:
216,160,140835,1,0,0:0:0:0:
212,172,140893,1,0,0:0:0:0:
216,160,140950,1,0,0:0:0:0:
212,172,141008,1,0,0:0:0:0:
216,160,141066,1,8,0:0:0:0:
204,176,141181,1,8,0:0:0:0:
224,212,141297,1,0,0:0:0:0:
220,168,141354,1,0,0:0:0:0:
224,212,141412,1,8,0:0:0:0:
216,168,141470,1,0,0:0:0:0:
216,168,141527,1,8,0:0:0:0:
216,168,141585,1,8,0:0:0:0:
224,212,141643,1,0,0:0:0:0:
216,168,141700,1,8,0:0:0:0:
216,172,141758,1,0,0:0:0:0:
224,212,141816,1,8,0:0:0:0:
216,168,141873,1,8,0:0:0:0:
224,212,141931,1,0,0:0:0:0:
216,168,141989,1,8,0:0:0:0:
204,156,142047,1,8,0:0:0:0:
200,148,142104,1,0,0:0:0:0:
224,212,142162,1,8,0:0:0:0:
196,144,142220,1,0,0:0:0:0:
224,212,142277,1,0,0:0:0:0:
196,144,142335,1,8,0:0:0:0:
196,144,142393,1,0,0:0:0:0:
224,212,142450,1,8,0:0:0:0:
192,148,142508,1,8,0:0:0:0:
224,212,142566,1,0,0:0:0:0:
192,148,142623,1,8,0:0:0:0:
224,212,142681,1,0,0:0:0:0:
192,148,142739,1,8,0:0:0:0:
192,144,142797,1,8,0:0:0:0:
224,212,142854,1,0,0:0:0:0:
192,140,142912,1,8,0:0:0:0:
184,136,142970,1,8,0:0:0:0:
208,160,143027,1,0,0:0:0:0:
188,148,143085,1,8,0:0:0:0:
224,120,143143,1,0,0:0:0:0:
328,156,143373,1,8,0:0:0:0:
328,156,143526,1,8,0:0:0:0:
312,156,143603,1,0,0:0:0:0:
312,156,143834,1,8,0:0:0:0:
288,124,144065,1,0,0:0:0:0:
288,124,144219,1,0,0:0:0:0:
280,128,144296,1,8,0:0:0:0:
272,136,144450,1,8,0:0:0:0:
232,144,144526,1,0,0:0:0:0:
232,144,144757,1,8,0:0:0:0:
248,160,144988,1,0,0:0:0:0:
248,164,145219,1,8,0:0:0:0:
256,148,145373,1,8,0:0:0:0:
264,144,145450,1,0,0:0:0:0:
256,148,145680,1,8,0:0:0:0:
216,136,145911,1,0,0:0:0:0:
264,136,146142,1,8,0:0:0:0:
264,136,146296,1,0,0:0:0:0:
252,144,146373,1,0,0:0:0:0:
240,156,146603,1,8,0:0:0:0:
208,160,146834,1,0,0:0:0:0:
208,160,147065,1,8,0:0:0:0:
208,160,147219,1,8,0:0:0:0:
208,160,147296,1,0,0:0:0:0:
208,160,147526,1,8,0:0:0:0:
208,160,147757,1,0,0:0:0:0:
200,164,147911,1,0,0:0:0:0:
192,160,147988,1,8,0:0:0:0:
208,180,148142,1,8,0:0:0:0:
228,192,148219,1,0,0:0:0:0:
216,176,148450,1,8,0:0:0:0:
248,164,148680,1,0,0:0:0:0:
244,156,148911,1,8,0:0:0:0:
240,156,149065,1,8,0:0:0:0:
224,148,149142,1,0,0:0:0:0:
248,164,149373,1,8,0:0:0:0:
244,144,149603,1,0,0:0:0:0:
248,152,149757,1,0,0:0:0:0:
240,148,149834,1,8,0:0:0:0:
252,168,150065,1,8,0:0:0:0:
268,180,150123,1,8,0:0:0:0:
252,172,150180,1,0,0:0:0:0:
268,180,150296,1,8,0:0:0:0:
268,180,150411,1,8,0:0:0:0:
228,164,150526,1,0,0:0:0:0:
232,160,150584,1,0,0:0:0:0:
224,144,150641,1,0,0:0:0:0:
232,160,150757,1,8,0:0:0:0:
228,124,150872,1,0,0:0:0:0:
248,164,150930,1,0,0:0:0:0:
248,144,150988,1,8,0:0:0:0:
228,128,151103,1,8,0:0:0:0:
248,164,151161,1,8,0:0:0:0:
228,128,151218,1,0,0:0:0:0:
248,164,151334,1,8,0:0:0:0:
244,112,151449,1,0,0:0:0:0:
220,112,151507,1,0,0:0:0:0:
224,112,151565,1,8,0:0:0:0:
220,112,151622,1,0,0:0:0:0:
212,112,151680,1,8,0:0:0:0:
220,112,151738,1,8,0:0:0:0:
240,116,151795,1,0,0:0:0:0:
296,144,151853,1,0,0:0:0:0:
252,184,151911,1,8,0:0:0:0:
256,180,151968,1,8,0:0:0:0:
256,152,152026,1,0,0:0:0:0:
256,184,152141,1,8,0:0:0:0:
260,184,152257,1,8,0:0:0:0:
216,172,152372,1,0,0:0:0:0:
216,184,152430,1,0,0:0:0:0:
216,172,152488,1,0,0:0:0:0:
216,184,152603,1,8,0:0:0:0:
200,76,152718,1,0,0:0:0:0:
216,184,152776,1,8,0:0:0:0:
196,104,152834,1,0,0:0:0:0:
196,104,152949,1,8,0:0:0:0:
220,124,153007,1,8,0:0:0:0:
200,112,153065,1,0,0:0:0:0:
220,124,153180,1,8,0:0:0:0:
236,148,153295,1,0,0:0:0:0:
224,160,153353,1,0,0:0:0:0:
236,148,153411,1,8,0:0:0:0:
224,160,153468,1,0,0:0:0:0:
208,160,153526,1,8,0:0:0:0:
140,136,153584,1,8,0:0:0:0:
236,148,153641,1,0,0:0:0:0:
236,152,153700,1,0,0:0:0:0:
208,164,153757,1,8,0:0:0:0:
168,120,153872,1,0,0:0:0:0:
212,112,153930,1,0,0:0:0:0:
184,136,153988,1,8,0:0:0:0:
168,120,154103,1,8,0:0:0:0:
152,112,154218,1,0,0:0:0:0:
200,144,154276,1,0,0:0:0:0:
216,148,154334,1,8,0:0:0:0:
200,144,154391,1,0,0:0:0:0:
216,148,154449,1,8,0:0:0:0:
200,144,154507,1,8,0:0:0:0:
160,120,154565,1,0,0:0:0:0:
212,148,154622,1,0,0:0:0:0:
172,136,154680,1,8,0:0:0:0:
168,120,154738,1,0,0:0:0:0:
160,140,154795,1,8,0:0:0:0:
172,136,154853,1,8,0:0:0:0:
144,144,154911,1,0,0:0:0:0:
160,140,154968,1,8,0:0:0:0:
144,144,155026,1,0,0:0:0:0:
160,140,155084,1,0,0:0:0:0:
144,144,155141,1,8,0:0:0:0:
212,168,155200,1,0,0:0:0:0:
176,144,155257,1,0,0:0:0:0:
168,148,155315,1,0,0:0:0:0:
172,144,155372,1,8,0:0:0:0:
168,148,155488,1,8,0:0:0:0:
216,160,155603,1,0,0:0:0:0:
212,172,155661,1,0,0:0:0:0:
216,160,155718,1,0,0:0:0:0:
212,172,155776,1,0,0:0:0:0:
216,160,155834,1,8,0:0:0:0:
204,176,155949,1,8,0:0:0:0:
224,212,156065,1,0,0:0:0:0:
220,168,156122,1,0,0:0:0:0:
224,212,156180,1,8,0:0:0:0:
216,168,156238,1,0,0:0:0:0:
216,168,156295,1,8,0:0:0:0:
216,168,156353,1,8,0:0:0:0:
224,212,156411,1,0,0:0:0:0:
216,168,156468,1,8,0:0:0:0:
216,172,156526,1,0,0:0:0:0:
224,212,156584,1,0,0:0:0:0:
216,168,156641,1,8,0:0:0:0:
224,212,156699,1,0,0:0:0:0:
216,168,156757,1,0,0:0:0:0:
204,156,156815,1,8,0:0:0:0:
200,148,156872,1,0,0:0:0:0:
224,212,156930,1,8,0:0:0:0:
196,144,156988,1,0,0:0:0:0:
224,212,157045,1,0,0:0:0:0:
196,144,157103,1,8,0:0:0:0:
196,144,157161,1,0,0:0:0:0:
224,212,157218,1,8,0:0:0:0:
192,148,157276,1,8,0:0:0:0:
224,212,157334,1,0,0:0:0:0:
192,148,157391,1,8,0:0:0:0:
224,212,157449,1,0,0:0:0:0:
192,148,157507,1,0,0:0:0:0:
192,144,157565,1,8,0:0:0:0:
224,212,157622,1,0,0:0:0:0:
192,140,157680,1,0,0:0:0:0:
184,136,157738,1,8,0:0:0:0:
208,160,157795,1,0,0:0:0:0:
188,148,157853,1,8,0:0:0:0:
224,120,157911,1,0,0:0:0:0:
168,144,158142,1,0,0:0:0:0:
168,144,158257,1,0,0:0:0:0:
248,144,158373,1,8,0:0:0:0:
248,144,158603,1,8,0:0:0:0:
240,148,158834,1,8,0:0:0:0:
240,148,159065,1,8,0:0:0:0:
240,148,159296,1,8,0:0:0:0:
240,148,159526,1,8,0:0:0:0:
240,204,159757,1,8,0:0:0:0:
240,204,159988,1,8,0:0:0:0:
240,204,160219,1,8,0:0:0:0:
240,208,160450,1,8,0:0:0:0:
220,188,160680,1,8,0:0:0:0:
220,188,160796,1,8,0:0:0:0:
220,188,160911,1,8,0:0:0:0:
220,188,161026,1,8,0:0:0:0:
220,188,161142,1,8,0:0:0:0:
220,188,161257,1,8,0:0:0:0:
220,188,161373,1,8,0:0:0:0:
220,188,161488,1,8,0:0:0:0:
220,188,161603,1,4,0:0:0:0:
228,236,161834,1,8,0:0:0:0:
244,192,161950,1,0,0:0:0:0:
232,192,162007,1,0,0:0:0:0:
248,188,162065,1,0,0:0:0:0:
244,192,162180,1,0,0:0:0:0:
232,192,162296,1,8,0:0:0:0:
168,160,162526,1,0,0:0:0:0:
176,164,162642,1,0,0:0:0:0:
176,164,162757,1,8,0:0:0:0:
176,164,162873,1,8,0:0:0:0:
176,164,162988,1,0,0:0:0:0:
176,156,163046,1,8,0:0:0:0:
176,164,163103,1,0,0:0:0:0:
176,164,163219,1,8,0:0:0:0:
192,152,163450,1,0,0:0:0:0:
196,152,163680,1,8,0:0:0:0:
196,152,163796,1,0,0:0:0:0:
264,212,163853,1,0,0:0:0:0:
196,152,163911,1,8,0:0:0:0:
264,212,164026,1,0,0:0:0:0:
252,168,164142,1,8,0:0:0:0:
248,176,164373,1,0,0:0:0:0:
232,152,164488,1,0,0:0:0:0:
248,176,164603,1,8,0:0:0:0:
248,176,164719,1,0,0:0:0:0:
232,152,164834,1,8,0:0:0:0:
224,152,164892,1,8,0:0:0:0:
212,168,164950,1,0,0:0:0:0:
212,168,165065,1,8,0:0:0:0:
280,192,165180,1,8,0:0:0:0:
152,176,165296,1,0,0:0:0:0:
276,220,165526,1,8,0:0:0:0:
256,216,165642,1,0,0:0:0:0:
276,220,165700,1,0,0:0:0:0:
256,216,165757,1,0,0:0:0:0:
256,212,165873,1,0,0:0:0:0:
256,212,165988,1,8,0:0:0:0:
292,196,166219,1,0,0:0:0:0:
292,196,166334,1,8,0:0:0:0:
288,192,166450,1,0,0:0:0:0:
288,188,166565,1,8,0:0:0:0:
280,176,166680,1,0,0:0:0:0:
272,192,166796,1,8,0:0:0:0:
256,192,166853,1,8,0:0:0:0:
272,192,166911,1,0,0:0:0:0:
280,176,167026,1,8,0:0:0:0:
256,136,167142,1,0,0:0:0:0:
248,132,167373,1,8,0:0:0:0:
232,152,167488,1,0,0:0:0:0:
240,160,167546,1,0,0:0:0:0:
240,160,167603,1,8,0:0:0:0:
240,160,167719,1,0,0:0:0:0:
240,160,167834,1,8,0:0:0:0:
240,160,167950,1,8,0:0:0:0:
256,164,168065,1,0,0:0:0:0:
252,160,168123,1,0,0:0:0:0:
248,160,168180,1,0,0:0:0:0:
252,160,168238,1,0,0:0:0:0:
248,160,168296,1,8,0:0:0:0:
248,160,168411,1,8,0:0:0:0:
216,168,168526,1,0,0:0:0:0:
216,168,168757,1,8,0:0:0:0:
216,168,168873,1,8,0:0:0:0:
216,168,168988,1,0,0:0:0:0:
216,168,169103,1,8,0:0:0:0:
216,168,169219,1,0,0:0:0:0:
208,164,169276,1,0,0:0:0:0:
216,168,169334,1,8,0:0:0:0:
208,164,169450,1,0,0:0:0:0:
208,164,169565,1,8,0:0:0:0:
208,164,169623,1,8,0:0:0:0:
208,164,169680,1,0,0:0:0:0:
208,164,169796,1,8,0:0:0:0:
208,164,169911,1,0,0:0:0:0:
208,164,170026,1,8,0:0:0:0:
232,152,170142,1,0,0:0:0:0:
232,152,170200,1,0,0:0:0:0:
204,144,170257,1,8,0:0:0:0:
204,144,170373,1,0,0:0:0:0:
188,144,170430,1,8,0:0:0:0:
208,132,170488,1,0,0:0:0:0:
188,144,170603,1,8,0:0:0:0:
188,144,170719,1,8,0:0:0:0:
168,144,170834,1,0,0:0:0:0:
168,144,170950,1,8,0:0:0:0:
164,144,171065,1,0,0:0:0:0:
160,144,171123,1,0,0:0:0:0:
144,144,171180,1,8,0:0:0:0:
164,144,171296,1,0,0:0:0:0:
144,144,171411,1,8,0:0:0:0:
120,136,171469,1,8,0:0:0:0:
140,144,171526,1,0,0:0:0:0:
140,144,171642,1,8,0:0:0:0:
128,148,171757,1,0,0:0:0:0:
160,120,171815,1,0,0:0:0:0:
140,144,171873,1,8,0:0:0:0:
216,112,171988,1,8,0:0:0:0:
160,120,172046,1,0,0:0:0:0:
216,112,172103,1,8,0:0:0:0:
160,120,172219,1,8,0:0:0:0:
140,128,172276,1,8,0:0:0:0:
160,120,172334,1,0,0:0:0:0:
184,168,172392,1,0,0:0:0:0:
140,128,172450,1,8,0:0:0:0:
264,152,172680,1,0,0:0:0:0:
264,152,172796,1,8,0:0:0:0:
264,152,172911,1,0,0:0:0:0:
244,160,172969,1,0,0:0:0:0:
256,152,173026,1,8,0:0:0:0:
244,160,173142,1,0,0:0:0:0:
244,160,173257,1,8,0:0:0:0:
240,160,173315,1,8,0:0:0:0:
244,160,173373,1,0,0:0:0:0:
240,160,173488,1,8,0:0:0:0:
232,136,173603,1,0,0:0:0:0:
232,136,173718,1,8,0:0:0:0:
248,116,173834,1,0,0:0:0:0:
272,180,173892,1,0,0:0:0:0:
272,180,173950,1,8,0:0:0:0:
272,176,174065,1,0,0:0:0:0:
268,168,174180,1,8,0:0:0:0:
272,176,174238,1,8,0:0:0:0:
256,148,174296,1,0,0:0:0:0:
268,132,174353,1,0,0:0:0:0:
248,144,174411,1,8,0:0:0:0:
256,148,174526,1,0,0:0:0:0:
232,180,174642,1,8,0:0:0:0:
232,128,174757,1,0,0:0:0:0:
208,164,174815,1,0,0:0:0:0:
232,180,174873,1,8,0:0:0:0:
232,132,174988,1,0,0:0:0:0:
208,164,175103,1,8,0:0:0:0:
220,164,175161,1,8,0:0:0:0:
220,164,175219,1,0,0:0:0:0:
248,136,175334,1,8,0:0:0:0:
248,136,175450,1,0,0:0:0:0:
232,136,175507,1,0,0:0:0:0:
240,136,175565,1,8,0:0:0:0:
232,136,175680,1,8,0:0:0:0:
232,132,175738,1,8,0:0:0:0:
232,132,175796,1,0,0:0:0:0:
232,132,175911,1,8,0:0:0:0:
232,136,175969,1,8,0:0:0:0:
232,144,176026,1,8,0:0:0:0:
232,136,176084,1,8,0:0:0:0:
232,144,176142,1,0,0:0:0:0:
216,116,176373,1,4,0:0:0:0:
248,176,176488,1,8,0:0:0:0:
244,180,176603,1,0,0:0:0:0:
256,172,176661,1,0,0:0:0:0:
240,184,176719,1,8,0:0:0:0:
240,184,176834,1,0,0:0:0:0:
236,156,176950,1,8,0:0:0:0:
236,156,177065,1,0,0:0:0:0:
256,192,177296,1,0,0:0:0:0:
256,192,177411,1,0,0:0:0:0:
200,156,177526,1,8,0:0:0:0:
256,192,177642,1,8,0:0:0:0:
256,192,177757,1,0,0:0:0:0:
224,156,177815,1,8,0:0:0:0:
208,136,177873,1,0,0:0:0:0:
204,140,177988,1,8,0:0:0:0:
224,156,178219,1,0,0:0:0:0:
248,108,178334,1,8,0:0:0:0:
248,108,178450,1,0,0:0:0:0:
224,120,178507,1,0,0:0:0:0:
240,108,178565,1,8,0:0:0:0:
220,124,178680,1,0,0:0:0:0:
220,124,178796,1,8,0:0:0:0:
192,112,178911,1,0,0:0:0:0:
180,156,179142,1,0,0:0:0:0:
180,156,179257,1,0,0:0:0:0:
180,156,179372,1,8,0:0:0:0:
172,140,179488,1,8,0:0:0:0:
172,144,179603,1,0,0:0:0:0:
160,148,179719,1,8,0:0:0:0:
160,148,179776,1,8,0:0:0:0:
156,148,179834,1,0,0:0:0:0:
160,148,179950,1,8,0:0:0:0:
216,164,180065,1,0,0:0:0:0:
216,164,180180,1,8,0:0:0:0:
216,164,180296,1,0,0:0:0:0:
272,120,180411,1,8,0:0:0:0:
232,132,180469,1,8,0:0:0:0:
272,120,180526,1,0,0:0:0:0:
232,132,180642,1,8,0:0:0:0:
232,132,180757,1,0,0:0:0:0:
256,164,180988,1,0,0:0:0:0:
240,172,181103,1,8,0:0:0:0:
240,172,181219,1,0,0:0:0:0:
240,168,181276,1,0,0:0:0:0:
232,172,181334,1,8,0:0:0:0:
272,148,181450,1,0,0:0:0:0:
224,132,181565,1,8,0:0:0:0:
272,148,181623,1,8,0:0:0:0:
224,132,181680,1,0,0:0:0:0:
196,144,181796,1,8,0:0:0:0:
264,160,181911,1,0,0:0:0:0:
264,160,182026,1,8,0:0:0:0:
240,140,182142,1,0,0:0:0:0:
240,140,182200,1,0,0:0:0:0:
220,168,182257,1,8,0:0:0:0:
224,116,182373,1,0,0:0:0:0:
196,96,182430,1,0,0:0:0:0:
212,156,182488,1,8,0:0:0:0:
212,156,182546,1,8,0:0:0:0:
224,116,182603,1,0,0:0:0:0:
252,92,182719,1,8,0:0:0:0:
256,160,182834,1,0,0:0:0:0:
240,184,182892,1,0,0:0:0:0:
256,160,182950,1,8,0:0:0:0:
240,184,183007,1,0,0:0:0:0:
240,176,183065,1,8,0:0:0:0:
240,184,183123,1,8,0:0:0:0:
240,176,183180,1,0,0:0:0:0:
240,176,183238,1,8,0:0:0:0:
240,184,183296,1,0,0:0:0:0:
240,176,183353,1,8,0:0:0:0:
256,168,183411,1,8,0:0:0:0:
240,176,183469,1,8,0:0:0:0:
256,172,183526,1,0,0:0:0:0:
256,168,183642,1,8,0:0:0:0:
256,168,183757,1,4,0:0:0:0:
244,148,183988,1,8,0:0:0:0:
264,172,184219,1,0,0:0:0:0:
252,200,184276,1,0,0:0:0:0:
264,172,184334,1,0,0:0:0:0:
252,200,184450,1,8,0:0:0:0:
252,200,184680,1,0,0:0:0:0:
252,200,184911,1,8,0:0:0:0:
252,200,185026,1,8,0:0:0:0:
228,128,185142,1,0,0:0:0:0:
220,116,185200,1,8,0:0:0:0:
228,128,185257,1,0,0:0:0:0:
216,116,185373,1,8,0:0:0:0:
212,180,185603,1,0,0:0:0:0:
212,180,185834,1,8,0:0:0:0:
208,168,185950,1,0,0:0:0:0:
220,112,186065,1,8,0:0:0:0:
208,108,186123,1,8,0:0:0:0:
204,108,186180,1,0,0:0:0:0:
204,108,186296,1,8,0:0:0:0:
204,108,186412,1,8,0:0:0:0:
272,132,186526,1,0,0:0:0:0:
268,144,186642,1,8,0:0:0:0:
256,128,186700,1,0,0:0:0:0:
268,144,186757,1,8,0:0:0:0:
256,128,186873,1,8,0:0:0:0:
256,128,186988,1,0,0:0:0:0:
256,128,187046,1,0,0:0:0:0:
256,132,187103,1,0,0:0:0:0:
256,132,187219,1,8,0:0:0:0:
284,156,187450,1,0,0:0:0:0:
280,156,187680,1,8,0:0:0:0:
276,156,187796,1,8,0:0:0:0:
260,160,187853,1,8,0:0:0:0:
272,160,187911,1,0,0:0:0:0:
236,128,188142,1,8,0:0:0:0:
248,120,188373,1,0,0:0:0:0:
240,108,188488,1,0,0:0:0:0:
208,112,188546,1,0,0:0:0:0:
240,108,188603,1,8,0:0:0:0:
208,112,188719,1,8,0:0:0:0:
216,100,188834,1,0,0:0:0:0:
232,144,188950,1,8,0:0:0:0:
232,144,189065,1,8,0:0:0:0:
232,144,189180,1,8,0:0:0:0:
280,112,189296,1,0,0:0:0:0:
260,132,189526,1,8,0:0:0:0:
276,136,189642,1,0,0:0:0:0:
276,136,189700,1,0,0:0:0:0:
276,136,189757,1,8,0:0:0:0:
240,156,189873,1,0,0:0:0:0:
240,156,189988,1,8,0:0:0:0:
240,156,190103,1,8,0:0:0:0:
332,148,190219,1,0,0:0:0:0:
316,168,190276,1,0,0:0:0:0:
316,168,190334,1,8,0:0:0:0:
332,148,190392,1,0,0:0:0:0:
316,168,190450,1,8,0:0:0:0:
332,148,190507,1,8,0:0:0:0:
316,168,190565,1,0,0:0:0:0:
316,168,190623,1,8,0:0:0:0:
316,168,190680,1,0,0:0:0:0:
316,168,190738,1,8,0:0:0:0:
316,168,190796,1,8,0:0:0:0:
316,168,190853,1,0,0:0:0:0:
316,168,190911,1,8,0:0:0:0:
316,168,190969,1,8,0:0:0:0:
332,148,191026,1,0,0:0:0:0:
316,168,191084,1,8,0:0:0:0:
324,152,191142,1,0,0:0:0:0:
