osu file format v14

[General]
AudioFilename: Helblinde Heavens Fall bpm280.mp3
AudioLeadIn: 0
PreviewTime: -1
Countdown: 0
SampleSet: None
StackLeniency: 0.7
Mode: 1
LetterboxInBreaks: 0
WidescreenStoryboard: 1

[Editor]
DistanceSpacing: 1.6
BeatDivisor: 8
GridSize: 4
TimelineZoom: 2.699999

[Metadata]
Title:Heaven's Fall (Speed Up Ver.)
TitleUnicode:Heaven's Fall (Speed Up Ver.)
Artist:Helblinde
ArtistUnicode:Helblinde
Creator:hoku-4625
Version:7_7's Warrior(BPM280)
Source:
Tags:
BeatmapID:1610563
BeatmapSetID:764382

[Difficulty]
HPDrainRate:5.5
CircleSize:5
OverallDifficulty:6.5
ApproachRate:5
SliderMultiplier:1.4
SliderTickRate:1

[Events]
//Background and Video events
0,0,"arunodoa.jpg",0,0
//Break Periods
//Storyboard Layer 0 (Background)
//Storyboard Layer 1 (Fail)
//Storyboard Layer 2 (Pass)
//Storyboard Layer 3 (Foreground)
//Storyboard Sound Samples

[TimingPoints]
60.099171616276,214.285714285714,4,1,0,100,1,0
24006,-99.502487562189,4,1,0,100,0,0
24113,-99.009900990099,4,1,0,100,0,0
24220,-98.5221674876847,4,1,0,100,0,0
24327,-98.0392156862745,4,1,0,100,0,0
24435,-97.5609756097561,4,1,0,100,0,0
24542,-97.0873786407767,4,1,0,100,0,0
24649,-96.6183574879227,4,1,0,100,0,0
24756,-96.1538461538461,4,1,0,100,0,0
24863,-95.6937799043062,4,1,0,100,0,0
24970,-95.2380952380952,4,1,0,100,0,0
25077,-94.7867298578199,4,1,0,80,0,0
25185,-94.3396226415094,4,1,0,80,0,0
25292,-93.8967136150235,4,1,0,80,0,0
25399,-93.4579439252336,4,1,0,80,0,0
25506,-93.0232558139535,4,1,0,80,0,0
25613,-92.5925925925926,4,1,0,80,0,0
25720,-90.9090909090909,4,1,0,80,0,0
27488,-100,4,1,0,80,0,1
27542,-100,4,1,0,80,0,0
54810,-100,4,1,0,10,0,0
55720,-133.333333333333,4,1,0,80,0,0
62149,-131.578947368421,4,1,0,80,0,0
62256,-131.578947368421,4,1,0,80,0,0
62363,-129.87012987013,4,1,0,80,0,0
62470,-126.582278481013,4,1,0,80,0,0
62577,-125,4,1,0,80,0,0
63863,-123.456790123457,4,1,0,80,0,0
63970,-121.951219512195,4,1,0,80,0,0
64077,-120.481927710843,4,1,0,80,0,0
64185,-119.047619047619,4,1,0,80,0,0
64265,-118.343195266272,4,1,0,80,0,0
64319,-117.647058823529,4,1,0,80,0,0
65577,-116.279069767442,4,1,0,80,0,0
65685,-114.942528735632,4,1,0,80,0,0
65792,-113.636363636364,4,1,0,80,0,0
65899,-112.359550561798,4,1,0,80,0,0
66006,-111.111111111111,4,1,0,80,0,0
68149,-109.89010989011,4,1,0,80,0,0
68256,-108.695652173913,4,1,0,80,0,0
68363,-107.52688172043,4,1,0,80,0,0
68470,-106.382978723404,4,1,0,80,0,0
68577,-105.263157894737,4,1,0,80,0,0
69006,-104.166666666667,4,1,0,80,0,0
69113,-103.092783505155,4,1,0,80,0,0
69220,-102.040816326531,4,1,0,80,0,0
69327,-101.010101010101,4,1,0,80,0,0
69435,-100,4,1,0,80,0,0
72917,-100,4,1,0,80,0,1
86631,-100,4,1,0,80,0,0
102060,-100,4,1,0,80,0,1
115774,-100,4,1,0,80,0,0
122631,-100,4,1,0,80,0,1
132917,-100,4,1,0,80,0,0
139774,-100,4,1,0,80,0,1
146631,-100,4,1,0,80,0,0
146738,-99.009900990099,4,1,0,80,0,0
146899,-98.5221674876847,4,1,0,80,0,0
147006,-98.0392156862745,4,1,0,80,0,0
147166,-97.0873786407767,4,1,0,80,0,0
147381,-96.1538461538461,4,1,0,80,0,0
147595,-95.2380952380952,4,1,0,80,0,0
147809,-94.3396226415094,4,1,0,80,0,0
148023,-93.4579439252336,4,1,0,80,0,0
148238,-92.5925925925926,4,1,0,80,0,0
148452,-91.743119266055,4,1,0,80,0,0
148666,-90.9090909090909,4,1,0,80,0,0
148934,-90.0900900900901,4,1,0,80,0,0
149148,-89.2857142857143,4,1,0,80,0,0
149256,-88.8888888888889,4,1,0,80,0,0
149363,-88.4955752212389,4,1,0,80,0,0
149470,-88.1057268722467,4,1,0,80,0,0
149577,-87.719298245614,4,1,0,80,0,0
149685,-87.3362445414847,4,1,0,80,0,0
149792,-86.9565217391304,4,1,0,80,0,0
149899,-86.5800865800866,4,1,0,80,0,0
150006,-86.2068965517241,4,1,0,80,0,0
150113,-86.9565217391304,4,1,0,80,0,0
150220,-87.719298245614,4,1,0,80,0,0
150327,-88.4955752212389,4,1,0,80,0,0
150435,-89.2857142857143,4,1,0,80,0,0
150542,-90.0900900900901,4,1,0,80,0,0
150649,-90.9090909090909,4,1,0,80,0,0
150756,-91.743119266055,4,1,0,80,0,0
150863,-92.5925925925926,4,1,0,80,0,0
150970,-93.4579439252336,4,1,0,80,0,0
151077,-94.3396226415094,4,1,0,80,0,0
151185,-95.2380952380952,4,1,0,80,0,0
151292,-96.1538461538461,4,1,0,80,0,0
151372,-96.6183574879227,4,1,0,80,0,0
151426,-97.0873786407767,4,1,0,80,0,0
151506,-98.0392156862745,4,1,0,80,0,0
151613,-99.009900990099,4,1,0,80,0,0
151720,-100,4,1,0,80,0,0

[HitObjects]
40,168,60,5,0,0:0:0:0:
40,168,274,1,2,0:0:0:0:
264,144,488,1,0,0:0:0:0:
240,148,595,1,0,0:0:0:0:
240,148,702,1,2,0:0:0:0:
240,148,917,1,0,0:0:0:0:
240,148,1131,1,2,0:0:0:0:
240,148,1345,1,2,0:0:0:0:
236,144,1452,1,0,0:0:0:0:
240,148,1560,1,2,0:0:0:0:
236,144,1667,1,2,0:0:0:0:
240,148,1774,1,0,0:0:0:0:
240,148,1988,1,0,0:0:0:0:
232,144,2095,1,2,0:0:0:0:
240,148,2202,1,0,0:0:0:0:
232,140,2310,1,0,0:0:0:0:
236,144,2417,1,2,0:0:0:0:
232,140,2524,1,2,0:0:0:0:
236,144,2631,1,0,0:0:0:0:
240,148,2738,1,2,0:0:0:0:
240,148,2845,1,0,0:0:0:0:
240,148,2952,1,0,0:0:0:0:
232,144,3060,1,2,0:0:0:0:
240,148,3167,1,0,0:0:0:0:
332,84,3274,1,2,0:0:0:0:
288,116,3327,1,2,0:0:0:0:
268,128,3381,1,2,0:0:0:0:
312,192,3488,1,0,0:0:0:0:
312,192,3702,1,2,0:0:0:0:
312,192,3810,1,2,0:0:0:0:
312,192,3917,1,0,0:0:0:0:
312,192,3970,1,0,0:0:0:0:
312,192,4024,1,0,0:0:0:0:
312,192,4131,1,2,0:0:0:0:
312,192,4238,1,2,0:0:0:0:
312,192,4345,1,0,0:0:0:0:
312,192,4560,1,0,0:0:0:0:
312,192,4774,1,0,0:0:0:0:
312,192,4881,1,2,0:0:0:0:
312,192,4988,1,0,0:0:0:0:
240,176,5202,1,0,0:0:0:0:
240,176,5417,1,2,0:0:0:0:
240,176,5524,1,2,0:0:0:0:
240,176,5631,1,0,0:0:0:0:
240,176,5685,1,0,0:0:0:0:
240,176,5738,1,0,0:0:0:0:
240,176,5792,1,0,0:0:0:0:
240,176,5845,1,2,0:0:0:0:
224,168,6060,1,0,0:0:0:0:
224,172,6167,1,0,0:0:0:0:
224,168,6274,1,2,0:0:0:0:
224,168,6381,1,2,0:0:0:0:
224,172,6435,1,2,0:0:0:0:
224,168,6488,1,0,0:0:0:0:
224,176,6595,1,0,0:0:0:0:
224,168,6702,1,2,0:0:0:0:
224,176,6756,1,0,0:0:0:0:
224,176,6810,1,2,0:0:0:0:
240,212,6917,1,0,0:0:0:0:
240,212,7131,1,2,0:0:0:0:
240,212,7238,1,2,0:0:0:0:
240,212,7345,1,0,0:0:0:0:
240,212,7399,1,0,0:0:0:0:
240,212,7452,1,0,0:0:0:0:
240,212,7560,1,2,0:0:0:0:
236,208,7667,1,2,0:0:0:0:
240,212,7774,1,0,0:0:0:0:
240,212,7881,1,0,0:0:0:0:
236,208,7935,1,0,0:0:0:0:
240,212,7988,1,2,0:0:0:0:
240,212,8095,1,2,0:0:0:0:
240,212,8202,1,0,0:0:0:0:
240,212,8256,1,0,0:0:0:0:
240,212,8310,1,0,0:0:0:0:
236,208,8363,1,0,0:0:0:0:
240,212,8417,1,2,0:0:0:0:
235,208,8524,1,2,0:0:0:0:
236,208,8631,1,0,0:0:0:0:
240,212,8845,1,2,0:0:0:0:
240,212,9060,1,2,0:0:0:0:
232,208,9167,1,0,0:0:0:0:
232,208,9274,1,2,0:0:0:0:
236,208,9381,1,2,0:0:0:0:
235,208,9488,1,0,0:0:0:0:
235,208,9542,1,2,0:0:0:0:
236,208,9595,1,0,0:0:0:0:
232,212,9649,1,2,0:0:0:0:
232,212,9702,1,0,0:0:0:0:
228,212,9810,1,2,0:0:0:0:
240,212,9917,1,0,0:0:0:0:
240,212,10024,1,0,0:0:0:0:
240,212,10077,1,0,0:0:0:0:
232,208,10131,1,0,0:0:0:0:
188,104,10345,1,0,0:0:0:0:
196,120,10399,1,2,0:0:0:0:
192,120,10506,1,2,0:0:0:0:
192,120,10560,1,0,0:0:0:0:
196,120,10667,1,2,0:0:0:0:
196,120,10774,1,0,0:0:0:0:
196,120,10881,1,2,0:0:0:0:
196,120,10935,1,0,0:0:0:0:
196,120,10988,1,2,0:0:0:0:
196,124,11095,1,2,0:0:0:0:
196,120,11202,1,0,1:0:0:0:
196,128,11310,1,0,1:0:0:0:
196,120,11417,1,2,1:0:0:0:
192,120,11524,1,2,1:0:0:0:
196,128,11577,1,2,1:0:0:0:
196,120,11631,1,0,1:0:0:0:
196,120,11738,1,0,1:0:0:0:
196,120,11845,1,2,1:0:0:0:
196,120,11899,1,2,1:0:0:0:
196,128,11952,1,2,1:0:0:0:
196,124,12060,1,0,1:0:0:0:
196,128,12167,1,2,1:0:0:0:
196,128,12274,1,0,1:0:0:0:
196,120,12381,1,2,1:0:0:0:
192,120,12488,1,0,1:0:0:0:
196,128,12595,1,0,1:0:0:0:
196,120,12702,1,2,1:0:0:0:
196,120,12756,1,2,1:0:0:0:
196,120,12810,1,2,1:0:0:0:
196,120,12863,1,2,1:0:0:0:
196,120,12917,1,0,1:0:0:0:
196,128,13024,1,2,1:0:0:0:
196,128,13131,1,0,1:0:0:0:
196,128,13185,1,0,1:0:0:0:
196,128,13238,1,2,1:0:0:0:
192,128,13345,1,0,1:0:0:0:
192,120,13452,1,0,1:0:0:0:
192,120,13506,1,0,1:0:0:0:
192,120,13560,1,2,1:0:0:0:
196,128,13613,1,2,1:0:0:0:
196,120,13667,1,2,1:0:0:0:
196,132,13720,1,2,1:0:0:0:
196,128,13774,1,0,1:0:0:0:
194,351,13988,1,2,0:0:0:0:
194,265,14095,1,2,0:0:0:0:
194,265,14202,1,0,0:0:0:0:
194,265,14256,1,0,0:0:0:0:
194,265,14310,1,0,0:0:0:0:
194,265,14417,1,2,0:0:0:0:
194,265,14524,1,2,0:0:0:0:
194,265,14631,1,0,0:0:0:0:
194,265,14738,1,0,0:0:0:0:
194,265,14792,1,0,0:0:0:0:
194,265,14845,1,2,0:0:0:0:
194,265,14952,1,0,0:0:0:0:
194,265,15006,1,2,0:0:0:0:
194,265,15060,1,0,0:0:0:0:
194,265,15113,1,0,0:0:0:0:
194,265,15167,1,0,0:0:0:0:
194,265,15274,1,2,0:0:0:0:
194,265,15488,1,0,0:0:0:0:
194,265,15595,1,0,0:0:0:0:
194,265,15702,1,2,0:0:0:0:
194,265,15810,1,2,0:0:0:0:
194,265,15863,1,2,0:0:0:0:
194,265,15917,1,0,0:0:0:0:
194,265,16024,1,2,0:0:0:0:
188,267,16077,1,0,0:0:0:0:
194,265,16131,1,2,0:0:0:0:
188,267,16238,1,2,0:0:0:0:
238,214,16345,1,0,0:0:0:0:
238,214,16452,1,0,0:0:0:0:
144,180,16506,1,0,0:0:0:0:
238,214,16560,1,2,0:0:0:0:
238,214,16667,1,2,0:0:0:0:
238,214,16774,1,0,0:0:0:0:
200,108,16881,1,2,0:0:0:0:
216,152,16935,1,0,0:0:0:0:
238,214,16988,1,2,0:0:0:0:
216,152,17042,1,2,0:0:0:0:
235,218,17095,1,2,0:0:0:0:
216,160,17149,1,2,0:0:0:0:
235,218,17202,1,0,0:0:0:0:
235,218,17417,1,2,0:0:0:0:
238,214,17524,1,0,0:0:0:0:
238,214,17631,1,0,0:0:0:0:
238,214,17685,1,0,0:0:0:0:
238,214,17738,1,2,0:0:0:0:
231,217,17792,1,0,0:0:0:0:
238,214,17845,1,2,0:0:0:0:
230,213,17899,1,2,0:0:0:0:
230,213,17952,1,0,0:0:0:0:
235,218,18060,1,0,0:0:0:0:
226,217,18167,1,0,0:0:0:0:
226,217,18220,1,0,0:0:0:0:
226,217,18274,1,2,0:0:0:0:
226,217,18381,1,0,0:0:0:0:
225,217,18488,1,0,0:0:0:0:
226,217,18542,1,0,0:0:0:0:
238,214,18595,1,0,0:0:0:0:
238,214,18649,1,0,0:0:0:0:
238,214,18702,1,2,0:0:0:0:
238,214,18756,1,2,0:0:0:0:
225,217,18810,1,0,0:0:0:0:
117,186,18917,1,0,0:0:0:0:
72,173,19024,1,2,0:0:0:0:
72,173,19131,1,0,0:0:0:0:
72,173,19238,1,2,0:0:0:0:
72,173,19345,1,0,0:0:0:0:
72,173,19452,1,0,0:0:0:0:
72,173,19560,1,2,0:0:0:0:
72,173,19613,1,2,0:0:0:0:
72,173,19667,1,2,0:0:0:0:
72,173,19720,1,2,0:0:0:0:
72,173,19774,1,0,0:0:0:0:
72,173,19881,1,0,0:0:0:0:
72,173,19988,1,2,0:0:0:0:
72,173,20042,1,0,0:0:0:0:
72,173,20095,1,0,0:0:0:0:
72,173,20202,1,2,0:0:0:0:
72,173,20256,1,2,0:0:0:0:
72,173,20310,1,0,0:0:0:0:
72,173,20363,1,0,0:0:0:0:
72,173,20417,1,2,0:0:0:0:
72,173,20470,1,0,0:0:0:0:
72,173,20524,1,0,0:0:0:0:
72,173,20631,1,0,0:0:0:0:
213,188,21488,1,0,0:0:0:0:
284,235,21702,1,0,0:0:0:0:
284,235,21917,1,0,0:0:0:0:
284,235,22131,1,0,0:0:0:0:
284,235,22345,1,0,0:0:0:0:
284,235,22560,1,0,0:0:0:0:
284,235,22774,1,0,0:0:0:0:
285,239,22988,1,0,0:0:0:0:
286,240,23202,1,0,0:0:0:0:
286,242,23417,1,0,0:0:0:0:
287,244,23631,1,0,0:0:0:0:
287,246,23845,1,0,0:0:0:0:
200,38,24060,1,0,0:0:0:0:
232,145,24167,1,2,1:0:0:0:
197,38,24274,1,0,0:0:0:0:
232,143,24381,1,2,1:0:0:0:
198,36,24488,1,0,0:0:0:0:
224,115,24595,1,2,1:0:0:0:
192,37,24702,1,0,0:0:0:0:
224,115,24810,1,2,1:0:0:0:
192,37,24917,1,0,0:0:0:0:
224,115,25024,1,2,0:0:0:0:
192,36,25131,1,0,0:0:0:0:
224,115,25238,1,2,0:0:0:0:
193,34,25345,1,0,0:0:0:0:
224,115,25452,1,2,0:0:0:0:
194,31,25560,1,0,0:0:0:0:
224,115,25667,1,2,0:0:0:0:
305,191,25774,1,0,0:0:0:0:
305,191,25827,1,2,0:0:0:0:
305,191,25881,1,0,0:0:0:0:
305,191,25935,1,0,0:0:0:0:
305,191,25988,1,2,0:0:0:0:
305,191,26042,1,2,0:0:0:0:
207,237,26095,1,0,0:0:0:0:
207,237,26149,1,2,0:0:0:0:
207,237,26202,1,0,0:0:0:0:
207,237,26256,1,0,0:0:0:0:
200,238,26310,1,2,0:0:0:0:
207,237,26363,1,2,0:0:0:0:
207,237,26417,1,0,0:0:0:0:
207,237,26470,1,0,0:0:0:0:
207,237,26524,1,2,0:0:0:0:
207,237,26577,1,2,0:0:0:0:
207,237,26631,1,0,0:0:0:0:
167,188,26845,1,0,0:0:0:0:
167,188,27060,1,2,0:0:0:0:
167,188,27113,1,2,0:0:0:0:
167,188,27167,1,0,0:0:0:0:
167,188,27220,1,0,0:0:0:0:
167,188,27274,1,2,0:0:0:0:
506,304,27488,1,4,0:0:0:0:
369,174,27702,1,0,0:0:0:0:
369,174,27810,1,2,0:0:0:0:
369,174,27917,1,0,0:0:0:0:
369,174,27970,1,0,0:0:0:0:
369,174,28024,1,2,0:0:0:0:
369,174,28077,1,2,0:0:0:0:
369,174,28131,1,0,0:0:0:0:
369,174,28238,1,2,0:0:0:0:
369,174,28345,1,0,0:0:0:0:
369,174,28452,1,2,0:0:0:0:
369,174,28506,1,2,0:0:0:0:
362,172,28560,1,0,0:0:0:0:
362,172,28667,1,2,0:0:0:0:
369,174,28774,1,0,0:0:0:0:
361,171,28827,1,0,0:0:0:0:
361,169,28881,1,2,0:0:0:0:
361,169,28988,1,0,0:0:0:0:
361,168,29095,1,2,0:0:0:0:
278,243,29202,1,0,0:0:0:0:
162,129,29310,1,2,0:0:0:0:
171,188,29363,1,0,0:0:0:0:
278,243,29417,1,2,0:0:0:0:
284,237,29524,1,2,0:0:0:0:
278,243,29631,1,0,0:0:0:0:
283,237,29738,1,0,0:0:0:0:
207,151,29792,1,0,0:0:0:0:
278,243,29845,1,2,0:0:0:0:
278,243,29899,1,0,0:0:0:0:
286,240,29952,1,2,0:0:0:0:
285,237,30006,1,2,0:0:0:0:
278,243,30060,1,0,0:0:0:0:
283,237,30167,1,0,0:0:0:0:
278,243,30274,1,2,0:0:0:0:
201,36,30327,1,2,0:0:0:0:
285,237,30381,1,2,0:0:0:0:
284,237,30488,1,0,0:0:0:0:
284,237,30542,1,0,0:0:0:0:
281,237,30595,1,2,0:0:0:0:
278,243,30649,1,2,0:0:0:0:
283,237,30702,1,0,0:0:0:0:
283,237,30756,1,0,0:0:0:0:
278,243,30810,1,2,0:0:0:0:
278,243,30917,1,0,0:0:0:0:
75,148,31131,1,0,0:0:0:0:
179,197,31238,1,2,0:0:0:0:
179,197,31345,1,0,0:0:0:0:
179,197,31399,1,2,0:0:0:0:
209,113,31452,1,2,0:0:0:0:
209,113,31506,1,2,0:0:0:0:
179,197,31560,1,0,0:0:0:0:
179,197,31667,1,2,0:0:0:0:
179,197,31774,1,0,0:0:0:0:
179,197,31827,1,2,0:0:0:0:
179,197,31881,1,0,0:0:0:0:
209,113,31935,1,2,0:0:0:0:
179,197,31988,1,0,0:0:0:0:
268,205,32095,1,2,0:0:0:0:
268,205,32149,1,0,0:0:0:0:
209,113,32202,1,0,0:0:0:0:
205,116,32310,1,2,0:0:0:0:
204,117,32417,1,0,0:0:0:0:
209,113,32524,1,2,0:0:0:0:
201,117,32577,1,2,0:0:0:0:
201,117,32631,1,0,0:0:0:0:
332,168,32738,1,0,0:0:0:0:
274,138,32792,1,0,0:0:0:0:
332,168,32845,1,2,0:0:0:0:
332,168,32952,1,2,0:0:0:0:
332,168,33060,1,0,0:0:0:0:
332,168,33113,1,2,0:0:0:0:
332,168,33167,1,0,0:0:0:0:
332,168,33274,1,2,0:0:0:0:
324,170,33381,1,2,0:0:0:0:
332,168,33488,1,0,0:0:0:0:
315,188,33595,1,0,0:0:0:0:
313,193,33649,1,0,0:0:0:0:
315,188,33702,1,2,0:0:0:0:
315,188,33756,1,2,0:0:0:0:
315,188,33810,1,2,0:0:0:0:
311,193,33863,1,2,0:0:0:0:
315,188,33917,1,0,0:0:0:0:
315,188,33970,1,0,0:0:0:0:
315,188,34024,1,0,0:0:0:0:
311,193,34077,1,0,0:0:0:0:
315,188,34131,1,2,0:0:0:0:
311,195,34238,1,2,0:0:0:0:
310,195,34345,1,0,0:0:0:0:
174,183,34560,1,0,0:0:0:0:
174,183,34667,1,2,0:0:0:0:
174,183,34774,1,0,0:0:0:0:
174,183,34827,1,0,0:0:0:0:
174,183,34881,1,2,0:0:0:0:
174,183,34935,1,2,0:0:0:0:
174,183,34988,1,0,0:0:0:0:
174,183,35042,1,2,0:0:0:0:
174,183,35095,1,2,0:0:0:0:
301,165,35202,1,0,0:0:0:0:
301,165,35310,1,2,0:0:0:0:
301,165,35363,1,2,0:0:0:0:
301,165,35417,1,0,0:0:0:0:
296,164,35524,1,2,0:0:0:0:
296,164,35631,1,0,0:0:0:0:
301,165,35685,1,0,0:0:0:0:
296,160,35738,1,2,0:0:0:0:
296,162,35845,1,0,0:0:0:0:
296,161,35952,1,2,0:0:0:0:
212,177,36060,1,0,0:0:0:0:
212,177,36167,1,2,0:0:0:0:
226,147,36220,1,0,0:0:0:0:
212,177,36274,1,0,0:0:0:0:
212,177,36327,1,0,0:0:0:0:
212,177,36381,1,2,0:0:0:0:
226,147,36488,1,0,0:0:0:0:
226,147,36595,1,0,0:0:0:0:
226,147,36649,1,2,0:0:0:0:
226,147,36702,1,0,0:0:0:0:
221,143,36810,1,2,0:0:0:0:
131,204,36917,1,0,0:0:0:0:
184,208,37452,1,2,0:0:0:0:
184,208,37560,1,2,0:0:0:0:
184,208,37667,1,2,0:0:0:0:
184,208,37774,1,0,0:0:0:0:
284,240,37881,1,2,0:0:0:0:
184,208,37988,1,0,0:0:0:0:
232,224,38042,1,0,0:0:0:0:
184,208,38095,1,2,0:0:0:0:
184,208,38149,1,2,0:0:0:0:
184,208,38202,1,0,0:0:0:0:
184,208,38310,1,2,0:0:0:0:
184,208,38417,1,0,0:0:0:0:
176,209,38470,1,0,0:0:0:0:
176,209,38524,1,0,0:0:0:0:
176,209,38577,1,2,0:0:0:0:
176,208,38631,1,0,0:0:0:0:
175,208,38738,1,2,0:0:0:0:
239,125,38792,1,2,0:0:0:0:
168,144,38845,1,0,0:0:0:0:
189,227,38952,1,2,0:0:0:0:
189,227,39060,1,0,0:0:0:0:
189,227,39113,1,0,0:0:0:0:
189,227,39167,1,2,0:0:0:0:
189,227,39220,1,0,0:0:0:0:
189,227,39274,1,2,0:0:0:0:
189,227,39327,1,2,0:0:0:0:
189,227,39381,1,2,0:0:0:0:
187,227,39488,1,4,0:0:0:0:
56,184,40988,1,4,0:0:0:0:
56,184,41202,1,0,0:0:0:0:
240,204,41417,1,0,0:0:0:0:
228,208,41524,1,2,0:0:0:0:
240,204,41631,1,0,0:0:0:0:
240,204,41685,1,0,0:0:0:0:
240,204,41738,1,0,0:0:0:0:
240,204,41845,1,2,0:0:0:0:
352,188,41952,1,2,0:0:0:0:
300,196,42006,1,2,0:0:0:0:
240,204,42060,1,0,0:0:0:0:
240,204,42167,1,0,0:0:0:0:
240,204,42274,1,2,0:0:0:0:
240,204,42327,1,0,0:0:0:0:
240,204,42381,1,2,0:0:0:0:
236,208,42435,1,2,0:0:0:0:
232,208,42488,1,0,0:0:0:0:
232,208,42595,1,0,0:0:0:0:
232,208,42702,1,2,0:0:0:0:
324,144,42810,1,0,0:0:0:0:
264,184,42863,1,2,0:0:0:0:
264,184,42917,1,0,0:0:0:0:
264,184,43131,1,0,0:0:0:0:
264,184,43238,1,2,0:0:0:0:
264,184,43345,1,0,0:0:0:0:
264,184,43452,1,0,0:0:0:0:
264,184,43560,1,2,0:0:0:0:
264,184,43613,1,2,0:0:0:0:
264,184,43667,1,2,0:0:0:0:
152,188,43774,1,0,0:0:0:0:
200,188,43881,1,2,0:0:0:0:
376,188,43988,1,0,0:0:0:0:
264,188,44095,1,2,0:0:0:0:
152,188,44202,1,0,0:0:0:0:
264,188,44310,1,0,0:0:0:0:
152,188,44417,1,2,0:0:0:0:
264,188,44524,1,2,0:0:0:0:
240,128,44631,1,0,0:0:0:0:
240,128,44845,1,2,0:0:0:0:
240,128,44952,1,0,0:0:0:0:
240,128,45060,1,2,0:0:0:0:
240,128,45113,1,2,0:0:0:0:
240,128,45167,1,0,0:0:0:0:
240,128,45274,1,2,0:0:0:0:
240,128,45381,1,0,0:0:0:0:
240,128,45488,1,2,0:0:0:0:
240,128,45542,1,0,0:0:0:0:
248,184,45595,1,0,0:0:0:0:
244,152,45649,1,0,0:0:0:0:
244,152,45702,1,2,0:0:0:0:
244,152,45810,1,0,0:0:0:0:
120,152,45863,1,0,0:0:0:0:
244,152,45917,1,2,0:0:0:0:
244,152,46024,1,0,0:0:0:0:
240,152,46131,1,2,0:0:0:0:
236,152,46185,1,0,0:0:0:0:
244,152,46238,1,0,0:0:0:0:
132,132,46345,1,0,0:0:0:0:
188,144,46452,1,2,0:0:0:0:
188,144,46560,1,0,0:0:0:0:
188,144,46613,1,0,0:0:0:0:
188,144,46667,1,2,0:0:0:0:
188,144,46774,1,0,0:0:0:0:
188,144,46881,1,2,0:0:0:0:
188,144,46935,1,2,0:0:0:0:
188,144,46988,1,0,0:0:0:0:
188,144,47042,1,0,0:0:0:0:
188,144,47095,1,2,0:0:0:0:
188,144,47202,1,0,0:0:0:0:
188,144,47310,1,0,0:0:0:0:
188,144,47363,1,0,0:0:0:0:
188,144,47417,1,2,0:0:0:0:
188,148,47524,1,0,0:0:0:0:
188,144,47577,1,2,0:0:0:0:
188,144,47631,1,0,0:0:0:0:
188,144,47685,1,0,0:0:0:0:
188,144,47738,1,0,0:0:0:0:
188,144,47792,1,0,0:0:0:0:
188,144,47845,1,2,0:0:0:0:
188,148,47952,1,2,0:0:0:0:
56,184,48060,1,0,0:0:0:0:
240,204,48275,1,0,0:0:0:0:
228,208,48382,1,2,0:0:0:0:
240,204,48489,1,0,0:0:0:0:
240,204,48543,1,0,0:0:0:0:
240,204,48596,1,0,0:0:0:0:
240,204,48703,1,2,0:0:0:0:
352,188,48810,1,2,0:0:0:0:
300,196,48864,1,2,0:0:0:0:
240,204,48918,1,0,0:0:0:0:
240,204,49025,1,0,0:0:0:0:
240,204,49132,1,2,0:0:0:0:
240,204,49185,1,0,0:0:0:0:
240,204,49239,1,2,0:0:0:0:
236,208,49293,1,2,0:0:0:0:
232,208,49346,1,0,0:0:0:0:
232,208,49453,1,0,0:0:0:0:
232,208,49560,1,2,0:0:0:0:
324,144,49668,1,0,0:0:0:0:
264,184,49721,1,2,0:0:0:0:
264,184,49775,1,0,0:0:0:0:
264,184,49989,1,0,0:0:0:0:
264,184,50096,1,2,0:0:0:0:
264,184,50203,1,0,0:0:0:0:
264,184,50310,1,0,0:0:0:0:
264,184,50418,1,2,0:0:0:0:
264,184,50471,1,2,0:0:0:0:
264,184,50525,1,2,0:0:0:0:
152,188,50632,1,0,0:0:0:0:
200,188,50739,1,2,0:0:0:0:
164,144,50792,1,2,0:0:0:0:
376,188,50846,1,0,0:0:0:0:
264,188,50953,1,2,0:0:0:0:
164,144,51060,1,0,0:0:0:0:
164,144,51113,1,0,0:0:0:0:
264,188,51168,1,0,0:0:0:0:
168,148,51220,1,0,0:0:0:0:
152,188,51275,1,2,0:0:0:0:
224,148,51381,1,0,0:0:0:0:
256,128,51488,1,2,0:0:0:0:
240,128,51703,1,2,0:0:0:0:
240,128,51810,1,0,0:0:0:0:
240,128,51918,1,2,0:0:0:0:
240,128,51971,1,2,0:0:0:0:
240,128,52025,1,0,0:0:0:0:
240,128,52132,1,2,0:0:0:0:
240,128,52239,1,0,0:0:0:0:
240,128,52346,1,2,0:0:0:0:
240,128,52400,1,0,0:0:0:0:
248,184,52453,1,0,0:0:0:0:
244,152,52507,1,0,0:0:0:0:
244,152,52560,1,2,0:0:0:0:
244,152,52668,1,0,0:0:0:0:
120,152,52721,1,0,0:0:0:0:
244,152,52775,1,2,0:0:0:0:
244,152,52882,1,0,0:0:0:0:
240,152,52989,1,2,0:0:0:0:
236,152,53043,1,0,0:0:0:0:
244,152,53096,1,0,0:0:0:0:
120,188,53202,1,0,0:0:0:0:
120,188,53310,1,0,0:0:0:0:
120,188,53524,1,2,0:0:0:0:
120,188,53738,1,2,0:0:0:0:
120,188,53952,1,0,0:0:0:0:
120,188,54167,1,2,0:0:0:0:
120,188,54220,1,2,0:0:0:0:
120,188,54274,1,0,0:0:0:0:
120,188,54327,1,0,0:0:0:0:
120,188,54381,1,2,0:0:0:0:
120,188,54435,1,0,0:0:0:0:
120,188,54488,1,2,0:0:0:0:
120,188,54542,1,2,0:0:0:0:
120,188,54595,1,0,0:0:0:0:
120,188,54649,1,0,0:0:0:0:
120,196,54702,1,0,0:0:0:0:
120,196,54917,1,4,0:0:0:0:
108,136,55774,1,4,0:0:0:0:
424,140,55988,1,2,0:0:0:0:
424,140,56202,1,0,0:0:0:0:
424,140,56310,1,0,0:0:0:0:
316,136,56417,1,2,0:0:0:0:
316,136,56631,1,0,0:0:0:0:
316,136,56845,1,2,0:0:0:0:
316,136,56952,1,2,0:0:0:0:
316,136,57060,1,0,0:0:0:0:
316,136,57167,1,0,0:0:0:0:
316,136,57274,1,2,0:0:0:0:
332,152,57381,1,2,0:0:0:0:
332,152,57435,1,2,0:0:0:0:
316,136,57488,1,0,0:0:0:0:
316,136,57702,1,2,0:0:0:0:
316,136,57917,1,0,0:0:0:0:
316,136,58024,1,0,0:0:0:0:
316,136,58131,1,2,0:0:0:0:
316,136,58345,1,0,0:0:0:0:
316,136,58560,1,0,0:0:0:0:
316,136,58667,1,2,0:0:0:0:
316,136,58774,1,0,0:0:0:0:
316,136,58881,1,0,0:0:0:0:
316,136,58988,1,2,0:0:0:0:
336,156,59202,1,0,0:0:0:0:
336,156,59256,1,0,0:0:0:0:
336,156,59310,1,0,0:0:0:0:
336,156,59363,1,0,0:0:0:0:
336,156,59417,1,2,0:0:0:0:
336,156,59524,1,2,0:0:0:0:
336,156,59631,1,0,0:0:0:0:
336,156,59738,1,0,0:0:0:0:
336,156,59845,1,2,0:0:0:0:
336,156,59952,1,2,0:0:0:0:
336,156,60060,1,0,0:0:0:0:
336,156,60274,1,2,0:0:0:0:
336,156,60488,1,0,0:0:0:0:
336,156,60595,1,0,0:0:0:0:
336,156,60702,1,2,0:0:0:0:
336,156,60917,1,0,0:0:0:0:
336,156,61131,1,2,0:0:0:0:
336,156,61238,1,0,0:0:0:0:
336,156,61345,1,2,0:0:0:0:
336,156,61452,1,2,0:0:0:0:
336,156,61560,1,2,0:0:0:0:
336,156,61774,1,0,0:0:0:0:
336,156,61988,1,2,0:0:0:0:
336,156,62202,1,0,0:0:0:0:
336,156,62310,1,0,0:0:0:0:
336,156,62417,1,2,0:0:0:0:
108,136,62631,1,0,0:0:0:0:
424,140,62845,1,2,0:0:0:0:
424,140,63059,1,0,0:0:0:0:
424,140,63167,1,0,0:0:0:0:
316,136,63274,1,2,0:0:0:0:
348,138,63381,1,2,0:0:0:0:
316,136,63488,1,0,0:0:0:0:
316,136,63702,1,2,0:0:0:0:
233,166,63810,1,2,0:0:0:0:
316,136,63917,1,0,0:0:0:0:
316,136,64024,1,0,0:0:0:0:
316,136,64131,1,2,0:0:0:0:
332,152,64238,1,2,0:0:0:0:
332,152,64292,1,2,0:0:0:0:
264,176,64345,1,0,0:0:0:0:
264,176,64560,1,2,0:0:0:0:
264,176,64774,1,0,0:0:0:0:
264,176,64881,1,0,0:0:0:0:
264,176,64988,1,2,0:0:0:0:
264,176,65202,1,0,0:0:0:0:
264,176,65417,1,0,0:0:0:0:
260,176,65524,1,2,0:0:0:0:
264,176,65631,1,0,0:0:0:0:
260,176,65738,1,0,0:0:0:0:
264,176,65845,1,2,0:0:0:0:
256,172,66060,1,0,0:0:0:0:
264,176,66274,1,2,0:0:0:0:
256,168,66381,1,2,0:0:0:0:
260,176,66488,1,0,0:0:0:0:
252,168,66595,1,0,0:0:0:0:
252,168,66702,1,2,0:0:0:0:
256,172,66917,1,0,0:0:0:0:
264,176,67131,1,2,0:0:0:0:
208,328,67238,1,0,0:0:0:0:
256,168,67345,1,0,0:0:0:0:
248,168,67452,1,2,0:0:0:0:
244,168,67560,1,2,0:0:0:0:
244,168,67774,1,0,0:0:0:0:
244,168,67988,1,2,0:0:0:0:
240,168,68095,1,0,0:0:0:0:
240,168,68202,1,0,0:0:0:0:
240,160,68310,1,0,0:0:0:0:
240,160,68417,1,2,0:0:0:0:
244,168,68631,1,0,0:0:0:0:
240,160,68845,1,0,0:0:0:0:
240,168,69060,1,2,0:0:0:0:
236,160,69167,1,0,0:0:0:0:
240,160,69274,1,2,0:0:0:0:
160,180,69488,1,4,0:0:0:0:
160,180,69702,1,4,0:0:0:0:
160,180,69810,1,4,0:0:0:0:
160,180,70238,1,4,0:0:0:0:
160,180,70345,1,4,0:0:0:0:
160,180,70667,1,4,0:0:0:0:
160,180,70881,1,4,0:0:0:0:
160,180,70988,1,4,0:0:0:0:
104,188,71202,1,0,0:0:0:0:
104,188,71310,1,2,0:0:0:0:
104,188,71417,1,2,0:0:0:0:
104,188,71524,1,2,0:0:0:0:
104,188,71631,1,2,0:0:0:0:
104,188,71738,1,2,0:0:0:0:
104,188,71845,1,2,0:0:0:0:
104,188,71952,1,2,0:0:0:0:
216,188,72060,1,0,0:0:0:0:
208,188,72167,1,0,0:0:0:0:
208,188,72274,1,0,0:0:0:0:
208,188,72381,1,0,0:0:0:0:
104,188,72488,1,2,0:0:0:0:
104,188,72542,1,2,0:0:0:0:
104,188,72595,1,2,0:0:0:0:
112,184,72649,1,2,0:0:0:0:
104,188,72702,1,0,0:0:0:0:
204,212,72917,1,4,0:0:0:0:
204,212,73024,1,2,0:0:0:0:
204,212,73131,1,0,0:0:0:0:
204,208,73185,1,0,0:0:0:0:
204,208,73238,1,2,0:0:0:0:
204,208,73345,1,0,0:0:0:0:
204,212,73452,1,2,0:0:0:0:
204,212,73506,1,2,0:0:0:0:
252,184,73560,1,0,0:0:0:0:
228,196,73613,1,0,0:0:0:0:
232,196,73667,1,2,0:0:0:0:
232,196,73774,1,0,0:0:0:0:
232,196,73881,1,2,0:0:0:0:
148,124,73988,1,0,0:0:0:0:
212,176,74042,1,0,0:0:0:0:
212,176,74095,1,2,0:0:0:0:
212,176,74149,1,2,0:0:0:0:
212,176,74202,1,0,0:0:0:0:
212,176,74310,1,0,0:0:0:0:
212,176,74363,1,2,0:0:0:0:
212,176,74417,1,0,0:0:0:0:
212,176,74524,1,2,0:0:0:0:
228,196,74631,1,0,0:0:0:0:
232,196,74738,1,0,0:0:0:0:
232,196,74792,1,0,0:0:0:0:
232,196,74845,1,2,0:0:0:0:
232,196,74899,1,2,0:0:0:0:
228,196,74952,1,2,0:0:0:0:
228,192,75006,1,2,0:0:0:0:
228,192,75060,1,0,0:0:0:0:
228,192,75167,1,0,0:0:0:0:
228,196,75274,1,2,0:0:0:0:
228,196,75327,1,0,0:0:0:0:
228,196,75381,1,2,0:0:0:0:
232,192,75435,1,2,0:0:0:0:
228,196,75488,1,0,0:0:0:0:
232,192,75595,1,0,0:0:0:0:
232,196,75702,1,2,0:0:0:0:
232,196,75756,1,2,0:0:0:0:
228,192,75810,1,2,0:0:0:0:
232,196,75917,1,0,0:0:0:0:
228,196,75970,1,0,0:0:0:0:
228,192,76024,1,0,0:0:0:0:
228,192,76077,1,0,0:0:0:0:
228,192,76131,1,2,0:0:0:0:
228,192,76185,1,2,0:0:0:0:
228,196,76238,1,2,0:0:0:0:
336,164,76345,1,0,0:0:0:0:
228,196,76452,1,2,0:0:0:0:
284,180,76506,1,2,0:0:0:0:
268,188,76560,1,0,0:0:0:0:
268,188,76613,1,0,0:0:0:0:
268,184,76667,1,2,0:0:0:0:
268,188,76774,1,0,0:0:0:0:
268,188,76881,1,2,0:0:0:0:
264,188,76935,1,0,0:0:0:0:
268,188,76988,1,0,0:0:0:0:
268,188,77042,1,0,0:0:0:0:
268,188,77095,1,2,0:0:0:0:
268,188,77149,1,2,0:0:0:0:
268,188,77202,1,0,0:0:0:0:
264,188,77310,1,2,0:0:0:0:
264,188,77417,1,0,0:0:0:0:
268,188,77470,1,2,0:0:0:0:
264,188,77524,1,2,0:0:0:0:
268,188,77631,1,0,0:0:0:0:
268,188,77738,1,2,0:0:0:0:
256,188,77792,1,0,0:0:0:0:
256,188,77845,1,2,0:0:0:0:
260,188,77899,1,2,0:0:0:0:
264,188,77952,1,0,0:0:0:0:
256,188,78060,1,0,1:0:0:0:
268,188,78167,1,0,1:0:0:0:
256,188,78220,1,0,1:0:0:0:
256,188,78274,1,2,1:0:0:0:
264,188,78381,1,0,1:0:0:0:
268,188,78488,1,0,1:0:0:0:
256,188,78542,1,2,1:0:0:0:
268,188,78595,1,0,1:0:0:0:
256,188,78649,1,0,1:0:0:0:
268,188,78702,1,2,1:0:0:0:
192,124,78810,1,0,1:0:0:0:
164,232,78917,1,0,0:0:0:0:
176,200,78970,1,2,0:0:0:0:
196,124,79024,1,0,0:0:0:0:
180,176,79077,1,0,0:0:0:0:
176,200,79131,1,2,0:0:0:0:
168,192,79185,1,0,0:0:0:0:
176,200,79238,1,2,0:0:0:0:
168,192,79292,1,2,0:0:0:0:
176,200,79345,1,0,0:0:0:0:
176,200,79399,1,2,0:0:0:0:
168,192,79452,1,0,0:0:0:0:
168,192,79506,1,0,0:0:0:0:
176,200,79560,1,2,0:0:0:0:
176,200,79613,1,2,0:0:0:0:
176,200,79667,1,0,0:0:0:0:
176,200,79720,1,2,0:0:0:0:
176,232,79774,1,0,0:0:0:0:
176,232,79881,1,2,0:0:0:0:
176,232,79988,1,0,0:0:0:0:
176,232,80042,1,0,0:0:0:0:
176,232,80095,1,2,0:0:0:0:
176,232,80202,1,0,0:0:0:0:
172,232,80310,1,2,0:0:0:0:
172,232,80363,1,2,0:0:0:0:
172,232,80417,1,0,0:0:0:0:
172,232,80524,1,2,0:0:0:0:
176,232,80631,1,0,0:0:0:0:
168,232,80685,1,0,0:0:0:0:
176,232,80738,1,0,0:0:0:0:
168,232,80792,1,0,0:0:0:0:
168,232,80845,1,2,0:0:0:0:
168,232,80952,1,2,0:0:0:0:
176,232,81060,1,0,0:0:0:0:
176,232,81167,1,0,0:0:0:0:
168,232,81220,1,0,0:0:0:0:
172,232,81274,1,2,0:0:0:0:
172,232,81327,1,2,0:0:0:0:
168,232,81381,1,2,0:0:0:0:
168,232,81488,1,0,0:0:0:0:
168,232,81595,1,2,0:0:0:0:
164,232,81649,1,2,0:0:0:0:
168,232,81702,1,0,0:0:0:0:
168,232,81810,1,2,0:0:0:0:
168,232,81917,1,0,0:0:0:0:
168,232,81970,1,0,0:0:0:0:
176,232,82024,1,2,0:0:0:0:
168,232,82131,1,0,0:0:0:0:
168,232,82238,1,2,0:0:0:0:
280,220,82345,1,0,0:0:0:0:
336,216,82399,1,0,0:0:0:0:
416,208,82452,1,2,0:0:0:0:
416,208,82506,1,0,0:0:0:0:
416,208,82560,1,2,0:0:0:0:
416,208,82667,1,2,0:0:0:0:
416,208,82774,1,0,0:0:0:0:
416,208,82827,1,0,0:0:0:0:
229,105,82881,1,0,0:0:0:0:
416,208,82935,1,0,0:0:0:0:
416,208,82988,1,2,0:0:0:0:
229,105,83042,1,2,0:0:0:0:
416,208,83095,1,2,0:0:0:0:
112,172,83202,1,0,0:0:0:0:
112,172,83310,1,2,0:0:0:0:
108,168,83363,1,2,0:0:0:0:
108,168,83417,1,0,0:0:0:0:
108,168,83524,1,2,0:0:0:0:
112,172,83631,1,0,0:0:0:0:
112,172,83685,1,0,0:0:0:0:
112,172,83738,1,2,0:0:0:0:
112,172,83792,1,2,0:0:0:0:
108,168,83845,1,0,0:0:0:0:
108,168,83952,1,2,0:0:0:0:
112,172,84060,1,0,0:0:0:0:
167,154,84113,1,0,0:0:0:0:
196,104,84167,1,0,0:0:0:0:
302,138,84220,1,0,0:0:0:0:
222,152,84274,1,2,0:0:0:0:
196,104,84327,1,2,0:0:0:0:
69,129,84381,1,2,0:0:0:0:
69,129,84435,1,2,0:0:0:0:
69,129,84488,1,0,0:0:0:0:
69,129,84542,1,2,0:0:0:0:
112,172,84595,1,0,0:0:0:0:
112,172,84649,1,0,0:0:0:0:
104,168,84702,1,2,0:0:0:0:
112,172,84810,1,0,0:0:0:0:
176,136,84917,1,0,0:0:0:0:
154,138,84970,1,2,0:0:0:0:
154,138,85024,1,0,0:0:0:0:
176,136,85077,1,0,0:0:0:0:
176,136,85131,1,2,0:0:0:0:
154,139,85185,1,0,0:0:0:0:
154,138,85238,1,2,0:0:0:0:
154,138,85292,1,2,0:0:0:0:
168,54,85346,1,0,0:0:0:0:
175,52,85399,1,2,0:0:0:0:
256,133,85453,1,0,0:0:0:0:
124,158,85507,1,0,0:0:0:0:
124,159,85560,1,2,0:0:0:0:
124,159,85667,1,0,0:0:0:0:
224,176,85774,1,0,0:0:0:0:
224,176,85827,1,2,0:0:0:0:
224,176,85881,1,0,0:0:0:0:
224,176,85935,1,0,0:0:0:0:
224,176,85988,1,2,0:0:0:0:
224,176,86042,1,0,0:0:0:0:
224,176,86095,1,2,0:0:0:0:
216,180,86149,1,2,0:0:0:0:
224,176,86202,1,0,0:0:0:0:
224,176,86256,1,0,0:0:0:0:
224,176,86310,1,2,0:0:0:0:
224,176,86363,1,0,0:0:0:0:
224,176,86417,1,2,0:0:0:0:
224,176,86470,1,2,0:0:0:0:
224,176,86524,1,2,0:0:0:0:
216,184,86577,1,2,0:0:0:0:
216,184,86631,1,0,0:0:0:0:
132,196,86845,1,0,0:0:0:0:
132,196,86952,1,0,0:0:0:0:
132,196,87274,1,0,0:0:0:0:
132,196,87488,1,4,0:0:0:0:
236,116,87917,1,0,0:0:0:0:
236,116,87952,1,0,0:0:0:0:
236,116,87988,1,0,0:0:0:0:
236,116,88024,1,0,0:0:0:0:
244,152,88060,1,0,0:0:0:0:
252,188,88095,1,0,0:0:0:0:
256,208,88131,1,0,0:0:0:0:
359,114,88345,1,4,0:0:0:0:
359,114,88560,1,0,0:0:0:0:
359,114,88774,1,0,0:0:0:0:
359,114,88988,1,0,0:0:0:0:
359,114,89202,1,0,0:0:0:0:
359,114,89417,1,0,0:0:0:0:
359,114,89631,1,0,0:0:0:0:
359,114,89685,1,2,0:0:0:0:
359,114,89738,1,2,0:0:0:0:
359,114,89792,1,2,0:0:0:0:
360,121,89845,1,0,0:0:0:0:
359,114,89899,1,2,0:0:0:0:
359,114,89952,1,2,0:0:0:0:
360,120,90006,1,2,0:0:0:0:
359,114,90060,1,0,0:0:0:0:
151,197,90274,1,0,0:0:0:0:
55,237,90488,1,0,0:0:0:0:
55,237,90702,1,0,0:0:0:0:
55,237,90917,1,0,0:0:0:0:
55,237,91131,1,2,0:0:0:0:
55,237,91292,1,2,0:0:0:0:
55,237,91345,1,0,0:0:0:0:
55,237,91452,1,0,0:0:0:0:
55,237,91506,1,0,0:0:0:0:
55,237,91560,1,2,0:0:0:0:
55,242,91667,1,2,0:0:0:0:
359,114,91774,1,0,0:0:0:0:
359,114,91989,1,0,0:0:0:0:
359,114,92203,1,0,0:0:0:0:
359,114,92417,1,0,0:0:0:0:
359,114,92631,1,0,0:0:0:0:
359,114,92846,1,0,0:0:0:0:
359,114,93060,1,0,0:0:0:0:
359,114,93114,1,2,0:0:0:0:
359,114,93167,1,2,0:0:0:0:
359,114,93221,1,2,0:0:0:0:
360,121,93274,1,0,0:0:0:0:
359,114,93328,1,2,0:0:0:0:
359,114,93381,1,2,0:0:0:0:
360,120,93435,1,2,0:0:0:0:
359,114,93489,1,0,0:0:0:0:
151,197,93703,1,0,0:0:0:0:
55,237,93917,1,0,0:0:0:0:
55,237,94131,1,0,0:0:0:0:
151,197,94345,1,0,0:0:0:0:
151,197,94452,1,2,0:0:0:0:
153,187,94560,1,0,0:0:0:0:
152,188,94667,1,2,0:0:0:0:
151,197,94774,1,0,0:0:0:0:
151,197,94827,1,0,0:0:0:0:
151,188,94881,1,0,0:0:0:0:
151,188,94935,1,0,0:0:0:0:
151,197,94988,1,2,0:0:0:0:
151,197,95042,1,2,0:0:0:0:
151,188,95095,1,2,0:0:0:0:
244,262,95202,1,4,0:0:0:0:
244,262,95631,1,4,0:0:0:0:
234,275,96060,1,4,0:0:0:0:
244,262,96488,1,4,0:0:0:0:
234,275,96917,1,0,0:0:0:0:
117,84,97131,1,2,0:0:0:0:
136,116,97167,1,2,0:0:0:0:
155,147,97202,1,2,0:0:0:0:
175,178,97238,1,2,0:0:0:0:
343,210,97345,1,0,0:0:0:0:
175,178,97560,1,2,0:0:0:0:
175,178,97595,1,2,0:0:0:0:
175,178,97631,1,2,0:0:0:0:
175,178,97667,1,2,0:0:0:0:
343,210,97774,1,0,0:0:0:0:
170,179,97988,1,2,0:0:0:0:
175,178,98024,1,2,0:0:0:0:
170,179,98060,1,2,0:0:0:0:
170,179,98095,1,0,0:0:0:0:
222,222,98310,1,0,0:0:0:0:
222,222,98417,1,2,0:0:0:0:
350,39,98631,1,0,0:0:0:0:
277,144,98738,1,2,0:0:0:0:
222,222,98845,1,0,0:0:0:0:
277,144,98952,1,2,0:0:0:0:
351,38,99060,1,0,0:0:0:0:
319,83,99113,1,0,0:0:0:0:
277,144,99167,1,2,0:0:0:0:
277,144,99274,1,0,0:0:0:0:
277,144,99381,1,2,0:0:0:0:
277,144,99488,1,0,0:0:0:0:
277,144,99542,1,0,0:0:0:0:
277,144,99595,1,2,0:0:0:0:
277,144,99649,1,2,0:0:0:0:
277,144,99702,1,0,0:0:0:0:
277,144,99756,1,2,0:0:0:0:
277,144,99810,1,2,0:0:0:0:
277,144,99863,1,2,0:0:0:0:
272,150,99917,1,0,0:0:0:0:
272,150,100131,1,0,0:0:0:0:
271,150,100345,1,0,0:0:0:0:
271,150,100506,1,2,0:0:0:0:
271,150,100560,1,0,0:0:0:0:
270,150,100667,1,2,0:0:0:0:
277,144,100774,1,0,0:0:0:0:
268,150,100827,1,0,0:0:0:0:
265,147,100881,1,2,0:0:0:0:
265,147,100988,1,0,0:0:0:0:
265,147,101095,1,2,0:0:0:0:
271,150,101202,1,0,0:0:0:0:
271,150,101256,1,0,0:0:0:0:
266,152,101310,1,2,0:0:0:0:
271,150,101363,1,0,0:0:0:0:
271,150,101417,1,0,0:0:0:0:
271,150,101470,1,0,0:0:0:0:
271,150,101524,1,2,0:0:0:0:
271,150,101577,1,0,0:0:0:0:
270,150,101631,1,0,0:0:0:0:
270,150,101685,1,2,0:0:0:0:
277,144,101738,1,0,0:0:0:0:
269,149,101792,1,2,0:0:0:0:
268,150,101845,1,0,0:0:0:0:
167,175,102060,1,4,0:0:0:0:
167,175,102167,1,2,0:0:0:0:
167,175,102274,1,0,0:0:0:0:
167,175,102381,1,2,0:0:0:0:
167,175,102435,1,2,0:0:0:0:
167,175,102488,1,0,0:0:0:0:
167,175,102542,1,0,0:0:0:0:
167,175,102595,1,2,0:0:0:0:
167,175,102702,1,0,0:0:0:0:
167,175,102756,1,0,0:0:0:0:
167,175,102810,1,2,0:0:0:0:
167,175,102917,1,0,0:0:0:0:
167,175,103024,1,2,0:0:0:0:
167,175,103077,1,2,0:0:0:0:
167,175,103131,1,0,0:0:0:0:
167,175,103238,1,2,0:0:0:0:
167,175,103345,1,0,0:0:0:0:
167,175,103399,1,2,0:0:0:0:
167,175,103452,1,2,0:0:0:0:
167,175,103506,1,2,0:0:0:0:
167,175,103560,1,0,0:0:0:0:
171,173,103613,1,0,0:0:0:0:
171,173,103667,1,2,0:0:0:0:
167,175,103774,1,0,0:0:0:0:
167,175,103881,1,0,0:0:0:0:
171,177,103935,1,0,0:0:0:0:
167,175,103988,1,2,0:0:0:0:
167,175,104095,1,2,0:0:0:0:
167,175,104202,1,0,0:0:0:0:
167,175,104256,1,0,0:0:0:0:
174,177,104310,1,0,0:0:0:0:
167,175,104363,1,0,0:0:0:0:
167,175,104417,1,2,0:0:0:0:
167,175,104470,1,2,0:0:0:0:
174,177,104524,1,2,0:0:0:0:
171,173,104631,1,0,0:0:0:0:
167,175,104738,1,0,0:0:0:0:
175,177,104792,1,0,0:0:0:0:
176,177,104845,1,2,0:0:0:0:
178,179,104899,1,0,0:0:0:0:
171,177,104952,1,2,0:0:0:0:
176,177,105006,1,2,0:0:0:0:
167,175,105060,1,0,0:0:0:0:
167,175,105113,1,0,0:0:0:0:
167,175,105167,1,0,0:0:0:0:
167,175,105220,1,0,0:0:0:0:
167,175,105274,1,2,0:0:0:0:
127,213,105327,1,2,0:0:0:0:
118,225,105381,1,2,0:0:0:0:
118,227,105435,1,2,0:0:0:0:
205,185,105488,1,0,0:0:0:0:
205,185,105595,1,2,0:0:0:0:
205,185,105702,1,0,0:0:0:0:
205,185,105756,1,0,0:0:0:0:
205,185,105810,1,2,0:0:0:0:
205,185,105863,1,2,0:0:0:0:
202,186,105917,1,0,0:0:0:0:
205,185,106024,1,2,0:0:0:0:
205,185,106131,1,0,0:0:0:0:
205,185,106185,1,2,0:0:0:0:
205,185,106238,1,2,0:0:0:0:
205,185,106345,1,0,0:0:0:0:
205,185,106452,1,2,0:0:0:0:
205,185,106506,1,2,0:0:0:0:
198,184,106560,1,0,0:0:0:0:
205,185,106613,1,0,0:0:0:0:
198,184,106667,1,2,0:0:0:0:
205,185,106774,1,0,0:0:0:0:
196,182,106827,1,2,0:0:0:0:
205,185,106881,1,0,0:0:0:0:
198,182,106935,1,0,0:0:0:0:
205,185,106988,1,2,0:0:0:0:
196,182,107042,1,2,0:0:0:0:
196,182,107095,1,2,0:0:0:0:
183,150,107202,1,0,0:0:0:0:
183,150,107310,1,0,0:0:0:0:
183,150,107363,1,0,0:0:0:0:
183,150,107417,1,2,0:0:0:0:
183,150,107470,1,0,0:0:0:0:
183,150,107524,1,2,0:0:0:0:
183,150,107577,1,2,0:0:0:0:
183,150,107631,1,0,0:0:0:0:
183,150,107685,1,0,0:0:0:0:
183,150,107738,1,0,0:0:0:0:
176,153,107792,1,0,0:0:0:0:
183,150,107845,1,2,0:0:0:0:
176,153,107952,1,2,0:0:0:0:
183,150,108060,1,0,0:0:0:0:
183,150,108113,1,2,0:0:0:0:
189,165,108167,1,0,0:0:0:0:
191,163,108220,1,0,0:0:0:0:
183,150,108274,1,2,0:0:0:0:
183,150,108327,1,2,0:0:0:0:
183,150,108381,1,2,0:0:0:0:
191,163,108435,1,2,0:0:0:0:
183,150,108488,1,0,0:0:0:0:
183,150,108542,1,0,0:0:0:0:
158,201,108595,1,2,0:0:0:0:
158,201,108649,1,2,0:0:0:0:
191,163,108702,1,2,0:0:0:0:
233,212,108810,1,2,0:0:0:0:
408,219,108917,1,0,0:0:0:0:
299,191,109024,1,2,0:0:0:0:
318,196,109077,1,2,0:0:0:0:
316,196,109131,1,0,0:0:0:0:
316,196,109238,1,2,0:0:0:0:
299,191,109345,1,0,0:0:0:0:
318,196,109399,1,0,0:0:0:0:
311,198,109452,1,2,0:0:0:0:
299,191,109506,1,2,0:0:0:0:
312,198,109560,1,0,0:0:0:0:
299,191,109613,1,2,0:0:0:0:
299,191,109667,1,2,0:0:0:0:
299,191,109774,1,0,0:0:0:0:
299,191,109881,1,0,0:0:0:0:
309,198,109935,1,2,0:0:0:0:
299,191,109988,1,0,0:0:0:0:
318,196,110095,1,2,0:0:0:0:
309,196,110202,1,0,0:0:0:0:
309,196,110256,1,2,0:0:0:0:
299,191,110310,1,0,0:0:0:0:
299,191,110363,1,0,0:0:0:0:
318,196,110417,1,2,0:0:0:0:
311,198,110470,1,2,0:0:0:0:
299,191,110524,1,0,0:0:0:0:
231,131,110631,1,0,0:0:0:0:
231,131,110738,1,2,0:0:0:0:
231,131,110792,1,2,0:0:0:0:
231,131,110845,1,0,0:0:0:0:
231,131,110899,1,2,0:0:0:0:
231,131,110952,1,0,0:0:0:0:
231,131,111006,1,0,0:0:0:0:
231,131,111060,1,2,0:0:0:0:
231,131,111113,1,0,0:0:0:0:
231,131,111167,1,0,0:0:0:0:
226,133,111220,1,0,0:0:0:0:
231,131,111274,1,2,0:0:0:0:
231,131,111327,1,2,0:0:0:0:
231,131,111381,1,0,0:0:0:0:
231,131,111488,1,0,0:0:0:0:
206,150,111595,1,2,0:0:0:0:
206,150,111649,1,0,0:0:0:0:
231,131,111702,1,2,0:0:0:0:
206,150,111756,1,2,0:0:0:0:
231,131,111810,1,0,0:0:0:0:
231,131,111863,1,0,0:0:0:0:
231,131,111917,1,2,0:0:0:0:
231,131,111970,1,0,0:0:0:0:
231,131,112024,1,2,0:0:0:0:
231,131,112077,1,0,0:0:0:0:
231,131,112131,1,2,0:0:0:0:
224,134,112185,1,2,0:0:0:0:
181,169,112238,1,2,0:0:0:0:
176,174,112292,1,2,0:0:0:0:
176,174,112345,1,0,0:0:0:0:
45,188,112452,1,2,0:0:0:0:
45,188,112560,1,0,0:0:0:0:
45,188,112613,1,0,0:0:0:0:
45,188,112667,1,2,0:0:0:0:
226,142,112720,1,2,0:0:0:0:
45,188,112774,1,0,0:0:0:0:
45,188,112881,1,2,0:0:0:0:
39,190,112988,1,0,0:0:0:0:
233,202,113042,1,0,0:0:0:0:
39,187,113095,1,2,0:0:0:0:
38,187,113202,1,0,0:0:0:0:
36,185,113310,1,2,0:0:0:0:
198,102,113363,1,2,0:0:0:0:
45,188,113417,1,0,0:0:0:0:
35,186,113470,1,2,0:0:0:0:
34,186,113524,1,2,0:0:0:0:
34,186,113631,1,0,0:0:0:0:
45,188,113738,1,2,0:0:0:0:
45,188,113845,1,0,0:0:0:0:
32,186,113899,1,0,0:0:0:0:
31,186,113952,1,2,0:0:0:0:
143,190,114060,1,0,0:0:0:0:
254,195,114167,1,0,0:0:0:0:
230,194,114220,1,0,0:0:0:0:
230,194,114274,1,2,0:0:0:0:
230,194,114327,1,2,0:0:0:0:
230,194,114381,1,2,0:0:0:0:
230,195,114435,1,2,0:0:0:0:
230,194,114488,1,0,0:0:0:0:
230,194,114542,1,0,0:0:0:0:
230,194,114595,1,2,0:0:0:0:
230,194,114649,1,0,0:0:0:0:
230,194,114702,1,2,0:0:0:0:
230,194,114810,1,2,0:0:0:0:
230,194,114917,1,0,0:0:0:0:
230,194,114970,1,0,0:0:0:0:
230,194,115024,1,0,0:0:0:0:
230,194,115077,1,0,0:0:0:0:
230,194,115131,1,2,0:0:0:0:
230,194,115185,1,2,0:0:0:0:
224,198,115238,1,2,0:0:0:0:
224,197,115292,1,2,0:0:0:0:
230,194,115345,1,0,0:0:0:0:
222,198,115399,1,0,0:0:0:0:
230,195,115452,1,2,0:0:0:0:
223,198,115506,1,0,0:0:0:0:
230,194,115560,1,2,0:0:0:0:
223,198,115667,1,2,0:0:0:0:
222,198,115774,1,0,0:0:0:0:
136,183,115988,1,2,0:0:0:0:
136,183,116095,1,2,0:0:0:0:
136,183,116310,1,0,0:0:0:0:
136,183,116417,1,2,0:0:0:0:
136,183,116631,1,0,0:0:0:0:
136,183,116845,1,2,0:0:0:0:
135,175,116952,1,2,0:0:0:0:
136,183,117060,1,0,0:0:0:0:
134,175,117167,1,0,0:0:0:0:
133,175,117274,1,2,0:0:0:0:
133,176,117488,1,0,0:0:0:0:
133,176,117595,1,0,0:0:0:0:
132,178,117702,1,2,0:0:0:0:
136,183,117810,1,0,0:0:0:0:
136,183,117863,1,2,0:0:0:0:
135,175,117917,1,0,0:0:0:0:
136,183,118024,1,2,0:0:0:0:
134,175,118131,1,2,0:0:0:0:
132,181,118185,1,2,0:0:0:0:
132,181,118238,1,0,0:0:0:0:
133,176,118345,1,0,0:0:0:0:
133,176,118399,1,0,0:0:0:0:
133,176,118452,1,2,0:0:0:0:
131,183,118506,1,2,0:0:0:0:
133,176,118560,1,0,0:0:0:0:
128,180,118613,1,2,0:0:0:0:
132,178,118667,1,0,0:0:0:0:
132,178,118720,1,2,0:0:0:0:
136,183,118774,1,0,0:0:0:0:
136,183,118827,1,0,0:0:0:0:
136,183,118881,1,2,0:0:0:0:
131,182,118935,1,0,0:0:0:0:
136,183,118988,1,2,0:0:0:0:
132,199,119202,1,4,0:0:0:0:
132,199,119524,1,4,0:0:0:0:
132,199,119845,1,4,0:0:0:0:
132,199,120060,1,4,0:0:0:0:
12,204,120274,1,4,0:0:0:0:
12,204,120488,1,4,0:0:0:0:
12,204,120702,1,4,0:0:0:0:
132,199,120917,1,4,0:0:0:0:
132,199,121239,1,4,0:0:0:0:
132,199,121560,1,4,0:0:0:0:
332,98,121774,1,4,0:0:0:0:
232,148,121881,1,0,0:0:0:0:
132,199,121988,1,0,0:0:0:0:
232,148,122095,1,0,0:0:0:0:
133,201,122202,1,0,0:0:0:0:
183,174,122256,1,0,0:0:0:0:
183,174,122310,1,0,0:0:0:0:
183,174,122363,1,0,0:0:0:0:
183,174,122417,1,0,0:0:0:0:
336,164,122631,1,4,0:0:0:0:
228,196,122738,1,2,0:0:0:0:
284,180,122792,1,2,0:0:0:0:
268,188,122846,1,0,0:0:0:0:
268,184,122953,1,2,0:0:0:0:
268,188,123060,1,0,0:0:0:0:
268,188,123167,1,2,0:0:0:0:
264,188,123221,1,0,0:0:0:0:
268,188,123274,1,0,0:0:0:0:
268,188,123328,1,0,0:0:0:0:
268,188,123381,1,2,0:0:0:0:
268,188,123435,1,2,0:0:0:0:
268,188,123488,1,0,0:0:0:0:
264,188,123596,1,2,0:0:0:0:
264,188,123703,1,0,0:0:0:0:
268,188,123756,1,0,0:0:0:0:
264,188,123810,1,2,0:0:0:0:
268,188,123917,1,0,0:0:0:0:
239,140,123970,1,0,0:0:0:0:
239,140,124024,1,0,0:0:0:0:
256,188,124078,1,0,0:0:0:0:
256,188,124131,1,2,0:0:0:0:
175,176,124185,1,2,0:0:0:0:
264,188,124238,1,2,0:0:0:0:
240,209,124345,1,0,0:0:0:0:
129,190,124452,1,2,0:0:0:0:
73,181,124506,1,2,0:0:0:0:
79,181,124560,1,0,0:0:0:0:
264,188,124667,1,2,0:0:0:0:
264,188,124720,1,2,0:0:0:0:
277,188,124774,1,0,0:0:0:0:
264,188,124827,1,2,0:0:0:0:
276,189,124881,1,2,0:0:0:0:
268,188,124988,1,0,0:0:0:0:
275,190,125095,1,2,0:0:0:0:
164,232,125203,1,0,0:0:0:0:
176,200,125256,1,2,0:0:0:0:
196,124,125310,1,0,0:0:0:0:
180,176,125363,1,0,0:0:0:0:
176,200,125417,1,2,0:0:0:0:
168,192,125471,1,0,0:0:0:0:
176,200,125524,1,0,0:0:0:0:
168,192,125578,1,0,0:0:0:0:
176,200,125631,1,2,0:0:0:0:
176,200,125685,1,2,0:0:0:0:
168,192,125738,1,0,0:0:0:0:
168,192,125792,1,0,0:0:0:0:
176,200,125846,1,2,0:0:0:0:
176,200,125899,1,0,0:0:0:0:
176,200,125953,1,2,0:0:0:0:
176,200,126006,1,2,0:0:0:0:
176,232,126060,1,0,0:0:0:0:
176,232,126167,1,2,0:0:0:0:
176,232,126274,1,0,0:0:0:0:
176,232,126328,1,0,0:0:0:0:
176,232,126381,1,2,0:0:0:0:
176,232,126488,1,0,0:0:0:0:
172,232,126596,1,2,0:0:0:0:
172,232,126649,1,2,0:0:0:0:
172,232,126703,1,0,0:0:0:0:
172,232,126810,1,2,0:0:0:0:
176,232,126917,1,0,0:0:0:0:
168,232,126971,1,2,0:0:0:0:
176,232,127024,1,2,0:0:0:0:
168,232,127078,1,2,0:0:0:0:
168,232,127131,1,0,0:0:0:0:
212,181,127185,1,0,0:0:0:0:
168,232,127238,1,2,0:0:0:0:
212,181,127292,1,2,0:0:0:0:
176,232,127346,1,0,0:0:0:0:
212,181,127399,1,2,0:0:0:0:
176,232,127453,1,0,0:0:0:0:
168,232,127506,1,0,0:0:0:0:
172,232,127560,1,2,0:0:0:0:
168,232,127667,1,2,0:0:0:0:
168,232,127774,1,0,0:0:0:0:
168,232,127881,1,2,0:0:0:0:
164,232,127935,1,2,0:0:0:0:
168,232,127988,1,0,0:0:0:0:
168,232,128096,1,2,0:0:0:0:
168,232,128203,1,0,0:0:0:0:
168,232,128256,1,0,0:0:0:0:
176,232,128310,1,2,0:0:0:0:
168,232,128417,1,0,0:0:0:0:
168,232,128524,1,2,0:0:0:0:
280,220,128631,1,0,0:0:0:0:
336,216,128685,1,0,0:0:0:0:
416,208,128738,1,2,0:0:0:0:
416,208,128792,1,2,0:0:0:0:
416,208,128846,1,0,0:0:0:0:
241,114,128899,1,2,0:0:0:0:
416,208,128953,1,2,0:0:0:0:
241,114,129006,1,2,0:0:0:0:
416,208,129060,1,0,0:0:0:0:
416,208,129113,1,0,0:0:0:0:
416,208,129167,1,2,0:0:0:0:
416,208,129221,1,0,0:0:0:0:
416,208,129274,1,2,0:0:0:0:
416,208,129381,1,2,0:0:0:0:
112,172,129488,1,0,0:0:0:0:
112,172,129596,1,2,0:0:0:0:
108,168,129649,1,2,0:0:0:0:
108,168,129703,1,0,0:0:0:0:
108,168,129810,1,2,0:0:0:0:
112,172,129917,1,0,0:0:0:0:
112,172,129971,1,0,0:0:0:0:
112,172,130024,1,2,0:0:0:0:
112,172,130078,1,2,0:0:0:0:
108,168,130131,1,0,0:0:0:0:
108,168,130238,1,2,0:0:0:0:
112,172,130346,1,0,0:0:0:0:
112,172,130399,1,0,0:0:0:0:
112,172,130453,1,2,0:0:0:0:
108,168,130560,1,0,0:0:0:0:
108,168,130667,1,2,0:0:0:0:
108,168,130774,1,0,0:0:0:0:
112,172,130881,1,2,0:0:0:0:
112,172,130935,1,2,0:0:0:0:
104,168,130988,1,0,0:0:0:0:
112,172,131042,1,2,0:0:0:0:
112,172,131096,1,0,0:0:0:0:
181,163,131149,1,0,0:0:0:0:
176,136,131203,1,2,0:0:0:0:
176,136,131310,1,0,0:0:0:0:
176,136,131363,1,0,0:0:0:0:
176,136,131417,1,2,0:0:0:0:
176,136,131524,1,0,0:0:0:0:
176,136,131631,1,2,0:0:0:0:
248,188,131685,1,0,0:0:0:0:
176,136,131738,1,0,0:0:0:0:
248,188,131792,1,0,0:0:0:0:
248,188,131846,1,2,0:0:0:0:
176,136,131953,1,0,0:0:0:0:
224,176,132060,1,0,0:0:0:0:
224,176,132113,1,2,0:0:0:0:
224,176,132167,1,0,0:0:0:0:
224,176,132221,1,0,0:0:0:0:
224,176,132274,1,2,0:0:0:0:
224,176,132328,1,0,0:0:0:0:
224,176,132381,1,2,0:0:0:0:
216,180,132435,1,2,0:0:0:0:
224,176,132488,1,0,0:0:0:0:
224,176,132542,1,2,0:0:0:0:
224,176,132596,1,0,0:0:0:0:
224,176,132649,1,0,0:0:0:0:
224,176,132703,1,2,0:0:0:0:
224,176,132756,1,0,0:0:0:0:
224,176,132810,1,2,0:0:0:0:
216,184,132863,1,2,0:0:0:0:
216,184,132917,1,0,0:0:0:0:
216,184,133131,1,2,0:0:0:0:
216,184,133185,1,2,0:0:0:0:
216,184,133238,1,2,0:0:0:0:
208,200,133345,1,0,0:0:0:0:
216,184,133560,1,2,0:0:0:0:
216,184,133614,1,2,0:0:0:0:
216,184,133667,1,2,0:0:0:0:
208,200,133774,1,0,0:0:0:0:
216,184,133988,1,2,0:0:0:0:
216,184,134042,1,2,0:0:0:0:
216,184,134095,1,2,0:0:0:0:
208,200,134202,1,0,0:0:0:0:
154,182,134256,1,2,0:0:0:0:
99,166,134310,1,2,0:0:0:0:
82,161,134363,1,2,0:0:0:0:
82,162,134417,1,0,0:0:0:0:
216,184,134631,1,0,0:0:0:0:
216,184,134845,1,2,0:0:0:0:
216,184,134899,1,2,0:0:0:0:
216,184,134952,1,2,0:0:0:0:
208,200,135059,1,0,0:0:0:0:
216,184,135274,1,2,0:0:0:0:
216,184,135328,1,2,0:0:0:0:
216,184,135381,1,2,0:0:0:0:
208,200,135488,1,0,0:0:0:0:
216,184,135702,1,2,0:0:0:0:
216,184,135756,1,2,0:0:0:0:
216,184,135809,1,2,0:0:0:0:
216,184,135863,1,2,0:0:0:0:
208,200,135916,1,0,0:0:0:0:
154,182,135970,1,0,0:0:0:0:
99,166,136024,1,0,0:0:0:0:
82,162,136131,1,0,0:0:0:0:
216,184,136345,1,0,0:0:0:0:
216,184,136559,1,2,0:0:0:0:
216,184,136613,1,2,0:0:0:0:
216,184,136666,1,2,0:0:0:0:
208,200,136773,1,0,0:0:0:0:
216,184,136988,1,2,0:0:0:0:
216,184,137042,1,2,0:0:0:0:
216,184,137095,1,2,0:0:0:0:
208,200,137202,1,0,0:0:0:0:
152,192,137256,1,2,0:0:0:0:
95,185,137310,1,2,0:0:0:0:
71,182,137417,1,0,0:0:0:0:
216,184,137470,1,2,0:0:0:0:
216,184,137523,1,2,0:0:0:0:
216,184,137577,1,2,0:0:0:0:
208,200,137630,1,0,0:0:0:0:
126,173,137845,1,2,0:0:0:0:
126,173,137899,1,2,0:0:0:0:
121,176,137952,1,2,0:0:0:0:
216,184,138060,1,0,0:0:0:0:
216,184,138274,1,2,0:0:0:0:
216,184,138328,1,2,0:0:0:0:
216,184,138381,1,2,0:0:0:0:
208,200,138488,1,0,0:0:0:0:
216,184,138703,1,2,0:0:0:0:
216,184,138757,1,2,0:0:0:0:
216,184,138810,1,2,0:0:0:0:
208,200,138917,1,0,0:0:0:0:
216,184,139131,1,2,0:0:0:0:
216,184,139185,1,2,0:0:0:0:
216,184,139238,1,0,0:0:0:0:
216,184,139292,1,0,0:0:0:0:
208,200,139345,1,2,0:0:0:0:
159,171,139399,1,0,0:0:0:0:
117,140,139452,1,0,0:0:0:0:
128,154,139560,1,0,0:0:0:0:
176,232,139774,1,4,0:0:0:0:
176,232,139881,1,2,0:0:0:0:
75,154,139935,1,2,0:0:0:0:
176,232,139988,1,0,0:0:0:0:
176,232,140042,1,0,0:0:0:0:
176,232,140095,1,2,0:0:0:0:
176,232,140202,1,0,0:0:0:0:
172,232,140310,1,2,0:0:0:0:
172,232,140363,1,2,0:0:0:0:
172,232,140417,1,0,0:0:0:0:
172,232,140524,1,2,0:0:0:0:
176,232,140631,1,0,0:0:0:0:
168,232,140685,1,0,0:0:0:0:
176,232,140738,1,2,0:0:0:0:
168,232,140792,1,2,0:0:0:0:
168,232,140845,1,0,0:0:0:0:
201,158,140899,1,2,0:0:0:0:
168,232,140952,1,2,0:0:0:0:
201,158,141006,1,2,0:0:0:0:
201,158,141060,1,0,0:0:0:0:
201,158,141113,1,0,0:0:0:0:
201,158,141167,1,2,0:0:0:0:
168,232,141220,1,0,0:0:0:0:
172,232,141274,1,2,0:0:0:0:
172,232,141327,1,2,0:0:0:0:
168,232,141381,1,0,0:0:0:0:
181,130,141435,1,2,0:0:0:0:
168,232,141488,1,0,0:0:0:0:
168,232,141595,1,2,0:0:0:0:
164,232,141649,1,2,0:0:0:0:
168,232,141702,1,0,0:0:0:0:
168,232,141810,1,2,0:0:0:0:
168,232,141917,1,0,0:0:0:0:
168,232,141970,1,0,0:0:0:0:
176,232,142024,1,2,0:0:0:0:
168,232,142131,1,0,0:0:0:0:
168,232,142238,1,2,0:0:0:0:
280,220,142345,1,0,0:0:0:0:
336,216,142399,1,0,0:0:0:0:
416,208,142452,1,2,0:0:0:0:
416,208,142506,1,0,0:0:0:0:
360,196,142560,1,2,0:0:0:0:
305,184,142613,1,2,0:0:0:0:
200,163,142667,1,2,0:0:0:0:
200,163,142720,1,2,0:0:0:0:
416,208,142774,1,0,0:0:0:0:
416,208,142827,1,2,0:0:0:0:
416,208,142881,1,0,0:0:0:0:
416,208,142935,1,0,0:0:0:0:
416,208,142988,1,2,0:0:0:0:
416,208,143042,1,0,0:0:0:0:
416,208,143095,1,2,0:0:0:0:
200,163,143149,1,2,0:0:0:0:
112,172,143202,1,0,0:0:0:0:
112,172,143310,1,2,0:0:0:0:
216,146,143363,1,2,0:0:0:0:
108,168,143417,1,0,0:0:0:0:
108,168,143524,1,2,0:0:0:0:
70,138,143577,1,2,0:0:0:0:
70,138,143631,1,0,0:0:0:0:
112,172,143685,1,2,0:0:0:0:
112,172,143738,1,2,0:0:0:0:
108,168,143845,1,0,0:0:0:0:
108,168,143952,1,2,0:0:0:0:
133,154,144006,1,2,0:0:0:0:
112,172,144060,1,0,0:0:0:0:
112,172,144113,1,2,0:0:0:0:
112,172,144167,1,0,0:0:0:0:
140,92,144220,1,0,0:0:0:0:
108,168,144274,1,2,0:0:0:0:
140,92,144327,1,2,0:0:0:0:
140,92,144381,1,2,0:0:0:0:
125,173,144435,1,2,0:0:0:0:
140,92,144488,1,0,0:0:0:0:
140,92,144542,1,0,0:0:0:0:
112,172,144595,1,2,0:0:0:0:
104,168,144648,1,0,0:0:0:0:
112,172,144702,1,0,0:0:0:0:
112,172,144810,1,2,0:0:0:0:
217,208,144917,1,0,0:0:0:0:
250,219,144970,1,0,0:0:0:0:
250,219,145024,1,2,0:0:0:0:
250,219,145077,1,0,0:0:0:0:
250,219,145131,1,2,0:0:0:0:
250,219,145185,1,0,0:0:0:0:
250,219,145238,1,2,0:0:0:0:
245,222,145292,1,2,0:0:0:0:
250,219,145345,1,0,0:0:0:0:
250,219,145399,1,0,0:0:0:0:
242,225,145452,1,2,0:0:0:0:
250,219,145506,1,0,0:0:0:0:
250,219,145560,1,0,0:0:0:0:
242,223,145613,1,2,0:0:0:0:
242,223,145667,1,0,0:0:0:0:
224,176,145774,1,0,0:0:0:0:
224,176,145827,1,2,0:0:0:0:
224,176,145881,1,0,0:0:0:0:
224,176,145935,1,0,0:0:0:0:
224,176,145988,1,2,0:0:0:0:
224,176,146042,1,0,0:0:0:0:
224,176,146095,1,2,0:0:0:0:
216,180,146149,1,2,0:0:0:0:
224,176,146202,1,0,0:0:0:0:
224,176,146256,1,2,0:0:0:0:
224,176,146310,1,0,0:0:0:0:
224,176,146363,1,0,0:0:0:0:
224,176,146417,1,2,0:0:0:0:
224,176,146470,1,0,0:0:0:0:
224,176,146524,1,2,0:0:0:0:
216,184,146577,1,2,0:0:0:0:
216,184,146631,1,0,0:0:0:0:
149,169,146845,1,0,0:0:0:0:
146,173,146952,1,0,0:0:0:0:
146,173,147060,1,0,0:0:0:0:
146,173,147274,1,0,0:0:0:0:
149,169,147488,1,0,0:0:0:0:
149,169,147702,1,0,0:0:0:0:
146,173,147917,1,0,0:0:0:0:
146,173,148131,1,0,0:0:0:0:
149,169,148345,1,0,0:0:0:0:
149,169,148560,1,0,0:0:0:0:
146,173,148774,1,0,0:0:0:0:
146,173,148988,1,0,0:0:0:0:
149,169,149202,1,0,0:0:0:0:
146,173,149310,1,0,0:0:0:0:
149,169,149417,1,2,0:0:0:0:
146,174,149524,1,2,0:0:0:0:
146,173,149631,1,0,0:0:0:0:
146,173,149738,1,2,0:0:0:0:
146,173,149845,1,0,0:0:0:0:
146,173,149952,1,2,0:0:0:0:
265,128,150060,1,0,0:0:0:0:
192,148,150274,1,2,0:0:0:0:
192,148,150488,1,0,0:0:0:0:
192,148,150595,1,0,0:0:0:0:
192,148,150702,1,2,0:0:0:0:
192,148,150917,1,0,0:0:0:0:
189,152,151131,1,2,0:0:0:0:
192,148,151345,1,0,0:0:0:0:
187,150,151399,1,0,0:0:0:0:
192,148,151452,1,0,0:0:0:0:
192,148,151560,1,2,0:0:0:0:
192,148,151667,1,2,0:0:0:0:
187,150,151774,1,0,0:0:0:0:
189,152,151988,1,2,0:0:0:0:
184,152,152202,1,0,0:0:0:0:
192,148,152417,1,2,0:0:0:0:
183,147,152524,1,2,0:0:0:0:
192,148,152631,1,0,0:0:0:0:
183,143,152738,1,2,0:0:0:0:
183,143,152792,1,2,0:0:0:0:
183,145,152845,1,0,0:0:0:0:
189,152,152952,1,2,0:0:0:0:
183,143,153060,1,0,0:0:0:0:
184,152,153167,1,2,0:0:0:0:
183,143,153220,1,0,0:0:0:0:
192,148,153274,1,2,0:0:0:0:
184,143,153381,1,2,0:0:0:0:
158,158,153488,1,0,0:0:0:0:
158,158,153702,1,2,0:0:0:0:
158,158,153917,1,0,0:0:0:0:
158,158,154024,1,0,0:0:0:0:
158,158,154131,1,2,0:0:0:0:
158,158,154345,1,0,0:0:0:0:
158,158,154560,1,2,0:0:0:0:
158,158,154667,1,2,0:0:0:0:
158,158,154774,1,0,0:0:0:0:
158,158,154827,1,0,0:0:0:0:
158,158,154881,1,0,0:0:0:0:
158,158,154935,1,0,0:0:0:0:
158,158,154988,1,2,0:0:0:0:
158,158,155095,1,2,0:0:0:0:
158,158,155202,1,0,0:0:0:0:
158,158,155417,1,2,0:0:0:0:
158,158,155631,1,0,0:0:0:0:
153,162,155685,1,0,0:0:0:0:
153,161,155738,1,0,0:0:0:0:
158,158,155845,1,2,0:0:0:0:
152,162,155952,1,2,0:0:0:0:
152,162,156060,1,0,0:0:0:0:
152,163,156167,1,2,0:0:0:0:
158,158,156220,1,2,0:0:0:0:
158,158,156274,1,0,0:0:0:0:
158,158,156381,1,2,0:0:0:0:
152,163,156488,1,0,0:0:0:0:
265,128,156917,1,0,0:0:0:0:
192,148,157131,1,2,0:0:0:0:
192,148,157345,1,0,0:0:0:0:
192,148,157452,1,0,0:0:0:0:
192,148,157559,1,2,0:0:0:0:
192,148,157774,1,0,0:0:0:0:
189,152,157988,1,2,0:0:0:0:
192,148,158202,1,0,0:0:0:0:
187,150,158256,1,0,0:0:0:0:
192,148,158309,1,0,0:0:0:0:
192,148,158417,1,2,0:0:0:0:
192,148,158524,1,2,0:0:0:0:
187,150,158631,1,0,0:0:0:0:
189,152,158845,1,2,0:0:0:0:
184,152,159059,1,0,0:0:0:0:
192,148,159274,1,2,0:0:0:0:
183,147,159381,1,2,0:0:0:0:
192,148,159488,1,0,0:0:0:0:
183,143,159595,1,2,0:0:0:0:
183,143,159649,1,2,0:0:0:0:
183,145,159702,1,0,0:0:0:0:
189,152,159809,1,2,0:0:0:0:
183,143,159917,1,0,0:0:0:0:
92,194,159970,1,0,0:0:0:0:
184,152,160024,1,2,0:0:0:0:
183,143,160077,1,0,0:0:0:0:
192,148,160131,1,2,0:0:0:0:
184,143,160238,1,2,0:0:0:0:
158,158,160345,1,0,0:0:0:0:
158,158,160559,1,2,0:0:0:0:
158,158,160774,1,0,0:0:0:0:
158,158,160881,1,0,0:0:0:0:
158,158,160988,1,2,0:0:0:0:
158,158,161202,1,0,0:0:0:0:
158,158,161417,1,2,0:0:0:0:
158,158,161524,1,2,0:0:0:0:
158,158,161631,1,0,0:0:0:0:
158,158,161684,1,0,0:0:0:0:
158,158,161738,1,0,0:0:0:0:
158,158,161845,1,2,0:0:0:0:
179,105,161899,1,2,0:0:0:0:
158,158,161952,1,2,0:0:0:0:
176,116,162006,1,2,0:0:0:0:
158,158,162059,1,0,0:0:0:0:
158,158,162274,1,2,0:0:0:0:
158,158,162488,1,0,0:0:0:0:
153,161,162595,1,0,0:0:0:0:
203,187,162649,5,0,0:0:0:0:
158,158,162702,1,2,0:0:0:0:
152,162,162809,1,2,0:0:0:0:
152,162,162917,1,0,0:0:0:0:
152,163,163024,1,2,0:0:0:0:
158,158,163077,1,2,0:0:0:0:
158,158,163131,1,0,0:0:0:0:
158,158,163238,1,2,0:0:0:0:
152,163,163345,1,0,0:0:0:0:
265,128,163774,1,0,0:0:0:0:
192,148,163988,1,2,0:0:0:0:
192,148,164202,1,0,0:0:0:0:
192,148,164309,1,0,0:0:0:0:
192,148,164416,1,2,0:0:0:0:
192,148,164631,1,0,0:0:0:0:
189,152,164845,1,2,0:0:0:0:
192,148,165059,1,0,0:0:0:0:
192,148,165274,1,2,0:0:0:0:
192,148,165381,1,2,0:0:0:0:
187,150,165488,1,0,0:0:0:0:
189,152,165702,1,2,0:0:0:0:
184,152,165916,1,0,0:0:0:0:
189,153,166024,1,0,0:0:0:0:
192,148,166131,1,2,0:0:0:0:
192,148,166345,1,0,0:0:0:0:
183,145,166559,1,0,0:0:0:0:
189,152,166666,1,2,0:0:0:0:
183,143,166774,1,0,0:0:0:0:
184,152,166881,1,2,0:0:0:0:
192,148,166988,1,2,0:0:0:0:
184,143,167095,1,2,0:0:0:0:
158,158,167202,1,0,0:0:0:0:
158,158,167416,1,2,0:0:0:0:
158,158,167631,1,0,0:0:0:0:
158,158,167738,1,0,0:0:0:0:
158,158,167845,1,2,0:0:0:0:
158,158,168059,1,0,0:0:0:0:
158,158,168274,1,2,0:0:0:0:
158,158,168381,1,2,0:0:0:0:
158,158,168488,1,0,0:0:0:0:
158,158,168595,1,0,0:0:0:0:
158,158,168702,1,2,0:0:0:0:
158,158,168916,1,0,0:0:0:0:
158,158,169131,1,2,0:0:0:0:
158,158,169345,1,0,0:0:0:0:
153,161,169452,1,0,0:0:0:0:
158,158,169559,1,2,0:0:0:0:
152,162,169774,1,0,0:0:0:0:
152,163,169881,1,2,0:0:0:0:
166,190,169935,1,2,0:0:0:0:
158,158,169988,1,0,0:0:0:0:
158,158,170095,1,2,0:0:0:0:
152,163,170202,1,0,0:0:0:0:
166,190,170256,1,2,0:0:0:0:
166,190,170310,1,0,0:0:0:0:
166,190,170363,1,2,0:0:0:0:
166,190,170417,1,0,0:0:0:0:
166,190,170524,1,2,0:0:0:0:
265,128,170631,1,0,0:0:0:0:
192,148,170845,1,2,0:0:0:0:
192,148,171059,1,0,0:0:0:0:
192,148,171166,1,0,0:0:0:0:
192,148,171273,1,2,0:0:0:0:
192,148,171488,1,0,0:0:0:0:
189,152,171702,1,2,0:0:0:0:
192,148,171916,1,0,0:0:0:0:
192,148,172023,1,0,0:0:0:0:
192,148,172131,1,2,0:0:0:0:
192,148,172238,1,2,0:0:0:0:
187,150,172345,1,0,0:0:0:0:
189,152,172559,1,2,0:0:0:0:
184,152,172773,1,0,0:0:0:0:
192,148,172988,1,2,0:0:0:0:
183,147,173095,1,2,0:0:0:0:
192,148,173202,1,0,0:0:0:0:
183,145,173416,1,0,0:0:0:0:
189,152,173523,1,2,0:0:0:0:
183,143,173631,1,0,0:0:0:0:
151,183,173738,1,0,0:0:0:0:
192,148,173845,1,2,0:0:0:0:
184,143,173952,1,2,0:0:0:0:
158,158,174059,1,0,0:0:0:0:
158,158,174273,1,2,0:0:0:0:
204,173,174381,1,0,0:0:0:0:
115,166,174595,1,0,0:0:0:0:
115,166,174702,1,2,0:0:0:0:
115,166,174917,1,0,0:0:0:0:
204,173,175131,1,2,0:0:0:0:
115,166,175345,1,2,0:0:0:0:
115,166,175399,1,2,0:0:0:0:
115,166,175452,1,0,0:0:0:0:
115,166,175560,1,0,0:0:0:0:
232,153,175667,1,2,0:0:0:0:
120,153,175774,1,0,0:0:0:0:
231,153,175881,1,0,0:0:0:0:
179,153,175935,1,0,0:0:0:0:
179,153,175988,1,2,0:0:0:0:
179,153,176095,1,0,0:0:0:0:
179,153,176310,1,0,0:0:0:0:
174,154,176417,1,2,0:0:0:0:
174,155,176524,1,0,0:0:0:0:
179,153,176631,1,0,0:0:0:0:
179,153,176685,1,0,0:0:0:0:
170,163,176738,1,2,0:0:0:0:
179,153,176792,1,0,0:0:0:0:
179,153,176845,1,2,0:0:0:0:
179,153,176952,1,2,0:0:0:0:
179,153,177060,1,0,0:0:0:0:
179,153,177113,1,0,0:0:0:0:
179,153,177167,1,2,0:0:0:0:
173,158,177220,1,0,0:0:0:0:
179,153,177274,1,2,0:0:0:0:
179,153,177327,1,2,0:0:0:0:
174,154,177381,1,2,0:0:0:0:
174,154,177435,1,2,0:0:0:0:
170,163,177488,1,0,0:0:0:0:
