osu file format v14

[General]
AudioFilename: audio.mp3
AudioLeadIn: 0
PreviewTime: 166818
Countdown: 0
SampleSet: None
StackLeniency: 0.7
Mode: 3
LetterboxInBreaks: 0
SpecialStyle: 0
WidescreenStoryboard: 1

[Editor]
Bookmarks: 21618,38418,55218,78018,80118,142818,166818,210018
DistanceSpacing: 0.8
BeatDivisor: 4
GridSize: 4
TimelineZoom: 1.300001

[Metadata]
Title:Heaven's Fall
TitleUnicode:Heaven's Fall
Artist:Helblinde
ArtistUnicode:Helblinde
Creator:Kaito-kun
Version:Normal
Source:アルドノア・ゼロ
Tags:Aldnoah.Zero Antalf Hardcore J-core Kalafina heavenly blue AZ
BeatmapID:1288486
BeatmapSetID:541483

[Difficulty]
HPDrainRate:7
CircleSize:4
OverallDifficulty:7.5
ApproachRate:5
SliderMultiplier:1.4
SliderTickRate:1

[Events]
//Background and Video events
0,0,"forkaito.jpg",0,0
//Break Periods
//Storyboard Layer 0 (Background)
//Storyboard Layer 1 (Fail)
//Storyboard Layer 2 (Pass)
//Storyboard Layer 3 (Foreground)
//Storyboard Sound Samples

[TimingPoints]
18,300,4,1,1,35,1,0
28818,-100,4,3,1,50,0,0
102018,-100,4,3,1,50,0,1
123618,-100,4,3,1,50,0,0
162018,-100,4,1,1,50,0,0
166818,-100,4,3,1,50,0,0
171618,-100,4,3,1,50,0,1
186018,-100,4,3,1,50,0,0
195618,-100,4,3,1,50,0,1
205668,-100,4,3,1,50,0,0

[HitObjects]
64,192,18,5,2,0:0:0:0:
448,192,18,1,0,0:0:0:0:
192,192,168,1,0,0:0:0:0:
320,192,318,1,8,0:0:0:0:
64,192,468,1,0,0:0:0:0:
448,192,618,1,0,0:0:0:0:
192,192,768,1,8,0:0:0:0:
64,192,918,1,0,0:0:0:0:
448,192,1068,1,0,0:0:0:0:
320,192,1218,1,2,0:0:0:0:
64,192,1368,1,0,0:0:0:0:
192,192,1518,1,8,0:0:0:0:
320,192,1668,1,0,0:0:0:0:
64,192,1818,1,0,0:0:0:0:
448,192,1968,1,8,0:0:0:0:
192,192,2118,1,0,0:0:0:0:
320,192,2268,1,0,0:0:0:0:
64,192,2418,1,2,0:0:0:0:
192,192,2568,1,0,0:0:0:0:
64,192,2718,1,2,0:0:0:0:
320,192,2868,1,0,0:0:0:0:
192,192,3018,1,2,0:0:0:0:
448,192,3168,1,2,0:0:0:0:
192,192,3318,1,0,0:0:0:0:
448,192,3468,1,0,0:0:0:0:
320,192,3618,1,2,0:0:0:0:
192,192,3768,1,0,0:0:0:0:
320,192,3918,1,2,0:0:0:0:
64,192,4068,1,0,0:0:0:0:
192,192,4218,1,2,0:0:0:0:
320,192,4368,1,2,0:0:0:0:
192,192,4518,1,0,0:0:0:0:
320,192,4668,1,0,0:0:0:0:
448,192,4818,1,2,0:0:0:0:
64,192,4968,1,0,0:0:0:0:
192,192,5118,1,8,0:0:0:0:
320,192,5268,1,0,0:0:0:0:
448,192,5418,128,0,6318:0:0:0:0:
64,192,5718,1,0,0:0:0:0:
192,192,6018,1,2,0:0:0:0:
320,192,6318,1,8,0:0:0:0:
192,192,6468,1,0,0:0:0:0:
64,192,6618,1,2,0:0:0:0:
448,192,6768,1,8,0:0:0:0:
320,192,6918,1,0,0:0:0:0:
192,192,7068,1,0,0:0:0:0:
64,192,7218,1,0,0:0:0:0:
448,192,7368,1,0,0:0:0:0:
320,192,7518,1,8,0:0:0:0:
64,192,7668,1,0,0:0:0:0:
192,192,7818,1,0,0:0:0:0:
448,192,7968,1,0,0:0:0:0:
64,192,8118,1,8,0:0:0:0:
320,192,8268,1,2,0:0:0:0:
448,192,8418,1,2,0:0:0:0:
192,192,8568,1,0,0:0:0:0:
320,192,8718,1,8,0:0:0:0:
64,192,8868,1,0,0:0:0:0:
192,192,9018,1,0,0:0:0:0:
320,192,9168,1,8,0:0:0:0:
448,192,9318,1,8,0:0:0:0:
192,192,9468,1,0,0:0:0:0:
64,192,9618,1,2,0:0:0:0:
192,192,9768,1,0,0:0:0:0:
320,192,9918,1,8,0:0:0:0:
448,192,10068,1,0,0:0:0:0:
192,192,10218,1,0,0:0:0:0:
320,192,10368,1,8,0:0:0:0:
192,192,10518,1,0,0:0:0:0:
64,192,10668,1,0,0:0:0:0:
320,192,10818,1,2,0:0:0:0:
448,192,10968,1,0,0:0:0:0:
192,192,11118,1,8,0:0:0:0:
320,192,11268,1,0,0:0:0:0:
64,192,11418,1,0,0:0:0:0:
192,192,11568,1,8,0:0:0:0:
320,192,11718,1,0,0:0:0:0:
192,192,11868,1,0,0:0:0:0:
64,192,12018,1,2,0:0:0:0:
448,192,12168,1,0,0:0:0:0:
192,192,12318,1,8,0:0:0:0:
320,192,12468,1,0,0:0:0:0:
64,192,12618,1,8,0:0:0:0:
320,192,12768,1,0,0:0:0:0:
192,192,12918,1,8,0:0:0:0:
448,192,13068,1,0,0:0:0:0:
320,192,13218,1,0,0:0:0:0:
64,192,13368,1,0,0:0:0:0:
192,192,13518,1,8,0:0:0:0:
320,192,13668,1,0,0:0:0:0:
64,192,13818,128,0,15018:0:0:0:0:
448,192,14118,1,2,0:0:0:0:
320,192,14418,1,2,0:0:0:0:
192,192,14718,1,8,0:0:0:0:
320,192,15018,1,2,0:0:0:0:
448,192,15168,1,8,0:0:0:0:
320,192,15318,1,0,0:0:0:0:
192,192,15468,1,0,0:0:0:0:
64,192,15618,1,2,0:0:0:0:
320,192,15768,1,0,0:0:0:0:
192,192,15918,1,8,0:0:0:0:
448,192,16068,1,0,0:0:0:0:
320,192,16218,1,0,0:0:0:0:
448,192,16368,1,8,0:0:0:0:
64,192,16518,1,0,0:0:0:0:
192,192,16668,1,0,0:0:0:0:
448,192,16818,1,2,0:0:0:0:
192,192,16968,1,0,0:0:0:0:
448,192,17118,1,2,0:0:0:0:
64,192,17268,1,0,0:0:0:0:
192,192,17418,1,2,0:0:0:0:
320,192,17568,1,2,0:0:0:0:
192,192,17718,1,0,0:0:0:0:
320,192,17868,1,0,0:0:0:0:
448,192,18018,1,2,0:0:0:0:
64,192,18168,1,0,0:0:0:0:
448,192,18318,1,2,0:0:0:0:
320,192,18468,1,0,0:0:0:0:
192,192,18618,1,2,0:0:0:0:
64,192,18768,1,2,0:0:0:0:
192,192,18918,1,0,0:0:0:0:
64,192,19068,1,0,0:0:0:0:
448,192,19218,128,2,21618:0:0:0:0:
64,192,19518,1,8,0:0:0:0:
192,192,19818,1,0,0:0:0:0:
320,192,20118,1,0,0:0:0:0:
64,192,20418,1,2,0:0:0:0:
320,192,20718,1,8,0:0:0:0:
192,192,21018,1,0,0:0:0:0:
64,192,21318,1,0,0:0:0:0:
192,192,21618,1,2,0:0:0:0:
320,192,21768,1,0,0:0:0:0:
448,192,21918,1,8,0:0:0:0:
64,192,22068,1,0,0:0:0:0:
192,192,22218,1,0,0:0:0:0:
320,192,22368,1,8,0:0:0:0:
64,192,22518,1,0,0:0:0:0:
448,192,22668,1,0,0:0:0:0:
320,192,22818,1,2,0:0:0:0:
192,192,22968,1,0,0:0:0:0:
64,192,23118,1,8,0:0:0:0:
320,192,23268,1,0,0:0:0:0:
448,192,23418,1,0,0:0:0:0:
192,192,23568,1,8,0:0:0:0:
320,192,23718,1,0,0:0:0:0:
64,192,23868,1,0,0:0:0:0:
192,192,24018,1,2,0:0:0:0:
448,192,24168,1,0,0:0:0:0:
320,192,24318,1,8,0:0:0:0:
192,192,24468,1,0,0:0:0:0:
448,192,24618,1,0,0:0:0:0:
64,192,24768,1,8,0:0:0:0:
192,192,24918,1,0,0:0:0:0:
320,192,25068,1,0,0:0:0:0:
448,192,25218,1,2,0:0:0:0:
192,192,25368,1,0,0:0:0:0:
64,192,25518,1,8,0:0:0:0:
320,192,25668,1,0,0:0:0:0:
192,192,25818,1,0,0:0:0:0:
320,192,25968,1,8,0:0:0:0:
448,192,26118,1,0,0:0:0:0:
64,192,26268,1,0,0:0:0:0:
320,192,26418,1,2,0:0:0:0:
192,192,26568,1,0,0:0:0:0:
320,192,26718,1,2,0:0:0:0:
64,192,26868,1,0,0:0:0:0:
448,192,27018,1,0,0:0:0:0:
320,192,27168,1,0,0:0:0:0:
192,192,27318,1,0,0:0:0:0:
64,192,27468,1,0,0:0:0:0:
320,192,27618,128,0,27918:0:0:0:0:
192,192,27918,128,0,28518:0:0:0:0:
448,192,28218,128,0,28518:0:0:0:0:
64,192,28518,128,0,28818:0:0:0:0:
192,192,28818,1,4,0:0:0:0:
320,192,28818,1,8,0:0:0:0:
448,192,29118,1,8,0:0:0:0:
320,192,29418,1,8,0:0:0:0:
64,192,29718,1,8,0:0:0:0:
448,192,30018,1,8,0:0:0:0:
192,192,30318,1,8,0:0:0:0:
320,192,30618,1,8,0:0:0:0:
64,192,30918,1,8,0:0:0:0:
448,192,31218,1,8,0:0:0:0:
192,192,31518,1,8,0:0:0:0:
320,192,31818,1,8,0:0:0:0:
448,192,32118,1,8,0:0:0:0:
64,192,32418,1,8,0:0:0:0:
320,192,32718,1,8,0:0:0:0:
192,192,33018,1,8,0:0:0:0:
64,192,33318,1,8,0:0:0:0:
448,192,33618,1,2,0:0:0:0:
320,192,33768,1,2,0:0:0:0:
192,192,33918,1,2,0:0:0:0:
64,192,34068,1,2,0:0:0:0:
448,192,34218,1,2,0:0:0:0:
192,192,34368,1,2,0:0:0:0:
320,192,34518,1,2,0:0:0:0:
64,192,34668,1,2,0:0:0:0:
448,192,34818,1,2,0:0:0:0:
320,192,34968,1,2,0:0:0:0:
64,192,35118,1,2,0:0:0:0:
192,192,35268,1,2,0:0:0:0:
320,192,35418,1,2,0:0:0:0:
448,192,35568,1,2,0:0:0:0:
192,192,35718,1,2,0:0:0:0:
64,192,35868,1,2,0:0:0:0:
448,192,36018,128,2,37218:0:0:0:0:
192,192,36318,1,2,0:0:0:0:
64,192,36618,1,2,0:0:0:0:
320,192,36918,1,2,0:0:0:0:
192,192,37218,1,2,0:0:0:0:
64,192,37518,1,2,0:0:0:0:
448,192,37818,128,0,38418:0:0:0:0:
320,192,38118,1,0,0:0:0:0:
192,192,38268,1,0,0:0:0:0:
64,192,38418,1,4,0:0:0:0:
320,192,38418,1,2,0:0:0:0:
448,192,38568,1,0,0:0:0:0:
192,192,38718,1,10,0:0:0:0:
320,192,38868,1,0,0:0:0:0:
192,192,39018,1,2,0:0:0:0:
64,192,39168,1,0,0:0:0:0:
320,192,39318,1,10,0:0:0:0:
448,192,39468,1,0,0:0:0:0:
192,192,39618,1,2,0:0:0:0:
320,192,39768,1,0,0:0:0:0:
192,192,39918,1,10,0:0:0:0:
64,192,40068,1,0,0:0:0:0:
448,192,40218,1,2,0:0:0:0:
192,192,40368,1,0,0:0:0:0:
320,192,40518,1,10,0:0:0:0:
448,192,40668,1,0,0:0:0:0:
64,192,40818,1,2,0:0:0:0:
320,192,40968,1,0,0:0:0:0:
448,192,41118,1,10,0:0:0:0:
192,192,41268,1,0,0:0:0:0:
320,192,41418,1,2,0:0:0:0:
192,192,41568,1,0,0:0:0:0:
64,192,41718,1,10,0:0:0:0:
448,192,41868,1,0,0:0:0:0:
192,192,42018,1,2,0:0:0:0:
320,192,42168,1,0,0:0:0:0:
448,192,42318,1,10,0:0:0:0:
192,192,42468,1,0,0:0:0:0:
64,192,42618,128,2,43218:0:0:0:0:
448,192,42918,1,2,0:0:0:0:
320,192,43218,1,2,0:0:0:0:
192,192,43218,1,4,0:0:0:0:
448,192,43368,1,0,0:0:0:0:
64,192,43518,1,10,0:0:0:0:
192,192,43668,1,0,0:0:0:0:
448,192,43818,1,2,0:0:0:0:
320,192,43968,1,0,0:0:0:0:
192,192,44118,1,10,0:0:0:0:
64,192,44268,1,0,0:0:0:0:
448,192,44418,128,2,45618:0:0:0:0:
192,192,44718,1,10,0:0:0:0:
320,192,45018,1,2,0:0:0:0:
64,192,45318,1,10,0:0:0:0:
192,192,45618,1,2,0:0:0:0:
320,192,45768,1,0,0:0:0:0:
64,192,45918,1,10,0:0:0:0:
192,192,46068,1,0,0:0:0:0:
448,192,46218,1,2,0:0:0:0:
320,192,46368,1,0,0:0:0:0:
192,192,46518,1,10,0:0:0:0:
64,192,46668,1,0,0:0:0:0:
448,192,46818,1,2,0:0:0:0:
320,192,46968,1,0,0:0:0:0:
192,192,47118,128,10,47418:0:0:0:0:
320,192,47418,128,2,47718:0:0:0:0:
64,192,47718,1,10,0:0:0:0:
192,192,47868,1,2,0:0:0:0:
64,192,48018,1,2,0:0:0:0:
320,192,48018,1,4,0:0:0:0:
448,192,48168,1,0,0:0:0:0:
192,192,48318,1,10,0:0:0:0:
320,192,48468,1,0,0:0:0:0:
192,192,48618,1,2,0:0:0:0:
64,192,48768,1,0,0:0:0:0:
448,192,48918,1,10,0:0:0:0:
192,192,49068,1,0,0:0:0:0:
64,192,49218,1,2,0:0:0:0:
320,192,49368,1,0,0:0:0:0:
192,192,49518,1,10,0:0:0:0:
448,192,49668,1,0,0:0:0:0:
320,192,49818,1,2,0:0:0:0:
64,192,49968,1,0,0:0:0:0:
448,192,50118,1,10,0:0:0:0:
192,192,50268,1,0,0:0:0:0:
64,192,50418,1,2,0:0:0:0:
320,192,50568,1,0,0:0:0:0:
192,192,50718,1,10,0:0:0:0:
320,192,50868,1,0,0:0:0:0:
448,192,51018,1,2,0:0:0:0:
64,192,51168,1,0,0:0:0:0:
448,192,51318,128,10,51618:0:0:0:0:
64,192,51618,128,2,52818:0:0:0:0:
320,192,51918,1,0,0:0:0:0:
192,192,52218,1,0,0:0:0:0:
448,192,52518,1,4,1:0:0:0:
192,192,52818,1,2,0:0:0:0:
320,192,52818,1,4,0:0:0:0:
448,192,52968,1,0,0:0:0:0:
64,192,53118,1,10,0:0:0:0:
192,192,53268,1,0,0:0:0:0:
320,192,53418,1,2,0:0:0:0:
64,192,53568,1,0,0:0:0:0:
448,192,53718,1,10,0:0:0:0:
192,192,53868,1,0,0:0:0:0:
64,192,54018,1,2,0:0:0:0:
320,192,54168,1,0,0:0:0:0:
192,192,54318,1,10,0:0:0:0:
320,192,54468,1,0,0:0:0:0:
448,192,54618,1,2,0:0:0:0:
64,192,54768,1,0,0:0:0:0:
320,192,54918,1,10,0:0:0:0:
192,192,55068,1,0,0:0:0:0:
64,192,55218,128,4,55518:0:0:0:0:
448,192,55218,1,2,0:0:0:0:
320,192,55518,128,0,56118:0:0:0:0:
448,192,55818,128,0,56118:0:0:0:0:
192,192,56118,128,0,56418:0:0:0:0:
448,192,56418,128,0,56718:0:0:0:0:
64,192,56718,128,0,57318:0:0:0:0:
192,192,57018,128,0,57318:0:0:0:0:
320,192,57318,1,2,0:0:0:0:
448,192,57618,1,4,0:0:0:0:
64,192,57618,1,2,0:0:0:0:
192,192,57918,1,2,0:0:0:0:
320,192,58218,1,2,0:0:0:0:
64,192,58218,1,0,0:0:0:0:
448,192,58518,1,2,0:0:0:0:
192,192,58818,1,2,0:0:0:0:
64,192,58818,1,0,0:0:0:0:
320,192,59118,1,2,0:0:0:0:
448,192,59418,1,0,0:0:0:0:
192,192,59418,1,2,0:0:0:0:
64,192,59718,1,2,0:0:0:0:
448,192,60018,1,2,0:0:0:0:
320,192,60018,1,0,0:0:0:0:
192,192,60318,1,2,0:0:0:0:
64,192,60618,1,2,0:0:0:0:
448,192,60618,1,0,0:0:0:0:
320,192,60918,1,2,0:0:0:0:
64,192,61218,1,2,0:0:0:0:
320,192,61368,1,2,0:0:0:0:
192,192,61518,1,2,0:0:0:0:
448,192,61668,1,2,0:0:0:0:
64,192,61818,1,2,0:0:0:0:
320,192,61968,1,2,0:0:0:0:
192,192,62118,1,2,0:0:0:0:
448,192,62268,1,2,0:0:0:0:
64,192,62418,1,2,0:0:0:0:
320,192,62418,1,0,0:0:0:0:
192,192,62718,1,2,0:0:0:0:
448,192,63018,1,2,0:0:0:0:
320,192,63018,1,0,0:0:0:0:
64,192,63318,1,2,0:0:0:0:
320,192,63618,1,2,0:0:0:0:
192,192,63618,1,0,0:0:0:0:
448,192,63918,1,2,0:0:0:0:
192,192,64218,1,0,0:0:0:0:
64,192,64218,1,2,0:0:0:0:
320,192,64518,1,2,0:0:0:0:
448,192,64818,1,2,0:0:0:0:
192,192,64818,1,0,0:0:0:0:
64,192,65118,1,2,0:0:0:0:
320,192,65418,1,2,0:0:0:0:
448,192,65418,1,0,0:0:0:0:
192,192,65718,1,2,0:0:0:0:
64,192,66018,1,2,0:0:0:0:
448,192,66018,1,0,0:0:0:0:
320,192,66318,1,2,0:0:0:0:
64,192,66618,1,2,0:0:0:0:
320,192,66768,1,2,0:0:0:0:
192,192,66918,1,2,0:0:0:0:
448,192,67068,1,2,0:0:0:0:
64,192,67218,1,4,0:0:0:0:
320,192,67218,1,2,0:0:0:0:
192,192,67518,1,2,0:0:0:0:
320,192,67818,1,2,0:0:0:0:
448,192,67818,1,0,0:0:0:0:
64,192,68118,1,2,0:0:0:0:
192,192,68418,1,0,0:0:0:0:
448,192,68418,1,2,0:0:0:0:
320,192,68718,1,2,0:0:0:0:
192,192,69018,1,0,0:0:0:0:
64,192,69018,1,2,0:0:0:0:
320,192,69318,1,2,0:0:0:0:
448,192,69618,1,2,0:0:0:0:
64,192,69618,1,0,0:0:0:0:
192,192,69918,1,2,0:0:0:0:
320,192,70218,1,2,0:0:0:0:
448,192,70218,1,0,0:0:0:0:
64,192,70518,1,2,0:0:0:0:
192,192,70818,1,2,0:0:0:0:
320,192,70818,1,0,0:0:0:0:
448,192,71118,1,2,0:0:0:0:
64,192,71418,1,2,0:0:0:0:
192,192,71418,1,0,0:0:0:0:
320,192,71718,1,2,0:0:0:0:
192,192,72018,1,2,0:0:0:0:
448,192,72018,1,4,0:0:0:0:
64,192,72318,1,2,0:0:0:0:
448,192,72618,1,2,0:0:0:0:
320,192,72618,1,0,0:0:0:0:
192,192,72918,1,2,0:0:0:0:
448,192,73218,1,2,0:0:0:0:
64,192,73218,1,0,0:0:0:0:
320,192,73518,1,2,0:0:0:0:
448,192,73818,1,0,0:0:0:0:
192,192,73818,1,2,0:0:0:0:
64,192,74118,1,2,0:0:0:0:
448,192,74418,1,2,0:0:0:0:
320,192,74568,1,2,0:0:0:0:
64,192,74868,1,2,0:0:0:0:
320,192,75168,1,2,0:0:0:0:
192,192,75468,1,2,0:0:0:0:
64,192,75768,128,2,76518:0:0:0:0:
448,192,75918,1,2,0:0:0:0:
192,192,76218,1,2,0:0:0:0:
320,192,76518,1,2,0:0:0:0:
192,192,76668,1,0,0:0:0:0:
320,192,76818,1,0,0:0:0:0:
448,192,77118,128,4,78018:1:0:0:0:
192,192,78018,1,2,0:0:0:0:
320,192,78318,1,8,0:0:0:0:
448,192,78318,1,2,0:0:0:0:
64,192,78468,1,0,0:0:0:0:
192,192,78768,1,2,0:0:0:0:
320,192,78918,1,8,0:0:0:0:
64,192,78918,1,2,0:0:0:0:
192,192,79218,1,2,0:0:0:0:
64,192,79518,1,8,0:0:0:0:
448,192,79518,1,2,0:0:0:0:
192,192,79668,1,8,0:0:0:0:
320,192,79668,1,2,0:0:0:0:
448,192,79818,1,0,0:0:0:0:
64,192,80118,128,8,80418:1:0:0:0:
320,192,80418,1,2,0:0:0:0:
64,192,80718,1,8,0:0:0:0:
448,192,80718,1,2,0:0:0:0:
192,192,80868,1,0,0:0:0:0:
448,192,81168,1,2,0:0:0:0:
64,192,81318,1,8,0:0:0:0:
320,192,81318,1,2,0:0:0:0:
192,192,81618,1,2,0:0:0:0:
448,192,81918,1,2,0:0:0:0:
64,192,81918,1,8,0:0:0:0:
320,192,82218,1,0,0:0:0:0:
448,192,82368,1,2,0:0:0:0:
192,192,82518,1,2,0:0:0:0:
64,192,82518,1,8,0:0:0:0:
448,192,82818,128,2,83118:0:0:0:0:
64,192,83118,1,2,0:0:0:0:
192,192,83118,1,8,0:0:0:0:
320,192,83268,1,8,0:0:0:0:
448,192,83268,1,2,0:0:0:0:
64,192,83568,1,2,0:0:0:0:
320,192,83718,1,8,0:0:0:0:
448,192,83718,1,2,0:0:0:0:
64,192,83868,1,8,0:0:0:0:
192,192,83868,1,2,0:0:0:0:
448,192,84018,1,2,0:0:0:0:
64,192,84318,1,2,0:0:0:0:
320,192,84318,1,8,0:0:0:0:
192,192,84618,1,0,0:0:0:0:
320,192,84768,1,2,0:0:0:0:
64,192,84918,1,8,0:0:0:0:
448,192,84918,1,2,0:0:0:0:
192,192,85218,1,2,0:0:0:0:
64,192,85518,1,2,0:0:0:0:
320,192,85518,1,8,0:0:0:0:
64,192,85818,1,8,0:0:0:0:
448,192,85818,1,2,0:0:0:0:
320,192,86118,1,2,0:0:0:0:
192,192,86118,1,8,0:0:0:0:
448,192,86418,1,2,0:0:0:0:
64,192,86718,1,2,0:0:0:0:
320,192,86718,1,8,0:0:0:0:
192,192,87018,1,0,0:0:0:0:
64,192,87168,1,2,0:0:0:0:
448,192,87318,1,8,0:0:0:0:
192,192,87318,1,2,0:0:0:0:
320,192,87618,1,2,0:0:0:0:
64,192,87918,1,2,0:0:0:0:
192,192,87918,1,8,0:0:0:0:
320,192,88368,1,2,0:0:0:0:
448,192,88518,1,8,0:0:0:0:
64,192,88518,1,2,0:0:0:0:
192,192,88818,1,2,0:0:0:0:
448,192,89118,1,2,0:0:0:0:
64,192,89118,1,8,0:0:0:0:
192,192,89268,1,8,0:0:0:0:
320,192,89268,1,2,0:0:0:0:
64,192,89418,1,0,0:0:0:0:
448,192,89718,128,8,90018:1:0:0:0:
64,192,90018,1,2,0:0:0:0:
448,192,90318,1,8,0:0:0:0:
192,192,90318,1,2,0:0:0:0:
320,192,90768,1,2,0:0:0:0:
192,192,90918,1,2,0:0:0:0:
64,192,90918,1,8,0:0:0:0:
320,192,91218,1,2,0:0:0:0:
448,192,91518,1,8,0:0:0:0:
192,192,91518,1,2,0:0:0:0:
320,192,91818,1,0,0:0:0:0:
192,192,91968,1,2,0:0:0:0:
320,192,92118,1,8,0:0:0:0:
64,192,92118,1,2,0:0:0:0:
192,192,92418,1,2,0:0:0:0:
448,192,92718,1,2,0:0:0:0:
64,192,92718,1,8,0:0:0:0:
320,192,93018,1,0,0:0:0:0:
448,192,93168,1,2,0:0:0:0:
320,192,93318,1,2,0:0:0:0:
192,192,93318,1,8,0:0:0:0:
64,192,93618,1,2,0:0:0:0:
448,192,93918,1,8,0:0:0:0:
192,192,93918,1,2,0:0:0:0:
320,192,94218,1,0,0:0:0:0:
192,192,94368,1,2,0:0:0:0:
64,192,94518,1,2,0:0:0:0:
320,192,94518,1,8,0:0:0:0:
448,192,94818,1,2,0:0:0:0:
64,192,95118,1,8,0:0:0:0:
192,192,95118,1,2,0:0:0:0:
320,192,95568,1,2,0:0:0:0:
448,192,95718,1,2,0:0:0:0:
64,192,95718,1,8,0:0:0:0:
192,192,96018,1,2,0:0:0:0:
448,192,96318,1,2,0:0:0:0:
320,192,96318,1,8,0:0:0:0:
192,192,96618,1,0,0:0:0:0:
448,192,96768,1,2,0:0:0:0:
320,192,96918,1,2,0:0:0:0:
64,192,96918,1,4,0:0:0:0:
448,192,97218,1,4,0:0:0:0:
192,192,97218,1,2,0:0:0:0:
320,192,97518,1,2,0:0:0:0:
448,192,97518,1,4,0:0:0:0:
192,192,97668,1,4,0:0:0:0:
64,192,97668,1,2,0:0:0:0:
64,192,98268,1,2,0:0:0:0:
320,192,98268,1,4,0:0:0:0:
448,192,98418,1,4,0:0:0:0:
192,192,98418,1,2,0:0:0:0:
320,192,98718,1,0,0:0:0:0:
64,192,98868,1,2,0:0:0:0:
448,192,98868,1,4,0:0:0:0:
64,192,99168,1,2,0:0:0:0:
192,192,99168,1,4,0:0:0:0:
320,192,99318,1,2,0:0:0:0:
448,192,99618,1,2,0:0:0:0:
192,192,99768,1,0,0:0:0:0:
320,192,99918,1,0,0:0:0:0:
64,192,100068,1,0,0:0:0:0:
448,192,100218,1,0,0:0:0:0:
192,192,100368,1,0,0:0:0:0:
320,192,100518,1,0,0:0:0:0:
64,192,100668,1,0,0:0:0:0:
448,192,100818,128,2,101418:0:0:0:0:
320,192,100818,1,4,0:0:0:0:
192,192,101118,1,2,0:0:0:0:
64,192,101418,128,8,101718:1:0:0:0:
192,192,101718,128,0,102018:0:0:0:0:
64,192,102018,1,4,0:0:0:0:
320,192,102018,1,2,0:0:0:0:
448,192,102168,1,0,0:0:0:0:
192,192,102318,1,10,0:0:0:0:
320,192,102468,1,0,0:0:0:0:
192,192,102618,1,2,0:0:0:0:
64,192,102768,1,0,0:0:0:0:
320,192,102918,1,10,0:0:0:0:
192,192,103068,1,0,0:0:0:0:
320,192,103218,1,2,0:0:0:0:
448,192,103368,1,0,0:0:0:0:
192,192,103518,1,10,0:0:0:0:
320,192,103668,1,0,0:0:0:0:
64,192,103818,1,2,0:0:0:0:
192,192,103968,1,0,0:0:0:0:
448,192,104118,1,10,0:0:0:0:
192,192,104268,1,0,0:0:0:0:
64,192,104418,1,2,0:0:0:0:
448,192,104568,1,0,0:0:0:0:
192,192,104718,1,10,0:0:0:0:
320,192,104868,1,0,0:0:0:0:
192,192,105018,1,2,0:0:0:0:
64,192,105168,1,0,0:0:0:0:
448,192,105318,1,10,0:0:0:0:
192,192,105468,1,0,0:0:0:0:
320,192,105618,1,2,0:0:0:0:
448,192,105768,1,0,0:0:0:0:
64,192,105918,1,10,0:0:0:0:
320,192,106068,1,0,0:0:0:0:
448,192,106218,1,2,0:0:0:0:
64,192,106368,1,0,0:0:0:0:
320,192,106518,1,10,0:0:0:0:
192,192,106668,1,0,0:0:0:0:
448,192,106818,1,2,0:0:0:0:
320,192,106968,1,0,0:0:0:0:
64,192,107118,1,10,0:0:0:0:
320,192,107268,1,0,0:0:0:0:
448,192,107418,1,2,0:0:0:0:
192,192,107568,1,0,0:0:0:0:
320,192,107718,1,10,0:0:0:0:
192,192,107868,1,0,0:0:0:0:
64,192,108018,1,2,0:0:0:0:
448,192,108168,1,0,0:0:0:0:
320,192,108318,1,10,0:0:0:0:
192,192,108468,1,0,0:0:0:0:
448,192,108618,1,2,0:0:0:0:
192,192,108768,1,0,0:0:0:0:
64,192,108918,1,10,0:0:0:0:
320,192,109068,1,0,0:0:0:0:
192,192,109218,1,2,0:0:0:0:
320,192,109368,1,0,0:0:0:0:
448,192,109518,1,10,0:0:0:0:
64,192,109668,1,0,0:0:0:0:
192,192,109818,1,2,0:0:0:0:
320,192,109968,1,0,0:0:0:0:
192,192,110118,1,10,0:0:0:0:
448,192,110268,1,0,0:0:0:0:
320,192,110418,1,2,0:0:0:0:
64,192,110568,1,0,0:0:0:0:
448,192,110718,1,10,0:0:0:0:
192,192,110868,1,0,0:0:0:0:
64,192,111018,1,2,0:0:0:0:
320,192,111168,1,0,0:0:0:0:
192,192,111318,1,10,0:0:0:0:
448,192,111468,1,0,0:0:0:0:
64,192,111618,1,2,0:0:0:0:
320,192,111768,1,0,0:0:0:0:
192,192,111918,1,10,0:0:0:0:
64,192,112068,1,0,0:0:0:0:
320,192,112218,1,2,0:0:0:0:
192,192,112368,1,0,0:0:0:0:
320,192,112518,1,10,0:0:0:0:
448,192,112668,1,0,0:0:0:0:
64,192,112818,1,2,0:0:0:0:
320,192,112968,1,0,0:0:0:0:
448,192,113118,1,10,0:0:0:0:
64,192,113268,1,0,0:0:0:0:
320,192,113418,1,2,0:0:0:0:
192,192,113568,1,0,0:0:0:0:
64,192,113718,1,10,0:0:0:0:
320,192,113868,1,0,0:0:0:0:
192,192,114018,1,2,0:0:0:0:
448,192,114168,1,0,0:0:0:0:
320,192,114318,1,10,0:0:0:0:
192,192,114468,1,0,0:0:0:0:
320,192,114618,1,2,0:0:0:0:
192,192,114768,1,0,0:0:0:0:
64,192,114918,1,10,0:0:0:0:
448,192,115068,1,0,0:0:0:0:
192,192,115218,1,2,0:0:0:0:
320,192,115368,1,0,0:0:0:0:
64,192,115518,1,10,0:0:0:0:
192,192,115668,1,0,0:0:0:0:
320,192,115818,1,2,0:0:0:0:
192,192,115968,1,0,0:0:0:0:
320,192,116118,1,10,0:0:0:0:
448,192,116268,1,0,0:0:0:0:
192,192,116418,1,2,0:0:0:0:
320,192,116568,1,0,0:0:0:0:
64,192,116718,1,10,0:0:0:0:
320,192,116868,1,0,0:0:0:0:
192,192,117018,1,2,0:0:0:0:
448,192,117168,1,0,0:0:0:0:
320,192,117318,1,10,0:0:0:0:
64,192,117468,1,0,0:0:0:0:
192,192,117618,1,2,0:0:0:0:
320,192,117768,1,0,0:0:0:0:
448,192,117918,1,10,0:0:0:0:
192,192,118068,1,0,0:0:0:0:
320,192,118218,1,2,0:0:0:0:
192,192,118368,1,0,0:0:0:0:
64,192,118518,1,10,0:0:0:0:
448,192,118668,1,0,0:0:0:0:
64,192,118818,1,2,0:0:0:0:
320,192,118968,1,0,0:0:0:0:
448,192,119118,1,10,0:0:0:0:
320,192,119268,1,0,0:0:0:0:
64,192,119418,1,2,0:0:0:0:
320,192,119568,1,0,0:0:0:0:
448,192,119718,1,10,0:0:0:0:
192,192,119868,1,0,0:0:0:0:
320,192,120018,1,2,0:0:0:0:
64,192,120168,1,0,0:0:0:0:
192,192,120318,1,10,0:0:0:0:
320,192,120468,1,0,0:0:0:0:
192,192,120618,1,2,0:0:0:0:
448,192,120768,1,0,0:0:0:0:
320,192,120918,1,10,0:0:0:0:
64,192,121068,1,0,0:0:0:0:
448,192,121218,1,4,0:0:0:0:
320,192,121218,1,2,0:0:0:0:
64,192,121518,1,4,0:0:0:0:
192,192,121518,1,2,0:0:0:0:
320,192,121668,1,4,0:0:0:0:
448,192,121668,1,2,0:0:0:0:
192,192,122118,1,2,0:0:0:0:
320,192,122418,1,2,0:0:0:0:
64,192,123018,128,8,123318:1:0:0:0:
192,192,123318,128,2,123618:0:0:0:0:
320,192,123618,1,4,0:0:0:0:
448,192,123618,1,2,0:0:0:0:
64,192,123768,1,0,0:0:0:0:
448,192,123918,1,2,0:0:0:0:
320,192,124068,1,0,0:0:0:0:
192,192,124218,1,2,0:0:0:0:
64,192,124368,1,0,0:0:0:0:
320,192,124518,1,2,0:0:0:0:
448,192,124668,1,0,0:0:0:0:
192,192,124818,1,2,0:0:0:0:
64,192,124968,1,0,0:0:0:0:
320,192,125118,1,2,0:0:0:0:
192,192,125268,1,0,0:0:0:0:
448,192,125418,128,2,126018:0:0:0:0:
192,192,125718,1,0,0:0:0:0:
320,192,126018,1,2,0:0:0:0:
192,192,126168,1,0,0:0:0:0:
448,192,126318,1,2,0:0:0:0:
64,192,126468,1,0,0:0:0:0:
320,192,126618,1,2,0:0:0:0:
448,192,126768,1,0,0:0:0:0:
192,192,126918,1,2,0:0:0:0:
320,192,127068,1,0,0:0:0:0:
64,192,127218,1,4,0:0:0:0:
448,192,127218,1,2,0:0:0:0:
192,192,127368,1,0,0:0:0:0:
320,192,127518,1,10,0:0:0:0:
64,192,127668,128,0,128418:0:0:0:0:
448,192,127818,1,0,0:0:0:0:
320,192,128118,1,10,0:0:0:0:
192,192,128418,1,2,0:0:0:0:
320,192,128568,1,0,0:0:0:0:
448,192,128718,1,2,0:0:0:0:
192,192,128868,1,0,0:0:0:0:
64,192,129018,1,2,0:0:0:0:
448,192,129168,1,0,0:0:0:0:
320,192,129318,1,2,0:0:0:0:
64,192,129468,1,0,0:0:0:0:
192,192,129618,1,2,0:0:0:0:
320,192,129768,1,0,0:0:0:0:
64,192,129918,1,2,0:0:0:0:
192,192,130068,1,0,0:0:0:0:
448,192,130218,128,2,130818:0:0:0:0:
320,192,130518,1,2,0:0:0:0:
64,192,130818,1,2,0:0:0:0:
192,192,130968,1,0,0:0:0:0:
448,192,131118,1,2,0:0:0:0:
320,192,131268,1,0,0:0:0:0:
64,192,131418,1,2,0:0:0:0:
448,192,131568,1,0,0:0:0:0:
192,192,131718,1,2,0:0:0:0:
64,192,131868,1,0,0:0:0:0:
320,192,132018,1,4,0:0:0:0:
448,192,132018,1,2,0:0:0:0:
192,192,132318,1,2,0:0:0:0:
64,192,132318,1,0,0:0:0:0:
320,192,132618,1,2,0:0:0:0:
448,192,132618,1,0,0:0:0:0:
192,192,132918,1,2,0:0:0:0:
64,192,132918,1,0,0:0:0:0:
448,192,133218,1,2,0:0:0:0:
320,192,133218,1,4,0:0:0:0:
192,192,133368,1,0,0:0:0:0:
320,192,133818,1,2,0:0:0:0:
448,192,133968,1,0,0:0:0:0:
64,192,134418,1,2,0:0:0:0:
192,192,134568,1,0,0:0:0:0:
448,192,135018,128,2,135618:0:0:0:0:
192,192,135318,1,0,0:0:0:0:
320,192,135618,1,2,0:0:0:0:
64,192,135918,128,8,136218:1:0:0:0:
320,192,136218,1,2,0:0:0:0:
448,192,136518,128,8,136818:1:0:0:0:
64,192,136818,1,2,0:0:0:0:
192,192,137118,128,8,137418:1:0:0:0:
320,192,137418,1,8,0:0:0:0:
448,192,137418,1,0,0:0:0:0:
64,192,137568,1,2,0:0:0:0:
320,192,137718,128,8,138018:0:0:0:0:
448,192,138018,1,4,0:0:0:0:
192,192,138018,1,2,0:0:0:0:
64,192,138168,1,0,0:0:0:0:
320,192,138318,1,2,0:0:0:0:
192,192,138468,1,0,0:0:0:0:
448,192,138618,1,2,0:0:0:0:
64,192,138768,1,0,0:0:0:0:
320,192,138918,1,2,0:0:0:0:
448,192,139068,1,0,0:0:0:0:
64,192,139218,1,2,0:0:0:0:
192,192,139368,1,0,0:0:0:0:
448,192,139518,1,2,0:0:0:0:
320,192,139668,1,0,0:0:0:0:
64,192,139818,128,2,140418:0:0:0:0:
320,192,140118,1,2,0:0:0:0:
192,192,140418,1,2,0:0:0:0:
320,192,140568,1,0,0:0:0:0:
448,192,140718,1,2,0:0:0:0:
192,192,140868,1,0,0:0:0:0:
64,192,141018,1,2,0:0:0:0:
448,192,141168,1,0,0:0:0:0:
320,192,141318,1,2,0:0:0:0:
192,192,141468,1,0,0:0:0:0:
64,192,141618,128,2,142518:0:0:0:0:
192,192,141918,1,2,0:0:0:0:
320,192,142218,1,2,0:0:0:0:
448,192,142518,128,2,142818:0:0:0:0:
64,192,142818,1,2,0:0:0:0:
320,192,143118,1,10,0:0:0:0:
192,192,143418,1,2,0:0:0:0:
448,192,143718,1,10,0:0:0:0:
64,192,144018,1,2,0:0:0:0:
192,192,144168,1,0,0:0:0:0:
448,192,144318,1,10,0:0:0:0:
320,192,144468,1,0,0:0:0:0:
192,192,144618,1,2,0:0:0:0:
64,192,144768,1,0,0:0:0:0:
448,192,144918,1,10,0:0:0:0:
320,192,145068,1,0,0:0:0:0:
192,192,145218,1,2,0:0:0:0:
448,192,145518,1,10,0:0:0:0:
64,192,145818,1,2,0:0:0:0:
320,192,146118,1,10,0:0:0:0:
192,192,146418,1,2,0:0:0:0:
320,192,146568,1,0,0:0:0:0:
448,192,146718,1,10,0:0:0:0:
192,192,146868,1,0,0:0:0:0:
64,192,147018,1,2,0:0:0:0:
320,192,147168,1,0,0:0:0:0:
448,192,147318,1,10,0:0:0:0:
192,192,147468,1,0,0:0:0:0:
320,192,147618,1,2,0:0:0:0:
64,192,147918,1,10,0:0:0:0:
448,192,148218,1,2,0:0:0:0:
192,192,148518,1,10,0:0:0:0:
320,192,148818,1,2,0:0:0:0:
448,192,148968,1,0,0:0:0:0:
192,192,149118,1,10,0:0:0:0:
320,192,149268,1,0,0:0:0:0:
64,192,149418,1,2,0:0:0:0:
192,192,149568,1,0,0:0:0:0:
448,192,149718,1,10,0:0:0:0:
320,192,149868,1,0,0:0:0:0:
192,192,150018,1,2,0:0:0:0:
448,192,150318,1,10,0:0:0:0:
64,192,150618,1,2,0:0:0:0:
320,192,150918,1,10,0:0:0:0:
192,192,151218,1,2,0:0:0:0:
448,192,151518,1,10,0:0:0:0:
320,192,151818,1,2,0:0:0:0:
192,192,152118,1,10,0:0:0:0:
64,192,152418,1,4,0:0:0:0:
448,192,152418,1,2,0:0:0:0:
320,192,152718,1,10,0:0:0:0:
448,192,153018,1,2,0:0:0:0:
192,192,153318,1,10,0:0:0:0:
320,192,153618,1,2,0:0:0:0:
64,192,153918,1,10,0:0:0:0:
192,192,154218,1,2,0:0:0:0:
320,192,154518,1,10,0:0:0:0:
448,192,154818,1,2,0:0:0:0:
320,192,155118,1,10,0:0:0:0:
192,192,155418,1,2,0:0:0:0:
64,192,155718,1,10,0:0:0:0:
448,192,156018,1,2,0:0:0:0:
320,192,156318,1,10,0:0:0:0:
192,192,156618,1,2,0:0:0:0:
320,192,156918,1,10,0:0:0:0:
64,192,157218,1,2,0:0:0:0:
192,192,157518,1,10,0:0:0:0:
320,192,157818,1,2,0:0:0:0:
192,192,158118,1,10,0:0:0:0:
448,192,158418,1,2,0:0:0:0:
320,192,158718,1,10,0:0:0:0:
192,192,159018,1,2,0:0:0:0:
448,192,159318,1,10,0:0:0:0:
320,192,159618,1,2,0:0:0:0:
64,192,159918,1,10,0:0:0:0:
192,192,160218,1,2,0:0:0:0:
320,192,160518,1,10,0:0:0:0:
448,192,160818,1,2,0:0:0:0:
192,192,161118,1,10,0:0:0:0:
320,192,161418,1,2,0:0:0:0:
64,192,161718,1,10,0:0:0:0:
320,192,162018,1,2,0:0:0:0:
448,192,162168,1,0,0:0:0:0:
192,192,162318,128,0,162618:0:0:0:0:
64,192,162618,1,0,0:0:0:0:
320,192,162768,1,8,0:0:0:0:
448,192,162918,1,0,0:0:0:0:
192,192,163068,1,0,0:0:0:0:
320,192,163218,1,2,0:0:0:0:
64,192,163368,1,0,0:0:0:0:
192,192,163518,1,8,0:0:0:0:
320,192,163668,1,0,0:0:0:0:
448,192,163818,1,0,0:0:0:0:
192,192,163968,1,8,0:0:0:0:
320,192,164118,1,0,0:0:0:0:
64,192,164268,1,0,0:0:0:0:
192,192,164418,1,2,0:0:0:0:
448,192,164568,1,0,0:0:0:0:
320,192,164718,1,8,0:0:0:0:
192,192,164868,1,0,0:0:0:0:
320,192,165018,1,0,0:0:0:0:
64,192,165168,1,8,0:0:0:0:
192,192,165318,1,0,0:0:0:0:
448,192,165468,1,0,0:0:0:0:
320,192,165618,1,2,0:0:0:0:
192,192,165768,1,0,0:0:0:0:
320,192,165918,1,2,0:0:0:0:
64,192,166068,1,0,0:0:0:0:
320,192,166218,1,2,0:0:0:0:
192,192,166368,1,0,0:0:0:0:
448,192,166818,1,4,0:0:0:0:
64,192,166818,1,2,0:0:0:0:
320,192,167118,1,0,0:0:0:0:
192,192,167268,1,2,0:0:0:0:
448,192,167568,1,0,0:0:0:0:
320,192,167718,1,2,0:0:0:0:
64,192,168018,1,2,0:0:0:0:
320,192,168318,1,2,0:0:0:0:
448,192,168468,1,0,0:0:0:0:
192,192,168618,1,2,0:0:0:0:
64,192,168768,1,0,0:0:0:0:
448,192,168918,1,2,0:0:0:0:
192,192,169218,1,2,0:0:0:0:
320,192,169518,1,0,0:0:0:0:
192,192,169668,1,2,0:0:0:0:
64,192,169968,1,0,0:0:0:0:
192,192,170118,1,2,0:0:0:0:
448,192,170418,1,2,0:0:0:0:
192,192,170568,1,2,0:0:0:0:
320,192,170718,1,2,0:0:0:0:
64,192,170868,1,2,0:0:0:0:
448,192,171018,1,2,0:0:0:0:
192,192,171168,1,2,0:0:0:0:
64,192,171318,128,2,171618:0:0:0:0:
448,192,171618,1,4,0:0:0:0:
320,192,171618,1,2,0:0:0:0:
192,192,171768,1,0,0:0:0:0:
64,192,171918,1,10,0:0:0:0:
448,192,172068,1,0,0:0:0:0:
192,192,172218,1,2,0:0:0:0:
320,192,172368,1,0,0:0:0:0:
64,192,172518,1,10,0:0:0:0:
192,192,172668,1,0,0:0:0:0:
320,192,172818,1,2,0:0:0:0:
192,192,172968,1,0,0:0:0:0:
320,192,173118,1,10,0:0:0:0:
448,192,173268,1,0,0:0:0:0:
64,192,173418,1,2,0:0:0:0:
320,192,173568,1,0,0:0:0:0:
448,192,173718,1,10,0:0:0:0:
192,192,173868,1,0,0:0:0:0:
320,192,174018,1,2,0:0:0:0:
192,192,174168,1,0,0:0:0:0:
64,192,174318,1,10,0:0:0:0:
448,192,174468,1,0,0:0:0:0:
320,192,174618,1,2,0:0:0:0:
192,192,174768,1,0,0:0:0:0:
320,192,174918,1,10,0:0:0:0:
192,192,175068,1,0,0:0:0:0:
64,192,175218,1,2,0:0:0:0:
448,192,175368,1,0,0:0:0:0:
192,192,175518,1,10,0:0:0:0:
320,192,175668,1,0,0:0:0:0:
448,192,175818,1,2,0:0:0:0:
192,192,175968,1,0,0:0:0:0:
320,192,176118,1,10,0:0:0:0:
64,192,176268,1,0,0:0:0:0:
320,192,176418,1,2,0:0:0:0:
448,192,176568,1,0,0:0:0:0:
64,192,176718,1,10,0:0:0:0:
448,192,176868,1,0,0:0:0:0:
192,192,177018,1,2,0:0:0:0:
64,192,177168,1,0,0:0:0:0:
448,192,177318,1,10,0:0:0:0:
320,192,177468,1,0,0:0:0:0:
64,192,177618,1,2,0:0:0:0:
448,192,177768,1,0,0:0:0:0:
192,192,177918,1,10,0:0:0:0:
320,192,178068,1,0,0:0:0:0:
64,192,178218,1,2,0:0:0:0:
192,192,178368,1,0,0:0:0:0:
64,192,178518,1,10,0:0:0:0:
448,192,178668,1,0,0:0:0:0:
192,192,178818,1,2,0:0:0:0:
320,192,178968,1,0,0:0:0:0:
448,192,179118,1,10,0:0:0:0:
64,192,179268,1,0,0:0:0:0:
320,192,179418,1,2,0:0:0:0:
192,192,179568,1,0,0:0:0:0:
64,192,179718,1,10,0:0:0:0:
448,192,179868,1,0,0:0:0:0:
192,192,180018,1,2,0:0:0:0:
64,192,180168,1,0,0:0:0:0:
320,192,180318,1,10,0:0:0:0:
192,192,180468,1,0,0:0:0:0:
64,192,180618,1,2,0:0:0:0:
320,192,180768,1,0,0:0:0:0:
192,192,180918,1,10,0:0:0:0:
320,192,181068,1,0,0:0:0:0:
448,192,181218,1,2,0:0:0:0:
192,192,181368,1,0,0:0:0:0:
320,192,181518,1,8,0:0:0:0:
192,192,181668,1,0,0:0:0:0:
64,192,181818,1,2,0:0:0:0:
448,192,181968,1,0,0:0:0:0:
64,192,182118,1,8,0:0:0:0:
320,192,182268,1,0,0:0:0:0:
448,192,182418,1,2,0:0:0:0:
64,192,182568,1,0,0:0:0:0:
192,192,182718,1,8,0:0:0:0:
320,192,182868,1,0,0:0:0:0:
64,192,183018,1,2,0:0:0:0:
320,192,183168,1,0,0:0:0:0:
192,192,183318,1,8,0:0:0:0:
448,192,183468,1,0,0:0:0:0:
320,192,183618,1,2,0:0:0:0:
192,192,183768,1,0,0:0:0:0:
320,192,183918,1,8,0:0:0:0:
192,192,184068,1,0,0:0:0:0:
64,192,184218,1,2,0:0:0:0:
448,192,184368,1,0,0:0:0:0:
192,192,184518,1,8,0:0:0:0:
320,192,184668,1,0,0:0:0:0:
448,192,184818,1,2,0:0:0:0:
192,192,184968,1,0,0:0:0:0:
320,192,185118,1,8,0:0:0:0:
192,192,185268,1,0,0:0:0:0:
64,192,185418,128,8,185718:1:0:0:0:
320,192,185718,1,2,0:0:0:0:
192,192,185868,1,0,0:0:0:0:
320,192,186018,1,2,0:0:0:0:
448,192,186018,1,4,0:0:0:0:
64,192,186318,128,0,186618:0:0:0:0:
192,192,186618,1,2,0:0:0:0:
320,192,186918,128,0,187218:0:0:0:0:
448,192,187218,1,2,0:0:0:0:
64,192,187518,128,0,187818:0:0:0:0:
320,192,187818,1,2,0:0:0:0:
192,192,188118,1,2,0:0:0:0:
64,192,188418,1,2,0:0:0:0:
448,192,188718,128,0,189018:0:0:0:0:
64,192,189018,1,2,0:0:0:0:
192,192,189318,128,0,189618:0:0:0:0:
320,192,189618,1,2,0:0:0:0:
64,192,189918,128,0,190218:0:0:0:0:
448,192,190218,1,2,0:0:0:0:
192,192,190518,128,0,190818:0:0:0:0:
320,192,190818,1,2,0:0:0:0:
64,192,190818,1,4,0:0:0:0:
448,192,191118,128,0,191418:0:0:0:0:
192,192,191418,1,2,0:0:0:0:
64,192,191718,128,0,192018:0:0:0:0:
320,192,192018,1,2,0:0:0:0:
192,192,192318,1,2,0:0:0:0:
320,192,192618,1,2,0:0:0:0:
448,192,192918,128,0,193218:0:0:0:0:
64,192,193218,1,2,0:0:0:0:
192,192,193518,128,0,193818:0:0:0:0:
320,192,193818,1,2,0:0:0:0:
64,192,194118,128,0,194418:0:0:0:0:
192,192,194418,1,2,0:0:0:0:
320,192,194868,1,2,0:0:0:0:
448,192,195018,1,8,0:0:0:0:
64,192,195018,1,2,0:0:0:0:
192,192,195168,1,2,0:0:0:0:
448,192,195618,1,2,0:0:0:0:
64,192,195618,1,4,0:0:0:0:
320,192,195768,1,0,0:0:0:0:
192,192,195918,1,10,0:0:0:0:
320,192,196068,1,0,0:0:0:0:
192,192,196218,1,2,0:0:0:0:
64,192,196368,1,0,0:0:0:0:
448,192,196518,1,10,0:0:0:0:
320,192,196668,1,0,0:0:0:0:
192,192,196818,1,2,0:0:0:0:
448,192,196968,1,0,0:0:0:0:
192,192,197118,1,10,0:0:0:0:
64,192,197268,1,0,0:0:0:0:
320,192,197418,1,2,0:0:0:0:
192,192,197568,1,0,0:0:0:0:
64,192,197718,1,10,0:0:0:0:
448,192,197868,1,0,0:0:0:0:
192,192,198018,1,2,0:0:0:0:
320,192,198168,1,0,0:0:0:0:
448,192,198318,1,10,0:0:0:0:
64,192,198468,1,0,0:0:0:0:
320,192,198618,1,2,0:0:0:0:
192,192,198768,1,0,0:0:0:0:
320,192,198918,1,10,0:0:0:0:
448,192,199068,1,0,0:0:0:0:
64,192,199218,1,2,0:0:0:0:
320,192,199368,1,0,0:0:0:0:
192,192,199518,1,10,0:0:0:0:
448,192,199668,1,0,0:0:0:0:
320,192,199818,1,2,0:0:0:0:
192,192,199968,1,0,0:0:0:0:
64,192,200118,1,10,0:0:0:0:
448,192,200268,1,0,0:0:0:0:
192,192,200418,1,4,0:0:0:0:
320,192,200418,1,2,0:0:0:0:
64,192,200568,1,0,0:0:0:0:
448,192,200718,1,10,0:0:0:0:
192,192,200868,1,0,0:0:0:0:
320,192,201018,1,2,0:0:0:0:
64,192,201168,1,0,0:0:0:0:
320,192,201318,1,10,0:0:0:0:
448,192,201468,1,0,0:0:0:0:
64,192,201618,1,2,0:0:0:0:
192,192,201768,1,0,0:0:0:0:
320,192,201918,1,10,0:0:0:0:
64,192,202068,1,0,0:0:0:0:
192,192,202218,1,2,0:0:0:0:
448,192,202368,1,0,0:0:0:0:
64,192,202518,1,10,0:0:0:0:
320,192,202668,1,0,0:0:0:0:
448,192,202818,1,2,0:0:0:0:
192,192,202968,1,0,0:0:0:0:
320,192,203118,1,10,0:0:0:0:
192,192,203268,1,0,0:0:0:0:
64,192,203418,1,2,0:0:0:0:
448,192,203568,1,0,0:0:0:0:
192,192,203718,1,10,0:0:0:0:
320,192,203868,1,0,0:0:0:0:
448,192,204018,1,2,0:0:0:0:
64,192,204168,1,0,0:0:0:0:
320,192,204318,1,10,0:0:0:0:
192,192,204468,1,0,0:0:0:0:
64,192,204618,1,2,0:0:0:0:
448,192,204768,1,0,0:0:0:0:
192,192,204918,1,10,0:0:0:0:
320,192,205068,1,0,0:0:0:0:
192,192,205218,1,4,0:0:0:0:
64,192,205218,1,2,0:0:0:0:
448,192,205518,1,2,0:0:0:0:
320,192,205668,1,2,0:0:0:0:
192,192,205818,1,2,0:0:0:0:
320,192,206118,1,0,0:0:0:0:
192,192,206418,1,0,0:0:0:0:
320,192,206718,1,0,0:0:0:0:
192,192,207018,1,0,0:0:0:0:
320,192,207318,1,0,0:0:0:0:
192,192,207618,1,0,0:0:0:0:
320,192,207918,1,0,0:0:0:0:
192,192,208218,1,0,0:0:0:0:
320,192,208518,1,0,0:0:0:0:
448,192,208818,1,0,0:0:0:0:
192,192,208968,1,0,0:0:0:0:
320,192,209118,1,0,0:0:0:0:
64,192,209268,1,0,0:0:0:0:
448,192,209418,1,0,0:0:0:0:
192,192,209568,1,0,0:0:0:0:
320,192,209718,1,0,0:0:0:0:
64,192,209868,1,0,0:0:0:0:
448,192,210018,1,4,0:0:0:0:
320,192,210018,1,2,0:0:0:0:
192,192,210168,1,0,0:0:0:0:
64,192,210318,1,10,0:0:0:0:
320,192,210468,1,0,0:0:0:0:
448,192,210618,1,2,0:0:0:0:
192,192,210768,1,0,0:0:0:0:
320,192,210918,1,10,0:0:0:0:
192,192,211068,1,0,0:0:0:0:
64,192,211218,1,2,0:0:0:0:
448,192,211368,1,0,0:0:0:0:
320,192,211518,1,10,0:0:0:0:
192,192,211668,1,0,0:0:0:0:
64,192,211818,1,2,0:0:0:0:
320,192,211968,1,0,0:0:0:0:
448,192,212118,1,10,0:0:0:0:
320,192,212268,1,0,0:0:0:0:
192,192,212418,1,2,0:0:0:0:
64,192,212568,1,0,0:0:0:0:
320,192,212718,1,10,0:0:0:0:
448,192,212868,1,0,0:0:0:0:
192,192,213018,1,2,0:0:0:0:
320,192,213168,1,0,0:0:0:0:
64,192,213318,1,10,0:0:0:0:
192,192,213468,1,0,0:0:0:0:
448,192,213618,128,2,214818:0:0:0:0:
320,192,213918,1,10,0:0:0:0:
64,192,214218,1,2,0:0:0:0:
192,192,214518,1,10,0:0:0:0:
320,192,214818,1,2,0:0:0:0:
64,192,214968,1,0,0:0:0:0:
192,192,215118,1,10,0:0:0:0:
448,192,215268,1,0,0:0:0:0:
320,192,215418,1,2,0:0:0:0:
192,192,215568,1,0,0:0:0:0:
64,192,215718,1,10,0:0:0:0:
448,192,215868,1,0,0:0:0:0:
320,192,216018,1,2,0:0:0:0:
192,192,216168,1,0,0:0:0:0:
320,192,216318,1,10,0:0:0:0:
64,192,216468,1,0,0:0:0:0:
192,192,216618,1,2,0:0:0:0:
448,192,216768,1,0,0:0:0:0:
320,192,216918,1,10,0:0:0:0:
64,192,217068,1,0,0:0:0:0:
192,192,217218,1,2,0:0:0:0:
320,192,217368,1,0,0:0:0:0:
192,192,217518,1,10,0:0:0:0:
448,192,217668,1,0,0:0:0:0:
320,192,217818,1,2,0:0:0:0:
192,192,217968,1,0,0:0:0:0:
64,192,218118,1,10,0:0:0:0:
320,192,218268,1,0,0:0:0:0:
448,192,218418,1,2,0:0:0:0:
192,192,218568,1,0,0:0:0:0:
320,192,218718,1,10,0:0:0:0:
64,192,218868,1,0,0:0:0:0:
192,192,219018,1,2,0:0:0:0:
320,192,219318,1,0,0:0:0:0:
448,192,219618,1,2,0:0:0:0:
192,192,219768,1,0,0:0:0:0:
320,192,219918,1,10,0:0:0:0:
64,192,220068,1,0,0:0:0:0:
192,192,220218,1,2,0:0:0:0:
448,192,220368,1,0,0:0:0:0:
320,192,220518,1,10,0:0:0:0:
192,192,220668,1,0,0:0:0:0:
64,192,220818,1,2,0:0:0:0:
320,192,220968,1,0,0:0:0:0:
448,192,221118,1,10,0:0:0:0:
192,192,221268,1,0,0:0:0:0:
320,192,221418,1,2,0:0:0:0:
64,192,221568,1,0,0:0:0:0:
192,192,221718,1,10,0:0:0:0:
448,192,221868,1,0,0:0:0:0:
320,192,222018,1,2,0:0:0:0:
192,192,222168,1,0,0:0:0:0:
320,192,222318,1,10,0:0:0:0:
64,192,222468,1,0,0:0:0:0:
192,192,222618,1,2,0:0:0:0:
320,192,222768,1,0,0:0:0:0:
448,192,222918,1,10,0:0:0:0:
192,192,223068,1,0,0:0:0:0:
64,192,223218,128,2,224418:0:0:0:0:
192,192,223518,1,10,0:0:0:0:
320,192,223818,1,2,0:0:0:0:
448,192,224118,1,10,0:0:0:0:
320,192,224418,1,2,0:0:0:0:
192,192,224568,1,0,0:0:0:0:
448,192,224718,1,10,0:0:0:0:
320,192,224868,1,0,0:0:0:0:
64,192,225018,1,2,0:0:0:0:
192,192,225168,1,0,0:0:0:0:
320,192,225318,1,10,0:0:0:0:
192,192,225468,1,0,0:0:0:0:
64,192,225618,1,2,0:0:0:0:
448,192,225768,1,0,0:0:0:0:
320,192,225918,1,10,0:0:0:0:
192,192,226068,1,0,0:0:0:0:
320,192,226218,1,2,0:0:0:0:
64,192,226368,1,0,0:0:0:0:
192,192,226518,1,10,0:0:0:0:
448,192,226668,1,0,0:0:0:0:
320,192,226818,1,2,0:0:0:0:
64,192,226968,1,0,0:0:0:0:
192,192,227118,1,10,0:0:0:0:
320,192,227268,1,0,0:0:0:0:
192,192,227418,1,2,0:0:0:0:
448,192,227568,1,0,0:0:0:0:
320,192,227718,1,10,0:0:0:0:
192,192,227868,1,0,0:0:0:0:
64,192,228018,1,2,0:0:0:0:
320,192,228168,1,0,0:0:0:0:
192,192,228318,1,10,0:0:0:0:
448,192,228468,1,0,0:0:0:0:
320,192,228618,1,2,0:0:0:0:
192,192,228768,1,0,0:0:0:0:
64,192,229218,1,4,0:0:0:0:
448,192,229218,1,2,0:0:0:0:
192,192,229368,1,0,0:0:0:0:
320,192,229518,1,10,0:0:0:0:
448,192,229668,1,0,0:0:0:0:
192,192,229818,1,2,0:0:0:0:
320,192,229968,1,0,0:0:0:0:
64,192,230118,1,10,0:0:0:0:
192,192,230268,1,0,0:0:0:0:
448,192,230418,1,2,0:0:0:0:
320,192,230568,1,0,0:0:0:0:
192,192,230718,1,10,0:0:0:0:
64,192,230868,1,0,0:0:0:0:
320,192,231018,1,2,0:0:0:0:
192,192,231168,1,0,0:0:0:0:
448,192,231318,1,10,0:0:0:0:
320,192,231468,1,0,0:0:0:0:
64,192,231618,1,2,0:0:0:0:
320,192,231768,1,0,0:0:0:0:
192,192,231918,1,10,0:0:0:0:
448,192,232068,1,0,0:0:0:0:
320,192,232218,1,2,0:0:0:0:
64,192,232368,1,0,0:0:0:0:
192,192,232518,1,10,0:0:0:0:
320,192,232668,1,0,0:0:0:0:
192,192,232818,1,2,0:0:0:0:
64,192,232968,1,0,0:0:0:0:
448,192,233118,1,10,0:0:0:0:
320,192,233268,1,0,0:0:0:0:
192,192,233418,1,2,0:0:0:0:
448,192,233568,1,0,0:0:0:0:
64,192,233718,1,10,0:0:0:0:
320,192,233868,1,0,0:0:0:0:
192,192,234018,1,2,0:0:0:0:
448,192,234168,1,0,0:0:0:0:
320,192,234318,1,10,0:0:0:0:
64,192,234468,1,0,0:0:0:0:
448,192,234618,1,2,0:0:0:0:
192,192,234768,1,0,0:0:0:0:
320,192,234918,1,10,0:0:0:0:
64,192,235068,1,0,0:0:0:0:
192,192,235218,1,2,0:0:0:0:
320,192,235368,1,0,0:0:0:0:
448,192,235518,1,10,0:0:0:0:
192,192,235668,1,0,0:0:0:0:
64,192,235818,1,2,0:0:0:0:
320,192,235968,1,0,0:0:0:0:
448,192,236118,1,10,0:0:0:0:
192,192,236268,1,0,0:0:0:0:
320,192,236418,1,2,0:0:0:0:
64,192,236568,1,0,0:0:0:0:
192,192,236718,1,10,0:0:0:0:
320,192,236868,1,0,0:0:0:0:
448,192,237018,1,2,0:0:0:0:
192,192,237168,1,0,0:0:0:0:
320,192,237318,1,10,0:0:0:0:
64,192,237468,1,0,0:0:0:0:
448,192,237618,128,2,238818:0:0:0:0:
192,192,237618,1,0,0:0:0:0:
320,192,237918,1,2,0:0:0:0:
64,192,238218,1,2,0:0:0:0:
192,192,238518,1,2,0:0:0:0:
320,192,238818,1,2,0:0:0:0:
64,192,238818,1,4,0:0:0:0:
192,192,238968,1,0,0:0:0:0:
320,192,239118,1,10,0:0:0:0:
448,192,239268,1,0,0:0:0:0:
192,192,239418,1,2,0:0:0:0:
64,192,239568,1,0,0:0:0:0:
320,192,239718,1,10,0:0:0:0:
448,192,239868,1,0,0:0:0:0:
192,192,240018,1,2,0:0:0:0:
320,192,240168,1,0,0:0:0:0:
64,192,240318,1,10,0:0:0:0:
192,192,240468,1,0,0:0:0:0:
320,192,240618,1,2,0:0:0:0:
448,192,240768,1,0,0:0:0:0:
192,192,240918,1,10,0:0:0:0:
64,192,241068,1,0,0:0:0:0:
320,192,241218,1,2,0:0:0:0:
192,192,241368,1,0,0:0:0:0:
448,192,241518,1,10,0:0:0:0:
320,192,241668,1,0,0:0:0:0:
192,192,241818,1,2,0:0:0:0:
64,192,241968,1,0,0:0:0:0:
320,192,242118,1,10,0:0:0:0:
192,192,242268,1,0,0:0:0:0:
448,192,242418,1,2,0:0:0:0:
320,192,242568,1,0,0:0:0:0:
64,192,242718,1,10,0:0:0:0:
192,192,242868,1,0,0:0:0:0:
320,192,243018,1,2,0:0:0:0:
448,192,243168,1,0,0:0:0:0:
64,192,243318,1,10,0:0:0:0:
320,192,243468,1,0,0:0:0:0:
192,192,243618,1,2,0:0:0:0:
320,192,243918,1,8,0:0:0:0:
448,192,243918,1,2,0:0:0:0:
64,192,244368,1,2,0:0:0:0:
192,192,244518,1,8,0:0:0:0:
320,192,244518,1,2,0:0:0:0:
448,192,244818,1,2,0:0:0:0:
320,192,245118,1,8,0:0:0:0:
64,192,245118,1,2,0:0:0:0:
64,192,245568,1,2,0:0:0:0:
320,192,245718,1,10,0:0:0:0:
192,192,245868,1,2,0:0:0:0:
448,192,246018,1,2,0:0:0:0:
320,192,246318,1,8,0:0:0:0:
64,192,246318,1,2,0:0:0:0:
192,192,246918,1,10,0:0:0:0:
320,192,247068,1,2,0:0:0:0:
64,192,247218,128,2,248418:0:0:0:0:
448,192,247218,1,0,0:0:0:0:
192,192,247518,1,10,0:0:0:0:
448,192,247818,1,10,0:0:0:0:
320,192,248118,1,10,0:0:0:0:
192,192,248418,1,2,0:0:0:0:
448,192,248418,1,4,0:0:0:0:
