osu file format v14

[General]
AudioFilename: audio.mp3
AudioLeadIn: 0
PreviewTime: 109630
Countdown: 0
SampleSet: None
StackLeniency: 0.2
Mode: 0
LetterboxInBreaks: 0
WidescreenStoryboard: 1

[Editor]
DistanceSpacing: 1.4
BeatDivisor: 4
GridSize: 4
TimelineZoom: 1

[Metadata]
Title:Grief & Malice
TitleUnicode:Grief & Malice
Artist:Helblinde
ArtistUnicode:Helblinde
Creator:Sonix
Version:tune headbang
Source:
Tags:
BeatmapID:1401016
BeatmapSetID:661779

[Difficulty]
HPDrainRate:6
CircleSize:4
OverallDifficulty:6
ApproachRate:10
SliderMultiplier:1.8
SliderTickRate:1

[Events]
//Background and Video events
0,0,"e61d0e36536394e169b3d8537c6a8422.jpg",0,0
//Break Periods
//Storyboard Layer 0 (Background)
//Storyboard Layer 1 (Fail)
//Storyboard Layer 2 (Pass)
//Storyboard Layer 3 (Foreground)
//Storyboard Sound Samples

[TimingPoints]
7330,300,4,1,0,65,1,0
45730,-66.6666666666667,4,1,0,65,0,1
72130,-100,4,1,0,65,0,0
78130,-100,4,1,0,65,0,0
111430,-133.333333333333,4,1,0,65,0,0
111730,-66.6666666666667,4,1,0,65,0,1
132130,-100,4,1,0,65,0,0
133330,-66.6666666666667,4,1,0,65,0,1
154930,-100,4,1,0,65,0,0
183730,-80,4,1,0,65,0,1
184930,-117.647058823529,4,1,0,65,0,1
185380,-80,4,1,0,65,0,1
185980,-117.647058823529,4,1,0,65,0,1
186430,-80,4,1,0,65,0,1
186580,-117.647058823529,4,1,0,65,0,1
187330,-80,4,1,0,65,0,1
193330,-50,4,1,0,65,0,1
197380,-100,4,1,0,65,0,1
198130,-50,4,1,0,65,0,1
202930,-100,4,1,0,65,0,0

[HitObjects]
324,236,178930,6,0,L|424:248,1,90
404,96,179230,1,0,0:0:0:0:
332,164,179380,1,0,0:0:0:0:
428,192,179530,1,0,0:0:0:0:
368,97,179680,1,0,0:0:0:0:
350,194,179830,1,0,0:0:0:0:
444,160,179980,1,0,0:0:0:0:
152,116,180130,6,0,L|140:208,1,90
48,108,180430,1,0,0:0:0:0:
104,28,180580,1,0,0:0:0:0:
152,116,180730,1,0,0:0:0:0:
126,20,180880,1,0,0:0:0:0:
225,51,181030,1,0,0:0:0:0:
152,116,181180,1,0,0:0:0:0:
264,248,181330,1,0,0:0:0:0:
460,228,181630,1,0,0:0:0:0:
324,328,181930,1,0,0:0:0:0:
128,308,182230,1,0,0:0:0:0:
392,152,182530,2,0,L|408:252,1,90
344,188,182830,2,0,L|360:288,1,90
104,184,183130,5,0,0:0:0:0:
312,96,183280,1,0,0:0:0:0:
288,312,183430,1,0,0:0:0:0:
224,44,183580,1,0,0:0:0:0:
224,44,183730,6,0,P|284:56|344:40,1,112.5
176,248,184030,1,0,0:0:0:0:
412,172,184180,1,0,0:0:0:0:
148,100,184330,2,0,B|128:124|144:156|144:156|112:184|128:220,1,112.5
232,124,184630,1,0,0:0:0:0:
0,164,184780,1,0,0:0:0:0:
252,220,184930,2,0,P|307:189|324:160,2,76.5000014591217
188,36,185380,2,0,B|250:30|250:30|297:57,1,112.5
292,304,185680,2,0,B|229:309|229:309|182:282,1,112.5
404,196,185980,6,0,P|424:108|404:48,1,153.000002918243
492,144,186430,1,0,0:0:0:0:
249,160,186580,2,0,P|241:112|257:64,2,76.5000014591217
344,124,187030,1,0,0:0:0:0:
311,314,187180,1,0,0:0:0:0:
292,44,187330,2,0,P|360:32|406:51,1,112.5
192,176,187630,1,0,0:0:0:0:
272,280,187780,2,0,P|325:295|379:282,1,112.5
188,168,188080,5,0,0:0:0:0:
284,40,188230,1,0,0:0:0:0:
368,272,188380,1,0,0:0:0:0:
244,84,188530,6,0,P|180:68|124:84,2,112.5
188,204,188980,1,0,0:0:0:0:
128,312,189130,2,0,P|192:328|248:312,2,112.5
188,204,189580,1,0,0:0:0:0:
364,240,189730,2,0,P|440:236|476:216,1,112.5
500,192,190030,1,0,0:0:0:0:
216,132,190180,6,0,P|188:76|196:16,1,112.5
100,140,190480,2,0,P|68:84|56:16,1,112.5
256,192,190780,12,0,191980,0:0:0:0:
112,272,192730,5,0,0:0:0:0:
112,272,192880,1,0,0:0:0:0:
112,272,193030,1,0,0:0:0:0:
112,272,193180,1,0,0:0:0:0:
112,272,193330,6,0,P|220:304|304:288,1,180
88,104,193630,1,0,0:0:0:0:
408,48,193780,1,0,0:0:0:0:
56,24,193930,2,0,P|20:140|24:216,1,180
240,48,194230,1,0,0:0:0:0:
284,332,194380,1,0,0:0:0:0:
376,104,194530,2,0,P|280:64|200:76,2,180
104,256,194980,2,0,P|56:256|72:224,1,90
408,256,195280,2,0,P|456:256|440:224,1,90
175,93,195580,5,0,0:0:0:0:
175,93,195730,2,0,P|287:61|346:104,1,180
256,192,196030,1,0,0:0:0:0:
312,20,196180,1,0,0:0:0:0:
168,184,196330,2,0,P|156:280|176:368,1,180
444,216,196630,1,0,0:0:0:0:
128,128,196780,1,0,0:0:0:0:
356,80,196930,2,0,P|445:117|511:178,1,180
428,36,197230,1,0,0:0:0:0:
320,216,197380,2,0,B|300:272|320:312|320:312|364:324|364:392,2,180
204,280,198130,6,0,P|148:288|36:236,1,180
304,68,198430,1,0,0:0:0:0:
248,372,198580,1,0,0:0:0:0:
356,292,198880,5,0,0:0:0:0:
92,136,199030,2,0,P|77:66|121:113,1,180
308,148,199330,6,0,P|404:156|484:120,1,180
192,24,199630,1,0,0:0:0:0:
104,316,199780,1,0,0:0:0:0:
56,136,200080,5,0,0:0:0:0:
424,184,200230,1,0,0:0:0:0:
252,284,200530,6,0,B|196:284|160:308|160:308|132:280|76:264,2,180
404,56,200980,1,0,0:0:0:0:
480,160,201280,5,0,0:0:0:0:
216,48,201430,2,0,P|116:36|32:76,1,180
196,272,201730,1,0,0:0:0:0:
304,44,201880,1,0,0:0:0:0:
100,192,202030,1,0,0:0:0:0:
348,232,202180,1,0,0:0:0:0:
232,8,202330,1,0,0:0:0:0:
156,248,202480,1,0,0:0:0:0:
104,84,202630,1,0,0:0:0:0:
104,84,202705,1,0,0:0:0:0:
104,84,202780,1,0,0:0:0:0:
104,84,202855,1,0,0:0:0:0:
104,84,202930,2,0,B|164:96|268:148|404:0|394:64|4:244|468:292,1,540
