osu file format v14

[General]
AudioFilename: die.mp3
AudioLeadIn: 0
PreviewTime: 112290
Countdown: 0
SampleSet: Normal
StackLeniency: 0.7
Mode: 1
LetterboxInBreaks: 0
WidescreenStoryboard: 0

[Editor]
DistanceSpacing: 2
BeatDivisor: 4
GridSize: 16
TimelineZoom: 1.2

[Metadata]
Title:Grief & Malice
TitleUnicode:Grief & Malice
Artist:Helblinde
ArtistUnicode:Helblinde
Creator:Rhytoly
Version:Muzukashii
Source:魔法少女まどか☆マギカ
Tags:Grief and Malice ClariS Connect puella magi madoka magica mahou shoujo magical girl opening hardcore jcore remix life starts at 200BPM
BeatmapID:1642680
BeatmapSetID:782253

[Difficulty]
HPDrainRate:6
CircleSize:2
OverallDifficulty:5
ApproachRate:5
SliderMultiplier:1.4
SliderTickRate:1

[Events]
//Background and Video events
0,0,"BG.jpg",0,60
//Break Periods
//Storyboard Layer 0 (Background)
//Storyboard Layer 1 (Fail)
//Storyboard Layer 2 (Pass)
//Storyboard Layer 3 (Foreground)
//Storyboard Sound Samples

[TimingPoints]
990,300,4,1,0,100,1,0
990,-133.333333333333,4,1,0,100,0,0
8190,-100,4,1,0,100,0,0
46590,300,3,1,0,100,1,1
46590,-100,3,1,0,100,0,1
73290,-105.263157894737,3,1,0,100,0,1
73590,-111.111111111111,3,1,0,100,0,0
78990,-111.111111111111,3,1,0,100,0,0
86190,-109.89010989011,3,1,0,100,0,0
87090,-108.695652173913,3,1,0,100,0,0
87990,-107.52688172043,3,1,0,100,0,0
88890,-106.382978723404,3,1,0,100,0,0
89790,300,4,1,0,100,1,0
89790,-105.263157894737,4,1,0,100,0,0
90390,-104.166666666667,4,1,0,100,0,0
90990,-103.092783505155,4,1,0,100,0,0
91590,-102.040816326531,4,1,0,100,0,0
91890,-101.010101010101,4,1,0,100,0,0
92190,-100,4,1,0,100,0,0
93390,-100,4,1,0,100,0,1
100590,-100,4,1,0,100,0,0
102990,-100,4,1,0,100,0,1
107790,-100,4,1,0,100,0,0
112290,-90.9090909090909,4,1,0,100,0,0
112590,300,3,1,0,100,1,1
112590,-95.2380952380952,3,1,0,100,0,1
132990,-96.1538461538461,3,1,0,100,0,1
133140,-97.0873786407767,3,1,0,100,0,1
133290,-98.0392156862745,3,1,0,100,0,1
133440,-99.009900990099,3,1,0,100,0,1
133590,-100,3,1,0,100,0,0
134040,-95.2380952380952,3,1,0,100,0,0
134190,-90.9090909090909,3,1,0,100,0,1
152190,-91.743119266055,3,1,0,100,0,1
153090,-92.5925925925926,3,1,0,100,0,1
153690,-93.4579439252336,3,1,0,100,0,1
153990,-94.3396226415094,3,1,0,100,0,1
154590,-95.2380952380952,3,1,0,100,0,1
155790,300,4,1,0,100,1,0
155790,-100,4,1,0,100,0,0
183390,-99.009900990099,4,1,0,100,0,0
183540,-98.0392156862745,4,1,0,100,0,0
183690,-97.0873786407767,4,1,0,100,0,0
183840,-96.1538461538461,4,1,0,100,0,0
183990,-95.2380952380952,4,1,0,100,0,0
184590,-95.2380952380952,4,1,0,100,0,1
195840,-95.2380952380952,4,1,0,100,0,0
196440,-95.2380952380952,4,1,0,100,0,1
203790,-95.2380952380952,4,1,0,100,0,0
208590,-96.1538461538461,4,1,0,100,0,0
213390,-97.0873786407767,4,1,0,100,0,0
218190,-98.0392156862745,4,1,0,100,0,0
221790,-99.009900990099,4,1,0,100,0,0
222990,-100,4,1,0,100,0,0

[HitObjects]
365,121,990,5,8,0:0:0:0:
365,121,1290,1,0,0:0:0:0:
365,121,1590,1,8,0:0:0:0:
365,121,1890,1,0,0:0:0:0:
365,121,2190,1,8,0:0:0:0:
365,121,2490,1,0,0:0:0:0:
87,114,4290,1,0,0:0:0:0:
134,114,4590,1,8,0:0:0:0:
107,120,4890,1,0,0:0:0:0:
165,117,5190,1,8,0:0:0:0:
165,117,5490,1,0,0:0:0:0:
165,117,5790,1,8,0:0:0:0:
165,117,6090,1,8,0:0:0:0:
256,192,6240,12,0,7890,0:0:0:0:
197,126,8190,5,4,0:0:0:0:
351,207,8790,1,0,0:0:0:0:
351,207,9090,1,8,0:0:0:0:
351,207,9390,1,0,0:0:0:0:
351,207,9690,1,8,0:0:0:0:
351,207,9990,1,0,0:0:0:0:
351,207,10290,1,8,0:0:0:0:
351,207,10590,1,0,0:0:0:0:
351,207,11190,1,0,0:0:0:0:
351,207,11490,1,8,0:0:0:0:
351,207,11790,1,0,0:0:0:0:
351,207,12090,1,8,0:0:0:0:
351,207,12240,1,8,0:0:0:0:
464,128,12390,1,0,0:0:0:0:
351,207,12690,1,8,0:0:0:0:
351,207,12840,1,8,0:0:0:0:
351,207,12990,1,0,0:0:0:0:
351,207,13590,1,0,0:0:0:0:
351,207,13890,1,8,0:0:0:0:
351,207,14190,1,0,0:0:0:0:
186,142,14490,1,8,0:0:0:0:
186,142,14790,1,0,0:0:0:0:
186,142,15090,1,8,0:0:0:0:
186,142,15390,1,0,0:0:0:0:
186,142,15990,1,0,0:0:0:0:
186,142,16290,1,8,0:0:0:0:
186,142,16590,1,0,0:0:0:0:
136,133,16890,1,8,0:0:0:0:
136,133,17190,1,8,0:0:0:0:
136,133,17790,1,12,0:0:0:0:
194,167,18090,1,8,0:0:0:0:
388,123,18540,1,0,0:0:0:0:
118,140,18690,1,8,0:0:0:0:
118,140,18990,1,0,0:0:0:0:
118,140,19290,1,8,0:0:0:0:
245,132,19440,1,0,0:0:0:0:
166,62,19740,1,0,0:0:0:0:
245,132,19890,1,8,0:0:0:0:
169,164,20190,1,0,0:0:0:0:
194,167,20490,1,8,0:0:0:0:
92,139,20940,1,0,0:0:0:0:
118,140,21090,1,8,0:0:0:0:
118,140,21390,1,0,0:0:0:0:
128,128,21690,1,8,0:0:0:0:
224,144,21840,1,0,0:0:0:0:
169,164,21990,1,0,0:0:0:0:
245,132,22140,1,0,0:0:0:0:
245,132,22290,1,8,0:0:0:0:
166,62,22590,1,0,0:0:0:0:
194,167,22890,1,8,0:0:0:0:
92,139,23340,1,0,0:0:0:0:
118,140,23490,1,8,0:0:0:0:
118,140,23790,1,0,0:0:0:0:
118,140,24090,1,8,0:0:0:0:
229,132,24240,1,0,0:0:0:0:
245,132,24540,1,0,0:0:0:0:
245,132,24690,1,8,0:0:0:0:
336,192,24990,1,0,0:0:0:0:
361,209,25140,1,0,0:0:0:0:
229,79,25290,1,8,0:0:0:0:
80,133,25440,1,0,0:0:0:0:
336,192,25590,1,0,0:0:0:0:
141,132,25890,1,8,0:0:0:0:
320,112,26190,1,0,0:0:0:0:
301,129,26790,1,8,0:0:0:0:
384,224,26940,1,0,0:0:0:0:
301,129,27090,1,8,0:0:0:0:
301,129,27390,1,4,0:0:0:0:
343,34,27990,1,0,0:0:0:0:
282,150,28140,1,0,0:0:0:0:
282,150,28290,1,8,0:0:0:0:
282,150,28590,1,8,0:0:0:0:
263,173,28890,1,8,0:0:0:0:
263,173,29040,1,0,0:0:0:0:
263,173,29190,1,8,0:0:0:0:
188,77,29490,1,8,0:0:0:0:
188,77,29790,1,8,0:0:0:0:
249,35,30390,1,0,0:0:0:0:
112,160,30540,1,0,0:0:0:0:
288,144,30690,1,8,0:0:0:0:
288,144,30990,1,8,0:0:0:0:
352,192,31290,1,0,0:0:0:0:
352,192,31590,1,8,0:0:0:0:
352,176,32190,1,4,0:0:0:0:
221,30,32790,1,0,0:0:0:0:
282,150,32940,1,0,0:0:0:0:
282,150,33090,1,8,0:0:0:0:
282,150,33390,1,8,0:0:0:0:
263,173,33690,1,0,0:0:0:0:
263,173,33990,1,8,0:0:0:0:
263,173,34140,1,0,0:0:0:0:
188,77,34290,1,8,0:0:0:0:
188,77,34590,1,8,0:0:0:0:
319,182,34890,1,8,0:0:0:0:
288,144,35490,1,8,0:0:0:0:
288,144,35790,1,0,0:0:0:0:
352,192,36090,1,8,0:0:0:0:
352,192,36240,1,0,0:0:0:0:
352,192,36390,1,8,0:0:0:0:
352,176,36990,1,4,0:0:0:0:
320,128,37290,1,8,0:0:0:0:
320,128,37740,1,0,0:0:0:0:
320,128,37890,1,8,0:0:0:0:
368,128,38190,1,0,0:0:0:0:
368,128,38340,1,0,0:0:0:0:
368,128,38490,1,8,0:0:0:0:
176,101,38790,1,8,0:0:0:0:
336,128,38940,1,0,0:0:0:0:
336,128,39090,1,8,0:0:0:0:
208,112,39390,1,0,0:0:0:0:
320,128,39690,1,8,0:0:0:0:
320,128,40140,1,0,0:0:0:0:
320,128,40290,1,8,0:0:0:0:
368,128,40590,1,0,0:0:0:0:
368,128,40740,1,0,0:0:0:0:
368,128,40890,1,8,0:0:0:0:
222,80,41190,1,8,0:0:0:0:
336,128,41340,1,0,0:0:0:0:
336,128,41490,1,8,0:0:0:0:
256,192,41790,12,0,45990,0:0:0:0:
255,167,46290,5,4,0:0:0:0:
240,112,46590,5,12,0:0:0:0:
272,96,47040,1,0,0:0:0:0:
240,80,47190,1,8,0:0:0:0:
144,128,47490,1,8,0:0:0:0:
170,111,47640,1,0,0:0:0:0:
165,111,47715,1,0,0:0:0:0:
336,176,47790,1,0,0:0:0:0:
144,128,47940,1,0,0:0:0:0:
336,192,48090,1,8,0:0:0:0:
160,128,48390,1,12,0:0:0:0:
208,80,48690,1,8,0:0:0:0:
272,96,48840,1,0,0:0:0:0:
240,80,48990,1,8,0:0:0:0:
144,128,49290,1,8,0:0:0:0:
144,128,49440,1,8,0:0:0:0:
83,122,49515,1,8,0:0:0:0:
77,126,49590,1,8,0:0:0:0:
336,176,49740,1,0,0:0:0:0:
336,176,49890,1,8,0:0:0:0:
64,192,50190,1,12,0:0:0:0:
272,96,50640,1,0,0:0:0:0:
240,80,50790,1,8,0:0:0:0:
144,128,51090,1,0,0:0:0:0:
144,128,51240,1,8,0:0:0:0:
204,68,51315,1,8,0:0:0:0:
336,192,51390,1,8,0:0:0:0:
193,32,51540,1,0,0:0:0:0:
204,68,51690,1,8,0:0:0:0:
192,160,51990,1,12,0:0:0:0:
208,80,52290,1,8,0:0:0:0:
344,149,52590,1,0,0:0:0:0:
344,149,52740,1,0,0:0:0:0:
287,175,52890,1,8,0:0:0:0:
336,176,53190,1,8,0:0:0:0:
352,144,53340,1,0,0:0:0:0:
352,144,53415,1,0,0:0:0:0:
352,144,53490,1,0,0:0:0:0:
211,24,53640,5,0,0:0:0:0:
240,112,53790,1,12,0:0:0:0:
272,96,54240,1,0,0:0:0:0:
240,80,54390,1,8,0:0:0:0:
144,128,54690,1,8,0:0:0:0:
144,128,54840,1,0,0:0:0:0:
100,97,54915,1,0,0:0:0:0:
109,96,54990,1,0,0:0:0:0:
336,176,55140,1,0,0:0:0:0:
336,176,55290,1,8,0:0:0:0:
160,128,55590,1,12,0:0:0:0:
208,80,55890,1,8,0:0:0:0:
272,96,56040,1,0,0:0:0:0:
240,80,56190,1,8,0:0:0:0:
144,128,56490,1,8,0:0:0:0:
144,128,56640,1,8,0:0:0:0:
115,120,56715,1,8,0:0:0:0:
336,192,56790,1,8,0:0:0:0:
336,176,56940,1,8,0:0:0:0:
336,176,57090,1,0,0:0:0:0:
384,192,57240,1,0,0:0:0:0:
64,192,57390,1,12,0:0:0:0:
272,96,57840,1,0,0:0:0:0:
240,80,57990,1,8,0:0:0:0:
144,128,58290,1,0,0:0:0:0:
144,128,58440,1,8,0:0:0:0:
207,113,58515,1,8,0:0:0:0:
336,192,58590,1,8,0:0:0:0:
336,176,58740,1,0,0:0:0:0:
336,176,58890,1,8,0:0:0:0:
192,160,59190,1,12,0:0:0:0:
208,80,59490,1,8,0:0:0:0:
201,157,59790,1,0,0:0:0:0:
260,153,59940,1,0,0:0:0:0:
144,128,60090,1,8,0:0:0:0:
336,192,60390,1,0,0:0:0:0:
301,126,60540,1,0,0:0:0:0:
288,80,60615,1,0,0:0:0:0:
288,80,60690,1,0,0:0:0:0:
176,192,60840,1,0,0:0:0:0:
288,112,60990,1,12,0:0:0:0:
240,80,61290,1,0,0:0:0:0:
144,128,61740,1,8,0:0:0:0:
144,128,61890,1,0,0:0:0:0:
228,144,62040,1,0,0:0:0:0:
228,144,62115,1,0,0:0:0:0:
228,144,62190,1,0,0:0:0:0:
336,176,62340,1,8,0:0:0:0:
336,176,62490,1,0,0:0:0:0:
160,128,62790,1,12,0:0:0:0:
208,80,63090,1,0,0:0:0:0:
123,167,63240,1,8,0:0:0:0:
178,159,63390,1,0,0:0:0:0:
144,128,63690,1,8,0:0:0:0:
336,176,63990,1,0,0:0:0:0:
255,55,64140,1,0,0:0:0:0:
288,112,64215,1,0,0:0:0:0:
336,176,64290,1,0,0:0:0:0:
144,128,64440,1,0,0:0:0:0:
64,192,64590,1,12,0:0:0:0:
208,80,64890,1,8,0:0:0:0:
240,80,65340,1,8,0:0:0:0:
144,128,65490,1,8,0:0:0:0:
144,128,65640,1,0,0:0:0:0:
399,225,65715,1,0,0:0:0:0:
399,225,65790,1,0,0:0:0:0:
336,176,65940,1,0,0:0:0:0:
336,176,66090,1,8,0:0:0:0:
192,160,66390,1,12,0:0:0:0:
208,80,66690,1,8,0:0:0:0:
281,91,66990,1,0,0:0:0:0:
144,128,67140,1,0,0:0:0:0:
363,174,67290,1,8,0:0:0:0:
336,176,67590,1,0,0:0:0:0:
306,150,67740,1,8,0:0:0:0:
80,112,67815,1,8,0:0:0:0:
336,176,67890,1,8,0:0:0:0:
311,101,68040,1,0,0:0:0:0:
288,112,68190,1,12,0:0:0:0:
208,80,68490,1,8,0:0:0:0:
240,80,68940,1,8,0:0:0:0:
144,128,69090,1,0,0:0:0:0:
45,125,69240,1,8,0:0:0:0:
45,125,69315,1,8,0:0:0:0:
336,192,69390,1,8,0:0:0:0:
336,176,69540,1,0,0:0:0:0:
336,176,69690,1,8,0:0:0:0:
160,128,69990,1,12,0:0:0:0:
208,80,70290,1,8,0:0:0:0:
272,96,70440,1,0,0:0:0:0:
240,80,70590,1,8,0:0:0:0:
144,128,70890,1,8,0:0:0:0:
144,128,71040,1,0,0:0:0:0:
138,108,71115,1,0,0:0:0:0:
138,108,71190,1,0,0:0:0:0:
336,176,71340,1,0,0:0:0:0:
336,176,71490,1,8,0:0:0:0:
64,192,71790,1,12,0:0:0:0:
208,80,72090,1,0,0:0:0:0:
144,128,72690,1,8,0:0:0:0:
144,128,72840,1,8,0:0:0:0:
336,192,72990,1,0,0:0:0:0:
336,176,73290,1,0,0:0:0:0:
192,160,73590,1,12,0:0:0:0:
272,160,73890,1,8,0:0:0:0:
272,144,74490,1,8,0:0:0:0:
272,144,74790,1,8,0:0:0:0:
272,144,75090,1,0,0:0:0:0:
288,144,75390,1,12,0:0:0:0:
272,160,75690,1,8,0:0:0:0:
272,144,76290,1,8,0:0:0:0:
272,144,76590,1,8,0:0:0:0:
272,144,76890,1,0,0:0:0:0:
224,96,77190,1,4,0:0:0:0:
256,192,77340,12,0,78690,0:0:0:0:
224,144,78990,5,8,0:0:0:0:
224,144,79290,1,8,0:0:0:0:
224,144,79590,1,0,0:0:0:0:
224,144,79890,1,8,0:0:0:0:
224,144,80190,1,8,0:0:0:0:
224,144,80490,1,0,0:0:0:0:
224,144,80790,1,8,0:0:0:0:
240,144,81090,1,0,0:0:0:0:
240,144,81390,1,0,0:0:0:0:
240,144,81690,1,8,0:0:0:0:
240,144,81990,1,0,0:0:0:0:
240,144,82590,1,8,0:0:0:0:
240,144,82890,1,8,0:0:0:0:
240,144,83190,1,0,0:0:0:0:
240,144,83490,1,8,0:0:0:0:
240,144,83790,1,8,0:0:0:0:
240,144,84090,1,0,0:0:0:0:
240,144,84390,1,8,0:0:0:0:
240,144,84690,1,0,0:0:0:0:
240,144,84990,1,0,0:0:0:0:
240,144,85290,1,8,0:0:0:0:
240,144,85590,1,0,0:0:0:0:
240,144,86190,1,12,0:0:0:0:
240,144,86490,1,8,0:0:0:0:
240,144,86790,1,0,0:0:0:0:
240,144,87090,1,12,0:0:0:0:
240,144,87390,1,8,0:0:0:0:
240,144,87690,1,0,0:0:0:0:
240,144,87990,1,12,0:0:0:0:
240,144,88290,1,0,0:0:0:0:
240,144,88590,1,0,0:0:0:0:
240,144,88890,1,12,0:0:0:0:
240,144,89190,1,0,0:0:0:0:
368,192,89790,1,12,0:0:0:0:
368,192,90090,1,0,0:0:0:0:
368,192,90390,1,12,0:0:0:0:
368,192,90690,1,0,0:0:0:0:
368,192,90990,1,12,0:0:0:0:
368,192,91290,1,0,0:0:0:0:
368,192,91590,1,12,0:0:0:0:
368,192,91890,1,12,0:0:0:0:
368,192,92190,1,12,0:0:0:0:
368,192,92490,1,8,0:0:0:0:
256,160,92640,1,8,0:0:0:0:
368,192,92790,1,0,0:0:0:0:
368,192,93390,1,12,0:0:0:0:
392,244,93690,1,0,0:0:0:0:
256,128,93840,1,8,0:0:0:0:
251,134,93990,1,0,0:0:0:0:
251,134,94140,1,8,0:0:0:0:
251,134,94215,1,8,0:0:0:0:
368,144,94290,1,8,0:0:0:0:
368,144,94440,1,0,0:0:0:0:
224,112,94590,1,12,0:0:0:0:
182,142,94890,1,0,0:0:0:0:
368,224,95040,1,8,0:0:0:0:
368,224,95190,1,8,0:0:0:0:
352,224,95340,1,0,0:0:0:0:
411,167,95415,1,0,0:0:0:0:
411,167,95490,1,0,0:0:0:0:
256,96,95640,1,0,0:0:0:0:
176,16,95790,1,12,0:0:0:0:
317,184,96090,1,0,0:0:0:0:
352,160,96240,1,8,0:0:0:0:
294,159,96390,1,8,0:0:0:0:
336,160,96540,1,0,0:0:0:0:
294,159,96615,1,0,0:0:0:0:
144,32,96690,1,0,0:0:0:0:
320,160,96840,1,8,0:0:0:0:
320,160,96990,1,0,0:0:0:0:
304,144,97290,1,0,0:0:0:0:
85,56,97440,1,0,0:0:0:0:
304,144,97590,1,8,0:0:0:0:
288,144,98190,1,12,0:0:0:0:
303,156,98490,1,0,0:0:0:0:
256,128,98640,1,8,0:0:0:0:
256,128,98790,1,0,0:0:0:0:
336,80,98940,1,8,0:0:0:0:
106,135,99015,1,8,0:0:0:0:
368,144,99090,1,8,0:0:0:0:
368,144,99240,1,0,0:0:0:0:
224,112,99390,1,12,0:0:0:0:
336,165,99690,1,0,0:0:0:0:
368,224,99840,1,0,0:0:0:0:
368,224,99990,1,8,0:0:0:0:
156,120,100140,1,0,0:0:0:0:
156,120,100215,1,0,0:0:0:0:
156,120,100290,1,0,0:0:0:0:
256,96,100440,1,0,0:0:0:0:
176,16,100590,1,12,0:0:0:0:
352,160,101040,1,8,0:0:0:0:
352,160,101190,1,8,0:0:0:0:
320,160,101490,1,8,0:0:0:0:
320,160,101790,1,12,0:0:0:0:
304,144,102240,1,8,0:0:0:0:
304,144,102390,1,8,0:0:0:0:
304,144,102690,1,8,0:0:0:0:
288,144,102990,1,12,0:0:0:0:
384,144,103440,1,8,0:0:0:0:
384,144,103590,1,8,0:0:0:0:
384,144,103740,1,0,0:0:0:0:
384,144,103890,1,8,0:0:0:0:
288,144,104190,1,12,0:0:0:0:
384,144,104640,1,8,0:0:0:0:
384,144,104790,1,8,0:0:0:0:
384,144,104940,1,0,0:0:0:0:
384,144,105090,1,8,0:0:0:0:
192,144,105390,1,0,0:0:0:0:
272,160,105540,1,0,0:0:0:0:
272,160,105690,1,8,0:0:0:0:
272,160,105840,1,0,0:0:0:0:
336,112,105990,1,8,0:0:0:0:
270,99,106065,1,8,0:0:0:0:
336,112,106140,1,8,0:0:0:0:
336,112,106290,1,0,0:0:0:0:
176,160,106440,1,0,0:0:0:0:
126,256,106590,2,0,B|72:215|72:215|125:157|125:157|120:25|120:25|231:104|231:104|306:79|306:79|313:163,1,560
304,160,108090,1,8,0:0:0:0:
384,208,108240,1,0,0:0:0:0:
304,160,108540,1,0,0:0:0:0:
304,160,108690,1,8,0:0:0:0:
224,128,108990,1,0,0:0:0:0:
256,112,109290,1,8,0:0:0:0:
256,112,109440,1,0,0:0:0:0:
256,112,109590,1,0,0:0:0:0:
256,112,109740,1,0,0:0:0:0:
256,112,109890,1,8,0:0:0:0:
256,112,110190,1,0,0:0:0:0:
320,144,110490,1,8,0:0:0:0:
288,96,110640,1,8,0:0:0:0:
288,96,110940,1,0,0:0:0:0:
288,96,111090,1,8,0:0:0:0:
400,240,111390,1,0,0:0:0:0:
288,128,111690,1,8,0:0:0:0:
176,128,112290,1,12,0:0:0:0:
288,128,112590,1,4,0:0:0:0:
128,128,113040,1,0,0:0:0:0:
208,112,113190,1,8,0:0:0:0:
208,112,113490,1,8,0:0:0:0:
208,112,113640,1,0,0:0:0:0:
275,68,113790,1,0,0:0:0:0:
208,112,113940,1,8,0:0:0:0:
275,68,114015,1,8,0:0:0:0:
256,64,114090,1,8,0:0:0:0:
64,128,114240,1,0,0:0:0:0:
144,128,114390,1,12,0:0:0:0:
336,176,114690,1,0,0:0:0:0:
336,176,114840,1,8,0:0:0:0:
336,176,114990,1,8,0:0:0:0:
336,176,115290,1,0,0:0:0:0:
208,144,115440,1,8,0:0:0:0:
288,144,115590,1,0,0:0:0:0:
288,144,115740,1,8,0:0:0:0:
374,170,115815,5,8,0:0:0:0:
288,144,115890,1,8,0:0:0:0:
288,144,116040,1,0,0:0:0:0:
192,112,116190,1,12,0:0:0:0:
112,128,116640,1,0,0:0:0:0:
144,128,116790,1,8,0:0:0:0:
144,128,117090,1,8,0:0:0:0:
144,128,117240,1,0,0:0:0:0:
144,128,117390,1,8,0:0:0:0:
207,29,117540,1,0,0:0:0:0:
207,29,117615,1,0,0:0:0:0:
207,29,117690,1,0,0:0:0:0:
207,29,117840,1,0,0:0:0:0:
192,176,117990,1,12,0:0:0:0:
336,144,118290,1,0,0:0:0:0:
354,147,118590,1,8,0:0:0:0:
134,34,118740,1,8,0:0:0:0:
256,48,118890,1,0,0:0:0:0:
256,48,119190,1,8,0:0:0:0:
352,96,119340,1,0,0:0:0:0:
352,96,119415,1,0,0:0:0:0:
256,48,119490,1,0,0:0:0:0:
256,48,119640,1,0,0:0:0:0:
224,112,119790,1,12,0:0:0:0:
192,128,120090,1,0,0:0:0:0:
208,128,120540,1,8,0:0:0:0:
192,112,120690,1,0,0:0:0:0:
208,112,120840,1,0,0:0:0:0:
208,112,120990,1,8,0:0:0:0:
208,112,121140,1,0,0:0:0:0:
267,144,121215,1,0,0:0:0:0:
224,112,121290,1,0,0:0:0:0:
264,127,121440,1,0,0:0:0:0:
224,112,121590,1,12,0:0:0:0:
336,192,121890,1,0,0:0:0:0:
75,159,122190,1,8,0:0:0:0:
144,145,122340,1,8,0:0:0:0:
160,96,122490,1,0,0:0:0:0:
176,128,122790,1,8,0:0:0:0:
304,160,122940,1,0,0:0:0:0:
304,160,123015,1,0,0:0:0:0:
192,32,123090,1,0,0:0:0:0:
176,128,123240,1,0,0:0:0:0:
176,128,123390,1,12,0:0:0:0:
304,128,123690,1,0,0:0:0:0:
176,96,124140,1,8,0:0:0:0:
160,64,124290,1,0,0:0:0:0:
192,160,124440,1,0,0:0:0:0:
336,144,124590,1,8,0:0:0:0:
336,144,124740,1,8,0:0:0:0:
111,79,124815,1,8,0:0:0:0:
336,144,124890,1,8,0:0:0:0:
336,144,125040,1,0,0:0:0:0:
320,128,125190,1,12,0:0:0:0:
336,192,125490,1,8,0:0:0:0:
348,159,125790,1,0,0:0:0:0:
310,124,125940,1,0,0:0:0:0:
192,128,126090,1,8,0:0:0:0:
144,144,126390,1,8,0:0:0:0:
328,159,126540,1,0,0:0:0:0:
352,112,126615,1,0,0:0:0:0:
144,144,126690,1,0,0:0:0:0:
144,144,126840,1,0,0:0:0:0:
160,144,126990,1,12,0:0:0:0:
336,176,127290,1,0,0:0:0:0:
336,176,127740,1,8,0:0:0:0:
96,160,127890,1,8,0:0:0:0:
405,221,128040,1,0,0:0:0:0:
224,144,128190,1,0,0:0:0:0:
224,128,128340,1,8,0:0:0:0:
159,115,128415,1,8,0:0:0:0:
224,128,128490,1,8,0:0:0:0:
224,128,128640,1,0,0:0:0:0:
208,128,128790,5,12,0:0:0:0:
224,128,129090,1,8,0:0:0:0:
224,128,129240,1,0,0:0:0:0:
272,144,129390,1,8,0:0:0:0:
176,32,129690,1,8,0:0:0:0:
48,160,129840,1,0,0:0:0:0:
112,176,129990,1,8,0:0:0:0:
112,176,130140,1,0,0:0:0:0:
405,236,130215,1,0,0:0:0:0:
112,160,130290,1,0,0:0:0:0:
96,80,130440,1,0,0:0:0:0:
352,208,130590,1,12,0:0:0:0:
256,176,130890,1,0,0:0:0:0:
256,176,131040,1,0,0:0:0:0:
144,112,131190,1,8,0:0:0:0:
144,112,131490,1,8,0:0:0:0:
368,224,131640,1,0,0:0:0:0:
336,192,131790,1,8,0:0:0:0:
336,192,131940,1,8,0:0:0:0:
290,133,132015,1,8,0:0:0:0:
336,192,132090,1,8,0:0:0:0:
336,192,132240,1,0,0:0:0:0:
272,128,132390,1,12,0:0:0:0:
352,176,132690,1,8,0:0:0:0:
352,176,132990,1,8,0:0:0:0:
352,176,133140,1,0,0:0:0:0:
352,176,133290,1,0,0:0:0:0:
304,192,133440,1,8,0:0:0:0:
268,172,133590,1,0,0:0:0:0:
271,99,134040,5,0,0:0:0:0:
271,99,134190,1,12,0:0:0:0:
298,174,134640,1,0,0:0:0:0:
304,175,134790,1,8,0:0:0:0:
296,68,135090,1,8,0:0:0:0:
237,61,135240,1,0,0:0:0:0:
149,128,135315,1,0,0:0:0:0:
287,137,135390,1,8,0:0:0:0:
287,137,135540,1,0,0:0:0:0:
287,137,135690,1,8,0:0:0:0:
257,153,135990,1,8,0:0:0:0:
141,155,136290,1,8,0:0:0:0:
257,153,136440,1,0,0:0:0:0:
306,86,136515,1,0,0:0:0:0:
257,153,136590,1,8,0:0:0:0:
342,142,136740,1,0,0:0:0:0:
257,153,136890,1,8,0:0:0:0:
257,153,137040,1,0,0:0:0:0:
240,64,137115,1,0,0:0:0:0:
272,96,137190,1,0,0:0:0:0:
89,146,137340,1,0,0:0:0:0:
146,144,137490,1,8,0:0:0:0:
332,171,137790,1,8,0:0:0:0:
332,171,138240,1,0,0:0:0:0:
332,171,138390,1,8,0:0:0:0:
216,121,138690,1,8,0:0:0:0:
330,152,138840,1,0,0:0:0:0:
251,117,138915,1,0,0:0:0:0:
149,99,138990,1,8,0:0:0:0:
142,100,139140,1,8,0:0:0:0:
208,80,139290,1,0,0:0:0:0:
331,130,139590,1,8,0:0:0:0:
331,130,139890,1,8,0:0:0:0:
326,57,140040,1,0,0:0:0:0:
326,57,140115,1,0,0:0:0:0:
378,173,140190,1,0,0:0:0:0:
160,39,140340,1,8,0:0:0:0:
167,71,140490,1,0,0:0:0:0:
272,112,140790,1,8,0:0:0:0:
272,112,140940,1,0,0:0:0:0:
461,153,141090,1,8,0:0:0:0:
165,152,141240,1,0,0:0:0:0:
170,52,141390,1,8,0:0:0:0:
261,109,141690,1,8,0:0:0:0:
192,80,142140,1,8,0:0:0:0:
192,80,142290,1,0,0:0:0:0:
192,80,142590,1,8,0:0:0:0:
256,32,142740,1,0,0:0:0:0:
255,40,142815,1,0,0:0:0:0:
256,32,142890,1,8,0:0:0:0:
357,192,143040,5,0,0:0:0:0:
304,192,143190,1,8,0:0:0:0:
221,154,143340,1,8,0:0:0:0:
286,116,143490,1,0,0:0:0:0:
304,192,143790,1,0,0:0:0:0:
229,154,143940,1,8,0:0:0:0:
200,59,144015,1,8,0:0:0:0:
397,246,144090,1,0,0:0:0:0:
247,142,144240,1,8,0:0:0:0:
304,192,144390,1,0,0:0:0:0:
368,176,144540,1,8,0:0:0:0:
89,66,144615,1,8,0:0:0:0:
239,66,144690,1,8,0:0:0:0:
361,192,144840,1,0,0:0:0:0:
304,160,144990,1,8,0:0:0:0:
304,160,145290,1,0,0:0:0:0:
304,160,145740,1,8,0:0:0:0:
304,160,145890,1,0,0:0:0:0:
304,160,146190,1,8,0:0:0:0:
352,240,146340,1,0,0:0:0:0:
252,65,146415,1,0,0:0:0:0:
336,224,146490,1,8,0:0:0:0:
219,54,146640,1,0,0:0:0:0:
336,224,146790,1,8,0:0:0:0:
194,10,146940,1,8,0:0:0:0:
336,224,147090,1,0,0:0:0:0:
318,157,147390,1,8,0:0:0:0:
329,173,147540,1,0,0:0:0:0:
368,176,147690,1,8,0:0:0:0:
320,144,147840,1,0,0:0:0:0:
368,176,147915,1,0,0:0:0:0:
380,63,147990,1,0,0:0:0:0:
368,176,148140,1,8,0:0:0:0:
368,176,148290,1,0,0:0:0:0:
264,153,148440,1,0,0:0:0:0:
151,48,148515,1,0,0:0:0:0:
400,224,148590,1,8,0:0:0:0:
384,240,148890,1,0,0:0:0:0:
400,224,149340,1,8,0:0:0:0:
400,224,149490,1,0,0:0:0:0:
400,224,149790,1,8,0:0:0:0:
306,116,149940,1,0,0:0:0:0:
306,116,150015,1,0,0:0:0:0:
400,224,150090,1,8,0:0:0:0:
301,101,150240,1,0,0:0:0:0:
400,224,150390,1,8,0:0:0:0:
400,224,150540,1,8,0:0:0:0:
110,84,150690,1,0,0:0:0:0:
384,160,150990,1,0,0:0:0:0:
400,224,151140,1,8,0:0:0:0:
400,224,151290,1,8,0:0:0:0:
368,224,151440,1,0,0:0:0:0:
352,192,151590,1,8,0:0:0:0:
352,128,151890,1,0,0:0:0:0:
336,176,152190,1,8,0:0:0:0:
336,176,152340,1,8,0:0:0:0:
320,160,152490,1,0,0:0:0:0:
304,160,153090,1,8,0:0:0:0:
304,160,153240,1,0,0:0:0:0:
304,160,153390,1,0,0:0:0:0:
373,201,153690,1,0,0:0:0:0:
384,240,153990,1,0,0:0:0:0:
384,240,154140,1,8,0:0:0:0:
288,192,154290,1,0,0:0:0:0:
224,272,154590,2,0,B|192:208|208:144|520:0|80:272,1,440.999986541749
320,176,155790,1,12,0:0:0:0:
400,288,156090,1,8,0:0:0:0:
368,224,156540,1,0,0:0:0:0:
336,192,156690,1,8,0:0:0:0:
256,144,156990,1,8,0:0:0:0:
336,192,157290,1,8,0:0:0:0:
336,192,157440,1,8,0:0:0:0:
352,208,157590,1,8,0:0:0:0:
336,192,157740,1,8,0:0:0:0:
336,192,157890,1,8,0:0:0:0:
272,144,158190,1,8,0:0:0:0:
304,208,158490,1,8,0:0:0:0:
336,208,158940,1,0,0:0:0:0:
192,64,159090,1,8,0:0:0:0:
400,240,159390,1,8,0:0:0:0:
416,320,159690,1,0,0:0:0:0:
416,320,159840,1,8,0:0:0:0:
176,128,159990,1,0,0:0:0:0:
416,320,160140,1,8,0:0:0:0:
416,320,160290,1,0,0:0:0:0:
320,208,160590,1,8,0:0:0:0:
400,288,160890,1,8,0:0:0:0:
368,224,161340,1,0,0:0:0:0:
336,192,161490,1,8,0:0:0:0:
256,144,161790,1,8,0:0:0:0:
336,192,162090,1,8,0:0:0:0:
336,192,162240,1,8,0:0:0:0:
352,208,162390,1,8,0:0:0:0:
336,192,162540,1,8,0:0:0:0:
336,192,162690,1,8,0:0:0:0:
272,144,162990,1,8,0:0:0:0:
304,208,163290,1,8,0:0:0:0:
336,208,163740,1,0,0:0:0:0:
192,64,163890,1,8,0:0:0:0:
400,240,164190,1,8,0:0:0:0:
416,320,164490,1,0,0:0:0:0:
416,320,164640,1,8,0:0:0:0:
176,128,164790,1,0,0:0:0:0:
416,320,164940,1,8,0:0:0:0:
416,320,165090,1,0,0:0:0:0:
320,208,165390,1,12,0:0:0:0:
192,160,165690,1,8,0:0:0:0:
192,160,166140,1,0,0:0:0:0:
192,160,166290,1,8,0:0:0:0:
192,160,166590,1,0,0:0:0:0:
192,160,166740,1,0,0:0:0:0:
192,160,166890,1,8,0:0:0:0:
192,160,167190,1,0,0:0:0:0:
192,160,167340,1,0,0:0:0:0:
192,160,167490,1,8,0:0:0:0:
192,160,167640,1,0,0:0:0:0:
144,128,167790,1,0,0:0:0:0:
192,160,168090,1,8,0:0:0:0:
192,160,168540,1,0,0:0:0:0:
192,160,168690,1,8,0:0:0:0:
192,160,168990,1,0,0:0:0:0:
192,160,169140,1,0,0:0:0:0:
192,160,169290,1,8,0:0:0:0:
192,160,169590,1,0,0:0:0:0:
192,160,169740,1,0,0:0:0:0:
192,160,169890,1,8,0:0:0:0:
192,160,170040,1,8,0:0:0:0:
192,160,170190,1,0,0:0:0:0:
192,160,170490,1,8,0:0:0:0:
107,151,170940,1,0,0:0:0:0:
107,151,171090,1,8,0:0:0:0:
107,151,171390,1,0,0:0:0:0:
107,151,171540,1,0,0:0:0:0:
111,148,171690,1,8,0:0:0:0:
111,148,171990,1,0,0:0:0:0:
111,148,172140,1,0,0:0:0:0:
111,148,172290,1,8,0:0:0:0:
111,148,172440,1,0,0:0:0:0:
192,48,172590,1,0,0:0:0:0:
192,160,172890,1,8,0:0:0:0:
107,151,173340,1,0,0:0:0:0:
107,151,173490,1,8,0:0:0:0:
107,151,173790,1,0,0:0:0:0:
107,151,173940,1,0,0:0:0:0:
111,148,174090,1,8,0:0:0:0:
111,148,174390,1,0,0:0:0:0:
111,148,174540,1,8,0:0:0:0:
111,148,174690,1,8,0:0:0:0:
111,148,174840,1,0,0:0:0:0:
186,35,174990,1,12,0:0:0:0:
262,105,175290,1,8,0:0:0:0:
204,58,175740,1,0,0:0:0:0:
204,58,175890,1,8,0:0:0:0:
204,58,176190,1,0,0:0:0:0:
328,203,176340,1,0,0:0:0:0:
328,203,176490,1,8,0:0:0:0:
328,203,176790,1,8,0:0:0:0:
328,193,176940,1,0,0:0:0:0:
328,193,177090,1,8,0:0:0:0:
328,187,177240,1,0,0:0:0:0:
175,32,177390,1,8,0:0:0:0:
351,172,177690,1,8,0:0:0:0:
351,172,178140,1,0,0:0:0:0:
351,172,178290,1,8,0:0:0:0:
351,172,178590,1,0,0:0:0:0:
128,128,178740,1,0,0:0:0:0:
215,121,178890,1,8,0:0:0:0:
215,121,179190,1,0,0:0:0:0:
215,121,179340,1,8,0:0:0:0:
215,121,179490,1,8,0:0:0:0:
215,121,179640,1,8,0:0:0:0:
196,77,179790,1,4,0:0:0:0:
316,165,180090,1,0,0:0:0:0:
269,68,180540,1,8,0:0:0:0:
366,262,180690,1,0,0:0:0:0:
203,92,180990,1,4,0:0:0:0:
32,133,181290,1,8,0:0:0:0:
120,137,181740,1,0,0:0:0:0:
120,126,181890,1,8,0:0:0:0:
302,147,182190,1,12,0:0:0:0:
292,107,182490,1,12,0:0:0:0:
330,147,182790,1,12,0:0:0:0:
332,154,183090,1,12,0:0:0:0:
316,97,183390,1,0,0:0:0:0:
333,113,183540,1,0,0:0:0:0:
333,113,183690,1,0,0:0:0:0:
333,113,183840,1,0,0:0:0:0:
333,113,183990,1,8,0:0:0:0:
96,121,184440,1,8,0:0:0:0:
103,95,184590,1,4,0:0:0:0:
278,106,185040,1,8,0:0:0:0:
278,106,185190,1,0,0:0:0:0:
380,226,185340,1,8,0:0:0:0:
380,226,185640,1,8,0:0:0:0:
380,226,185790,1,0,0:0:0:0:
380,226,185940,1,8,0:0:0:0:
366,173,186015,1,8,0:0:0:0:
366,173,186090,1,8,0:0:0:0:
375,207,186240,1,8,0:0:0:0:
375,207,186540,1,8,0:0:0:0:
375,207,186690,1,0,0:0:0:0:
347,181,186840,1,8,0:0:0:0:
347,181,186915,1,8,0:0:0:0:
375,207,186990,1,0,0:0:0:0:
320,112,187290,1,0,0:0:0:0:
347,181,187440,1,8,0:0:0:0:
343,175,187590,1,0,0:0:0:0:
343,175,187740,1,8,0:0:0:0:
309,122,188040,1,8,0:0:0:0:
364,237,188190,1,0,0:0:0:0:
394,263,188340,1,0,0:0:0:0:
301,73,188415,1,0,0:0:0:0:
394,263,188490,1,0,0:0:0:0:
394,263,188640,1,8,0:0:0:0:
394,263,188940,1,0,0:0:0:0:
332,127,189090,1,8,0:0:0:0:
394,263,189240,1,0,0:0:0:0:
332,127,189315,1,0,0:0:0:0:
394,263,189390,1,8,0:0:0:0:
384,144,189690,1,0,0:0:0:0:
363,187,189840,1,0,0:0:0:0:
363,187,189990,1,8,0:0:0:0:
231,47,190140,1,8,0:0:0:0:
319,169,190440,1,8,0:0:0:0:
319,169,190590,1,0,0:0:0:0:
306,118,190665,1,0,0:0:0:0:
319,169,190740,1,8,0:0:0:0:
306,118,190890,1,0,0:0:0:0:
307,206,191040,1,8,0:0:0:0:
307,206,191340,1,8,0:0:0:0:
307,206,191490,1,0,0:0:0:0:
307,206,191640,1,8,0:0:0:0:
311,202,191715,1,8,0:0:0:0:
286,178,191790,1,0,0:0:0:0:
184,151,192090,1,0,0:0:0:0:
176,47,192390,1,0,0:0:0:0:
184,151,192540,1,0,0:0:0:0:
184,151,192690,1,8,0:0:0:0:
184,151,192840,1,8,0:0:0:0:
151,28,193140,1,0,0:0:0:0:
406,265,193290,1,8,0:0:0:0:
323,183,193590,1,8,0:0:0:0:
83,132,193740,1,0,0:0:0:0:
88,127,193890,1,0,0:0:0:0:
83,132,194040,1,8,0:0:0:0:
262,128,194190,1,12,0:0:0:0:
325,142,194640,1,8,0:0:0:0:
370,197,194790,1,0,0:0:0:0:
325,142,194940,1,8,0:0:0:0:
363,226,195240,1,0,0:0:0:0:
363,226,195390,1,8,0:0:0:0:
198,69,195540,1,8,0:0:0:0:
275,104,195690,1,0,0:0:0:0:
251,113,195840,1,12,0:0:0:0:
251,113,196140,1,4,0:0:0:0:
251,113,196440,1,4,0:0:0:0:
369,244,196890,1,8,0:0:0:0:
369,244,197040,1,0,0:0:0:0:
257,129,197190,1,0,0:0:0:0:
257,129,197340,1,8,0:0:0:0:
257,129,197640,1,0,0:0:0:0:
285,39,197790,1,8,0:0:0:0:
365,207,197940,1,8,0:0:0:0:
380,138,198015,1,8,0:0:0:0:
365,207,198090,1,8,0:0:0:0:
284,130,198240,1,0,0:0:0:0:
365,207,198540,1,8,0:0:0:0:
365,207,198690,1,0,0:0:0:0:
365,207,198840,1,8,0:0:0:0:
283,66,198915,1,8,0:0:0:0:
365,207,198990,1,0,0:0:0:0:
271,93,199590,1,0,0:0:0:0:
368,218,199890,1,8,0:0:0:0:
294,134,200040,1,8,0:0:0:0:
185,54,200190,1,0,0:0:0:0:
334,204,200490,1,8,0:0:0:0:
82,157,200640,1,0,0:0:0:0:
373,223,200715,1,0,0:0:0:0:
373,223,200790,1,0,0:0:0:0:
368,218,200940,1,0,0:0:0:0:
133,141,201090,1,8,0:0:0:0:
167,88,201240,1,8,0:0:0:0:
185,54,201390,1,0,0:0:0:0:
260,86,201990,1,0,0:0:0:0:
342,123,202140,1,0,0:0:0:0:
347,184,202290,1,8,0:0:0:0:
281,100,202590,1,0,0:0:0:0:
281,100,202740,1,0,0:0:0:0:
207,42,202815,1,0,0:0:0:0:
281,100,202890,1,8,0:0:0:0:
208,103,203040,1,0,0:0:0:0:
281,100,203190,1,8,0:0:0:0:
281,100,203340,1,8,0:0:0:0:
225,37,203415,1,8,0:0:0:0:
281,100,203490,1,8,0:0:0:0:
281,100,203640,1,0,0:0:0:0:
192,93,203790,1,12,0:0:0:0:
144,176,204090,1,0,0:0:0:0:
302,128,204390,1,0,0:0:0:0:
379,227,204540,1,8,0:0:0:0:
379,227,204690,1,0,0:0:0:0:
377,224,204840,1,8,0:0:0:0:
221,96,205140,1,8,0:0:0:0:
221,96,205290,1,8,0:0:0:0:
132,170,205590,1,0,0:0:0:0:
376,208,205890,1,8,0:0:0:0:
198,82,206190,1,8,0:0:0:0:
340,201,206340,1,8,0:0:0:0:
193,146,206790,1,8,0:0:0:0:
193,146,206940,1,0,0:0:0:0:
187,60,207090,1,0,0:0:0:0:
193,146,207240,1,8,0:0:0:0:
401,236,207540,1,8,0:0:0:0:
401,236,207690,1,8,0:0:0:0:
401,236,207990,1,8,0:0:0:0:
401,236,208140,1,8,0:0:0:0:
401,236,208290,1,0,0:0:0:0:
401,236,208440,1,0,0:0:0:0:
297,121,208590,1,12,0:0:0:0:
368,207,208890,1,0,0:0:0:0:
81,87,209190,1,0,0:0:0:0:
379,227,209340,1,8,0:0:0:0:
379,227,209490,1,0,0:0:0:0:
377,224,209640,1,8,0:0:0:0:
221,96,209940,1,8,0:0:0:0:
221,96,210090,1,0,0:0:0:0:
359,156,210390,1,0,0:0:0:0:
376,208,210540,1,0,0:0:0:0:
376,208,210690,1,8,0:0:0:0:
198,82,210990,1,8,0:0:0:0:
94,91,211140,1,8,0:0:0:0:
340,201,211290,1,0,0:0:0:0:
193,146,211590,1,8,0:0:0:0:
193,146,211740,1,0,0:0:0:0:
187,60,211890,1,0,0:0:0:0:
193,146,212040,1,12,0:0:0:0:
401,236,212490,1,8,0:0:0:0:
436,225,212640,1,0,0:0:0:0:
401,236,212790,1,8,0:0:0:0:
401,236,212940,1,8,0:0:0:0:
401,236,213090,1,0,0:0:0:0:
110,137,213390,1,12,0:0:0:0:
144,128,213690,1,0,0:0:0:0:
379,227,213990,1,8,0:0:0:0:
303,119,214140,1,0,0:0:0:0:
379,227,214290,1,0,0:0:0:0:
377,224,214440,1,8,0:0:0:0:
221,96,214740,1,8,0:0:0:0:
221,96,214890,1,8,0:0:0:0:
184,43,215190,1,0,0:0:0:0:
373,202,215340,1,0,0:0:0:0:
376,208,215490,1,8,0:0:0:0:
198,82,215790,1,8,0:0:0:0:
340,201,215940,1,8,0:0:0:0:
193,146,216390,1,8,0:0:0:0:
187,60,216690,1,0,0:0:0:0:
193,146,216840,1,8,0:0:0:0:
401,236,217140,1,8,0:0:0:0:
401,236,217290,1,8,0:0:0:0:
401,236,217590,1,8,0:0:0:0:
401,236,217740,1,8,0:0:0:0:
401,236,217890,1,0,0:0:0:0:
110,137,218190,1,12,0:0:0:0:
304,128,218490,1,0,0:0:0:0:
224,64,218790,1,0,0:0:0:0:
379,227,219090,1,0,0:0:0:0:
377,224,219240,1,8,0:0:0:0:
221,96,219540,1,8,0:0:0:0:
221,96,219690,1,8,0:0:0:0:
376,208,220290,1,8,0:0:0:0:
198,82,220590,1,8,0:0:0:0:
340,201,220740,1,8,0:0:0:0:
193,146,221190,1,8,0:0:0:0:
187,60,221490,1,0,0:0:0:0:
193,146,221640,1,8,0:0:0:0:
415,288,221790,1,0,0:0:0:0:
160,256,222090,2,0,B|176:192|224:144|272:160|304:208|240:272|161:279|159:232,1,282.799994390259
135,130,222990,1,12,0:0:0:0:
193,164,223290,1,8,0:0:0:0:
91,136,223740,1,0,0:0:0:0:
117,137,223890,1,8,0:0:0:0:
117,137,224190,1,0,0:0:0:0:
117,137,224490,1,8,0:0:0:0:
228,129,224640,1,8,0:0:0:0:
165,59,224790,1,0,0:0:0:0:
244,129,225090,1,8,0:0:0:0:
168,161,225390,1,0,0:0:0:0:
193,164,225690,1,8,0:0:0:0:
91,136,226140,1,0,0:0:0:0:
117,137,226290,1,8,0:0:0:0:
117,137,226590,1,0,0:0:0:0:
127,125,226890,1,8,0:0:0:0:
194,69,227040,1,0,0:0:0:0:
194,69,227190,1,0,0:0:0:0:
244,129,227490,1,8,0:0:0:0:
191,49,227640,1,0,0:0:0:0:
244,129,227790,1,0,0:0:0:0:
193,164,228090,1,8,0:0:0:0:
91,136,228540,1,0,0:0:0:0:
117,137,228690,1,8,0:0:0:0:
117,137,228990,1,0,0:0:0:0:
117,137,229290,1,8,0:0:0:0:
228,129,229440,1,8,0:0:0:0:
244,129,229590,1,0,0:0:0:0:
244,129,229740,1,0,0:0:0:0:
244,129,229890,1,8,0:0:0:0:
244,129,230190,1,0,0:0:0:0:
228,76,230490,1,8,0:0:0:0:
140,129,230940,1,0,0:0:0:0:
140,129,231090,1,8,0:0:0:0:
157,65,231390,1,0,0:0:0:0:
300,126,231690,1,8,0:0:0:0:
300,126,231990,1,8,0:0:0:0:
383,221,232140,1,0,0:0:0:0:
383,221,232290,1,8,0:0:0:0:
297,115,232440,1,0,0:0:0:0:
242,94,232590,1,0,0:0:0:0:
193,164,232890,1,8,0:0:0:0:
91,136,233340,1,0,0:0:0:0:
117,137,233490,1,8,0:0:0:0:
117,137,233790,1,0,0:0:0:0:
117,137,234090,1,8,0:0:0:0:
228,129,234240,1,8,0:0:0:0:
244,129,234390,1,0,0:0:0:0:
244,129,234690,1,8,0:0:0:0:
244,129,234990,1,0,0:0:0:0:
193,164,235290,1,8,0:0:0:0:
91,136,235740,1,0,0:0:0:0:
117,137,235890,1,8,0:0:0:0:
117,137,236190,1,0,0:0:0:0:
127,125,236490,1,8,0:0:0:0:
194,69,236640,1,0,0:0:0:0:
194,69,236790,1,0,0:0:0:0:
244,129,237090,1,8,0:0:0:0:
192,50,237240,1,0,0:0:0:0:
168,161,237390,1,0,0:0:0:0:
193,164,237690,1,8,0:0:0:0:
91,136,238140,1,0,0:0:0:0:
117,137,238290,1,8,0:0:0:0:
117,137,238590,1,0,0:0:0:0:
117,137,238890,1,8,0:0:0:0:
228,129,239040,1,8,0:0:0:0:
244,129,239190,1,0,0:0:0:0:
244,129,239340,1,0,0:0:0:0:
244,129,239490,1,8,0:0:0:0:
244,129,239790,1,0,0:0:0:0:
228,76,240090,1,8,0:0:0:0:
140,129,240540,1,0,0:0:0:0:
140,129,240690,1,8,0:0:0:0:
330,161,240990,1,0,0:0:0:0:
300,126,241290,1,8,0:0:0:0:
300,126,241590,1,8,0:0:0:0:
300,126,241740,1,0,0:0:0:0:
383,221,241890,1,8,0:0:0:0:
297,115,242040,1,0,0:0:0:0:
300,126,242190,1,12,0:0:0:0:
