osu file format v14

[General]
AudioFilename: Helblinde - Life starts -Grief & Malice.mp3
AudioLeadIn: 0
PreviewTime: 111440
Countdown: 0
SampleSet: Soft
StackLeniency: 0.7
Mode: 0
LetterboxInBreaks: 1
WidescreenStoryboard: 1

[Editor]
Bookmarks: 7184,40784,45584,72584,77984,88784,92384,106784,111584,154784,164384,183584,202784,221984
DistanceSpacing: 0.8
BeatDivisor: 4
GridSize: 4
TimelineZoom: 3.799999

[Metadata]
Title:Grief & Malice
TitleUnicode:Grief & Malice
Artist:Helblinde
ArtistUnicode:Helblinde
Creator:Okoratu
Version:Local's Insane
Source:魔法少女まどか☆マギカ
Tags:being Meguca is suffering bpm200 madoka magica hr1 co22 corsace open Okorin wf Black Sheep Local Hero Share life starts at 200 bpm and anime japanese electronic hardstyle mahou shoujo magica! sis puella Kajiura Yuki 梶浦 由記 jcore j-core hardcore claris opening op connect コネクト 鹿目 まどか 暁美 ほむら Akemi Homura Kaname j-pop jpop hard rock one winner finals 2022 pop beats per minute remix mashup meduka hameru Magi
BeatmapID:3994109
BeatmapSetID:1846720

[Difficulty]
HPDrainRate:5
CircleSize:3.2
OverallDifficulty:8
ApproachRate:9
SliderMultiplier:1.2
SliderTickRate:1

[Events]
//Background and Video events
0,0,"BG.jpg",0,0
//Break Periods
//Storyboard Layer 0 (Background)
//Storyboard Layer 1 (Fail)
//Storyboard Layer 2 (Pass)
//Storyboard Layer 3 (Foreground)
//Storyboard Layer 4 (Overlay)
//Storyboard Sound Samples

[TimingPoints]
-16,300,4,2,1,65,1,0
7184,-100,4,2,1,65,0,0
16784,-90.9090909090909,4,2,1,65,0,0
26384,-83.3333333333333,3,2,1,80,0,0
33584,-111.111111111111,3,2,1,80,0,0
36884,-111.111111111111,4,2,2,65,0,0
37334,-111.111111111111,4,2,1,65,0,0
39284,-111.111111111111,4,2,2,65,0,0
39734,-111.111111111111,4,2,1,65,0,0
40784,-90.9090909090909,4,2,1,35,0,0
41384,-90.9090909090909,4,2,1,40,0,0
41984,-90.9090909090909,4,2,1,45,0,0
42584,-90.9090909090909,4,2,1,50,0,0
43184,-90.9090909090909,4,2,1,55,0,0
43334,-90.9090909090909,4,2,3,55,0,0
43634,-90.9090909090909,4,2,1,65,0,0
44384,-83.3333333333333,4,2,1,65,0,0
44609,-83.3333333333333,4,2,3,65,0,0
44759,-83.3333333333333,4,2,4,65,0,0
44834,-83.3333333333333,4,2,1,65,0,0
44984,-83.3333333333333,4,2,3,65,0,0
45284,-76.9230769230769,4,2,3,65,0,0
45584,300,3,2,1,80,1,1
45584,-66.6666666666667,4,2,1,80,0,1
47384,-66.6666666666667,3,2,3,80,0,1
47684,-66.6666666666667,3,2,1,80,0,1
49184,-66.6666666666667,3,2,3,80,0,1
49484,-66.6666666666667,3,2,1,80,0,1
50984,-66.6666666666667,3,2,4,80,0,1
51134,-66.6666666666667,3,2,1,80,0,1
52784,-66.6666666666667,3,2,4,80,0,1
52934,-66.6666666666667,3,2,1,80,0,1
54584,-66.6666666666667,3,2,3,80,0,1
54884,-66.6666666666667,3,2,1,80,0,1
56384,-66.6666666666667,3,2,3,80,0,1
56684,-66.6666666666667,3,2,1,80,0,1
58184,-66.6666666666667,3,2,4,80,0,1
58334,-66.6666666666667,3,2,1,80,0,1
59984,-66.6666666666667,3,2,4,80,0,1
60134,-66.6666666666667,3,2,1,80,0,1
61784,-66.6666666666667,3,2,3,80,0,1
61934,-66.6666666666667,3,2,1,80,0,1
63584,-66.6666666666667,3,2,3,80,0,1
63884,-66.6666666666667,3,2,1,80,0,1
65384,-66.6666666666667,3,2,3,80,0,1
65534,-66.6666666666667,3,2,1,80,0,1
67184,-66.6666666666667,3,2,3,80,0,1
67484,-66.6666666666667,3,2,1,80,0,1
68984,-66.6666666666667,3,2,4,80,0,1
69134,-66.6666666666667,3,2,1,80,0,1
70784,-66.6666666666667,3,2,3,80,0,1
70934,-66.6666666666667,3,2,1,80,0,1
72584,-83.3333333333333,3,2,3,80,0,0
77909,-125,3,2,5,60,0,0
77984,-125,3,2,5,60,0,0
78284,-125,3,2,6,60,0,0
78584,-125,3,2,5,60,0,0
79184,-125,3,2,6,60,0,0
79484,-125,3,2,5,60,0,0
80084,-125,3,2,6,60,0,0
80384,-125,3,2,5,60,0,0
80984,-125,3,2,6,60,0,0
81134,-125,3,2,5,60,0,0
81884,-125,3,2,6,60,0,0
82184,-125,3,2,5,60,0,0
82784,-125,3,2,6,60,0,0
83084,-125,3,2,5,60,0,0
83684,-125,3,2,6,60,0,0
83984,-125,3,2,5,60,0,0
84584,-125,3,2,6,60,0,0
84734,-125,3,2,5,60,0,0
85184,-125,3,2,3,70,0,0
85484,-125,3,2,1,70,0,0
86084,-125,3,2,3,70,0,0
86384,-125,3,2,1,70,0,0
86984,-125,3,2,3,70,0,0
87284,-125,3,2,1,70,0,0
87884,-125,3,2,3,70,0,0
88184,-125,3,2,1,70,0,0
88709,-125,3,2,3,20,0,0
88784,-76.9230769230769,3,2,3,80,0,0
89084,-76.9230769230769,3,2,1,80,0,0
89384,-76.9230769230769,3,2,3,80,0,0
89684,-76.9230769230769,3,2,1,80,0,0
89984,-76.9230769230769,3,2,3,80,0,0
90284,-76.9230769230769,3,2,1,80,0,0
90584,-76.9230769230769,3,2,3,80,0,0
92084,-125,3,2,3,80,0,0
92384,300,4,2,1,80,1,0
92384,-76.9230769230769,3,2,1,80,0,0
93134,-76.9230769230769,3,2,1,80,0,0
93284,-66.6666666666667,3,2,1,80,0,0
93584,-76.9230769230769,3,2,2,80,0,0
93734,-76.9230769230769,3,2,1,80,0,0
94484,-66.6666666666667,3,2,1,80,0,0
94784,-76.9230769230769,3,2,2,80,0,0
94934,-76.9230769230769,3,2,1,80,0,0
97184,-76.9230769230769,3,2,2,80,0,0
97334,-76.9230769230769,3,2,1,80,0,0
98384,-76.9230769230769,3,2,2,80,0,0
98534,-76.9230769230769,3,2,1,80,0,0
99584,-76.9230769230769,3,2,2,80,0,0
99734,-76.9230769230769,3,2,1,80,0,0
100784,-76.9230769230769,3,2,2,80,0,0
100934,-76.9230769230769,3,2,1,80,0,0
101984,-76.9230769230769,3,2,2,80,0,0
102584,-76.9230769230769,3,2,1,80,0,0
103184,-76.9230769230769,3,2,2,80,0,0
103334,-76.9230769230769,3,2,1,80,0,0
104384,-76.9230769230769,3,2,2,80,0,0
104984,-76.9230769230769,3,2,1,80,0,0
107534,-76.9230769230769,3,2,7,80,0,0
107684,-76.9230769230769,3,2,1,80,0,0
107984,-76.9230769230769,3,2,7,80,0,0
108284,-76.9230769230769,3,2,1,80,0,0
108734,-76.9230769230769,3,2,7,80,0,0
108884,-76.9230769230769,3,2,1,80,0,0
109184,-76.9230769230769,3,2,7,80,0,0
109484,-76.9230769230769,3,2,1,80,0,0
109934,-76.9230769230769,3,2,7,80,0,0
110084,-76.9230769230769,3,2,1,80,0,0
110384,-76.9230769230769,3,2,7,80,0,0
110684,-76.9230769230769,3,2,1,80,0,0
111134,-76.9230769230769,3,2,7,80,0,0
111284,-125,3,2,1,80,0,0
111584,300,3,2,1,80,1,1
111584,-66.6666666666667,3,2,1,80,0,1
113384,-66.6666666666667,3,2,3,80,0,1
113534,-66.6666666666667,3,2,1,80,0,1
115184,-66.6666666666667,3,2,3,80,0,1
115484,-66.6666666666667,3,2,1,80,0,1
116984,-66.6666666666667,3,2,3,80,0,1
117134,-66.6666666666667,3,2,1,80,0,1
118784,-66.6666666666667,3,2,3,80,0,1
119084,-66.6666666666667,3,2,1,80,0,1
120584,-66.6666666666667,3,2,3,80,0,1
120734,-66.6666666666667,3,2,1,80,0,1
122384,-66.6666666666667,3,2,3,80,0,1
122684,-66.6666666666667,3,2,1,80,0,1
124184,-66.6666666666667,3,2,3,80,0,1
124334,-66.6666666666667,3,2,1,80,0,1
125984,-66.6666666666667,3,2,3,80,0,1
126284,-66.6666666666667,3,2,1,80,0,1
127784,-66.6666666666667,3,2,3,80,0,1
127934,-66.6666666666667,3,2,1,80,0,1
129584,-66.6666666666667,3,2,3,80,0,1
129734,-66.6666666666667,3,2,1,80,0,1
131384,-66.6666666666667,3,2,3,80,0,1
131534,-66.6666666666667,3,2,1,80,0,1
132584,-83.3333333333333,3,2,8,80,0,0
132884,-83.3333333333333,3,2,8,80,0,0
133034,-66.6666666666667,3,2,7,80,0,0
133184,-66.6666666666667,3,2,9,80,0,1
134984,-66.6666666666667,3,2,10,80,0,1
135134,-66.6666666666667,3,2,9,80,0,1
136784,-66.6666666666667,3,2,10,80,0,1
136934,-66.6666666666667,3,2,9,80,0,1
138584,-66.6666666666667,3,2,10,80,0,1
138734,-66.6666666666667,3,2,9,80,0,1
140384,-66.6666666666667,3,2,10,80,0,1
140534,-66.6666666666667,3,2,9,80,0,1
142184,-66.6666666666667,3,2,10,80,0,1
142334,-66.6666666666667,3,2,9,80,0,1
143984,-66.6666666666667,3,2,10,80,0,1
144134,-66.6666666666667,3,2,9,80,0,1
145784,-66.6666666666667,3,2,10,80,0,1
145934,-66.6666666666667,3,2,9,80,0,1
147584,-66.6666666666667,3,2,10,80,0,1
147734,-66.6666666666667,3,2,9,80,0,1
149384,-66.6666666666667,3,2,10,80,0,1
149534,-66.6666666666667,3,2,9,80,0,1
150284,-66.6666666666667,3,2,10,80,0,1
150434,-66.6666666666667,3,2,9,80,0,1
150884,-66.6666666666667,3,2,1,80,0,1
151184,-66.6666666666667,3,2,10,80,0,1
151334,-66.6666666666667,3,2,9,80,0,1
151784,-66.6666666666667,3,2,1,80,0,1
152084,-66.6666666666667,3,2,9,80,0,1
152684,-66.6666666666667,3,2,1,80,0,1
152984,-66.6666666666667,3,2,10,80,0,1
153134,-66.6666666666667,3,2,9,80,0,1
153584,-66.6666666666667,3,2,11,80,0,1
153659,-66.6666666666667,3,2,3,80,0,1
154784,300,4,2,3,70,1,0
154784,-83.3333333333333,3,2,3,70,0,0
155084,-83.3333333333333,3,2,1,70,0,0
157184,-83.3333333333333,3,2,3,70,0,0
157484,-83.3333333333333,3,2,1,70,0,0
159584,-83.3333333333333,3,2,3,70,0,0
159884,-83.3333333333333,3,2,1,70,0,0
161984,-83.3333333333333,3,2,3,70,0,0
162284,-83.3333333333333,3,2,1,70,0,0
164384,-83.3333333333333,3,2,1,70,0,0
173984,-83.3333333333333,3,2,3,70,0,0
174884,-83.3333333333333,3,2,1,70,0,0
178784,-83.3333333333333,3,2,3,70,0,0
179234,-83.3333333333333,3,2,1,70,0,0
179984,-83.3333333333333,3,2,3,70,0,0
180434,-83.3333333333333,3,2,1,70,0,0
181184,-83.3333333333333,3,2,3,70,0,0
182984,-83.3333333333333,3,2,7,70,0,0
183584,-66.6666666666667,3,2,3,80,0,1
184034,-66.6666666666667,3,2,1,80,0,1
185984,-66.6666666666667,3,2,3,80,0,1
186434,-66.6666666666667,3,2,1,80,0,1
187184,-66.6666666666667,3,2,2,80,0,1
187334,-66.6666666666667,3,2,1,80,0,1
188384,-66.6666666666667,3,2,2,80,0,1
188834,-66.6666666666667,3,2,1,80,0,1
189584,-66.6666666666667,3,2,2,80,0,1
189734,-66.6666666666667,3,2,1,80,0,1
190784,-66.6666666666667,3,2,2,80,0,1
191084,-66.6666666666667,3,2,1,80,0,1
192284,-66.6666666666667,3,2,3,80,0,1
192584,-66.6666666666667,3,2,1,80,0,1
193184,-66.6666666666667,3,2,2,80,0,1
193634,-66.6666666666667,3,2,1,80,0,1
194834,-100,3,2,2,80,0,1
195584,-66.6666666666667,3,2,3,80,0,1
196034,-66.6666666666667,3,2,1,80,0,1
196784,-66.6666666666667,3,2,2,80,0,1
196934,-66.6666666666667,3,2,1,80,0,1
197984,-66.6666666666667,3,2,12,80,0,1
198134,-66.6666666666667,3,2,1,80,0,1
199184,-66.6666666666667,3,2,2,80,0,1
199484,-66.6666666666667,3,2,1,80,0,1
199634,-66.6666666666667,3,2,2,80,0,1
199934,-66.6666666666667,3,2,1,80,0,1
200384,-66.6666666666667,3,2,2,80,0,1
201284,-66.6666666666667,3,2,1,80,0,1
201584,-66.6666666666667,3,2,2,80,0,1
202784,-83.3333333333333,3,2,1,70,0,0
207584,-83.3333333333333,3,2,3,70,0,0
207734,-83.3333333333333,3,2,1,70,0,0
211034,-83.3333333333333,3,2,3,70,0,0
211184,-83.3333333333333,3,2,1,70,0,0
214784,-90.9090909090909,3,2,1,70,0,0
215384,-111.111111111111,3,2,1,70,0,0
217184,-100,3,2,1,70,0,0

[Colours]
Combo1 : 113,113,255
Combo2 : 255,149,202
Combo3 : 177,177,177
Combo4 : 255,255,128

[HitObjects]
256,192,5384,12,0,7034,0:0:0:0:
322,85,7184,6,0,B|261:96|261:96|271:160,3,120,12|8|8|8,2:2|2:2|2:2|2:2,0:0:0:0:
223,244,8234,1,0,0:0:0:0:
223,244,8384,6,0,B|162:233|162:233|172:169,3,120,8|8|8|8,2:2|2:2|2:2|2:2,0:0:0:0:
127,87,9434,1,0,0:0:0:0:
127,87,9584,6,0,B|66:98|66:98|76:162,3,120,8|8|8|8,2:2|2:2|2:2|2:2,0:0:0:0:
54,250,10634,1,2,2:2:0:0:
54,250,10784,5,8,2:2:0:0:
136,275,10934,2,0,L|209:290,2,60,2|10|0,2:2|2:2|0:0,0:0:0:0:
66,336,11384,1,8,2:2:0:0:
38,224,11534,2,0,L|26:165,2,60,2|10|0,2:2|2:2|0:0,0:0:0:0:
134,256,11984,6,0,B|192:248|192:248|246:292,3,120,8|8|8|8,2:2|2:2|2:2|2:2,0:0:0:0:
310,357,13034,1,0,0:0:0:0:
310,357,13184,6,0,B|326:299|326:299|383:264,3,120,8|8|8|8,2:2|2:2|2:2|2:2,0:0:0:0:
424,182,14234,5,0,0:0:0:0:
424,182,14384,2,0,L|341:190,2,60,8|0|8,0:0|0:0|0:0,0:0:0:0:
317,64,14834,1,0,0:0:0:0:
317,64,14984,2,0,L|236:41,2,60,8|0|8,0:0|0:0|0:0,0:0:0:0:
402,103,15434,1,0,0:0:0:0:
402,103,15584,6,0,P|390:165|380:222,1,120,8|8,2:2|2:2,0:0:0:0:
356,340,16034,1,0,0:0:0:0:
356,340,16184,6,0,L|413:323,2,40,2|2|2,0:3|0:3|0:3,0:0:0:0:
260,282,16484,2,0,L|249:224,2,40,2|2|2,0:3|0:3|0:3,0:0:0:0:
192,358,16784,6,0,P|141:352|93:351,1,99.0000030212403,12|0,2:2|0:0,0:0:0:0:
66,343,17084,2,0,P|91:314|114:289,1,66.0000020141602,0|0,1:1|3:3,0:0:0:0:
115,204,17384,1,8,2:2:0:0:
115,204,17534,1,0,3:3:0:0:
77,123,17684,2,0,L|-12:99,1,66.0000020141602,0|0,1:1|3:3,0:0:0:0:
127,44,17984,6,0,P|167:89|163:147,1,99.0000030212403,8|0,2:2|0:0,0:0:0:0:
153,155,18284,2,0,P|153:208|166:231,1,66.0000020141602,0|0,1:1|0:0,0:0:0:0:
240,182,18584,1,8,2:2:0:0:
240,182,18734,1,0,3:3:0:0:
267,100,18884,2,0,P|305:95|347:85,1,66.0000020141602,0|0,1:1|3:3,0:0:0:0:
449,0,19184,6,0,P|421:67|424:110,1,99.0000030212403,8|0,2:2|0:0,0:0:0:0:
403,121,19484,2,0,P|369:98|343:78,1,66.0000020141602,0|0,1:1|3:3,0:0:0:0:
250,13,19784,1,8,2:2:0:0:
250,13,19934,1,0,3:3:0:0:
264,111,20084,2,0,P|269:145|276:179,1,66.0000020141602,0|0,1:1|3:3,0:0:0:0:
338,275,20384,6,0,P|314:324|319:373,1,99.0000030212403,8|0,2:2|0:0,0:0:0:0:
340,375,20684,2,0,P|377:362|407:355,1,66.0000020141602,0|0,1:1|3:3,0:0:0:0:
476,293,20984,1,8,2:2:0:0:
446,212,21134,1,0,3:3:0:0:
368,174,21284,1,0,1:1:0:0:
286,200,21434,1,0,0:0:0:0:
237,273,21584,6,0,P|183:281|128:292,1,99.0000030212403,8|0,2:2|0:0,0:0:0:0:
125,306,21884,2,0,P|121:344|116:376,1,66.0000020141602,0|0,1:1|0:0,0:0:0:0:
207,366,22184,1,8,2:2:0:0:
247,282,22334,1,0,3:3:0:0:
219,190,22484,1,0,1:1:0:0:
258,108,22634,1,0,3:3:0:0:
211,30,22784,6,0,P|163:22|114:48,1,99.0000030212403,8|0,2:2|0:0,0:0:0:0:
110,71,23084,2,0,P|114:113|107:165,1,66.0000020141602,2|0,1:2|0:0,0:0:0:0:
71,296,23384,2,0,P|36:282|-5:270,1,66.0000020141602,8|0,2:2|3:3,0:0:0:0:
174,258,23684,2,0,P|205:254|242:246,1,66.0000020141602,2|0,1:2|3:3,0:0:0:0:
372,141,23984,5,8,2:2:0:0:
437,196,24134,1,8,3:2:0:0:
407,276,24284,1,8,1:2:0:0:
467,206,24434,1,8,3:2:0:0:
471,117,24584,2,0,P|440:68|383:50,1,99.0000030212403,8|0,2:2|0:0,0:0:0:0:
377,71,24884,2,0,P|343:97|312:99,1,66.0000020141602,8|0,1:2|3:3,0:0:0:0:
117,181,25184,5,8,2:2:0:0:
153,103,25334,1,8,3:2:0:0:
106,30,25484,1,8,1:2:0:0:
21,43,25634,1,8,3:2:0:0:
71,112,25784,1,8,2:2:0:0:
205,178,25934,1,8,3:2:0:0:
99,258,26084,2,0,P|107:316|113:371,1,99.0000030212403,8|0,1:2|0:0,0:0:0:0:
130,369,26384,6,0,P|206:356|232:292,1,143.999995605469,14|0,2:2|1:1,0:0:0:0:
201,118,26984,1,10,3:2:0:0:
201,118,27134,1,8,2:2:0:0:
283,158,27284,1,10,2:2:0:0:
283,158,27434,1,0,0:0:0:0:
362,123,27584,6,0,B|415:154|415:154|400:225,1,107.999996704102,10|0,2:2|0:0,0:0:0:0:
383,295,27884,1,2,1:2:0:0:
383,295,28034,1,0,0:0:0:0:
442,355,28184,2,0,P|478:364|512:371,1,71.9999978027344,0|8,0:0|2:2,0:0:0:0:
383,295,28484,2,0,P|341:299|311:305,1,71.9999978027344,2|10,1:2|2:2,0:0:0:0:
448,228,28784,6,0,P|458:167|432:86,1,143.999995605469,8|0,2:2|1:1,0:0:0:0:
321,22,29384,1,2,2:2:0:0:
233,42,29534,1,10,2:2:0:0:
150,64,29684,2,0,P|84:80|26:96,1,107.999996704102,0|0,1:1|0:0,0:0:0:0:
34,116,29984,6,0,P|45:153|49:200,1,71.9999978027344,10|0,2:2|0:0,0:0:0:0:
141,296,30284,2,0,P|128:329|119:364,1,71.9999978027344,2|0,1:2|0:0,0:0:0:0:
53,298,30584,1,8,2:2:0:0:
78,207,30734,1,2,2:2:0:0:
170,192,30884,1,0,3:3:0:0:
226,117,31034,1,0,3:3:0:0:
314,87,31184,6,0,P|305:169|304:241,1,143.999995605469,14|0,2:2|1:1,0:0:0:0:
476,351,31784,1,10,3:2:0:0:
476,351,31934,1,8,2:2:0:0:
379,345,32084,1,10,2:2:0:0:
379,345,32234,1,2,3:2:0:0:
387,248,32384,6,0,P|391:193|398:125,1,107.999996704102,10|0,2:2|0:0,0:0:0:0:
403,50,32684,1,2,1:2:0:0:
403,50,32834,1,2,2:2:0:0:
317,75,32984,2,0,P|279:88|227:111,1,71.9999978027344,0|8,0:0|2:2,0:0:0:0:
161,190,33284,2,0,P|176:226|184:266,1,71.9999978027344,2|10,1:2|2:2,0:0:0:0:
96,364,33584,6,0,P|68:343|60:291,1,80.9999975280763,8|0,2:2|0:0,0:0:0:0:
82,278,33884,2,0,P|78:233|39:209,1,80.9999975280763,0|0,1:1|0:0,0:0:0:0:
17,42,34334,1,8,2:2:0:0:
84,95,34484,1,2,1:2:0:0:
167,72,34634,1,2,2:2:0:0:
248,115,34784,6,0,L|303:122,1,53.9999983520508,8|0,2:2|0:0,0:0:0:0:
425,19,35084,2,0,P|408:49|395:79,1,53.9999983520508,0|0,1:1|0:0,0:0:0:0:
398,218,35384,2,0,L|405:254,3,26.9999991760254,8|0|0|0,2:2|0:0|3:3|0:0,0:0:0:0:
464,151,35684,1,0,1:1:0:0:
464,151,35984,6,0,P|425:121|378:121,1,80.9999975280763,12|0,2:2|0:0,0:0:0:0:
367,147,36284,2,0,P|373:174|371:214,1,53.9999983520508,2|0,1:1|0:0,0:0:0:0:
340,342,36584,2,0,L|379:346,3,26.9999991760254,2|0|8|0,3:2|0:0|2:2|0:0,0:0:0:0:
307,367,36884,1,10,1:2:0:0:
307,367,37034,1,0,3:3:0:0:
177,310,37184,6,0,L|170:272,3,26.9999991760254,8|0|2|0,2:2|0:0|2:2|0:0,0:0:0:0:
161,338,37484,1,2,1:1:0:0:
161,338,37634,1,0,3:3:0:0:
24,297,37784,2,0,P|23:274|16:229,1,53.9999983520508,2|8,2:1|2:2,0:0:0:0:
8,216,38009,2,0,P|26:191|58:177,1,53.9999983520508,2|0,3:2|0:0,0:0:0:0:
51,148,38234,1,2,2:2:0:0:
103,73,38384,6,0,P|142:86|184:95,1,80.9999975280763,8|0,2:2|0:0,0:0:0:0:
198,124,38684,2,0,P|186:158|181:198,1,53.9999983520508,2|0,1:1|0:0,0:0:0:0:
200,275,38984,1,2,3:2:0:0:
285,229,39134,1,8,2:2:0:0:
377,271,39284,2,0,L|382:307,3,26.9999991760254,10|0|0|0,1:2|0:0|3:3|0:0,0:0:0:0:
437,201,39584,5,8,2:2:0:0:
386,118,39734,1,2,2:2:0:0:
444,41,39884,2,0,L|486:36,3,26.9999991760254,2|0|0|0,1:1|0:0|3:3|0:0,0:0:0:0:
373,104,40184,1,2,2:2:0:0:
287,69,40334,1,8,2:2:0:0:
220,126,40484,1,0,1:1:0:0:
140,86,40634,1,2,2:2:0:0:
123,82,40709,1,0,0:0:0:0:
104,77,40784,5,10,3:2:0:0:
256,192,40859,12,12,45284,2:2:0:0:
236,36,45584,6,0,P|252:109|250:192,1,135.000005149841,14|0,2:2|0:0,0:0:0:0:
238,278,45884,1,0,1:1:0:0:
345,168,46034,1,2,3:2:0:0:
163,195,46184,2,0,P|116:182|65:172,1,90.0000034332277,10|0,2:2|3:3,0:0:0:0:
252,295,46484,2,0,P|299:282|350:272,1,90.0000034332277,2|0,1:2|3:3,0:0:0:0:
372,81,46784,2,0,P|359:132|348:200,1,90.0000034332277,10|0,2:2|3:3,0:0:0:0:
404,358,47084,1,2,1:2:0:0:
512,232,47234,1,0,3:3:0:0:
512,232,47309,1,0,0:0:0:0:
512,232,47384,6,0,B|452:267|452:267|359:235,1,135.000005149841,10|0,2:2|0:0,0:0:0:0:
258,240,47684,1,2,1:2:0:0:
242,154,47834,1,2,3:2:0:0:
242,154,47984,2,0,P|167:135|84:122,1,135.000005149841,10|0,2:2|0:0,0:0:0:0:
96,100,48284,2,0,P|109:37|149:21,1,90.0000034332277,2|0,1:2|3:3,0:0:0:0:
337,114,48584,2,0,P|349:167|319:220,1,90.0000034332277,10|0,2:2|3:3,0:0:0:0:
128,304,48884,1,2,1:2:0:0:
256,360,49034,1,0,3:3:0:0:
256,360,49109,1,0,0:0:0:0:
256,360,49184,6,0,P|256:291|262:217,1,135.000005149841,14|0,2:2|0:0,0:0:0:0:
320,120,49484,1,2,1:2:0:0:
390,17,49634,1,2,3:2:0:0:
512,17,49784,2,0,B|489:37|471:78|471:78|486:117|494:172,1,135.000005149841,10|0,2:2|0:0,0:0:0:0:
481,281,50084,2,0,P|430:306|381:283,1,90.0000034332277,2|0,1:2|3:3,0:0:0:0:
295,165,50384,2,0,P|244:140|195:163,1,90.0000034332277,10|0,2:2|0:0,0:0:0:0:
2,179,50684,2,0,P|31:229|41:270,1,90.0000034332277,2|0,1:2|3:3,0:0:0:0:
131,368,50984,5,10,2:2:0:0:
188,302,51134,1,2,3:2:0:0:
273,303,51284,2,0,P|344:316|421:334,1,135.000005149841,2|0,1:2|0:0,0:0:0:0:
414,349,51584,1,10,2:2:0:0:
452,252,51734,1,10,3:2:0:0:
387,170,51884,2,0,P|369:100|393:28,1,135.000005149841,10|0,1:2|0:0,0:0:0:0:
412,32,52184,2,0,P|442:37|468:44,2,45.0000017166138,10|0|0,2:2|0:0|3:3,0:0:0:0:
276,121,52484,2,0,L|221:108,1,45.0000017166138,10|0,1:2|0:0,0:0:0:0:
138,17,52634,2,0,L|155:102,1,45.0000017166138,8|0,3:2|0:0,0:0:0:0:
184,197,52784,6,0,P|125:231|29:194,1,135.000005149841,14|0,2:2|0:0,0:0:0:0:
0,288,53084,1,0,1:1:0:0:
107,140,53234,1,2,3:2:0:0:
152,316,53384,2,0,P|220:321|288:332,1,135.000005149841,10|0,2:2|0:0,0:0:0:0:
423,361,53684,2,0,P|431:318|441:271,1,90.0000034332277,2|0,1:2|3:3,0:0:0:0:
381,133,53984,2,0,P|371:177|363:221,1,90.0000034332277,10|0,2:2|3:3,0:0:0:0:
260,364,54284,1,2,1:2:0:0:
260,364,54434,1,0,3:3:0:0:
260,364,54584,6,0,P|263:292|241:218,1,135.000005149841,10|0,2:2|0:0,0:0:0:0:
172,113,54884,1,2,1:2:0:0:
140,236,55034,1,2,3:2:0:0:
279,122,55184,2,0,L|316:30,1,90.0000034332277,10|0,2:2|3:3,0:0:0:0:
63,37,55484,2,0,L|88:135,1,90.0000034332277,2|0,1:2|3:3,0:0:0:0:
96,293,55784,1,10,2:2:0:0:
197,226,55934,1,8,3:2:0:0:
335,255,56084,1,10,1:2:0:0:
452,191,56234,1,8,3:2:0:0:
319,240,56384,6,0,P|307:170|277:94,1,135.000005149841,14|0,2:2|0:0,0:0:0:0:
203,54,56684,1,2,1:2:0:0:
293,98,56834,1,2,3:2:0:0:
359,25,56984,1,10,2:2:0:0:
455,67,57134,1,0,3:3:0:0:
442,200,57284,2,0,P|431:251|426:302,1,90.0000034332277,2|0,1:2|3:3,0:0:0:0:
363,368,57584,2,0,P|337:330|331:283,1,90.0000034332277,10|0,2:2|0:0,0:0:0:0:
322,183,57884,2,0,P|258:219|240:295,1,135.000005149841,2|0,1:2|0:0,0:0:0:0:
167,331,58184,5,10,2:2:0:0:
69,249,58334,1,2,3:2:0:0:
166,145,58484,2,0,P|157:98|141:48,1,90.0000034332277,2|0,1:2|3:3,0:0:0:0:
61,30,58784,1,8,2:2:0:0:
218,0,58934,1,0,3:3:0:0:
295,114,59084,2,0,P|277:156|261:232,1,90.0000034332277,0|0,1:1|0:0,0:0:0:0:
234,343,59384,5,10,2:2:0:0:
336,308,59534,1,10,3:2:0:0:
370,205,59684,1,8,1:2:0:0:
306,117,59834,1,10,3:2:0:0:
208,165,59984,6,0,P|197:212|190:263,1,90.0000034332277,14|0,2:2|0:0,0:0:0:0:
30,314,60284,2,0,P|79:331|130:354,1,90.0000034332277,2|0,1:2|3:3,0:0:0:0:
92,237,60584,2,0,P|56:198|69:141,1,90.0000034332277,8|2,2:2|3:2,0:0:0:0:
106,41,60884,1,2,1:2:0:0:
200,86,61034,1,0,3:3:0:0:
278,31,61184,2,0,B|338:71|338:71|320:131,1,135.000005149841,10|0,2:2|0:0,0:0:0:0:
304,155,61484,2,0,B|320:202|320:202|376:201,1,90.0000034332277,2|0,1:2|3:3,0:0:0:0:
465,190,61784,5,10,2:2:0:0:
395,277,61934,1,2,3:2:0:0:
275,240,62084,1,10,1:2:0:0:
192,310,62234,1,8,3:2:0:0:
81,275,62384,2,0,L|88:216,2,45.0000017166138,8|0|0,2:2|0:0|3:3,0:0:0:0:
14,349,62684,1,2,1:2:0:0:
266,54,62984,5,8,2:2:0:0:
127,147,63134,1,2,3:2:0:0:
248,275,63284,1,2,1:2:0:0:
376,174,63434,1,0,3:3:0:0:
512,234,63584,6,0,P|478:301|467:376,1,135.000005149841,14|0,2:2|0:0,0:0:0:0:
380,363,63884,2,0,P|366:309|361:253,1,90.0000034332277,2|0,1:2|0:0,0:0:0:0:
376,174,64184,1,8,2:2:0:0:
376,174,64334,1,2,3:2:0:0:
291,87,64484,1,2,1:2:0:0:
175,154,64634,1,0,3:3:0:0:
39,98,64784,2,0,P|66:164|70:242,1,135.000005149841,10|0,2:2|0:0,0:0:0:0:
154,306,65084,2,0,P|181:244|190:178,1,135.000005149841,2|0,1:2|0:0,0:0:0:0:
221,81,65384,6,0,P|151:89|109:128,1,90.0000034332277,10|2,2:2|3:2,0:0:0:0:
90,245,65684,2,0,P|156:260|259:296,1,135.000005149841,2|0,1:2|0:0,0:0:0:0:
243,296,65984,2,0,P|274:260|271:192,1,90.0000034332277,8|8,2:2|3:2,0:0:0:0:
71,19,66284,2,0,P|115:31|184:55,1,90.0000034332277,8|0,1:2|3:3,0:0:0:0:
297,14,66584,5,10,2:2:0:0:
222,107,66734,1,10,3:2:0:0:
290,208,66884,1,8,1:2:0:0:
220,299,67034,1,2,3:2:0:0:
275,383,67184,6,0,P|328:358|360:353,1,90.0000034332277,14|0,2:2|3:3,0:0:0:0:
463,370,67409,1,0,0:0:0:0:
463,370,67484,2,0,P|437:292|424:227,1,135.000005149841,2|0,1:2|0:0,0:0:0:0:
406,148,67784,1,8,2:2:0:0:
406,148,67934,1,2,3:2:0:0:
440,63,68084,2,0,P|348:74|319:117,1,135.000005149841,2|0,1:2|0:0,0:0:0:0:
268,209,68384,2,0,P|218:215|131:143,1,135.000005149841,10|0,2:2|0:0,0:0:0:0:
24,86,68684,2,0,P|48:167|52:258,1,135.000005149841,0|0,1:1|0:0,0:0:0:0:
31,355,68984,5,10,2:2:0:0:
171,265,69134,1,2,3:2:0:0:
304,362,69284,2,0,P|316:274|339:182,1,180.000006866455,2|8,1:2|2:2,0:0:0:0:
263,0,69734,1,0,3:3:0:0:
442,53,69884,1,2,1:2:0:0:
279,126,70034,1,2,3:2:0:0:
124,24,70184,2,0,P|59:80|87:188,1,180.000006866455,10|0,2:2|1:1,0:0:0:0:
135,363,70634,1,0,3:3:0:0:
11,248,70784,5,14,2:2:0:0:
148,118,70934,1,2,3:2:0:0:
276,260,71084,2,0,B|332:243|383:237|383:237|390:202|404:159,1,180.000006866455,2|8,1:2|2:2,0:0:0:0:
387,32,71534,1,0,3:3:0:0:
300,155,71684,1,2,1:2:0:0:
155,73,71834,1,2,3:2:0:0:
35,176,71984,5,10,2:2:0:0:
35,176,72284,1,10,2:2:0:0:
35,176,72584,1,6,1:2:0:0:
477,176,74384,5,10,2:2:0:0:
477,176,74684,1,8,2:2:0:0:
253,7,75584,5,8,2:2:0:0:
253,92,75734,1,0,0:0:0:0:
255,185,75884,2,0,L|255:312,1,107.999996704102,8|0,2:2|0:0,0:0:0:0:
255,375,76184,1,14,2:2:0:0:
256,192,77984,12,14,85184,2:2:0:0:
256,192,85259,12,14,86084,2:2:0:0:
256,192,86159,12,14,86984,2:2:0:0:
256,192,87059,12,14,87884,2:2:0:0:
256,192,87959,12,0,88709,0:0:0:0:
253,185,88784,5,14,2:2:0:0:
485,78,89084,1,2,2:2:0:0:
324,337,89384,1,14,2:2:0:0:
110,132,89684,1,2,2:2:0:0:
372,167,89984,1,14,2:2:0:0:
186,363,90284,1,10,2:2:0:0:
253,37,90584,1,14,2:2:0:0:
253,37,90884,1,14,2:2:0:0:
253,37,91184,5,14,2:2:0:0:
212,121,91334,1,8,2:2:0:0:
261,193,91484,1,8,2:2:0:0:
233,280,91634,1,8,2:2:0:0:
286,384,91784,1,8,2:2:0:0:
286,384,91859,1,8,2:2:0:0:
286,384,91934,1,8,2:2:0:0:
286,384,92009,1,8,2:2:0:0:
286,384,92084,2,0,P|319:372|365:360,1,72,8|0,2:2|0:0,0:0:0:0:
451,331,92384,5,14,2:2:0:0:
389,231,92534,1,0,3:3:0:0:
441,319,92684,1,2,1:2:0:0:
484,218,92834,1,0,3:3:0:0:
424,125,92984,1,8,2:2:0:0:
480,45,93134,1,2,3:2:0:0:
480,45,93209,1,0,0:0:0:0:
480,45,93284,2,0,L|377:29,1,90.0000034332277,2|2,1:2|3:2,0:0:0:0:
234,10,93584,5,10,2:2:0:0:
174,73,93734,1,2,3:2:0:0:
243,128,93884,1,0,1:1:0:0:
302,63,94034,1,2,3:2:0:0:
234,10,94184,1,8,2:2:0:0:
174,73,94334,2,0,P|138:78|78:88,2,77.9999964294435,2|2|2,3:2|1:2|3:2,0:0:0:0:
243,128,94784,5,10,2:2:0:0:
212,212,94934,1,2,3:2:0:0:
120,217,95084,1,0,1:1:0:0:
94,304,95234,1,2,3:2:0:0:
94,304,95309,1,0,0:0:0:0:
94,304,95384,2,0,P|141:308|206:324,1,77.9999964294435,10|2,2:2|3:2,0:0:0:0:
341,320,95684,1,0,1:1:0:0:
251,355,95834,6,0,P|264:274|280:196,1,155.999992858887,2|2,3:2|3:2,0:0:0:0:
266,39,96284,2,0,P|240:76|213:122,1,77.9999964294435,0|2,1:1|3:2,0:0:0:0:
103,258,96584,2,0,P|101:222|86:173,1,77.9999964294435,10|2,2:2|3:1,0:0:0:0:
11,32,96884,1,0,1:1:0:0:
11,32,97034,1,2,3:2:0:0:
90,74,97184,6,0,P|131:80|201:92,1,77.9999964294435,14|2,2:2|3:2,0:0:0:0:
287,108,97484,1,0,1:1:0:0:
254,223,97634,1,2,3:2:0:0:
254,223,97709,1,0,0:0:0:0:
254,223,97784,2,0,P|242:272|232:324,1,77.9999964294435,10|2,2:2|3:2,0:0:0:0:
155,340,98084,1,0,1:1:0:0:
310,358,98234,2,0,P|318:320|328:283,1,77.9999964294435,2|10,3:2|2:2,0:0:0:0:
479,147,98534,6,0,P|443:135|392:103,1,77.9999964294435,2|0,3:2|1:1,0:0:0:0:
176,67,98834,2,0,P|216:57|275:30,1,77.9999964294435,2|8,3:2|2:2,0:0:0:0:
384,129,99134,1,2,3:2:0:0:
323,212,99284,1,0,1:1:0:0:
336,304,99434,1,2,3:2:0:0:
257,365,99584,5,14,2:2:0:0:
257,365,99734,2,0,P|240:327|227:271,1,77.9999964294435,2|0,2:2|0:0,0:0:0:0:
143,212,100034,2,0,P|133:257|127:315,1,77.9999964294435,2|0,2:2|0:0,0:0:0:0:
54,356,100334,1,2,2:2:0:0:
54,356,100484,1,2,2:2:0:0:
54,356,100634,1,2,2:2:0:0:
257,365,100784,5,14,2:2:0:0:
257,365,100934,2,0,P|240:327|227:271,1,77.9999964294435,2|0,2:2|0:0,0:0:0:0:
143,212,101234,2,0,P|133:257|127:315,1,77.9999964294435,2|0,2:2|0:0,0:0:0:0:
54,356,101534,2,0,P|8:291|0:186,1,155.999992858887,2|8,2:2|2:2,0:0:0:0:
41,104,101984,5,14,2:2:0:0:
121,62,102134,1,8,3:2:0:0:
173,134,102284,1,8,1:2:0:0:
266,135,102434,1,8,3:2:0:0:
326,202,102584,5,10,2:2:0:0:
302,55,102734,1,10,3:2:0:0:
232,216,102884,1,10,1:2:0:0:
361,118,103034,1,10,3:2:0:0:
215,55,103184,5,10,2:2:0:0:
266,135,103334,1,10,3:2:0:0:
232,216,103484,1,8,2:2:0:0:
276,296,103634,1,10,3:2:0:0:
242,376,103784,1,8,2:2:0:0:
189,301,103934,1,10,3:2:0:0:
321,215,104084,1,10,2:2:0:0:
327,374,104234,1,10,3:2:0:0:
368,298,104384,6,0,P|389:294|416:292,7,38.9999982147218,10|8|8|8|8|8|8|8,2:2|2:2|3:2|2:2|2:2|2:2|3:2|2:2,0:0:0:0:
196,231,104984,2,0,P|175:227|148:225,7,38.9999982147218,10|8|10|8|10|8|8|8,2:2|2:2|3:2|2:2|2:2|2:2|3:2|2:2,0:0:0:0:
299,175,105584,2,0,B|286:159|286:159|308:147|308:147|293:128|293:128|305:117|305:117|296:105|296:105|303:96|303:96|302:56,1,116.999994644165,14|8,2:2|2:2,0:0:0:0:
393,37,105884,2,0,B|380:53|380:53|402:65|402:65|387:84|387:84|399:95|399:95|390:107|390:107|397:116|397:116|396:156,1,116.999994644165,14|8,2:2|2:2,0:0:0:0:
467,198,106184,2,0,B|444:195|444:195|437:206|437:206|421:204|421:204|409:215|409:215|389:208|389:208|375:223|375:223|349:229,1,116.999994644165,14|8,2:2|2:2,0:0:0:0:
294,275,106484,2,0,B|291:297|291:297|302:305|302:305|300:321|300:321|311:333|311:333|304:353|304:353|319:367|319:367|325:393,1,116.999994644165,14|8,2:2|2:2,0:0:0:0:
406,361,106784,1,8,2:2:0:0:
256,192,106859,12,0,111134,0:0:0:0:
252,46,111284,6,0,P|258:85|261:119,1,72,0|0,1:1|0:0,0:0:0:0:
242,135,111584,6,0,P|152:140|64:158,1,180.000006866455,14|8,2:2|1:2,0:0:0:0:
105,65,112034,1,2,3:2:0:0:
89,247,112184,1,10,2:2:0:0:
254,167,112334,1,0,3:3:0:0:
380,257,112484,2,0,P|427:265|472:274,1,90.0000034332277,10|0,1:2|3:3,0:0:0:0:
445,175,112784,1,10,2:2:0:0:
369,352,112934,1,8,3:2:0:0:
240,288,113084,2,0,P|166:275|92:265,1,135.000005149841,10|0,1:2|0:0,0:0:0:0:
34,203,113384,6,0,B|49:157|49:157|9:117|9:117|27:72|27:72|3:14,1,180.000006866455,10|10,2:2|1:2,0:0:0:0:
155,3,113834,1,2,3:2:0:0:
115,95,113984,1,10,2:2:0:0:
159,186,114134,1,0,3:3:0:0:
208,101,114284,2,0,P|253:87|323:72,1,90.0000034332277,10|0,1:2|3:3,0:0:0:0:
471,58,114584,2,0,P|444:102|418:166,1,90.0000034332277,10|0,2:2|3:3,0:0:0:0:
388,311,114884,1,10,1:2:0:0:
288,228,115034,1,0,3:3:0:0:
378,333,115184,6,0,P|291:346|175:368,1,180.000006866455,10|10,2:2|1:2,0:0:0:0:
113,321,115634,1,10,3:2:0:0:
29,365,115784,2,0,P|19:291|-5:210,1,135.000005149841,10|0,2:2|0:0,0:0:0:0:
14,201,116084,2,0,P|43:164|109:157,1,90.0000034332277,10|0,1:2|3:3,0:0:0:0:
181,75,116384,2,0,P|181:130|207:168,1,90.0000034332277,10|0,2:2|3:3,0:0:0:0:
267,253,116684,2,0,P|312:236|371:225,1,90.0000034332277,10|0,1:2|3:3,0:0:0:0:
496,191,116984,5,10,2:2:0:0:
423,119,117134,1,10,3:2:0:0:
324,138,117284,2,0,P|314:98|303:40,1,90.0000034332277,10|0,1:2|3:3,0:0:0:0:
244,231,117584,2,0,P|234:271|223:329,1,90.0000034332277,8|0,2:2|3:3,0:0:0:0:
79,377,117884,2,0,P|37:315|37:218,1,135.000005149841,8|0,1:2|0:0,0:0:0:0:
51,230,118184,5,10,2:2:0:0:
141,300,118334,1,10,3:2:0:0:
209,142,118484,1,10,1:2:0:0:
139,212,118634,1,10,3:2:0:0:
64,131,118784,6,0,B|83:27|83:27|181:43,1,180.000006866455,10|10,2:2|1:2,0:0:0:0:
286,67,119234,1,0,3:3:0:0:
303,164,119384,2,0,P|290:210|280:273,1,90.0000034332277,8|2,2:2|3:2,0:0:0:0:
267,353,119684,1,10,1:2:0:0:
188,307,119834,1,0,3:3:0:0:
363,291,119984,2,0,P|406:263|410:166,1,135.000005149841,10|0,2:2|0:0,0:0:0:0:
340,136,120284,2,0,P|297:164|293:261,1,135.000005149841,10|0,1:2|0:0,0:0:0:0:
267,353,120584,5,10,2:2:0:0:
188,307,120734,1,2,3:2:0:0:
113,353,120884,2,0,P|69:347|18:342,1,90.0000034332277,10|0,1:2|3:3,0:0:0:0:
61,193,121184,2,0,P|103:184|151:170,1,90.0000034332277,8|0,2:2|3:3,0:0:0:0:
281,52,121484,2,0,P|250:149|264:212,1,135.000005149841,8|0,1:2|0:0,0:0:0:0:
268,199,121784,5,10,2:2:0:0:
159,89,121934,1,2,3:2:0:0:
351,129,122084,1,10,1:2:0:0:
384,214,122234,1,2,3:2:0:0:
319,287,122384,6,0,P|252:292|146:307,1,135.000005149841,10|0,2:2|0:0,0:0:0:0:
52,286,122684,2,0,P|93:206|42:110,1,180.000006866455,10|8,1:2|2:2,0:0:0:0:
21,23,123134,1,2,3:2:0:0:
125,0,123284,1,10,1:2:0:0:
33,42,123434,1,2,3:2:0:0:
138,82,123584,2,0,P|184:92|238:106,1,90.0000034332277,10|0,2:2|3:3,0:0:0:0:
464,149,123884,2,0,P|417:159|364:173,1,90.0000034332277,10|0,1:2|3:3,0:0:0:0:
275,264,124184,5,10,2:2:0:0:
292,176,124334,1,2,3:2:0:0:
309,88,124484,2,0,P|299:48|289:-2,1,90.0000034332277,10|0,1:2|3:3,0:0:0:0:
210,146,124784,2,0,P|199:189|190:233,1,90.0000034332277,8|0,2:2|3:3,0:0:0:0:
288,352,125084,2,0,P|348:326|354:237,1,135.000005149841,8|0,1:2|0:0,0:0:0:0:
338,242,125384,5,10,2:2:0:0:
430,374,125534,1,2,3:2:0:0:
512,234,125684,1,10,1:2:0:0:
449,293,125834,1,2,3:2:0:0:
417,175,125984,6,0,P|317:148|243:198,1,180.000006866455,10|10,2:2|1:2,0:0:0:0:
201,269,126434,2,0,P|172:244|159:189,1,90.0000034332277,0|8,3:3|2:2,0:0:0:0:
223,32,126734,1,2,3:2:0:0:
138,93,126884,2,0,P|91:121|34:149,1,90.0000034332277,10|2,1:2|3:2,0:0:0:0:
85,329,127184,2,0,P|144:330|191:334,1,90.0000034332277,10|0,2:2|0:0,0:0:0:0:
379,365,127484,2,0,P|368:298|375:214,1,135.000005149841,10|0,1:2|0:0,0:0:0:0:
391,199,127784,5,10,2:2:0:0:
406,110,127934,1,2,3:2:0:0:
421,19,128084,2,0,P|322:59|247:38,1,180.000006866455,10|8,1:2|2:2,0:0:0:0:
44,30,128534,1,0,3:3:0:0:
44,30,128684,5,10,1:2:0:0:
120,78,128834,1,2,3:2:0:0:
96,162,128984,2,0,P|106:255|116:351,1,180.000006866455,10|8,2:2|1:2,0:0:0:0:
205,278,129434,1,0,3:3:0:0:
205,278,129584,5,10,2:2:0:0:
214,364,129734,1,2,3:2:0:0:
309,352,129884,2,0,P|403:342|489:336,1,180.000006866455,10|10,1:2|2:2,0:0:0:0:
481,243,130334,1,0,0:0:0:0:
481,243,130484,6,0,L|376:207,1,90.0000034332277,10|0,1:2|0:0,0:0:0:0:
215,22,130784,2,0,L|243:117,1,90.0000034332277,10|0,2:2|3:3,0:0:0:0:
277,239,131084,1,10,1:2:0:0:
277,239,131234,1,0,3:3:0:0:
189,198,131384,6,0,P|148:191|87:184,1,90.0000034332277,10|2,2:2|3:2,0:0:0:0:
18,112,131684,2,0,P|61:102|115:87,1,90.0000034332277,10|0,1:2|0:0,0:0:0:0:
220,11,131984,1,8,2:2:0:0:
336,15,132134,1,8,2:2:0:0:
329,116,132284,1,8,2:2:0:0:
402,188,132434,1,8,2:2:0:0:
500,200,132584,6,0,B|443:189|443:189|404:230|404:230|351:210|351:210|284:233,1,215.999993408203,10|8,2:2|2:2,0:0:0:0:
241,358,133184,6,0,P|285:344|336:332,1,90.0000034332277,14|0,2:2|3:3,0:0:0:0:
218,265,133484,1,8,2:2:0:0:
70,348,133634,1,2,3:2:0:0:
74,203,133784,2,0,P|70:135|48:69,1,135.000005149841,10|0,2:2|0:0,0:0:0:0:
50,42,134084,1,10,2:2:0:0:
165,74,134234,1,0,3:3:0:0:
253,16,134384,1,10,2:2:0:0:
356,64,134534,1,0,3:3:0:0:
448,23,134684,2,0,B|410:80|410:80|429:173,1,135.000005149841,10|0,2:2|0:0,0:0:0:0:
437,172,134984,6,0,P|385:165|324:162,1,90.0000034332277,10|0,2:2|3:3,0:0:0:0:
184,110,135284,1,10,2:2:0:0:
165,198,135434,1,2,3:2:0:0:
219,283,135584,1,10,2:2:0:0:
219,283,135734,1,0,3:3:0:0:
219,283,135884,2,0,P|249:259|258:200,1,90.0000034332277,10|0,2:2|3:3,0:0:0:0:
111,117,136184,2,0,P|74:158|70:212,1,90.0000034332277,10|0,2:2|3:3,0:0:0:0:
47,336,136484,2,0,P|117:344|208:364,1,135.000005149841,10|0,2:2|0:0,0:0:0:0:
205,340,136784,5,10,2:2:0:0:
205,340,136934,1,0,3:3:0:0:
233,256,137084,1,10,2:2:0:0:
316,284,137234,1,2,3:2:0:0:
398,254,137384,2,0,P|402:185|410:117,1,135.000005149841,10|0,2:2|0:0,0:0:0:0:
432,99,137684,1,10,2:2:0:0:
317,154,137834,1,0,3:3:0:0:
376,26,137984,1,10,2:2:0:0:
484,193,138134,1,0,3:3:0:0:
311,256,138284,2,0,P|246:241|171:232,1,135.000005149841,10|0,2:2|0:0,0:0:0:0:
85,226,138584,5,10,2:2:0:0:
85,226,138734,1,2,3:2:0:0:
85,226,138884,2,0,P|95:269|105:314,1,90.0000034332277,10|0,2:2|3:3,0:0:0:0:
427,226,139184,2,0,P|417:269|407:314,1,90.0000034332277,10|2,2:2|3:2,0:0:0:0:
255,362,139484,1,10,2:2:0:0:
255,362,139784,1,10,2:2:0:0:
185,258,139934,1,10,3:2:0:0:
294,175,140084,1,10,2:2:0:0:
308,48,140234,1,10,3:2:0:0:
308,48,140384,6,0,P|237:42|158:35,1,135.000005149841,10|0,2:2|0:0,0:0:0:0:
153,65,140684,2,0,P|165:113|165:164,1,90.0000034332277,10|0,2:2|3:3,0:0:0:0:
107,343,140984,2,0,P|109:295|101:244,1,90.0000034332277,8|2,2:2|3:2,0:0:0:0:
80,159,141284,1,10,2:2:0:0:
198,235,141434,1,0,3:3:0:0:
332,191,141584,2,0,B|396:208|396:208|377:297,1,135.000005149841,10|0,2:2|0:0,0:0:0:0:
360,290,141884,2,0,B|343:354|343:354|253:335,1,135.000005149841,10|0,2:2|0:0,0:0:0:0:
188,265,142184,5,10,2:2:0:0:
157,180,142334,1,2,3:2:0:0:
195,98,142484,2,0,P|198:56|200:-3,1,90.0000034332277,10|0,2:2|3:3,0:0:0:0:
253,193,142784,2,0,P|296:201|345:207,1,90.0000034332277,10|0,2:2|3:3,0:0:0:0:
512,192,143084,2,0,B|502:154|471:127|471:127|422:134|400:167,1,135.000005149841,10|0,2:2|3:3,0:0:0:0:
341,206,143384,5,10,2:2:0:0:
242,162,143534,1,2,3:2:0:0:
235,54,143684,1,10,2:2:0:0:
328,0,143834,1,2,3:2:0:0:
335,103,143984,6,0,P|321:177|309:252,1,135.000005149841,10|0,2:2|0:0,0:0:0:0:
298,247,144284,1,10,2:2:0:0:
208,260,144434,1,0,3:3:0:0:
122,276,144584,1,8,2:2:0:0:
122,276,144734,1,2,3:2:0:0:
151,189,144884,1,10,2:2:0:0:
208,260,145034,1,0,3:3:0:0:
180,345,145184,2,0,P|126:333|86:327,1,90.0000034332277,10|0,2:2|3:3,0:0:0:0:
40,157,145484,2,0,P|32:210|22:251,1,90.0000034332277,10|0,2:2|3:3,0:0:0:0:
122,240,145784,5,10,2:2:0:0:
122,240,145934,1,2,3:2:0:0:
122,240,146084,2,0,P|163:169|145:93,1,135.000005149841,10|0,2:2|0:0,0:0:0:0:
149,94,146384,2,0,P|215:61|268:89,1,135.000005149841,8|0,2:2|0:0,0:0:0:0:
265,112,146684,1,8,2:2:0:0:
62,20,146984,5,10,2:2:0:0:
147,85,147134,1,2,3:2:0:0:
158,192,147284,1,10,2:2:0:0:
256,236,147434,1,2,3:2:0:0:
307,333,147584,5,10,2:2:0:0:
307,333,147734,1,0,3:3:0:0:
307,333,147884,2,0,P|375:327|457:323,1,135.000005149841,10|0,2:2|0:0,0:0:0:0:
459,311,148184,2,0,P|477:270|458:221,1,90.0000034332277,8|2,2:2|3:2,0:0:0:0:
458,130,148484,1,10,2:2:0:0:
375,168,148634,1,0,3:3:0:0:
296,112,148784,1,10,2:2:0:0:
360,175,148934,1,0,0:0:0:0:
324,261,149084,2,0,B|247:251|247:251|230:194,1,135.000005149841,10|0,2:2|0:0,0:0:0:0:
199,107,149384,5,10,2:2:0:0:
291,122,149534,1,2,3:2:0:0:
121,226,149684,2,0,B|75:172|75:172|96:88,1,135.000005149841,10|0,2:2|0:0,0:0:0:0:
115,112,149984,2,0,P|158:124|205:129,1,90.0000034332277,8|0,2:2|0:0,0:0:0:0:
314,204,150284,5,10,2:2:0:0:
334,44,150434,1,10,3:2:0:0:
463,119,150584,1,10,2:2:0:0:
463,119,150734,1,0,0:0:0:0:
404,191,150884,2,0,P|415:235|422:280,1,90.0000034332277,0|0,1:1|0:0,0:0:0:0:
490,359,151184,5,10,2:2:0:0:
328,302,151334,1,10,3:2:0:0:
188,357,151484,2,0,P|142:350|82:346,1,90.0000034332277,10|0,2:2|0:0,0:0:0:0:
151,245,151784,1,0,1:1:0:0:
151,245,151934,1,0,3:3:0:0:
51,269,152084,5,10,2:2:0:0:
96,157,152234,1,10,3:2:0:0:
226,191,152384,2,0,P|246:122|226:40,1,135.000005149841,10|0,2:2|0:0,0:0:0:0:
257,38,152684,2,0,P|309:62|358:126,1,135.000005149841,2|0,1:2|0:0,0:0:0:0:
352,142,152984,5,10,2:2:0:0:
333,230,153134,1,10,3:2:0:0:
312,318,153284,1,10,2:2:0:0:
312,318,153434,1,0,0:0:0:0:
221,252,153584,2,0,P|196:248|165:244,3,45.0000017166138,8|8|8|8,2:2|2:2|2:2|2:2,0:0:0:0:
262,169,153884,2,0,P|287:165|318:161,3,45.0000017166138,8|8|8|8,2:2|2:2|2:2|2:2,0:0:0:0:
184,135,154184,1,8,2:2:0:0:
184,135,154259,1,8,2:2:0:0:
184,135,154334,1,8,2:2:0:0:
184,135,154409,1,8,2:2:0:0:
184,135,154484,1,8,2:2:0:0:
166,136,154559,1,8,2:2:0:0:
150,139,154634,1,8,2:2:0:0:
133,142,154709,1,8,2:2:0:0:
119,145,154784,6,0,P|73:152|21:159,1,71.9999978027344,14|0,2:2|3:3,0:0:0:0:
132,27,155084,2,0,P|168:35|215:41,1,71.9999978027344,2|0,1:2|3:3,0:0:0:0:
305,135,155384,2,0,P|294:172|283:214,1,71.9999978027344,10|0,2:2|3:3,0:0:0:0:
253,339,155684,1,2,1:2:0:0:
253,339,155834,1,0,3:3:0:0:
186,263,155984,5,10,2:2:0:0:
186,263,156284,1,10,1:2:0:0:
245,197,156434,1,10,3:2:0:0:
210,116,156584,1,10,2:2:0:0:
245,197,156734,1,10,3:2:0:0:
186,263,156884,1,10,1:2:0:0:
101,229,157034,1,8,3:2:0:0:
37,290,157184,6,0,P|43:324|47:362,1,71.9999978027344,10|0,2:2|3:3,0:0:0:0:
254,177,157484,2,0,P|255:214|255:249,1,71.9999978027344,2|0,1:2|3:3,0:0:0:0:
475,290,157784,2,0,P|468:324|464:362,1,71.9999978027344,10|0,2:2|3:3,0:0:0:0:
446,204,158084,1,2,1:2:0:0:
446,204,158234,1,0,3:3:0:0:
506,136,158384,5,10,2:2:0:0:
506,136,158684,1,10,1:2:0:0:
422,87,158834,1,10,3:2:0:0:
498,21,158984,1,10,2:2:0:0:
422,87,159134,1,10,3:2:0:0:
327,57,159284,1,10,1:2:0:0:
280,132,159434,1,0,0:0:0:0:
180,109,159584,6,0,P|141:103|98:100,1,71.9999978027344,14|0,2:2|3:3,0:0:0:0:
313,228,159884,2,0,P|351:222|395:219,1,71.9999978027344,2|0,1:2|3:3,0:0:0:0:
180,109,160184,2,0,P|141:103|98:100,1,71.9999978027344,10|0,2:2|3:3,0:0:0:0:
313,228,160484,2,0,P|351:222|395:219,1,71.9999978027344,2|0,1:2|3:3,0:0:0:0:
188,346,160784,5,10,2:2:0:0:
188,346,161084,1,10,1:2:0:0:
200,260,161234,1,10,3:2:0:0:
188,346,161384,1,10,2:2:0:0:
116,298,161534,1,10,3:2:0:0:
132,200,161684,1,10,1:2:0:0:
132,200,161834,1,10,3:2:0:0:
273,314,161984,6,0,P|316:321|375:332,1,71.9999978027344,14|0,2:2|0:0,0:0:0:0:
172,123,162284,2,0,P|179:80|190:21,1,71.9999978027344,2|0,1:2|0:0,0:0:0:0:
455,177,162584,2,0,L|373:195,1,71.9999978027344,10|0,2:2|0:0,0:0:0:0:
75,162,162884,1,2,1:2:0:0:
129,233,163034,1,0,0:0:0:0:
146,325,163184,5,10,2:2:0:0:
146,325,163484,1,10,1:2:0:0:
255,282,163634,1,10,3:2:0:0:
146,325,163784,1,10,2:2:0:0:
254,373,163934,1,10,3:2:0:0:
364,312,164084,1,10,1:2:0:0:
364,312,164234,1,0,0:0:0:0:
442,365,164384,6,0,P|421:305|439:222,1,143.999995605469,14|0,2:2|1:1,0:0:0:0:
475,114,164834,1,0,3:3:0:0:
475,114,164984,2,0,P|434:125|394:132,1,71.9999978027344,8|0,2:2|3:3,0:0:0:0:
267,57,165284,1,2,1:2:0:0:
267,57,165434,2,0,P|307:133|310:211,1,143.999995605469,2|0,3:2|3:3,0:0:0:0:
253,274,165884,1,0,1:1:0:0:
253,274,166184,2,0,P|208:260|156:260,1,71.9999978027344,10|0,2:2|3:3,0:0:0:0:
163,343,166484,2,0,P|208:357|260:357,1,71.9999978027344,2|0,1:2|3:3,0:0:0:0:
62,370,166784,6,0,P|73:299|56:219,1,143.999995605469,10|0,2:2|1:1,0:0:0:0:
26,33,167234,2,0,P|103:52|188:65,1,143.999995605469,2|0,3:2|3:3,0:0:0:0:
331,19,167684,1,2,1:2:0:0:
331,19,167834,1,0,3:3:0:0:
331,19,167984,2,0,B|306:52|306:52|321:98,1,71.9999978027344,8|0,2:2|3:3,0:0:0:0:
404,189,168284,2,0,B|414:228|414:228|383:265,1,71.9999978027344,0|0,1:1|3:3,0:0:0:0:
293,341,168584,2,0,P|256:333|218:328,1,71.9999978027344,8|0,2:2|3:3,0:0:0:0:
71,259,168884,1,2,1:2:0:0:
121,338,169034,1,2,3:2:0:0:
165,260,169184,6,0,P|175:200|193:118,1,143.999995605469,10|0,2:2|1:1,0:0:0:0:
36,34,169634,2,0,P|54:98|68:182,1,143.999995605469,2|0,3:2|3:3,0:0:0:0:
145,358,170084,2,0,P|219:351|260:282,1,143.999995605469,2|8,1:2|2:2,0:0:0:0:
301,172,170534,2,0,P|296:134|286:94,2,71.9999978027344,2|0|0,3:2|1:2|3:3,0:0:0:0:
349,254,170984,2,0,P|384:262|425:271,1,71.9999978027344,10|0,2:2|3:3,0:0:0:0:
485,219,171284,1,2,1:2:0:0:
503,300,171434,1,2,3:2:0:0:
431,355,171584,5,8,2:2:0:0:
431,355,171734,1,0,3:3:0:0:
340,320,171884,2,0,L|256:327,1,71.9999978027344,0|0,1:1|3:3,0:0:0:0:
151,360,172184,1,8,2:2:0:0:
151,360,172334,1,0,3:3:0:0:
197,275,172484,2,0,L|205:200,1,71.9999978027344,2|2,1:2|3:2,0:0:0:0:
263,133,172784,1,8,2:2:0:0:
116,213,173084,1,0,1:1:0:0:
28,79,173384,1,8,2:2:0:0:
175,0,173684,1,2,1:2:0:0:
161,93,173834,1,2,3:2:0:0:
254,60,173984,6,0,L|339:73,1,71.9999978027344,14|0,2:2|0:0,0:0:0:0:
425,68,174284,1,0,1:1:0:0:
425,68,174434,1,0,3:3:0:0:
369,143,174584,2,0,P|361:181|355:230,2,71.9999978027344,8|0|2,2:2|3:3|1:2,0:0:0:0:
465,147,175034,2,0,B|492:217|492:217|440:301,1,143.999995605469,2|0,3:2|3:3,0:0:0:0:
354,337,175484,1,0,1:1:0:0:
354,337,175784,1,10,2:2:0:0:
265,318,175934,1,0,3:3:0:0:
179,351,176084,1,2,1:2:0:0:
100,302,176234,1,0,3:3:0:0:
90,337,176384,6,0,P|56:271|96:201,1,143.999995605469,10|0,2:2|1:1,0:0:0:0:
174,200,176834,2,0,P|208:266|168:336,1,143.999995605469,2|0,3:2|3:3,0:0:0:0:
89,299,177284,1,2,1:2:0:0:
89,299,177434,2,0,P|75:261|92:217,2,71.9999978027344,2|8|0,3:2|2:2|3:3,0:0:0:0:
181,326,177884,1,0,1:1:0:0:
181,326,178184,2,0,L|262:312,1,71.9999978027344,10|0,2:2|3:3,0:0:0:0:
476,174,178484,2,0,L|387:166,1,71.9999978027344,2|0,1:2|3:3,0:0:0:0:
273,77,178784,5,14,2:2:0:0:
273,77,179084,1,0,0:0:0:0:
273,77,179234,1,2,3:2:0:0:
273,77,179534,2,0,P|294:164|303:237,1,143.999995605469,2|2,3:2|3:2,0:0:0:0:
391,346,179984,1,14,2:2:0:0:
391,346,180284,1,0,0:0:0:0:
391,346,180434,1,2,3:2:0:0:
391,346,180734,2,0,B|350:313|350:313|302:333|302:333|246:326,1,143.999995605469,2|2,3:2|3:2,0:0:0:0:
34,271,181184,6,0,P|43:237|53:189,1,71.9999978027344,14|0,2:2|0:0,0:0:0:0:
87,78,181484,2,0,P|88:45|93:2,1,71.9999978027344,14|0,2:2|0:0,0:0:0:0:
54,292,181784,6,0,P|44:258|35:210,1,71.9999978027344,14|0,2:2|0:0,0:0:0:0:
112,101,182084,2,0,P|110:68|106:25,1,71.9999978027344,14|0,2:2|0:0,0:0:0:0:
16,137,182384,1,8,2:2:0:0:
137,190,182534,1,8,2:2:0:0:
250,142,182684,1,8,2:2:0:0:
367,195,182834,1,8,2:2:0:0:
490,150,182984,5,10,2:2:0:0:
490,150,183434,1,8,2:2:0:0:
375,287,183584,6,0,L|355:95,1,180.000006866455,14|0,2:2|1:1,0:0:0:0:
413,32,184034,1,2,3:2:0:0:
256,47,184184,2,0,L|243:148,1,90.0000034332277,10|2,2:2|3:2,0:0:0:0:
272,226,184484,1,0,1:1:0:0:
272,226,184634,1,2,3:2:0:0:
192,326,184784,5,10,2:2:0:0:
192,326,184934,2,0,P|145:321|95:319,1,90.0000034332277,2|0,3:2|1:1,0:0:0:0:
0,125,185234,2,0,P|41:141|87:158,1,90.0000034332277,2|8,3:1|2:2,0:0:0:0:
259,89,185534,2,0,P|255:140|247:193,1,90.0000034332277,2|0,3:1|1:1,0:0:0:0:
332,363,185834,1,2,3:1:0:0:
332,363,185909,1,0,0:0:0:0:
332,363,185984,5,10,2:2:0:0:
265,283,186134,1,0,3:3:0:0:
341,224,186284,2,0,P|386:228|435:233,1,90.0000034332277,0|2,1:1|3:2,0:0:0:0:
503,168,186584,1,10,2:2:0:0:
437,81,186734,1,2,3:2:0:0:
437,81,186884,2,0,P|393:104|346:130,1,90.0000034332277,0|2,1:1|3:2,0:0:0:0:
211,242,187184,5,10,2:2:0:0:
230,134,187334,1,2,3:2:0:0:
252,31,187484,1,2,1:2:0:0:
252,31,187634,2,0,B|188:17|188:17|139:57|139:57|74:59,1,180.000006866455,2|2,3:1|3:2,0:0:0:0:
8,2,188084,1,2,1:2:0:0:
8,2,188234,1,2,3:2:0:0:
64,146,188384,6,0,B|116:222|116:222|96:345,1,180.000006866455,14|0,2:2|1:1,0:0:0:0:
205,367,188834,1,2,3:2:0:0:
205,367,188984,2,0,L|196:251,1,90.0000034332277,10|2,2:2|3:2,0:0:0:0:
261,194,189284,1,0,1:1:0:0:
341,261,189434,1,0,3:3:0:0:
299,353,189584,5,10,2:2:0:0:
299,353,189734,2,0,L|388:352,1,90.0000034332277,2|0,3:2|1:1,0:0:0:0:
503,373,190034,2,0,P|527:297|463:185,1,180.000006866455,2|2,3:2|3:2,0:0:0:0:
477,95,190484,1,0,1:1:0:0:
384,147,190634,1,2,3:2:0:0:
291,116,190784,6,0,B|251:172|251:172|275:263,1,135.000005149841,10|0,2:2|0:0,0:0:0:0:
293,254,191084,2,0,B|355:283|355:283|440:244,1,135.000005149841,2|0,1:1|0:0,0:0:0:0:
446,129,191384,1,8,2:2:0:0:
360,185,191534,1,2,3:2:0:0:
360,185,191684,1,2,1:2:0:0:
289,118,191834,1,2,3:1:0:0:
289,118,191909,1,0,0:0:0:0:
289,118,191984,1,8,2:2:0:0:
199,132,192134,1,0,3:3:0:0:
143,65,192284,1,6,1:2:0:0:
164,58,192359,1,0,0:0:0:0:
186,53,192434,1,0,0:0:0:0:
208,48,192509,1,0,0:0:0:0:
231,42,192584,5,10,2:2:0:0:
178,220,192734,1,10,3:2:0:0:
48,151,192884,1,10,1:2:0:0:
286,123,193034,1,10,3:2:0:0:
246,343,193184,6,0,P|155:327|63:327,1,180.000006866455,14|0,2:2|1:1,0:0:0:0:
16,213,193634,1,2,3:2:0:0:
35,127,193784,1,10,0:0:0:0:
16,213,193934,2,0,B|69:236|116:168|196:204,1,180.000006866455,2|2,3:1|3:2,0:0:0:0:
328,349,194384,1,10,2:2:0:0:
328,349,194534,2,0,P|364:287|336:191,1,135.000005149841,2|0,3:1|0:0,0:0:0:0:
334,215,194834,6,0,L|288:213,1,30,10|0,3:2|0:0,0:0:0:0:
463,0,195134,2,0,L|486:38,1,30,10|0,3:2|0:0,0:0:0:0:
275,106,195434,1,10,3:2:0:0:
275,106,195584,6,0,P|377:114|481:127,1,180.000006866455,14|0,2:2|1:1,0:0:0:0:
493,357,196034,1,2,3:2:0:0:
454,275,196184,1,10,2:2:0:0:
363,310,196334,1,2,3:2:0:0:
307,241,196484,2,0,P|255:235|215:230,1,90.0000034332277,0|2,1:1|3:2,0:0:0:0:
18,165,196784,5,10,2:2:0:0:
119,257,196934,1,2,3:2:0:0:
62,368,197084,1,2,1:2:0:0:
62,368,197234,2,0,L|29:263,1,90.0000034332277,2|8,3:1|2:2,0:0:0:0:
94,66,197534,2,0,L|116:174,1,90.0000034332277,2|0,3:2|1:1,0:0:0:0:
167,318,197834,1,2,3:2:0:0:
167,318,197909,1,0,0:0:0:0:
167,318,197984,6,0,B|232:260|232:260|340:270,1,180.000006866455,10|0,2:2|1:1,0:0:0:0:
430,336,198434,2,0,P|441:244|460:121,1,180.000006866455,8|8,3:2|3:2,0:0:0:0:
512,72,198884,1,2,1:2:0:0:
340,147,199034,1,0,3:3:0:0:
222,59,199184,6,0,B|172:39|172:39|111:83|111:83|31:88,1,180.000006866455,10|2,2:2|1:2,0:0:0:0:
17,189,199634,2,0,B|88:261|88:261|197:241,1,180.000006866455,10|10,3:2|3:2,0:0:0:0:
280,99,200084,1,0,1:1:0:0:
122,163,200234,1,2,3:2:0:0:
202,343,200384,6,0,B|260:353|260:353|291:303|291:303|338:322|338:322|344:371,1,180.000006866455,10|0,2:2|1:1,0:0:0:0:
368,184,200834,2,0,P|356:275|348:372,1,180.000006866455,8|8,3:2|3:2,0:0:0:0:
203,243,201284,2,0,P|177:183|217:125,1,135.000005149841,2|0,1:2|0:0,0:0:0:0:
235,135,201584,5,14,2:2:0:0:
320,163,201734,1,8,3:2:0:0:
376,92,201884,1,8,1:2:0:0:
463,72,202034,1,8,3:2:0:0:
426,172,202184,1,10,2:2:0:0:
313,21,202334,1,8,3:2:0:0:
138,4,202484,1,8,1:2:0:0:
133,12,202559,1,0,0:0:0:0:
128,22,202634,1,8,3:2:0:0:
123,32,202709,1,0,0:0:0:0:
119,41,202784,5,14,2:2:0:0:
171,113,202934,2,0,P|162:195|157:272,1,143.999995605469,2|0,3:2|3:3,0:0:0:0:
100,363,203384,1,8,2:2:0:0:
100,363,203534,2,0,P|62:368|17:378,1,71.9999978027344,0|0,3:3|1:1,0:0:0:0:
122,270,203834,2,0,B|191:279|191:279|190:373,1,143.999995605469,2|2,3:2|3:2,0:0:0:0:
293,360,204284,1,2,1:2:0:0:
293,360,204434,1,0,3:3:0:0:
368,284,204584,2,0,L|456:295,1,71.9999978027344,8|0,2:2|3:3,0:0:0:0:
439,91,204884,2,0,L|368:100,1,71.9999978027344,0|0,1:1|3:3,0:0:0:0:
450,200,205184,5,10,2:2:0:0:
450,200,205334,2,0,P|374:194|307:189,1,143.999995605469,2|0,3:2|3:3,0:0:0:0:
135,229,205784,2,0,L|114:151,2,71.9999978027344,8|0|0,2:2|3:3|1:1,0:0:0:0:
207,351,206234,1,2,3:2:0:0:
207,351,206309,1,0,0:0:0:0:
207,351,206384,5,10,2:2:0:0:
121,321,206534,1,8,3:2:0:0:
34,291,206684,1,10,1:2:0:0:
34,291,206834,1,10,3:2:0:0:
59,377,206984,1,10,2:2:0:0:
121,321,207134,1,10,3:2:0:0:
112,234,207284,1,8,1:2:0:0:
51,174,207434,1,10,3:2:0:0:
91,90,207584,5,14,2:2:0:0:
91,90,207734,2,0,B|129:96|173:89|173:89|210:97|256:113,1,143.999995605469,2|0,3:2|3:3,0:0:0:0:
330,175,208184,1,8,2:2:0:0:
330,175,208334,1,0,3:3:0:0:
326,69,208484,1,0,1:1:0:0:
326,69,208634,6,0,B|346:62|359:49|359:49|376:53|390:65|390:65|397:56|411:53|411:53|428:52|433:61|433:61|423:78|422:96,1,143.999995605469,2|2,3:2|3:2,0:0:0:0:
449,166,209084,2,0,B|431:210|451:225|403:247|457:259|428:309,1,143.999995605469,2|8,1:2|2:2,0:0:0:0:
419,310,209534,1,0,3:3:0:0:
328,284,209684,1,0,1:1:0:0:
318,292,209834,1,0,3:3:0:0:
241,346,209984,5,10,2:2:0:0:
249,356,210134,2,0,B|212:367|191:335|98:349,1,143.999995605469,2|0,3:2|3:3,0:0:0:0:
19,288,210584,2,0,P|13:253|-2:205,2,71.9999978027344,8|0|0,2:2|3:3|1:1,0:0:0:0:
137,129,211034,2,0,B|111:159|111:159|134:215|134:215|116:271,1,143.999995605469,2|10,3:2|3:2,0:0:0:0:
34,373,211484,1,10,1:2:0:0:
161,342,211634,1,10,3:2:0:0:
19,288,211784,1,10,2:2:0:0:
140,346,211934,1,8,3:2:0:0:
249,303,212084,1,10,1:2:0:0:
251,293,212159,1,2,2:2:0:0:
255,281,212234,1,10,3:2:0:0:
258,270,212309,1,2,2:2:0:0:
244,255,212384,5,14,2:2:0:0:
156,264,212534,2,0,B|151:226|179:201|179:201|213:175|208:125,1,143.999995605469,2|0,3:2|3:3,0:0:0:0:
147,23,212984,1,8,2:2:0:0:
147,23,213134,2,0,P|183:28|229:35,1,71.9999978027344,0|0,3:3|1:1,0:0:0:0:
310,87,213434,1,2,3:2:0:0:
310,87,213509,1,0,0:0:0:0:
310,87,213584,6,0,P|348:82|392:72,1,71.9999978027344,8|2,2:2|3:2,0:0:0:0:
458,26,213884,2,0,P|427:100|443:189,1,143.999995605469,2|8,1:2|2:2,0:0:0:0:
446,170,214334,1,0,3:3:0:0:
434,260,214484,1,0,1:1:0:0:
426,273,214634,1,0,0:0:0:0:
451,361,214784,5,10,2:2:0:0:
462,370,214934,2,0,P|388:363|319:359,1,132.00000402832,2|0,3:2|3:3,0:0:0:0:
179,320,215384,2,0,P|171:346|163:373,2,53.9999983520508,8|0|0,2:2|3:3|1:1,0:0:0:0:
138,227,215834,6,0,P|194:234|255:239,1,107.999996704102,2|10,3:2|3:2,0:0:0:0:
351,176,216284,1,10,1:2:0:0:
329,272,216434,1,8,3:2:0:0:
351,176,216584,1,10,2:2:0:0:
261,126,216734,1,10,3:2:0:0:
157,145,216884,1,8,1:2:0:0:
110,57,217034,1,10,3:2:0:0:
183,5,217184,5,10,2:2:0:0:
183,5,217334,2,0,P|245:14|324:21,1,120,2|0,3:2|3:3,0:0:0:0:
481,22,217784,1,8,2:2:0:0:
481,22,217934,2,0,P|448:39|408:59,1,60,0|0,3:3|1:1,0:0:0:0:
310,114,218234,6,0,P|292:186|317:239,1,120,2|2,3:2|3:2,0:0:0:0:
414,317,218684,1,2,1:2:0:0:
414,317,218834,1,0,3:3:0:0:
311,367,218984,2,0,P|279:362|232:357,1,60,8|0,2:2|3:3,0:0:0:0:
177,303,219284,2,0,P|137:313|102:318,1,60,0|0,1:1|0:0,0:0:0:0:
16,375,219584,5,10,2:2:0:0:
16,375,219734,2,0,P|23:320|27:243,1,120,2|0,3:2|3:3,0:0:0:0:
15,110,220184,1,8,2:2:0:0:
15,110,220334,1,0,3:3:0:0:
93,154,220484,1,0,1:1:0:0:
162,97,220634,1,0,0:0:0:0:
162,97,220709,1,0,0:0:0:0:
162,97,220784,6,0,L|206:92,3,30,8|0|0|0,2:2|0:0|0:0|0:0,0:0:0:0:
87,35,221084,2,0,L|49:23,3,30
107,179,221384,1,8,2:2:0:0:
107,179,221459,1,8,2:2:0:0:
107,179,221534,1,8,2:2:0:0:
107,179,221609,1,8,2:2:0:0:
107,179,221684,1,8,2:2:0:0:
107,179,221759,1,8,2:2:0:0:
107,179,221834,1,8,2:2:0:0:
107,179,221909,1,8,2:2:0:0:
142,222,221984,5,12,2:2:0:0:
