osu file format v14

[General]
AudioFilename: Helblinde - Grief & Malice.mp3
AudioLeadIn: 1500
PreviewTime: 111332
Countdown: 0
SampleSet: Normal
StackLeniency: 0.7
Mode: 3
LetterboxInBreaks: 0
SpecialStyle: 0
WidescreenStoryboard: 0

[Editor]
DistanceSpacing: 2
BeatDivisor: 2
GridSize: 16
TimelineZoom: 1.299999

[Metadata]
Title:Grief & Malice
TitleUnicode:Grief & Malice
Artist:Helblinde
ArtistUnicode:Helblinde
Creator:Fullerene-
Version:Walpurgisnacht // 7K obj. -Kamikaze-
Source:魔法少女まどか☆マギカ
Tags:-kamikaze- rcalibergx shift side a life starts at 200bpm gaijincore j-core sis puella madoka magica yuki kajiura
BeatmapID:565447
BeatmapSetID:239943

[Difficulty]
HPDrainRate:8.5
CircleSize:7
OverallDifficulty:8.5
ApproachRate:9
SliderMultiplier:1.4
SliderTickRate:1

[Events]
//Background and Video events
0,0,"bg.png",0,0
//Break Periods
//Storyboard Layer 0 (Background)
//Storyboard Layer 1 (Fail)
//Storyboard Layer 2 (Pass)
//Storyboard Layer 3 (Foreground)
//Storyboard Sound Samples

[TimingPoints]
32,300,4,1,1,50,1,0
32,-111.111111111111,4,1,1,50,0,0
5432,-105.263157894737,4,1,1,50,0,0
5732,-100,4,1,1,50,0,0
6032,-95.2380952380952,4,1,1,50,0,0
6332,-90.9090909090909,4,1,1,50,0,0
6632,-86.9565217391304,4,1,1,50,0,0
7082,-100,4,1,1,50,0,0
7419,-71.4285714285714,4,1,1,50,0,0
7494,-166.666666666667,4,1,1,50,0,0
7519,-100,4,1,1,50,0,0
7719,-71.4285714285714,4,1,1,50,0,0
7794,-166.666666666667,4,1,1,50,0,0
7832,-100,4,1,1,50,0,0
8019,-71.4285714285714,4,1,1,50,0,0
8094,-166.666666666667,4,1,1,50,0,0
8132,-100,4,1,1,50,0,0
8319,-71.4285714285714,4,1,1,50,0,0
8394,-166.666666666667,4,1,1,50,0,0
8432,-100,4,1,1,50,0,0
8619,-71.4285714285714,4,1,1,50,0,0
8694,-166.666666666667,4,1,1,50,0,0
8732,-100,4,1,1,50,0,0
8919,-71.4285714285714,4,1,1,50,0,0
8994,-166.666666666667,4,1,1,50,0,0
9032,-100,4,1,1,50,0,0
9219,-71.4285714285714,4,1,1,50,0,0
9294,-166.666666666667,4,1,1,50,0,0
9332,-100,4,1,1,50,0,0
9519,-71.4285714285714,4,1,1,50,0,0
9594,-166.666666666667,4,1,1,50,0,0
9632,-100,4,1,1,50,0,0
9819,-71.4285714285714,4,1,1,50,0,0
9894,-166.666666666667,4,1,1,50,0,0
9932,-100,4,1,1,50,0,0
10119,-71.4285714285714,4,1,1,50,0,0
10194,-166.666666666667,4,1,1,50,0,0
10232,-100,4,1,1,50,0,0
10419,-71.4285714285714,4,1,1,50,0,0
10494,-166.666666666667,4,1,1,50,0,0
10532,-100,4,1,1,50,0,0
10719,-71.4285714285714,4,1,1,50,0,0
10794,-166.666666666667,4,1,1,50,0,0
10832,-100,4,1,1,50,0,0
10982,-76.9230769230769,4,1,1,50,0,0
11094,-100,4,1,1,50,0,0
11132,-76.9230769230769,4,1,1,50,0,0
11244,-100,4,1,1,50,0,0
11582,-76.9230769230769,4,1,1,50,0,0
11694,-100,4,1,1,50,0,0
11732,-76.9230769230769,4,1,1,50,0,0
11844,-100,4,1,1,50,0,0
12219,-71.4285714285714,4,1,1,50,0,0
12294,-166.666666666667,4,1,1,50,0,0
12332,-100,4,1,1,50,0,0
12519,-71.4285714285714,4,1,1,50,0,0
12594,-166.666666666667,4,1,1,50,0,0
12632,-100,4,1,1,50,0,0
12819,-71.4285714285714,4,1,1,50,0,0
12894,-166.666666666667,4,1,1,50,0,0
12932,-100,4,1,1,50,0,0
13119,-71.4285714285714,4,1,1,50,0,0
13194,-166.666666666667,4,1,1,50,0,0
13232,-100,4,1,1,50,0,0
13419,-71.4285714285714,4,1,1,50,0,0
13494,-166.666666666667,4,1,1,50,0,0
13532,-100,4,1,1,50,0,0
13719,-71.4285714285714,4,1,1,50,0,0
13794,-166.666666666667,4,1,1,50,0,0
13832,-100,4,1,1,50,0,0
14019,-71.4285714285714,4,1,1,50,0,0
14094,-166.666666666667,4,1,1,50,0,0
14132,-100,4,1,1,50,0,0
14319,-71.4285714285714,4,1,1,50,0,0
14394,-166.666666666667,4,1,1,50,0,0
14432,-100,4,1,1,50,0,0
14619,-71.4285714285714,4,1,1,50,0,0
14694,-166.666666666667,4,1,1,50,0,0
14732,-100,4,1,1,50,0,0
14919,-71.4285714285714,4,1,1,50,0,0
14994,-166.666666666667,4,1,1,50,0,0
15032,-100,4,1,1,50,0,0
15219,-71.4285714285714,4,1,1,50,0,0
15294,-166.666666666667,4,1,1,50,0,0
15332,-100,4,1,1,50,0,0
15519,-71.4285714285714,4,1,1,50,0,0
15594,-166.666666666667,4,1,1,50,0,0
15632,-100,4,1,1,50,0,0
15819,-71.4285714285714,4,1,1,50,0,0
15894,-166.666666666667,4,1,1,50,0,0
15932,-100,4,1,1,50,0,0
16236,-66.6666666666667,4,1,1,50,0,0
16286,-200,4,1,1,50,0,0
16336,-66.6666666666667,4,1,1,50,0,0
16386,-200,4,1,1,50,0,0
16436,-66.6666666666667,4,1,1,50,0,0
16486,-200,4,1,1,50,0,0
16536,-66.6666666666667,4,1,1,50,0,0
16586,-200,4,1,1,50,0,0
16636,-66.6666666666667,4,1,1,50,0,0
16686,-200,4,1,1,50,0,0
16736,-66.6666666666667,4,1,1,50,0,0
16786,-200,4,1,1,50,0,0
16836,-100,4,1,1,50,0,0
26286,-90.9090909090909,4,1,1,50,0,0
26361,-83.3333333333333,4,1,1,50,0,0
26436,-66.6666666666667,4,1,1,50,0,0
26473,-100,4,1,1,50,0,0
27036,-66.6666666666667,4,1,1,50,0,0
27073,-200,4,1,1,50,0,0
27111,-100,4,1,1,50,0,0
27186,-66.6666666666667,4,1,1,50,0,0
27223,-200,4,1,1,50,0,0
27261,-100,4,1,1,50,0,0
27336,-66.6666666666667,4,1,1,50,0,0
27373,-200,4,1,1,50,0,0
27411,-100,4,1,1,50,0,0
27636,-66.6666666666667,4,1,1,50,0,0
27673,-200,4,1,1,50,0,0
27711,-100,4,1,1,50,0,0
27936,-66.6666666666667,4,1,1,50,0,0
27973,-200,4,1,1,50,0,0
28011,-100,4,1,1,50,0,0
28386,-66.6666666666667,4,1,1,50,0,0
28423,-200,4,1,1,50,0,0
28461,-100,4,1,1,50,0,0
28686,-66.6666666666667,4,1,1,50,0,0
28723,-200,4,1,1,50,0,0
28761,-100,4,1,1,50,0,0
28836,-71.4285714285714,4,1,1,50,0,0
28873,-166.666666666667,4,1,1,50,0,0
28911,-100,4,1,1,50,0,0
29136,-71.4285714285714,4,1,1,50,0,0
29173,-166.666666666667,4,1,1,50,0,0
29211,-100,4,1,1,50,0,0
29736,-71.4285714285714,4,1,1,50,0,0
29773,-166.666666666667,4,1,1,50,0,0
29811,-100,4,1,1,50,0,0
30036,-71.4285714285714,4,1,1,50,0,0
30073,-166.666666666667,4,1,1,50,0,0
30111,-100,4,1,1,50,0,0
30336,-71.4285714285714,4,1,1,50,0,0
30373,-166.666666666667,4,1,1,50,0,0
30411,-100,4,1,1,50,0,0
30636,-71.4285714285714,4,1,1,50,0,0
30673,-166.666666666667,4,1,1,50,0,0
30711,-100,4,1,1,50,0,0
30936,-52.6315789473684,4,1,1,50,0,0
30973,-1000,4,1,1,50,0,0
31011,-100,4,1,1,50,0,0
31086,-52.6315789473684,4,1,1,50,0,0
31123,-1000,4,1,1,50,0,0
31161,-100,4,1,1,50,0,0
31236,-66.6666666666667,4,1,1,50,0,0
31273,-100,4,1,1,50,0,0
31836,-71.4285714285714,4,1,1,50,0,0
31873,-166.666666666667,4,1,1,50,0,0
31911,-100,4,1,1,50,0,0
31986,-76.9230769230769,4,1,1,50,0,0
32023,-142.857142857143,4,1,1,50,0,0
32061,-100,4,1,1,50,0,0
32136,-83.3333333333333,4,1,1,50,0,0
32173,-125,4,1,1,50,0,0
32211,-100,4,1,1,50,0,0
32436,-90.9090909090909,4,1,1,50,0,0
32473,-111.111111111111,4,1,1,50,0,0
32511,-100,4,1,1,50,0,0
33036,-90.9090909090909,4,1,1,50,0,0
33073,-111.111111111111,4,1,1,50,0,0
33111,-100,4,1,1,50,0,0
33186,-90.9090909090909,4,1,1,50,0,0
33223,-111.111111111111,4,1,1,50,0,0
33261,-100,4,1,1,50,0,0
33336,-90.9090909090909,4,1,1,50,0,0
33373,-111.111111111111,4,1,1,50,0,0
33411,-100,4,1,1,50,0,0
34836,-101.010101010101,4,1,1,50,0,0
35136,-102.040816326531,4,1,1,50,0,0
35436,-103.092783505155,4,1,1,50,0,0
35736,-104.166666666667,4,1,1,50,0,0
36036,-68.9655172413794,4,1,1,50,0,0
36073,-105.263157894737,4,1,1,50,0,0
39632,-104.166666666667,4,1,1,50,0,0
39932,-103.092783505155,4,1,1,50,0,0
40232,-102.040816326531,4,1,1,50,0,0
40532,-101.010101010101,4,1,1,50,0,0
40832,-71.4285714285714,4,1,1,50,0,0
40869,-100,4,1,1,50,0,0
45336,-83.3333333333333,4,1,1,50,0,0
45448,-125,4,1,1,50,0,0
45561,-100,4,1,1,50,0,0
45598,-83.3333333333333,3,1,1,50,0,0
45632,300,3,1,1,50,1,0
45632,-100,3,1,1,50,0,0
72032,-50,3,1,1,50,0,0
72069,-10000,3,1,1,50,0,0
72107,-100,3,1,1,50,0,0
72332,-50,3,1,1,50,0,0
72369,-10000,3,1,1,50,0,0
72407,-100,3,1,1,50,0,0
72632,-50,3,1,1,50,0,0
72669,-10000,3,1,1,50,0,0
72707,-100,3,1,1,50,0,0
74432,-50,3,1,1,50,0,0
74469,-10000,3,1,1,50,0,0
74507,-100,3,1,1,50,0,0
74732,-50,3,1,1,50,0,0
74769,-10000,3,1,1,50,0,0
74807,-100,3,1,1,50,0,0
75632,-50,3,1,1,50,0,0
75669,-10000,3,1,1,50,0,0
75707,-100,3,1,1,50,0,0
75932,-50,3,1,1,50,0,0
75969,-10000,3,1,1,50,0,0
76007,-100,3,1,1,50,0,0
76232,-50,3,1,1,50,0,0
76269,-200,3,1,1,50,0,0
76307,-100,3,1,1,50,0,0
85232,-83.3333333333333,3,1,1,50,0,0
85269,-100,3,1,1,50,0,0
86132,-76.9230769230769,3,1,1,50,0,0
86169,-100,3,1,1,50,0,0
87032,-71.4285714285714,3,1,1,50,0,0
87069,-100,3,1,1,50,0,0
87932,-66.6666666666667,3,1,1,50,0,0
87969,-100,3,1,1,50,0,0
88832,-66.6666666666667,4,1,1,50,0,0
88869,-100,4,1,1,50,0,0
89432,-66.6666666666667,4,1,1,50,0,0
89469,-100,4,1,1,50,0,0
90032,-40,4,1,1,50,0,0
90069,-100,4,1,1,50,0,0
90632,-40,4,1,1,50,0,0
90669,-100,4,1,1,50,0,0
90932,-40,4,1,1,50,0,0
90969,-100,4,1,1,50,0,0
91232,-50,4,1,1,50,0,0
91269,-100,4,1,1,50,0,0
91382,-50,4,1,1,50,0,0
91419,-100,4,1,1,50,0,0
91532,-50,4,1,1,50,0,0
91569,-100,4,1,1,50,0,0
91682,-50,4,1,1,50,0,0
91719,-100,4,1,1,50,0,0
91832,-57.1428571428571,4,1,1,50,0,0
91850,-100,4,1,1,50,0,0
91907,-57.1428571428571,4,1,1,50,0,0
91925,-100,4,1,1,50,0,0
91982,-57.1428571428571,4,1,1,50,0,0
92000,-100,4,1,1,50,0,0
92057,-57.1428571428571,4,1,1,50,0,0
92075,-100,4,1,1,50,0,0
92157,-10,4,1,1,50,0,0
92282,-133.333333333333,4,1,1,50,0,0
92432,300,4,1,1,50,1,1
92432,-100,4,1,1,50,0,1
99632,-71.4285714285714,4,1,1,50,0,0
99669,-117.647058823529,4,1,1,50,0,0
102032,-100,4,1,1,50,0,1
106832,-117.64705882353,4,1,1,50,0,0
109232,-113.636363636364,4,1,1,50,0,0
109832,-109.89010989011,4,1,1,50,0,0
110432,-106.382978723404,4,1,1,50,0,0
111032,-103.092783505155,4,1,1,50,0,0
111182,-133.333333333333,4,1,1,50,0,0
111332,-66.6666666666667,4,1,1,50,0,0
111632,300,3,1,1,50,1,0
111632,-100,3,1,1,50,0,0
132857,-10,3,1,1,50,0,0
132932,-100,3,1,1,50,0,0
133232,300,3,1,1,50,1,1
133232,-98.0392156862745,4,1,1,50,0,1
154682,-98.0392156862745,4,1,1,50,0,0
154832,300,4,1,1,50,1,1
154907,-100,4,1,1,50,0,0
155132,300,4,1,1,50,1,0
155432,300,4,1,1,50,1,0
155732,300,4,1,1,50,1,0
156032,300,4,1,1,50,1,0
156332,300,4,1,1,50,1,0
156482,300,4,1,1,50,1,0
156632,300,4,1,1,50,1,0
156782,300,4,1,1,50,1,0
156932,300,4,1,1,50,1,0
157232,300,4,1,1,50,1,0
157532,300,4,1,1,50,1,0
157832,300,4,1,1,50,1,0
158132,300,4,1,1,50,1,0
158432,300,4,1,1,50,1,0
158732,300,4,1,1,50,1,0
158882,300,4,1,1,50,1,0
159032,300,4,1,1,50,1,0
159182,300,4,1,1,50,1,0
159332,300,4,1,1,50,1,0
159632,300,4,1,1,50,1,0
159932,300,4,1,1,50,1,0
160232,300,4,1,1,50,1,0
160532,300,4,1,1,50,1,0
160832,300,4,1,1,50,1,0
161132,300,4,1,1,50,1,0
161282,300,4,1,1,50,1,0
161432,300,4,1,1,50,1,0
161582,300,4,1,1,50,1,0
161732,300,4,1,1,50,1,0
162032,300,4,1,1,50,1,0
162332,300,4,1,1,50,1,0
162632,300,4,1,1,50,1,0
162932,300,4,1,1,50,1,0
163232,300,4,1,1,50,1,0
163532,300,4,1,1,50,1,0
163682,300,4,1,1,50,1,0
163832,300,4,1,1,50,1,0
163982,300,4,1,1,50,1,0
164132,300,4,1,1,50,1,0
164432,300,4,1,1,50,1,0

[HitObjects]
475,192,32,128,0,482:0:0:0:0:
329,192,182,128,0,482:0:0:0:0:
402,192,332,128,0,482:0:0:0:0:
36,192,632,128,0,1082:0:0:0:0:
182,192,782,128,0,1082:0:0:0:0:
109,192,932,128,0,1082:0:0:0:0:
256,192,1232,128,0,1682:0:0:0:0:
402,192,1382,128,0,1682:0:0:0:0:
109,192,1532,128,0,2432:0:0:0:0:
475,192,3332,128,0,3632:0:0:0:0:
402,192,3432,128,0,3632:0:0:0:0:
329,192,3532,128,0,3632:0:0:0:0:
109,192,3632,128,0,4082:0:0:0:0:
475,192,3782,128,0,4082:0:0:0:0:
36,192,3932,128,0,4082:0:0:0:0:
402,192,4232,128,0,4682:0:0:0:0:
256,192,4232,128,0,7232:0:0:0:0:
109,192,4382,128,0,4682:0:0:0:0:
329,192,4532,128,0,4682:0:0:0:0:
182,192,4832,128,0,5282:0:0:0:0:
109,192,4982,128,0,5282:0:0:0:0:
36,192,5132,128,0,5282:0:0:0:0:
109,192,7232,1,4,0:0:0:0:
182,192,7232,1,2,0:0:0:0:
36,192,7232,1,0,0:0:0:0:
475,192,7419,1,0,0:0:0:0:
329,192,7532,1,2,0:0:0:0:
256,192,7532,1,0,0:0:0:0:
36,192,7719,1,0,0:0:0:0:
182,192,7832,1,2,0:0:0:0:
256,192,7832,1,0,0:0:0:0:
402,192,8019,1,0,0:0:0:0:
329,192,8132,1,2,0:0:0:0:
475,192,8132,1,0,0:0:0:0:
109,192,8319,1,0,0:0:0:0:
182,192,8432,1,2,0:0:0:0:
36,192,8432,1,0,0:0:0:0:
402,192,8619,1,0,0:0:0:0:
109,192,8732,1,2,0:0:0:0:
182,192,8732,1,0,0:0:0:0:
36,192,8919,1,0,0:0:0:0:
256,192,9032,1,2,0:0:0:0:
329,192,9032,1,0,0:0:0:0:
475,192,9219,1,0,0:0:0:0:
402,192,9332,1,2,0:0:0:0:
182,192,9332,1,0,0:0:0:0:
109,192,9519,1,0,0:0:0:0:
256,192,9632,1,2,0:0:0:0:
475,192,9632,1,0,0:0:0:0:
329,192,9819,1,0,0:0:0:0:
36,192,9932,1,2,0:0:0:0:
182,192,9932,1,0,0:0:0:0:
109,192,10119,1,0,0:0:0:0:
256,192,10232,1,2,0:0:0:0:
402,192,10232,1,0,0:0:0:0:
475,192,10419,1,0,0:0:0:0:
329,192,10532,1,2,0:0:0:0:
402,192,10532,1,0,0:0:0:0:
36,192,10719,1,0,0:0:0:0:
109,192,10832,1,2,0:0:0:0:
182,192,10832,1,0,0:0:0:0:
402,192,10982,1,0,0:0:0:0:
329,192,11132,1,2,0:0:0:0:
402,192,11132,1,0,0:0:0:0:
402,192,11282,1,0,0:0:0:0:
256,192,11432,1,2,0:0:0:0:
109,192,11582,1,0,0:0:0:0:
182,192,11732,1,2,0:0:0:0:
109,192,11732,1,0,0:0:0:0:
109,192,11882,1,0,0:0:0:0:
329,192,12032,1,2,0:0:0:0:
182,192,12219,1,0,0:0:0:0:
256,192,12332,1,2,0:0:0:0:
402,192,12332,1,0,0:0:0:0:
329,192,12519,1,0,0:0:0:0:
182,192,12632,1,2,0:0:0:0:
475,192,12632,1,0,0:0:0:0:
36,192,12819,1,0,0:0:0:0:
109,192,12932,1,2,0:0:0:0:
256,192,12932,1,0,0:0:0:0:
475,192,13119,1,0,0:0:0:0:
256,192,13232,1,2,0:0:0:0:
402,192,13232,1,0,0:0:0:0:
182,192,13419,1,0,0:0:0:0:
36,192,13532,1,2,0:0:0:0:
109,192,13532,1,0,0:0:0:0:
329,192,13719,1,0,0:0:0:0:
402,192,13832,1,2,0:0:0:0:
475,192,13832,1,0,0:0:0:0:
182,192,14019,1,0,0:0:0:0:
329,192,14132,1,2,0:0:0:0:
109,192,14132,1,0,0:0:0:0:
402,192,14319,1,0,0:0:0:0:
256,192,14432,1,2,0:0:0:0:
475,192,14432,1,0,0:0:0:0:
109,192,14619,1,0,0:0:0:0:
182,192,14732,1,2,0:0:0:0:
36,192,14732,1,0,0:0:0:0:
402,192,14919,1,0,0:0:0:0:
329,192,15032,1,2,0:0:0:0:
475,192,15032,1,0,0:0:0:0:
182,192,15219,1,0,0:0:0:0:
256,192,15332,1,2,0:0:0:0:
36,192,15332,1,0,0:0:0:0:
402,192,15519,1,0,0:0:0:0:
256,192,15632,1,2,0:0:0:0:
475,192,15632,1,0,0:0:0:0:
109,192,15819,1,0,0:0:0:0:
182,192,15932,1,2,0:0:0:0:
329,192,15932,1,0,0:0:0:0:
329,192,16232,128,0,16332:0:0:0:0:
182,192,16332,128,0,16432:0:0:0:0:
402,192,16432,128,0,16532:0:0:0:0:
109,192,16532,128,0,16632:0:0:0:0:
475,192,16632,128,0,16732:0:0:0:0:
36,192,16732,128,0,16832:0:0:0:0:
256,192,16832,1,2,0:0:0:0:
329,192,16832,1,4,0:0:0:0:
402,192,16907,1,0,0:0:0:0:
475,192,16982,1,0,0:0:0:0:
182,192,16982,1,0,0:0:0:0:
36,192,17057,1,0,0:0:0:0:
109,192,17132,1,8,0:0:0:0:
402,192,17132,1,2,0:0:0:0:
256,192,17132,1,0,0:0:0:0:
329,192,17207,1,0,0:0:0:0:
256,192,17282,1,0,0:0:0:0:
36,192,17282,1,0,0:0:0:0:
182,192,17357,1,0,0:0:0:0:
109,192,17432,1,2,0:0:0:0:
475,192,17432,1,0,0:0:0:0:
402,192,17432,1,0,0:0:0:0:
329,192,17507,1,0,0:0:0:0:
256,192,17582,1,0,0:0:0:0:
182,192,17582,1,0,0:0:0:0:
402,192,17657,1,0,0:0:0:0:
475,192,17732,1,2,0:0:0:0:
36,192,17732,1,8,0:0:0:0:
109,192,17732,1,0,0:0:0:0:
182,192,17807,1,0,0:0:0:0:
329,192,17882,1,0,0:0:0:0:
402,192,17882,1,0,0:0:0:0:
256,192,17957,1,0,0:0:0:0:
109,192,18032,1,2,0:0:0:0:
475,192,18032,1,0,0:0:0:0:
36,192,18032,1,0,0:0:0:0:
182,192,18107,1,0,0:0:0:0:
256,192,18182,128,0,18482:0:0:0:0:
329,192,18182,1,0,0:0:0:0:
475,192,18332,1,8,0:0:0:0:
182,192,18332,1,2,0:0:0:0:
402,192,18482,1,0,0:0:0:0:
109,192,18482,1,0,0:0:0:0:
329,192,18557,1,0,0:0:0:0:
36,192,18632,1,2,0:0:0:0:
402,192,18632,1,0,0:0:0:0:
475,192,18632,1,0,0:0:0:0:
109,192,18707,1,0,0:0:0:0:
182,192,18782,1,0,0:0:0:0:
329,192,18782,1,0,0:0:0:0:
256,192,18857,1,0,0:0:0:0:
36,192,18932,1,2,0:0:0:0:
475,192,18932,1,8,0:0:0:0:
402,192,18932,1,0,0:0:0:0:
109,192,19007,1,0,0:0:0:0:
182,192,19082,1,0,0:0:0:0:
329,192,19082,1,0,0:0:0:0:
402,192,19157,1,0,0:0:0:0:
329,192,19232,1,2,0:0:0:0:
256,192,19232,1,0,0:0:0:0:
109,192,19232,1,0,0:0:0:0:
475,192,19307,1,0,0:0:0:0:
36,192,19382,1,0,0:0:0:0:
402,192,19382,1,0,0:0:0:0:
109,192,19457,1,0,0:0:0:0:
182,192,19532,1,2,0:0:0:0:
329,192,19532,1,8,0:0:0:0:
402,192,19532,1,0,0:0:0:0:
475,192,19607,1,0,0:0:0:0:
256,192,19682,1,0,0:0:0:0:
109,192,19682,1,0,0:0:0:0:
475,192,19757,1,0,0:0:0:0:
329,192,19832,1,2,0:0:0:0:
36,192,19832,1,0,0:0:0:0:
182,192,19832,1,0,0:0:0:0:
109,192,19907,1,0,0:0:0:0:
402,192,19982,1,0,0:0:0:0:
256,192,19982,1,0,0:0:0:0:
329,192,20057,1,0,0:0:0:0:
182,192,20132,1,2,0:0:0:0:
256,192,20132,1,8,0:0:0:0:
36,192,20132,1,0,0:0:0:0:
109,192,20207,1,0,0:0:0:0:
329,192,20282,1,0,0:0:0:0:
402,192,20282,1,0,0:0:0:0:
475,192,20357,1,0,0:0:0:0:
36,192,20432,1,2,0:0:0:0:
402,192,20432,1,0,0:0:0:0:
109,192,20432,1,0,0:0:0:0:
329,192,20507,1,0,0:0:0:0:
256,192,20582,128,0,20882:0:0:0:0:
182,192,20582,1,0,0:0:0:0:
109,192,20732,1,2,0:0:0:0:
329,192,20732,1,8,0:0:0:0:
402,192,20882,1,0,0:0:0:0:
36,192,20882,1,0,0:0:0:0:
475,192,20957,1,0,0:0:0:0:
402,192,21032,1,2,0:0:0:0:
109,192,21032,1,0,0:0:0:0:
182,192,21032,1,0,0:0:0:0:
329,192,21107,1,0,0:0:0:0:
36,192,21182,1,0,0:0:0:0:
256,192,21182,1,0,0:0:0:0:
182,192,21257,1,0,0:0:0:0:
256,192,21332,1,2,0:0:0:0:
329,192,21332,1,8,0:0:0:0:
475,192,21332,1,0,0:0:0:0:
402,192,21407,1,0,0:0:0:0:
109,192,21482,1,0,0:0:0:0:
329,192,21482,1,0,0:0:0:0:
402,192,21557,1,0,0:0:0:0:
182,192,21632,1,2,0:0:0:0:
256,192,21632,1,0,0:0:0:0:
475,192,21632,1,0,0:0:0:0:
329,192,21707,1,0,0:0:0:0:
109,192,21782,1,0,0:0:0:0:
402,192,21782,1,0,0:0:0:0:
256,192,21857,1,0,0:0:0:0:
329,192,21932,1,2,0:0:0:0:
402,192,21932,1,8,0:0:0:0:
475,192,21932,1,0,0:0:0:0:
182,192,22007,1,0,0:0:0:0:
36,192,22082,1,0,0:0:0:0:
256,192,22082,1,0,0:0:0:0:
475,192,22157,1,0,0:0:0:0:
402,192,22232,1,2,0:0:0:0:
256,192,22232,1,0,0:0:0:0:
329,192,22232,1,0,0:0:0:0:
182,192,22307,1,0,0:0:0:0:
109,192,22382,1,0,0:0:0:0:
256,192,22382,1,0,0:0:0:0:
329,192,22457,1,0,0:0:0:0:
256,192,22532,1,2,0:0:0:0:
36,192,22532,1,8,0:0:0:0:
475,192,22532,1,0,0:0:0:0:
109,192,22607,1,0,0:0:0:0:
182,192,22682,1,0,0:0:0:0:
402,192,22682,1,0,0:0:0:0:
475,192,22757,1,0,0:0:0:0:
402,192,22832,1,2,0:0:0:0:
36,192,22832,1,0,0:0:0:0:
109,192,22832,1,0,0:0:0:0:
329,192,22907,1,0,0:0:0:0:
256,192,22982,128,0,23282:0:0:0:0:
182,192,22982,1,0,0:0:0:0:
402,192,23132,1,2,0:0:0:0:
475,192,23132,1,8,0:0:0:0:
182,192,23282,1,0,0:0:0:0:
329,192,23282,1,0,0:0:0:0:
36,192,23357,1,0,0:0:0:0:
256,192,23432,1,2,0:0:0:0:
475,192,23432,1,0,0:0:0:0:
402,192,23432,1,0,0:0:0:0:
329,192,23507,1,0,0:0:0:0:
182,192,23582,1,0,0:0:0:0:
402,192,23582,1,0,0:0:0:0:
36,192,23657,1,0,0:0:0:0:
475,192,23732,1,2,0:0:0:0:
256,192,23732,1,8,0:0:0:0:
329,192,23732,1,0,0:0:0:0:
109,192,23807,1,0,0:0:0:0:
256,192,23882,1,0,0:0:0:0:
182,192,23882,1,0,0:0:0:0:
402,192,23957,1,0,0:0:0:0:
329,192,24032,1,2,0:0:0:0:
182,192,24032,1,0,0:0:0:0:
36,192,24032,1,0,0:0:0:0:
475,192,24032,1,0,0:0:0:0:
109,192,24182,1,2,0:0:0:0:
256,192,24182,1,0,0:0:0:0:
402,192,24182,1,0,0:0:0:0:
182,192,24332,1,8,0:0:0:0:
329,192,24332,1,2,0:0:0:0:
475,192,24332,1,0,0:0:0:0:
36,192,24332,1,0,0:0:0:0:
256,192,24482,1,2,0:0:0:0:
402,192,24482,1,0,0:0:0:0:
109,192,24482,1,0,0:0:0:0:
329,192,24632,128,2,26132:0:0:0:0:
36,192,24782,1,0,0:0:0:0:
402,192,24932,1,8,0:0:0:0:
182,192,25082,1,0,0:0:0:0:
475,192,25232,1,2,0:0:0:0:
402,192,25232,1,0,0:0:0:0:
475,192,25382,1,2,0:0:0:0:
402,192,25382,1,0,0:0:0:0:
256,192,25532,1,2,0:0:0:0:
182,192,25532,1,8,0:0:0:0:
256,192,25682,1,2,0:0:0:0:
182,192,25682,1,0,0:0:0:0:
36,192,25832,1,2,0:0:0:0:
109,192,25832,1,0,0:0:0:0:
36,192,25982,1,2,0:0:0:0:
109,192,25982,1,0,0:0:0:0:
256,192,26132,128,2,26432:0:0:0:0:
402,192,26132,1,8,0:0:0:0:
475,192,26132,1,0,0:0:0:0:
402,192,26432,128,4,26732:0:0:0:0:
36,192,26432,1,2,0:0:0:0:
109,192,26432,1,2,0:0:0:0:
182,192,26732,1,8,0:0:0:0:
109,192,26882,1,0,0:0:0:0:
182,192,26957,1,0,0:0:0:0:
329,192,27032,128,2,27182:0:0:0:0:
256,192,27032,1,2,0:0:0:0:
475,192,27182,128,2,27332:0:0:0:0:
402,192,27182,1,2,0:0:0:0:
182,192,27332,128,2,27482:0:0:0:0:
109,192,27332,1,2,0:0:0:0:
36,192,27482,128,0,27632:0:0:0:0:
402,192,27632,128,2,28232:0:0:0:0:
329,192,27632,1,2,0:0:0:0:
256,192,27782,1,0,0:0:0:0:
109,192,27932,128,2,28232:0:0:0:0:
182,192,27932,1,2,0:0:0:0:
329,192,28232,128,0,28532:0:0:0:0:
402,192,28382,1,2,0:0:0:0:
475,192,28382,1,2,0:0:0:0:
182,192,28532,128,8,28832:0:0:0:0:
256,192,28532,1,0,0:0:0:0:
36,192,28682,1,2,0:0:0:0:
109,192,28682,1,2,0:0:0:0:
475,192,28832,128,2,29132:0:0:0:0:
402,192,28832,1,2,0:0:0:0:
329,192,28832,1,0,0:0:0:0:
182,192,29132,1,2,0:0:0:0:
109,192,29132,1,2,0:0:0:0:
36,192,29132,1,8,0:0:0:0:
402,192,29432,128,0,29582:0:0:0:0:
329,192,29432,1,0,0:0:0:0:
256,192,29507,1,0,0:0:0:0:
109,192,29582,128,2,29732:0:0:0:0:
182,192,29582,1,0,0:0:0:0:
402,192,29732,128,2,30032:0:0:0:0:
475,192,29732,1,8,0:0:0:0:
329,192,29732,1,2,0:0:0:0:
36,192,30032,128,2,30332:0:0:0:0:
256,192,30032,1,2,0:0:0:0:
109,192,30032,1,0,0:0:0:0:
329,192,30182,1,0,0:0:0:0:
182,192,30332,128,8,30632:0:0:0:0:
475,192,30332,1,2,0:0:0:0:
402,192,30332,1,2,0:0:0:0:
256,192,30632,128,2,30782:0:0:0:0:
329,192,30782,1,2,0:0:0:0:
182,192,30782,1,0,0:0:0:0:
402,192,30857,1,0,0:0:0:0:
109,192,30857,1,0,0:0:0:0:
475,192,30932,1,0,0:0:0:0:
36,192,30932,1,0,0:0:0:0:
475,192,31082,1,0,0:0:0:0:
36,192,31082,1,0,0:0:0:0:
109,192,31232,1,2,0:0:0:0:
256,192,31232,1,4,0:0:0:0:
329,192,31232,128,0,31532:0:0:0:0:
182,192,31382,1,0,0:0:0:0:
36,192,31532,1,8,0:0:0:0:
109,192,31532,1,0,0:0:0:0:
402,192,31532,128,0,31832:0:0:0:0:
256,192,31682,1,0,0:0:0:0:
182,192,31832,128,2,31982:0:0:0:0:
36,192,31832,1,0,0:0:0:0:
109,192,31832,1,0,0:0:0:0:
329,192,31982,128,2,32132:0:0:0:0:
475,192,31982,1,0,0:0:0:0:
402,192,31982,1,0,0:0:0:0:
182,192,32132,128,8,32282:0:0:0:0:
36,192,32132,1,2,0:0:0:0:
109,192,32132,1,0,0:0:0:0:
329,192,32282,128,0,32432:0:0:0:0:
402,192,32282,1,0,0:0:0:0:
109,192,32432,128,2,32732:0:0:0:0:
256,192,32582,1,0,0:0:0:0:
329,192,32732,1,2,0:0:0:0:
475,192,32732,128,8,33032:0:0:0:0:
402,192,32882,1,0,0:0:0:0:
256,192,33032,1,2,0:0:0:0:
182,192,33032,1,0,0:0:0:0:
36,192,33182,1,2,0:0:0:0:
329,192,33332,1,8,0:0:0:0:
402,192,33332,1,2,0:0:0:0:
109,192,33482,1,0,0:0:0:0:
256,192,33632,128,2,33857:0:0:0:0:
182,192,33632,1,0,0:0:0:0:
256,192,33932,128,2,34157:0:0:0:0:
329,192,33932,1,8,0:0:0:0:
402,192,33932,1,0,0:0:0:0:
475,192,34232,1,0,0:0:0:0:
402,192,34307,1,0,0:0:0:0:
329,192,34382,1,2,0:0:0:0:
182,192,34382,1,0,0:0:0:0:
109,192,34382,1,0,0:0:0:0:
182,192,34532,1,8,0:0:0:0:
256,192,34532,1,2,0:0:0:0:
36,192,34532,1,0,0:0:0:0:
329,192,34682,1,0,0:0:0:0:
402,192,34757,1,0,0:0:0:0:
109,192,34832,1,2,0:0:0:0:
475,192,34832,1,0,0:0:0:0:
36,192,34832,1,0,0:0:0:0:
329,192,34982,1,0,0:0:0:0:
182,192,35132,1,2,0:0:0:0:
402,192,35132,1,8,0:0:0:0:
256,192,35132,1,0,0:0:0:0:
109,192,35282,1,0,0:0:0:0:
182,192,35357,1,0,0:0:0:0:
256,192,35432,1,2,0:0:0:0:
475,192,35432,1,0,0:0:0:0:
329,192,35507,1,0,0:0:0:0:
402,192,35582,1,2,0:0:0:0:
36,192,35582,1,0,0:0:0:0:
109,192,35657,1,0,0:0:0:0:
256,192,35732,1,2,0:0:0:0:
182,192,35732,1,8,0:0:0:0:
329,192,35882,1,0,0:0:0:0:
36,192,36032,1,4,0:0:0:0:
109,192,36032,1,2,0:0:0:0:
256,192,36032,128,2,36182:0:0:0:0:
402,192,36182,1,0,0:0:0:0:
475,192,36257,1,0,0:0:0:0:
329,192,36332,1,8,0:0:0:0:
182,192,36332,1,0,0:0:0:0:
36,192,36407,1,0,0:0:0:0:
109,192,36482,1,0,0:0:0:0:
182,192,36557,1,0,0:0:0:0:
402,192,36557,1,0,0:0:0:0:
256,192,36632,1,0,0:0:0:0:
475,192,36632,1,0,0:0:0:0:
182,192,36707,1,0,0:0:0:0:
109,192,36782,1,2,0:0:0:0:
329,192,36782,1,0,0:0:0:0:
36,192,36857,1,0,0:0:0:0:
256,192,36857,1,0,0:0:0:0:
182,192,36932,1,8,0:0:0:0:
402,192,36932,1,0,0:0:0:0:
329,192,37007,1,0,0:0:0:0:
475,192,37082,1,0,0:0:0:0:
402,192,37157,1,0,0:0:0:0:
256,192,37232,1,2,0:0:0:0:
36,192,37232,1,0,0:0:0:0:
329,192,37232,1,0,0:0:0:0:
109,192,37307,1,0,0:0:0:0:
182,192,37382,1,0,0:0:0:0:
256,192,37457,1,0,0:0:0:0:
329,192,37532,1,8,0:0:0:0:
182,192,37532,1,0,0:0:0:0:
475,192,37607,1,0,0:0:0:0:
36,192,37607,1,0,0:0:0:0:
329,192,37682,1,0,0:0:0:0:
182,192,37682,1,0,0:0:0:0:
475,192,37757,1,0,0:0:0:0:
36,192,37757,1,0,0:0:0:0:
402,192,37832,128,0,37982:0:0:0:0:
256,192,37832,1,0,0:0:0:0:
109,192,37832,128,0,37982:0:0:0:0:
182,192,37982,1,2,0:0:0:0:
402,192,38057,128,0,38207:0:0:0:0:
109,192,38057,128,0,38207:0:0:0:0:
329,192,38132,1,8,0:0:0:0:
402,192,38282,128,0,38432:0:0:0:0:
109,192,38282,128,0,38432:0:0:0:0:
256,192,38432,1,2,0:0:0:0:
329,192,38507,1,0,0:0:0:0:
36,192,38582,1,0,0:0:0:0:
109,192,38657,1,0,0:0:0:0:
182,192,38732,1,8,0:0:0:0:
329,192,38732,1,0,0:0:0:0:
402,192,38807,1,0,0:0:0:0:
256,192,38882,1,0,0:0:0:0:
329,192,38957,1,0,0:0:0:0:
475,192,39032,1,0,0:0:0:0:
402,192,39107,1,0,0:0:0:0:
256,192,39182,1,2,0:0:0:0:
182,192,39182,1,0,0:0:0:0:
329,192,39257,1,0,0:0:0:0:
36,192,39332,1,0,0:0:0:0:
109,192,39332,1,8,0:0:0:0:
402,192,39332,1,0,0:0:0:0:
475,192,39407,1,0,0:0:0:0:
182,192,39482,1,0,0:0:0:0:
109,192,39557,1,0,0:0:0:0:
329,192,39632,1,2,0:0:0:0:
256,192,39632,1,0,0:0:0:0:
36,192,39632,1,0,0:0:0:0:
402,192,39707,1,0,0:0:0:0:
475,192,39782,1,0,0:0:0:0:
256,192,39857,1,0,0:0:0:0:
182,192,39932,1,8,0:0:0:0:
109,192,39932,1,0,0:0:0:0:
475,192,40082,1,0,0:0:0:0:
256,192,40232,1,0,0:0:0:0:
109,192,40382,1,2,0:0:0:0:
329,192,40382,1,0,0:0:0:0:
475,192,40382,1,0,0:0:0:0:
256,192,40532,1,8,0:0:0:0:
402,192,40532,1,0,0:0:0:0:
475,192,40832,128,4,42257:0:0:0:0:
402,192,40907,128,0,41207:0:0:0:0:
329,192,40982,128,0,41282:0:0:0:0:
256,192,41057,128,0,41357:0:0:0:0:
182,192,41132,128,0,41432:0:0:0:0:
109,192,41207,128,0,41507:0:0:0:0:
402,192,41282,128,0,41957:0:0:0:0:
329,192,41357,128,0,41657:0:0:0:0:
256,192,41432,128,0,42932:0:0:0:0:
182,192,41507,128,0,41732:0:0:0:0:
109,192,41582,128,0,42032:0:0:0:0:
36,192,41657,128,0,42332:0:0:0:0:
329,192,41732,128,0,41807:0:0:0:0:
182,192,41807,128,0,41882:0:0:0:0:
329,192,41882,128,0,42857:0:0:0:0:
182,192,41957,128,0,42632:0:0:0:0:
402,192,42032,128,0,42107:0:0:0:0:
109,192,42107,128,0,42182:0:0:0:0:
402,192,42182,128,0,42782:0:0:0:0:
109,192,42257,128,0,42557:0:0:0:0:
475,192,42332,128,0,42407:0:0:0:0:
36,192,42407,128,0,42482:0:0:0:0:
475,192,42482,128,0,42707:0:0:0:0:
36,192,42557,128,0,42782:0:0:0:0:
109,192,42632,128,0,42857:0:0:0:0:
182,192,42707,128,0,42932:0:0:0:0:
475,192,42782,128,0,43007:0:0:0:0:
402,192,42857,128,0,43082:0:0:0:0:
329,192,42932,128,0,43157:0:0:0:0:
256,192,43007,128,0,43232:0:0:0:0:
36,192,43082,128,0,43232:0:0:0:0:
109,192,43157,128,0,43307:0:0:0:0:
182,192,43232,128,0,43382:0:0:0:0:
402,192,43232,128,0,43307:0:0:0:0:
475,192,43232,128,0,43307:0:0:0:0:
256,192,43307,128,0,43457:0:0:0:0:
475,192,43382,128,0,43532:0:0:0:0:
36,192,43382,128,0,43457:0:0:0:0:
329,192,43457,128,0,43532:0:0:0:0:
256,192,43532,128,0,43607:0:0:0:0:
182,192,43532,128,0,43682:0:0:0:0:
36,192,43607,128,0,43682:0:0:0:0:
256,192,43682,128,0,43757:0:0:0:0:
475,192,43682,128,0,43832:0:0:0:0:
182,192,43757,128,0,43832:0:0:0:0:
402,192,43757,128,0,43907:0:0:0:0:
109,192,43832,128,0,43907:0:0:0:0:
329,192,43832,128,0,43982:0:0:0:0:
36,192,43907,128,0,43982:0:0:0:0:
256,192,43907,128,0,44057:0:0:0:0:
182,192,43982,128,0,44132:0:0:0:0:
109,192,44057,128,0,44132:0:0:0:0:
402,192,44057,128,0,44132:0:0:0:0:
36,192,44132,128,0,44357:0:0:0:0:
256,192,44132,128,0,44282:0:0:0:0:
109,192,44207,128,0,44432:0:0:0:0:
329,192,44207,128,0,44357:0:0:0:0:
182,192,44282,128,0,44507:0:0:0:0:
402,192,44282,128,0,44432:0:0:0:0:
256,192,44357,128,0,44582:0:0:0:0:
475,192,44357,128,0,44507:0:0:0:0:
329,192,44432,128,0,44657:0:0:0:0:
36,192,44432,128,0,44582:0:0:0:0:
402,192,44507,128,0,44732:0:0:0:0:
109,192,44507,128,0,44657:0:0:0:0:
475,192,44582,128,0,44957:0:0:0:0:
182,192,44582,128,0,44732:0:0:0:0:
256,192,44657,128,0,44807:0:0:0:0:
36,192,44657,128,0,44732:0:0:0:0:
329,192,44732,128,0,44882:0:0:0:0:
109,192,44732,128,0,44807:0:0:0:0:
402,192,44807,128,0,44957:0:0:0:0:
182,192,44807,128,0,44882:0:0:0:0:
256,192,44882,128,0,44957:0:0:0:0:
36,192,44882,1,0,0:0:0:0:
329,192,44957,128,0,45032:0:0:0:0:
109,192,44957,1,0,0:0:0:0:
182,192,45032,1,0,0:0:0:0:
475,192,45032,128,0,45557:0:0:0:0:
402,192,45032,128,0,45107:0:0:0:0:
182,192,45332,128,2,45557:0:0:0:0:
329,192,45332,128,4,45557:0:0:0:0:
36,192,45332,128,0,45557:0:0:0:0:
36,192,45632,1,2,0:0:0:0:
475,192,45632,1,4,0:0:0:0:
182,192,45632,1,0,0:0:0:0:
329,192,45632,1,0,0:0:0:0:
402,192,45707,1,0,0:0:0:0:
329,192,45782,1,0,0:0:0:0:
109,192,45782,1,0,0:0:0:0:
256,192,45857,1,0,0:0:0:0:
36,192,45932,1,2,0:0:0:0:
475,192,45932,1,0,0:0:0:0:
402,192,45932,1,8,0:0:0:0:
109,192,46007,1,0,0:0:0:0:
182,192,46082,1,0,0:0:0:0:
402,192,46082,1,0,0:0:0:0:
329,192,46157,1,0,0:0:0:0:
256,192,46232,1,2,0:0:0:0:
402,192,46232,1,0,0:0:0:0:
109,192,46232,1,0,0:0:0:0:
475,192,46307,1,0,0:0:0:0:
36,192,46382,1,0,0:0:0:0:
182,192,46382,1,0,0:0:0:0:
109,192,46457,1,0,0:0:0:0:
329,192,46532,1,2,0:0:0:0:
256,192,46532,1,8,0:0:0:0:
402,192,46532,1,0,0:0:0:0:
182,192,46607,1,0,0:0:0:0:
402,192,46682,1,0,0:0:0:0:
109,192,46682,1,0,0:0:0:0:
329,192,46757,1,0,0:0:0:0:
182,192,46832,1,2,0:0:0:0:
36,192,46832,1,0,0:0:0:0:
475,192,46832,1,0,0:0:0:0:
256,192,46907,1,0,0:0:0:0:
402,192,46982,1,0,0:0:0:0:
109,192,46982,1,0,0:0:0:0:
329,192,47057,1,0,0:0:0:0:
182,192,47132,1,2,0:0:0:0:
402,192,47132,1,8,0:0:0:0:
475,192,47132,1,0,0:0:0:0:
36,192,47207,1,0,0:0:0:0:
109,192,47282,1,0,0:0:0:0:
329,192,47282,1,0,0:0:0:0:
256,192,47357,1,0,0:0:0:0:
402,192,47432,1,2,0:0:0:0:
475,192,47432,1,0,0:0:0:0:
182,192,47432,1,0,0:0:0:0:
36,192,47432,1,0,0:0:0:0:
329,192,47507,1,0,0:0:0:0:
256,192,47582,1,0,0:0:0:0:
109,192,47582,1,0,0:0:0:0:
182,192,47657,1,0,0:0:0:0:
36,192,47732,1,2,0:0:0:0:
109,192,47732,1,8,0:0:0:0:
402,192,47732,1,0,0:0:0:0:
329,192,47807,1,0,0:0:0:0:
256,192,47882,1,0,0:0:0:0:
475,192,47882,1,0,0:0:0:0:
182,192,47957,1,0,0:0:0:0:
109,192,48032,1,2,0:0:0:0:
402,192,48032,1,0,0:0:0:0:
329,192,48032,1,0,0:0:0:0:
182,192,48107,1,0,0:0:0:0:
256,192,48182,1,0,0:0:0:0:
475,192,48182,1,0,0:0:0:0:
329,192,48257,1,0,0:0:0:0:
36,192,48332,1,2,0:0:0:0:
402,192,48332,1,0,0:0:0:0:
109,192,48332,1,8,0:0:0:0:
182,192,48407,1,0,0:0:0:0:
256,192,48482,1,0,0:0:0:0:
475,192,48482,1,0,0:0:0:0:
329,192,48557,1,0,0:0:0:0:
402,192,48632,1,2,0:0:0:0:
256,192,48632,1,0,0:0:0:0:
109,192,48632,1,0,0:0:0:0:
182,192,48707,1,0,0:0:0:0:
36,192,48782,1,0,0:0:0:0:
256,192,48782,1,0,0:0:0:0:
329,192,48857,1,0,0:0:0:0:
402,192,48932,1,2,0:0:0:0:
475,192,48932,1,8,0:0:0:0:
109,192,48932,1,0,0:0:0:0:
182,192,49007,1,0,0:0:0:0:
329,192,49082,1,0,0:0:0:0:
402,192,49082,1,0,0:0:0:0:
256,192,49157,1,0,0:0:0:0:
36,192,49232,1,2,0:0:0:0:
182,192,49232,1,0,0:0:0:0:
475,192,49232,1,0,0:0:0:0:
329,192,49232,1,0,0:0:0:0:
402,192,49307,1,0,0:0:0:0:
109,192,49382,1,0,0:0:0:0:
256,192,49382,1,0,0:0:0:0:
329,192,49457,1,0,0:0:0:0:
475,192,49532,1,2,0:0:0:0:
182,192,49532,1,0,0:0:0:0:
402,192,49532,1,8,0:0:0:0:
256,192,49607,1,0,0:0:0:0:
36,192,49682,1,0,0:0:0:0:
329,192,49682,1,0,0:0:0:0:
182,192,49757,1,0,0:0:0:0:
402,192,49832,1,2,0:0:0:0:
475,192,49832,1,0,0:0:0:0:
329,192,49832,1,0,0:0:0:0:
109,192,49907,1,0,0:0:0:0:
256,192,49982,1,0,0:0:0:0:
36,192,49982,1,0,0:0:0:0:
182,192,50057,1,0,0:0:0:0:
329,192,50132,1,2,0:0:0:0:
402,192,50132,1,8,0:0:0:0:
36,192,50132,1,0,0:0:0:0:
256,192,50207,1,0,0:0:0:0:
109,192,50282,1,0,0:0:0:0:
475,192,50282,1,0,0:0:0:0:
182,192,50357,1,0,0:0:0:0:
475,192,50432,1,2,0:0:0:0:
36,192,50432,1,0,0:0:0:0:
256,192,50432,1,0,0:0:0:0:
402,192,50507,1,0,0:0:0:0:
109,192,50582,1,0,0:0:0:0:
329,192,50582,1,0,0:0:0:0:
402,192,50657,1,0,0:0:0:0:
182,192,50732,1,2,0:0:0:0:
36,192,50732,1,0,0:0:0:0:
329,192,50732,1,8,0:0:0:0:
402,192,50807,1,0,0:0:0:0:
475,192,50882,1,0,0:0:0:0:
256,192,50882,1,0,0:0:0:0:
109,192,50957,1,0,0:0:0:0:
36,192,51032,1,2,0:0:0:0:
402,192,51032,1,0,0:0:0:0:
329,192,51032,1,0,0:0:0:0:
475,192,51032,1,0,0:0:0:0:
256,192,51107,1,0,0:0:0:0:
109,192,51182,1,0,0:0:0:0:
402,192,51182,1,0,0:0:0:0:
182,192,51257,1,0,0:0:0:0:
475,192,51332,1,2,0:0:0:0:
329,192,51332,1,8,0:0:0:0:
256,192,51332,1,0,0:0:0:0:
36,192,51407,1,0,0:0:0:0:
402,192,51482,1,0,0:0:0:0:
109,192,51557,1,0,0:0:0:0:
329,192,51632,1,2,0:0:0:0:
182,192,51632,1,0,0:0:0:0:
475,192,51632,1,0,0:0:0:0:
182,192,51782,1,2,0:0:0:0:
329,192,51782,1,0,0:0:0:0:
475,192,51782,1,0,0:0:0:0:
475,192,51932,1,2,0:0:0:0:
182,192,51932,1,0,0:0:0:0:
329,192,51932,1,8,0:0:0:0:
36,192,52082,1,0,0:0:0:0:
109,192,52157,1,0,0:0:0:0:
256,192,52232,1,2,0:0:0:0:
182,192,52232,1,0,0:0:0:0:
329,192,52232,1,0,0:0:0:0:
402,192,52307,1,0,0:0:0:0:
475,192,52382,1,0,0:0:0:0:
36,192,52382,1,0,0:0:0:0:
329,192,52457,1,0,0:0:0:0:
182,192,52532,1,2,0:0:0:0:
109,192,52532,1,0,0:0:0:0:
402,192,52532,1,8,0:0:0:0:
109,192,52682,1,2,0:0:0:0:
182,192,52682,1,0,0:0:0:0:
402,192,52682,1,0,0:0:0:0:
109,192,52832,1,2,0:0:0:0:
402,192,52832,1,0,0:0:0:0:
182,192,52832,1,0,0:0:0:0:
475,192,52832,1,0,0:0:0:0:
329,192,52907,1,0,0:0:0:0:
256,192,52982,1,0,0:0:0:0:
475,192,52982,1,0,0:0:0:0:
182,192,53057,1,0,0:0:0:0:
36,192,53132,1,2,0:0:0:0:
109,192,53132,1,8,0:0:0:0:
329,192,53132,1,0,0:0:0:0:
475,192,53207,1,0,0:0:0:0:
402,192,53282,1,0,0:0:0:0:
256,192,53282,1,0,0:0:0:0:
329,192,53357,1,0,0:0:0:0:
256,192,53432,1,2,0:0:0:0:
182,192,53432,1,0,0:0:0:0:
475,192,53432,1,0,0:0:0:0:
36,192,53507,1,0,0:0:0:0:
109,192,53582,1,0,0:0:0:0:
329,192,53582,1,0,0:0:0:0:
182,192,53657,1,0,0:0:0:0:
329,192,53732,1,2,0:0:0:0:
402,192,53732,1,8,0:0:0:0:
256,192,53732,1,0,0:0:0:0:
475,192,53807,1,0,0:0:0:0:
36,192,53882,1,0,0:0:0:0:
182,192,53882,1,0,0:0:0:0:
256,192,53957,1,0,0:0:0:0:
109,192,54032,1,2,0:0:0:0:
182,192,54032,1,0,0:0:0:0:
329,192,54032,1,0,0:0:0:0:
402,192,54107,1,0,0:0:0:0:
36,192,54182,1,0,0:0:0:0:
475,192,54182,1,0,0:0:0:0:
182,192,54257,1,0,0:0:0:0:
329,192,54332,1,2,0:0:0:0:
402,192,54332,1,8,0:0:0:0:
109,192,54332,1,0,0:0:0:0:
182,192,54407,1,0,0:0:0:0:
475,192,54482,1,0,0:0:0:0:
256,192,54482,1,0,0:0:0:0:
182,192,54557,1,0,0:0:0:0:
36,192,54632,1,2,0:0:0:0:
109,192,54632,1,0,0:0:0:0:
402,192,54632,1,0,0:0:0:0:
329,192,54632,1,0,0:0:0:0:
256,192,54707,1,0,0:0:0:0:
329,192,54782,1,0,0:0:0:0:
182,192,54782,1,0,0:0:0:0:
475,192,54857,1,0,0:0:0:0:
182,192,54932,1,2,0:0:0:0:
402,192,54932,1,0,0:0:0:0:
256,192,54932,1,8,0:0:0:0:
109,192,55007,1,0,0:0:0:0:
36,192,55082,1,0,0:0:0:0:
256,192,55082,1,0,0:0:0:0:
329,192,55157,1,0,0:0:0:0:
402,192,55232,1,2,0:0:0:0:
256,192,55232,1,0,0:0:0:0:
109,192,55232,1,0,0:0:0:0:
475,192,55307,1,0,0:0:0:0:
329,192,55382,1,0,0:0:0:0:
36,192,55382,1,0,0:0:0:0:
182,192,55457,1,0,0:0:0:0:
36,192,55532,1,2,0:0:0:0:
402,192,55532,1,8,0:0:0:0:
475,192,55532,1,0,0:0:0:0:
329,192,55607,1,0,0:0:0:0:
256,192,55682,1,0,0:0:0:0:
109,192,55682,1,0,0:0:0:0:
182,192,55757,1,0,0:0:0:0:
36,192,55832,1,2,0:0:0:0:
475,192,55832,1,0,0:0:0:0:
329,192,55832,1,0,0:0:0:0:
256,192,55907,1,0,0:0:0:0:
109,192,55982,1,2,0:0:0:0:
475,192,55982,1,0,0:0:0:0:
402,192,56057,1,0,0:0:0:0:
329,192,56132,1,2,0:0:0:0:
256,192,56132,1,8,0:0:0:0:
475,192,56132,1,0,0:0:0:0:
36,192,56207,1,0,0:0:0:0:
109,192,56282,1,2,0:0:0:0:
475,192,56282,1,0,0:0:0:0:
182,192,56357,1,0,0:0:0:0:
402,192,56432,1,2,0:0:0:0:
475,192,56432,1,0,0:0:0:0:
256,192,56432,1,0,0:0:0:0:
36,192,56432,1,0,0:0:0:0:
329,192,56507,1,0,0:0:0:0:
256,192,56582,1,0,0:0:0:0:
109,192,56582,1,0,0:0:0:0:
182,192,56657,1,0,0:0:0:0:
36,192,56732,1,2,0:0:0:0:
109,192,56732,1,8,0:0:0:0:
402,192,56732,1,0,0:0:0:0:
329,192,56807,1,0,0:0:0:0:
256,192,56882,1,0,0:0:0:0:
36,192,56882,1,0,0:0:0:0:
329,192,56957,1,0,0:0:0:0:
402,192,57032,1,2,0:0:0:0:
475,192,57032,1,0,0:0:0:0:
182,192,57032,1,0,0:0:0:0:
109,192,57107,1,0,0:0:0:0:
36,192,57182,1,0,0:0:0:0:
256,192,57182,1,0,0:0:0:0:
475,192,57257,1,0,0:0:0:0:
402,192,57332,1,2,0:0:0:0:
329,192,57332,1,8,0:0:0:0:
256,192,57332,1,0,0:0:0:0:
182,192,57407,1,0,0:0:0:0:
109,192,57482,1,0,0:0:0:0:
329,192,57482,1,0,0:0:0:0:
475,192,57557,1,0,0:0:0:0:
402,192,57632,1,2,0:0:0:0:
36,192,57632,1,0,0:0:0:0:
182,192,57632,1,0,0:0:0:0:
109,192,57707,1,0,0:0:0:0:
329,192,57782,1,0,0:0:0:0:
475,192,57782,1,0,0:0:0:0:
256,192,57857,1,0,0:0:0:0:
36,192,57932,1,2,0:0:0:0:
182,192,57932,1,8,0:0:0:0:
475,192,57932,1,0,0:0:0:0:
402,192,58007,1,0,0:0:0:0:
329,192,58082,1,0,0:0:0:0:
109,192,58082,1,0,0:0:0:0:
256,192,58157,1,0,0:0:0:0:
182,192,58232,1,2,0:0:0:0:
36,192,58232,1,0,0:0:0:0:
475,192,58232,1,0,0:0:0:0:
402,192,58232,1,0,0:0:0:0:
256,192,58307,1,0,0:0:0:0:
329,192,58382,1,0,0:0:0:0:
109,192,58382,1,0,0:0:0:0:
402,192,58457,1,0,0:0:0:0:
475,192,58532,1,2,0:0:0:0:
256,192,58532,1,8,0:0:0:0:
36,192,58532,128,0,59132:0:0:0:0:
182,192,58532,1,0,0:0:0:0:
109,192,58607,1,0,0:0:0:0:
182,192,58682,1,0,0:0:0:0:
329,192,58682,1,0,0:0:0:0:
402,192,58757,1,0,0:0:0:0:
329,192,58832,1,2,0:0:0:0:
475,192,58832,1,0,0:0:0:0:
109,192,58832,1,0,0:0:0:0:
256,192,58907,1,0,0:0:0:0:
182,192,58982,1,0,0:0:0:0:
402,192,58982,1,0,0:0:0:0:
256,192,59057,1,0,0:0:0:0:
182,192,59132,1,2,0:0:0:0:
329,192,59132,1,8,0:0:0:0:
475,192,59132,1,0,0:0:0:0:
402,192,59207,1,0,0:0:0:0:
475,192,59282,1,0,0:0:0:0:
109,192,59282,1,0,0:0:0:0:
402,192,59357,1,0,0:0:0:0:
329,192,59432,1,2,0:0:0:0:
36,192,59432,1,0,0:0:0:0:
256,192,59432,1,0,0:0:0:0:
182,192,59507,1,0,0:0:0:0:
36,192,59582,1,2,0:0:0:0:
475,192,59582,1,0,0:0:0:0:
402,192,59657,1,0,0:0:0:0:
36,192,59732,1,2,0:0:0:0:
109,192,59732,1,8,0:0:0:0:
329,192,59732,1,0,0:0:0:0:
182,192,59807,1,0,0:0:0:0:
36,192,59882,1,2,0:0:0:0:
256,192,59882,1,0,0:0:0:0:
329,192,59957,1,0,0:0:0:0:
36,192,60032,1,2,0:0:0:0:
402,192,60032,1,0,0:0:0:0:
475,192,60032,1,4,0:0:0:0:
182,192,60032,1,0,0:0:0:0:
109,192,60107,1,0,0:0:0:0:
329,192,60182,1,0,0:0:0:0:
256,192,60182,1,0,0:0:0:0:
182,192,60257,1,0,0:0:0:0:
256,192,60332,1,2,0:0:0:0:
402,192,60332,1,8,0:0:0:0:
36,192,60332,1,0,0:0:0:0:
475,192,60407,1,0,0:0:0:0:
402,192,60482,1,0,0:0:0:0:
109,192,60482,1,0,0:0:0:0:
329,192,60557,1,0,0:0:0:0:
36,192,60632,1,2,0:0:0:0:
182,192,60632,1,0,0:0:0:0:
256,192,60632,1,0,0:0:0:0:
109,192,60707,1,0,0:0:0:0:
36,192,60782,1,0,0:0:0:0:
402,192,60782,1,0,0:0:0:0:
109,192,60857,1,0,0:0:0:0:
475,192,60932,1,2,0:0:0:0:
329,192,60932,1,0,0:0:0:0:
182,192,60932,1,8,0:0:0:0:
402,192,61007,1,0,0:0:0:0:
329,192,61082,1,0,0:0:0:0:
256,192,61082,1,0,0:0:0:0:
182,192,61157,1,0,0:0:0:0:
256,192,61232,1,2,0:0:0:0:
109,192,61232,1,0,0:0:0:0:
36,192,61232,1,0,0:0:0:0:
475,192,61307,1,0,0:0:0:0:
329,192,61382,1,0,0:0:0:0:
402,192,61382,1,0,0:0:0:0:
182,192,61457,1,0,0:0:0:0:
256,192,61532,1,2,0:0:0:0:
475,192,61532,1,0,0:0:0:0:
109,192,61532,1,8,0:0:0:0:
329,192,61607,1,0,0:0:0:0:
402,192,61682,1,0,0:0:0:0:
36,192,61682,1,0,0:0:0:0:
182,192,61757,1,0,0:0:0:0:
329,192,61832,1,2,0:0:0:0:
36,192,61832,1,0,0:0:0:0:
475,192,61832,1,0,0:0:0:0:
109,192,61832,1,0,0:0:0:0:
256,192,61907,1,0,0:0:0:0:
109,192,61982,1,0,0:0:0:0:
402,192,61982,1,0,0:0:0:0:
182,192,62057,1,0,0:0:0:0:
475,192,62132,1,2,0:0:0:0:
36,192,62132,1,0,0:0:0:0:
329,192,62132,1,8,0:0:0:0:
256,192,62207,1,0,0:0:0:0:
475,192,62282,1,2,0:0:0:0:
182,192,62282,1,0,0:0:0:0:
36,192,62282,1,0,0:0:0:0:
109,192,62357,1,0,0:0:0:0:
475,192,62432,1,2,0:0:0:0:
402,192,62432,1,0,0:0:0:0:
36,192,62432,1,0,0:0:0:0:
182,192,62507,1,0,0:0:0:0:
329,192,62582,1,0,0:0:0:0:
256,192,62582,1,0,0:0:0:0:
475,192,62657,1,0,0:0:0:0:
109,192,62732,1,2,0:0:0:0:
402,192,62732,1,0,0:0:0:0:
256,192,62732,1,8,0:0:0:0:
182,192,62807,1,0,0:0:0:0:
329,192,62882,1,0,0:0:0:0:
109,192,62882,1,0,0:0:0:0:
36,192,62957,1,0,0:0:0:0:
475,192,63032,1,2,0:0:0:0:
256,192,63032,1,0,0:0:0:0:
109,192,63032,1,0,0:0:0:0:
402,192,63107,1,0,0:0:0:0:
182,192,63182,1,0,0:0:0:0:
256,192,63182,1,0,0:0:0:0:
329,192,63257,1,0,0:0:0:0:
256,192,63332,1,2,0:0:0:0:
36,192,63332,1,0,0:0:0:0:
402,192,63332,1,8,0:0:0:0:
109,192,63407,1,0,0:0:0:0:
475,192,63482,1,0,0:0:0:0:
329,192,63482,1,0,0:0:0:0:
182,192,63557,1,0,0:0:0:0:
329,192,63632,1,2,0:0:0:0:
36,192,63632,1,0,0:0:0:0:
402,192,63632,1,0,0:0:0:0:
109,192,63632,1,0,0:0:0:0:
256,192,63707,1,0,0:0:0:0:
109,192,63782,1,0,0:0:0:0:
329,192,63782,1,0,0:0:0:0:
475,192,63857,1,0,0:0:0:0:
402,192,63932,1,2,0:0:0:0:
256,192,63932,1,8,0:0:0:0:
182,192,63932,1,0,0:0:0:0:
36,192,64007,1,0,0:0:0:0:
329,192,64082,1,0,0:0:0:0:
182,192,64082,1,0,0:0:0:0:
109,192,64157,1,0,0:0:0:0:
475,192,64232,1,2,0:0:0:0:
402,192,64232,1,0,0:0:0:0:
182,192,64232,1,0,0:0:0:0:
329,192,64307,1,0,0:0:0:0:
36,192,64382,1,0,0:0:0:0:
256,192,64382,1,0,0:0:0:0:
475,192,64457,1,0,0:0:0:0:
329,192,64532,1,2,0:0:0:0:
256,192,64532,1,8,0:0:0:0:
109,192,64532,1,0,0:0:0:0:
182,192,64607,1,0,0:0:0:0:
475,192,64682,1,0,0:0:0:0:
402,192,64682,1,0,0:0:0:0:
329,192,64757,1,0,0:0:0:0:
36,192,64832,1,2,0:0:0:0:
182,192,64832,1,0,0:0:0:0:
402,192,64832,1,0,0:0:0:0:
109,192,64907,1,0,0:0:0:0:
182,192,64982,1,0,0:0:0:0:
329,192,64982,1,0,0:0:0:0:
402,192,65057,1,0,0:0:0:0:
329,192,65132,1,2,0:0:0:0:
475,192,65132,1,0,0:0:0:0:
109,192,65132,1,8,0:0:0:0:
182,192,65207,1,0,0:0:0:0:
36,192,65282,1,0,0:0:0:0:
256,192,65282,1,0,0:0:0:0:
329,192,65357,1,0,0:0:0:0:
182,192,65432,1,2,0:0:0:0:
402,192,65432,1,0,0:0:0:0:
256,192,65432,1,0,0:0:0:0:
475,192,65432,1,0,0:0:0:0:
36,192,65507,1,0,0:0:0:0:
329,192,65582,1,0,0:0:0:0:
256,192,65582,1,0,0:0:0:0:
182,192,65657,1,0,0:0:0:0:
109,192,65732,1,2,0:0:0:0:
329,192,65732,1,8,0:0:0:0:
475,192,65732,1,0,0:0:0:0:
256,192,65807,1,0,0:0:0:0:
402,192,65882,1,0,0:0:0:0:
182,192,65882,1,0,0:0:0:0:
329,192,65957,1,0,0:0:0:0:
256,192,66032,1,2,0:0:0:0:
36,192,66032,1,0,0:0:0:0:
109,192,66032,1,0,0:0:0:0:
329,192,66107,1,0,0:0:0:0:
402,192,66182,1,2,0:0:0:0:
109,192,66182,1,0,0:0:0:0:
475,192,66257,1,0,0:0:0:0:
329,192,66332,1,2,0:0:0:0:
109,192,66332,1,0,0:0:0:0:
182,192,66332,1,8,0:0:0:0:
36,192,66407,1,0,0:0:0:0:
475,192,66482,1,0,0:0:0:0:
256,192,66482,1,0,0:0:0:0:
329,192,66557,1,0,0:0:0:0:
256,192,66632,1,2,0:0:0:0:
402,192,66632,1,0,0:0:0:0:
182,192,66632,1,0,0:0:0:0:
109,192,66707,1,0,0:0:0:0:
329,192,66782,1,2,0:0:0:0:
402,192,66782,1,0,0:0:0:0:
475,192,66857,1,0,0:0:0:0:
36,192,66932,1,2,0:0:0:0:
402,192,66932,1,0,0:0:0:0:
256,192,66932,1,8,0:0:0:0:
182,192,67007,1,0,0:0:0:0:
109,192,67082,1,0,0:0:0:0:
256,192,67082,1,0,0:0:0:0:
329,192,67157,1,0,0:0:0:0:
402,192,67232,1,2,0:0:0:0:
475,192,67232,1,0,0:0:0:0:
36,192,67232,1,0,0:0:0:0:
109,192,67232,1,0,0:0:0:0:
182,192,67307,1,0,0:0:0:0:
256,192,67382,1,0,0:0:0:0:
329,192,67382,1,0,0:0:0:0:
109,192,67457,1,0,0:0:0:0:
182,192,67532,1,2,0:0:0:0:
329,192,67532,1,8,0:0:0:0:
475,192,67532,1,0,0:0:0:0:
402,192,67607,1,0,0:0:0:0:
256,192,67682,1,0,0:0:0:0:
182,192,67682,1,0,0:0:0:0:
109,192,67757,1,0,0:0:0:0:
36,192,67832,1,2,0:0:0:0:
402,192,67832,1,0,0:0:0:0:
256,192,67832,1,0,0:0:0:0:
182,192,67907,1,0,0:0:0:0:
329,192,67982,1,0,0:0:0:0:
475,192,67982,1,0,0:0:0:0:
182,192,68057,1,0,0:0:0:0:
329,192,68132,1,2,0:0:0:0:
109,192,68132,1,8,0:0:0:0:
402,192,68132,1,0,0:0:0:0:
475,192,68207,1,0,0:0:0:0:
256,192,68282,1,0,0:0:0:0:
402,192,68282,1,0,0:0:0:0:
36,192,68357,1,0,0:0:0:0:
182,192,68432,1,2,0:0:0:0:
329,192,68432,1,0,0:0:0:0:
475,192,68432,1,0,0:0:0:0:
402,192,68507,1,0,0:0:0:0:
256,192,68582,1,0,0:0:0:0:
109,192,68582,1,0,0:0:0:0:
329,192,68657,1,0,0:0:0:0:
36,192,68732,1,2,0:0:0:0:
402,192,68732,1,0,0:0:0:0:
182,192,68732,1,8,0:0:0:0:
109,192,68807,1,0,0:0:0:0:
329,192,68882,1,0,0:0:0:0:
182,192,68882,1,0,0:0:0:0:
256,192,68957,1,0,0:0:0:0:
475,192,69032,1,2,0:0:0:0:
182,192,69032,1,0,0:0:0:0:
329,192,69032,1,0,0:0:0:0:
109,192,69032,1,0,0:0:0:0:
402,192,69107,1,0,0:0:0:0:
475,192,69182,1,0,0:0:0:0:
329,192,69182,1,0,0:0:0:0:
256,192,69257,1,0,0:0:0:0:
182,192,69332,1,2,0:0:0:0:
36,192,69332,1,0,0:0:0:0:
109,192,69332,1,8,0:0:0:0:
329,192,69407,1,0,0:0:0:0:
256,192,69482,1,0,0:0:0:0:
402,192,69482,1,0,0:0:0:0:
182,192,69557,1,0,0:0:0:0:
109,192,69632,1,2,0:0:0:0:
402,192,69632,1,0,0:0:0:0:
36,192,69632,1,0,0:0:0:0:
329,192,69707,1,0,0:0:0:0:
256,192,69782,1,0,0:0:0:0:
475,192,69782,1,0,0:0:0:0:
36,192,69857,1,0,0:0:0:0:
182,192,69932,1,2,0:0:0:0:
329,192,69932,1,8,0:0:0:0:
402,192,69932,1,0,0:0:0:0:
109,192,70007,1,0,0:0:0:0:
256,192,70082,1,0,0:0:0:0:
402,192,70082,1,0,0:0:0:0:
475,192,70157,1,0,0:0:0:0:
402,192,70232,1,2,0:0:0:0:
36,192,70232,1,0,0:0:0:0:
182,192,70232,1,0,0:0:0:0:
329,192,70307,1,0,0:0:0:0:
256,192,70382,1,0,0:0:0:0:
109,192,70382,1,0,0:0:0:0:
182,192,70457,1,0,0:0:0:0:
109,192,70532,1,2,0:0:0:0:
329,192,70532,1,8,0:0:0:0:
475,192,70532,1,0,0:0:0:0:
36,192,70607,1,0,0:0:0:0:
109,192,70682,1,0,0:0:0:0:
402,192,70682,1,0,0:0:0:0:
182,192,70757,1,0,0:0:0:0:
256,192,70832,1,2,0:0:0:0:
36,192,70832,1,0,0:0:0:0:
475,192,70832,1,0,0:0:0:0:
109,192,70832,1,0,0:0:0:0:
329,192,70907,1,0,0:0:0:0:
402,192,70982,1,0,0:0:0:0:
109,192,70982,1,0,0:0:0:0:
475,192,71057,1,0,0:0:0:0:
402,192,71132,1,2,0:0:0:0:
182,192,71132,1,8,0:0:0:0:
36,192,71132,1,0,0:0:0:0:
256,192,71207,1,0,0:0:0:0:
109,192,71282,1,0,0:0:0:0:
475,192,71282,1,0,0:0:0:0:
256,192,71357,1,0,0:0:0:0:
402,192,71432,1,2,0:0:0:0:
36,192,71432,1,0,0:0:0:0:
329,192,71432,1,0,0:0:0:0:
475,192,71507,1,0,0:0:0:0:
256,192,71582,1,0,0:0:0:0:
109,192,71582,1,0,0:0:0:0:
36,192,71657,1,0,0:0:0:0:
402,192,71732,1,2,0:0:0:0:
109,192,71732,1,0,0:0:0:0:
182,192,71732,1,8,0:0:0:0:
329,192,71807,1,0,0:0:0:0:
475,192,71882,1,0,0:0:0:0:
256,192,71882,1,0,0:0:0:0:
36,192,71957,1,0,0:0:0:0:
256,192,72032,1,2,0:0:0:0:
402,192,72032,1,0,0:0:0:0:
182,192,72032,1,0,0:0:0:0:
109,192,72332,1,2,0:0:0:0:
329,192,72332,1,0,0:0:0:0:
36,192,72332,1,0,0:0:0:0:
475,192,72632,1,2,0:0:0:0:
256,192,72632,1,4,0:0:0:0:
36,192,72632,128,0,73082:0:0:0:0:
109,192,72782,128,0,73082:0:0:0:0:
182,192,72932,128,0,73082:0:0:0:0:
475,192,73232,128,0,73682:0:0:0:0:
402,192,73382,128,0,73682:0:0:0:0:
329,192,73532,128,0,73682:0:0:0:0:
256,192,73832,128,0,73907:0:0:0:0:
109,192,74132,128,0,74207:0:0:0:0:
402,192,74432,1,2,0:0:0:0:
475,192,74432,1,0,0:0:0:0:
329,192,74432,128,0,74882:0:0:0:0:
256,192,74582,128,0,74882:0:0:0:0:
109,192,74732,1,2,0:0:0:0:
36,192,74732,1,0,0:0:0:0:
182,192,74732,128,0,74882:0:0:0:0:
36,192,75032,128,0,75482:0:0:0:0:
256,192,75182,128,0,75482:0:0:0:0:
475,192,75332,128,0,75482:0:0:0:0:
109,192,75632,1,2,0:0:0:0:
182,192,75632,1,0,0:0:0:0:
329,192,75632,128,0,75707:0:0:0:0:
109,192,75932,1,2,0:0:0:0:
182,192,75932,1,0,0:0:0:0:
402,192,75932,128,0,76007:0:0:0:0:
109,192,76232,128,4,76832:0:0:0:0:
182,192,76232,128,2,76832:0:0:0:0:
475,192,76232,128,0,76832:0:0:0:0:
329,192,77732,128,0,78032:0:0:0:0:
475,192,78032,128,4,78932:0:0:0:0:
402,192,78182,128,0,78932:0:0:0:0:
329,192,78332,128,8,79082:0:0:0:0:
36,192,78332,128,0,78482:0:0:0:0:
256,192,78482,128,0,79232:0:0:0:0:
182,192,78632,128,0,79382:0:0:0:0:
109,192,78782,128,0,79532:0:0:0:0:
36,192,78932,128,0,79682:0:0:0:0:
402,192,79082,128,0,80432:0:0:0:0:
329,192,79232,128,8,80282:0:0:0:0:
475,192,79232,128,0,79382:0:0:0:0:
256,192,79382,128,0,80132:0:0:0:0:
182,192,79532,128,0,79982:0:0:0:0:
109,192,79682,128,0,79832:0:0:0:0:
36,192,79832,128,0,80582:0:0:0:0:
109,192,79982,128,0,80582:0:0:0:0:
182,192,80132,128,8,80732:0:0:0:0:
475,192,80132,128,0,80282:0:0:0:0:
256,192,80282,128,0,80882:0:0:0:0:
329,192,80432,128,0,81632:0:0:0:0:
402,192,80582,128,0,81032:0:0:0:0:
475,192,80732,128,0,81632:0:0:0:0:
109,192,80732,128,0,82082:0:0:0:0:
182,192,80882,128,0,81932:0:0:0:0:
256,192,81032,128,8,81782:0:0:0:0:
36,192,81032,128,0,81182:0:0:0:0:
402,192,81182,128,0,81332:0:0:0:0:
36,192,81332,128,0,81482:0:0:0:0:
402,192,81482,128,0,81632:0:0:0:0:
36,192,81632,128,0,81782:0:0:0:0:
329,192,81782,128,0,82832:0:0:0:0:
256,192,81932,128,8,82682:0:0:0:0:
475,192,81932,128,0,82082:0:0:0:0:
182,192,82082,128,0,82532:0:0:0:0:
109,192,82232,128,0,82382:0:0:0:0:
36,192,82382,128,0,82982:0:0:0:0:
109,192,82532,128,0,83132:0:0:0:0:
182,192,82682,128,0,83282:0:0:0:0:
256,192,82832,128,8,83432:0:0:0:0:
475,192,82832,128,0,82982:0:0:0:0:
329,192,82982,128,0,83582:0:0:0:0:
402,192,83132,128,0,83732:0:0:0:0:
475,192,83282,128,0,83882:0:0:0:0:
36,192,83432,128,0,83732:0:0:0:0:
109,192,83582,128,0,83882:0:0:0:0:
182,192,83732,128,8,84032:0:0:0:0:
256,192,83882,128,0,84182:0:0:0:0:
329,192,84032,128,0,84332:0:0:0:0:
402,192,84182,128,0,84482:0:0:0:0:
36,192,84332,128,0,84632:0:0:0:0:
109,192,84482,128,0,84782:0:0:0:0:
182,192,84632,128,8,84932:0:0:0:0:
475,192,84782,128,0,84932:0:0:0:0:
36,192,84782,128,0,84932:0:0:0:0:
402,192,84932,128,0,85082:0:0:0:0:
109,192,84932,128,0,85082:0:0:0:0:
329,192,85082,128,0,85232:0:0:0:0:
182,192,85082,128,0,85232:0:0:0:0:
36,192,85232,1,4,0:0:0:0:
109,192,85232,1,2,0:0:0:0:
475,192,85232,1,0,0:0:0:0:
256,192,85232,128,0,85532:0:0:0:0:
182,192,85382,128,0,85682:0:0:0:0:
402,192,85532,128,8,85832:0:0:0:0:
109,192,85682,128,0,85982:0:0:0:0:
475,192,85832,128,0,86132:0:0:0:0:
36,192,85982,128,0,86282:0:0:0:0:
182,192,86132,1,2,0:0:0:0:
329,192,86132,1,4,0:0:0:0:
402,192,86132,128,0,86432:0:0:0:0:
256,192,86132,1,0,0:0:0:0:
109,192,86282,128,0,86582:0:0:0:0:
329,192,86432,128,8,86732:0:0:0:0:
182,192,86582,128,0,86882:0:0:0:0:
256,192,86732,128,0,87032:0:0:0:0:
329,192,86882,128,0,87182:0:0:0:0:
36,192,87032,1,4,0:0:0:0:
109,192,87032,1,2,0:0:0:0:
182,192,87032,1,0,0:0:0:0:
402,192,87032,128,0,87332:0:0:0:0:
475,192,87032,1,0,0:0:0:0:
475,192,87182,128,0,87482:0:0:0:0:
36,192,87332,128,8,87632:0:0:0:0:
109,192,87482,128,0,87782:0:0:0:0:
182,192,87632,128,0,87932:0:0:0:0:
329,192,87782,128,0,88082:0:0:0:0:
36,192,87932,1,4,0:0:0:0:
109,192,87932,1,2,0:0:0:0:
256,192,87932,1,0,0:0:0:0:
402,192,87932,128,0,88232:0:0:0:0:
475,192,87932,1,0,0:0:0:0:
256,192,88082,128,0,88382:0:0:0:0:
109,192,88232,128,8,88382:0:0:0:0:
182,192,88382,128,0,88532:0:0:0:0:
329,192,88382,128,0,88532:0:0:0:0:
402,192,88532,128,0,88682:0:0:0:0:
109,192,88532,128,0,88682:0:0:0:0:
475,192,88682,128,0,88832:0:0:0:0:
36,192,88682,128,0,88832:0:0:0:0:
329,192,88832,1,2,0:0:0:0:
109,192,88832,1,4,0:0:0:0:
182,192,88832,1,0,0:0:0:0:
402,192,88832,1,0,0:0:0:0:
256,192,88832,128,0,89132:0:0:0:0:
329,192,88982,128,0,89282:0:0:0:0:
402,192,89132,128,8,89432:0:0:0:0:
36,192,89282,128,0,89582:0:0:0:0:
475,192,89282,128,0,89582:0:0:0:0:
182,192,89432,1,2,0:0:0:0:
256,192,89432,1,4,0:0:0:0:
329,192,89432,1,0,0:0:0:0:
109,192,89432,128,0,89732:0:0:0:0:
182,192,89582,128,0,89882:0:0:0:0:
256,192,89732,128,0,90032:0:0:0:0:
329,192,90032,1,4,0:0:0:0:
402,192,90032,1,2,0:0:0:0:
475,192,90032,1,0,0:0:0:0:
36,192,90032,1,0,0:0:0:0:
109,192,90032,1,0,0:0:0:0:
182,192,90332,1,2,0:0:0:0:
402,192,90332,1,0,0:0:0:0:
475,192,90332,1,0,0:0:0:0:
109,192,90332,1,0,0:0:0:0:
329,192,90332,1,0,0:0:0:0:
256,192,90632,1,2,0:0:0:0:
182,192,90632,1,4,0:0:0:0:
475,192,90632,1,0,0:0:0:0:
402,192,90632,1,0,0:0:0:0:
36,192,90632,1,0,0:0:0:0:
329,192,90932,1,4,0:0:0:0:
36,192,90932,1,2,0:0:0:0:
475,192,90932,1,0,0:0:0:0:
256,192,90932,1,0,0:0:0:0:
182,192,90932,1,0,0:0:0:0:
36,192,91232,1,2,0:0:0:0:
109,192,91232,1,4,0:0:0:0:
402,192,91232,1,0,0:0:0:0:
329,192,91232,1,0,0:0:0:0:
256,192,91232,1,0,0:0:0:0:
109,192,91382,1,2,0:0:0:0:
475,192,91382,1,0,0:0:0:0:
256,192,91382,1,0,0:0:0:0:
182,192,91382,1,0,0:0:0:0:
475,192,91532,1,2,0:0:0:0:
329,192,91532,1,0,0:0:0:0:
402,192,91532,1,0,0:0:0:0:
36,192,91532,1,0,0:0:0:0:
36,192,91682,1,2,0:0:0:0:
109,192,91682,1,0,0:0:0:0:
256,192,91682,1,0,0:0:0:0:
182,192,91682,1,0,0:0:0:0:
402,192,91832,1,2,0:0:0:0:
475,192,91832,1,0,0:0:0:0:
329,192,91832,1,0,0:0:0:0:
182,192,91907,1,2,0:0:0:0:
109,192,91907,1,0,0:0:0:0:
36,192,91907,1,0,0:0:0:0:
329,192,91982,1,2,0:0:0:0:
402,192,91982,1,0,0:0:0:0:
475,192,91982,1,0,0:0:0:0:
36,192,92057,1,2,0:0:0:0:
109,192,92057,1,0,0:0:0:0:
182,192,92057,1,0,0:0:0:0:
402,192,92132,1,2,0:0:0:0:
329,192,92132,1,0,0:0:0:0:
475,192,92132,1,0,0:0:0:0:
256,192,92432,128,4,95732:0:0:0:0:
329,192,92432,1,2,0:0:0:0:
182,192,92432,1,0,0:0:0:0:
109,192,92432,1,0,0:0:0:0:
36,192,92432,1,0,0:0:0:0:
402,192,92507,1,0,0:0:0:0:
475,192,92582,1,0,0:0:0:0:
36,192,92657,1,0,0:0:0:0:
329,192,92732,1,10,0:0:0:0:
109,192,92732,1,0,0:0:0:0:
402,192,92807,1,0,0:0:0:0:
182,192,92882,1,0,0:0:0:0:
475,192,92957,1,0,0:0:0:0:
36,192,93032,1,2,0:0:0:0:
329,192,93032,1,0,0:0:0:0:
182,192,93107,1,0,0:0:0:0:
109,192,93182,1,0,0:0:0:0:
475,192,93257,1,0,0:0:0:0:
36,192,93332,1,10,0:0:0:0:
402,192,93332,1,0,0:0:0:0:
182,192,93407,1,0,0:0:0:0:
329,192,93482,1,0,0:0:0:0:
402,192,93557,1,0,0:0:0:0:
475,192,93632,128,2,93782:0:0:0:0:
109,192,93632,1,0,0:0:0:0:
36,192,93632,1,0,0:0:0:0:
402,192,93707,1,0,0:0:0:0:
329,192,93782,1,0,0:0:0:0:
109,192,93857,1,0,0:0:0:0:
402,192,93932,1,10,0:0:0:0:
182,192,93932,1,0,0:0:0:0:
36,192,94007,1,0,0:0:0:0:
475,192,94082,1,0,0:0:0:0:
109,192,94157,1,0,0:0:0:0:
329,192,94232,1,2,0:0:0:0:
182,192,94232,1,0,0:0:0:0:
36,192,94307,1,0,0:0:0:0:
475,192,94382,1,0,0:0:0:0:
109,192,94457,1,0,0:0:0:0:
402,192,94532,1,10,0:0:0:0:
36,192,94532,1,0,0:0:0:0:
475,192,94607,1,0,0:0:0:0:
182,192,94682,1,0,0:0:0:0:
402,192,94757,1,0,0:0:0:0:
36,192,94832,128,2,94982:0:0:0:0:
109,192,94832,1,0,0:0:0:0:
329,192,94832,1,0,0:0:0:0:
475,192,94907,1,0,0:0:0:0:
182,192,94982,1,0,0:0:0:0:
402,192,95057,1,0,0:0:0:0:
109,192,95132,1,10,0:0:0:0:
329,192,95132,1,0,0:0:0:0:
475,192,95207,1,0,0:0:0:0:
36,192,95282,1,0,0:0:0:0:
402,192,95357,1,0,0:0:0:0:
182,192,95432,1,2,0:0:0:0:
329,192,95432,1,0,0:0:0:0:
475,192,95507,1,0,0:0:0:0:
109,192,95582,1,0,0:0:0:0:
402,192,95657,1,0,0:0:0:0:
182,192,95732,1,10,0:0:0:0:
36,192,95732,1,0,0:0:0:0:
109,192,95807,1,0,0:0:0:0:
475,192,95882,1,0,0:0:0:0:
329,192,95957,1,0,0:0:0:0:
182,192,96032,1,2,0:0:0:0:
402,192,96032,1,0,0:0:0:0:
36,192,96032,1,0,0:0:0:0:
256,192,96032,128,0,96482:0:0:0:0:
475,192,96182,128,0,96632:0:0:0:0:
109,192,96332,128,2,96782:0:0:0:0:
182,192,96332,1,8,0:0:0:0:
329,192,96482,128,0,96932:0:0:0:0:
36,192,96632,128,2,96932:0:0:0:0:
182,192,96782,128,0,97082:0:0:0:0:
402,192,96932,128,2,97232:0:0:0:0:
256,192,96932,1,8,0:0:0:0:
475,192,97082,128,2,97232:0:0:0:0:
109,192,97232,128,4,97382:0:0:0:0:
256,192,97232,1,2,0:0:0:0:
36,192,97232,1,0,0:0:0:0:
329,192,97307,1,0,0:0:0:0:
402,192,97382,1,0,0:0:0:0:
182,192,97382,1,0,0:0:0:0:
475,192,97457,1,0,0:0:0:0:
256,192,97532,1,2,0:0:0:0:
36,192,97532,1,0,0:0:0:0:
329,192,97532,1,8,0:0:0:0:
109,192,97607,1,0,0:0:0:0:
402,192,97682,1,0,0:0:0:0:
182,192,97682,1,0,0:0:0:0:
329,192,97757,1,0,0:0:0:0:
256,192,97832,1,2,0:0:0:0:
36,192,97832,1,0,0:0:0:0:
109,192,97832,1,0,0:0:0:0:
475,192,97907,1,0,0:0:0:0:
402,192,97982,1,0,0:0:0:0:
182,192,97982,1,0,0:0:0:0:
109,192,98057,1,0,0:0:0:0:
256,192,98132,1,2,0:0:0:0:
329,192,98132,1,0,0:0:0:0:
182,192,98132,1,8,0:0:0:0:
475,192,98207,1,0,0:0:0:0:
36,192,98282,1,0,0:0:0:0:
109,192,98282,1,0,0:0:0:0:
402,192,98357,1,0,0:0:0:0:
182,192,98432,1,2,0:0:0:0:
329,192,98432,1,0,0:0:0:0:
475,192,98432,128,0,98582:0:0:0:0:
36,192,98507,1,0,0:0:0:0:
109,192,98582,1,0,0:0:0:0:
256,192,98582,1,0,0:0:0:0:
182,192,98657,1,0,0:0:0:0:
256,192,98732,1,2,0:0:0:0:
402,192,98732,1,8,0:0:0:0:
475,192,98732,1,0,0:0:0:0:
329,192,98807,1,0,0:0:0:0:
256,192,98882,1,0,0:0:0:0:
36,192,98882,1,0,0:0:0:0:
182,192,98957,1,0,0:0:0:0:
109,192,99032,1,2,0:0:0:0:
329,192,99032,1,0,0:0:0:0:
475,192,99032,1,0,0:0:0:0:
402,192,99107,1,0,0:0:0:0:
36,192,99182,1,0,0:0:0:0:
182,192,99182,1,0,0:0:0:0:
329,192,99257,1,0,0:0:0:0:
475,192,99332,1,2,0:0:0:0:
256,192,99332,1,8,0:0:0:0:
109,192,99332,1,0,0:0:0:0:
182,192,99407,1,0,0:0:0:0:
402,192,99482,1,2,0:0:0:0:
329,192,99482,1,0,0:0:0:0:
475,192,99557,1,0,0:0:0:0:
109,192,99632,1,2,0:0:0:0:
36,192,99632,128,4,99782:0:0:0:0:
402,192,99632,1,0,0:0:0:0:
256,192,99707,1,0,0:0:0:0:
475,192,99782,1,8,0:0:0:0:
182,192,99857,1,0,0:0:0:0:
256,192,99932,1,0,0:0:0:0:
475,192,100007,1,0,0:0:0:0:
402,192,100082,1,8,0:0:0:0:
329,192,100157,1,0,0:0:0:0:
256,192,100232,1,0,0:0:0:0:
36,192,100307,1,0,0:0:0:0:
109,192,100382,1,8,0:0:0:0:
182,192,100457,1,0,0:0:0:0:
256,192,100532,1,0,0:0:0:0:
402,192,100607,1,0,0:0:0:0:
109,192,100682,1,8,0:0:0:0:
256,192,100757,1,0,0:0:0:0:
329,192,100832,1,4,0:0:0:0:
182,192,100832,1,2,0:0:0:0:
475,192,100832,128,0,100982:0:0:0:0:
36,192,100907,1,0,0:0:0:0:
109,192,100982,1,8,0:0:0:0:
402,192,100982,128,0,102032:0:0:0:0:
256,192,101057,1,0,0:0:0:0:
329,192,101132,1,0,0:0:0:0:
182,192,101207,1,0,0:0:0:0:
256,192,101282,1,8,0:0:0:0:
109,192,101357,1,0,0:0:0:0:
36,192,101432,1,0,0:0:0:0:
475,192,101507,1,0,0:0:0:0:
329,192,101582,1,8,0:0:0:0:
182,192,101657,1,0,0:0:0:0:
36,192,101732,1,0,0:0:0:0:
256,192,101807,1,0,0:0:0:0:
109,192,101882,1,10,0:0:0:0:
182,192,101882,1,0,0:0:0:0:
329,192,101957,1,0,0:0:0:0:
36,192,102032,1,4,0:0:0:0:
256,192,102032,1,2,0:0:0:0:
475,192,102032,1,0,0:0:0:0:
109,192,102182,1,2,0:0:0:0:
329,192,102182,1,0,0:0:0:0:
182,192,102182,1,0,0:0:0:0:
475,192,102332,1,8,0:0:0:0:
256,192,102332,1,2,0:0:0:0:
182,192,102332,1,0,0:0:0:0:
36,192,102482,1,2,0:0:0:0:
402,192,102482,1,0,0:0:0:0:
329,192,102482,1,0,0:0:0:0:
109,192,102632,1,2,0:0:0:0:
256,192,102632,1,0,0:0:0:0:
475,192,102632,1,0,0:0:0:0:
182,192,102782,1,2,0:0:0:0:
329,192,102782,1,0,0:0:0:0:
402,192,102782,1,0,0:0:0:0:
36,192,102932,1,8,0:0:0:0:
256,192,102932,1,2,0:0:0:0:
109,192,102932,1,0,0:0:0:0:
329,192,103082,1,2,0:0:0:0:
475,192,103082,1,0,0:0:0:0:
182,192,103082,1,0,0:0:0:0:
402,192,103232,1,2,0:0:0:0:
256,192,103232,1,0,0:0:0:0:
329,192,103232,1,0,0:0:0:0:
109,192,103232,1,0,0:0:0:0:
36,192,103382,1,2,0:0:0:0:
182,192,103382,1,0,0:0:0:0:
475,192,103382,1,0,0:0:0:0:
109,192,103532,1,2,0:0:0:0:
256,192,103532,1,8,0:0:0:0:
402,192,103532,1,0,0:0:0:0:
329,192,103682,1,2,0:0:0:0:
475,192,103682,1,0,0:0:0:0:
182,192,103682,1,0,0:0:0:0:
329,192,103832,1,2,0:0:0:0:
256,192,103832,1,0,0:0:0:0:
36,192,103832,1,0,0:0:0:0:
109,192,103982,1,2,0:0:0:0:
182,192,103982,1,0,0:0:0:0:
475,192,103982,1,0,0:0:0:0:
475,192,104132,1,2,0:0:0:0:
402,192,104132,1,8,0:0:0:0:
36,192,104132,1,0,0:0:0:0:
182,192,104282,1,2,0:0:0:0:
329,192,104282,1,0,0:0:0:0:
36,192,104282,1,0,0:0:0:0:
109,192,104432,1,2,0:0:0:0:
402,192,104432,1,0,0:0:0:0:
475,192,104432,1,0,0:0:0:0:
256,192,104432,1,0,0:0:0:0:
329,192,104507,1,2,0:0:0:0:
182,192,104507,1,0,0:0:0:0:
36,192,104582,1,2,0:0:0:0:
402,192,104582,1,0,0:0:0:0:
475,192,104582,1,0,0:0:0:0:
329,192,104657,1,2,0:0:0:0:
256,192,104657,1,0,0:0:0:0:
36,192,104732,1,2,0:0:0:0:
109,192,104732,1,8,0:0:0:0:
475,192,104732,1,0,0:0:0:0:
182,192,104807,1,2,0:0:0:0:
256,192,104807,1,0,0:0:0:0:
36,192,104882,1,2,0:0:0:0:
109,192,104882,1,0,0:0:0:0:
402,192,104882,1,0,0:0:0:0:
329,192,104957,1,2,0:0:0:0:
182,192,104957,1,0,0:0:0:0:
256,192,105032,1,2,0:0:0:0:
402,192,105032,1,0,0:0:0:0:
475,192,105032,1,0,0:0:0:0:
182,192,105107,1,2,0:0:0:0:
36,192,105107,1,0,0:0:0:0:
256,192,105182,1,2,0:0:0:0:
402,192,105182,1,0,0:0:0:0:
475,192,105182,1,0,0:0:0:0:
182,192,105257,1,2,0:0:0:0:
109,192,105257,1,0,0:0:0:0:
36,192,105332,1,2,0:0:0:0:
329,192,105332,1,8,0:0:0:0:
256,192,105332,1,0,0:0:0:0:
402,192,105407,1,2,0:0:0:0:
475,192,105407,1,0,0:0:0:0:
109,192,105482,1,2,0:0:0:0:
182,192,105482,1,0,0:0:0:0:
256,192,105482,1,0,0:0:0:0:
329,192,105557,1,2,0:0:0:0:
402,192,105557,1,0,0:0:0:0:
475,192,105632,1,4,0:0:0:0:
36,192,105632,1,0,0:0:0:0:
109,192,105669,1,0,0:0:0:0:
256,192,105707,1,0,0:0:0:0:
402,192,105744,1,0,0:0:0:0:
475,192,105782,1,0,0:0:0:0:
182,192,105819,1,0,0:0:0:0:
329,192,105857,1,0,0:0:0:0:
36,192,105894,1,0,0:0:0:0:
256,192,105932,1,8,0:0:0:0:
402,192,105932,1,0,0:0:0:0:
475,192,105932,1,0,0:0:0:0:
109,192,105969,1,0,0:0:0:0:
182,192,106007,1,0,0:0:0:0:
329,192,106044,1,0,0:0:0:0:
475,192,106082,1,0,0:0:0:0:
109,192,106119,1,0,0:0:0:0:
256,192,106157,1,0,0:0:0:0:
402,192,106194,1,0,0:0:0:0:
475,192,106232,1,0,0:0:0:0:
182,192,106232,1,0,0:0:0:0:
36,192,106232,1,4,0:0:0:0:
329,192,106269,1,0,0:0:0:0:
109,192,106307,1,0,0:0:0:0:
256,192,106344,1,0,0:0:0:0:
402,192,106382,1,0,0:0:0:0:
475,192,106419,1,0,0:0:0:0:
36,192,106457,1,0,0:0:0:0:
109,192,106494,1,0,0:0:0:0:
182,192,106532,1,0,0:0:0:0:
256,192,106532,1,8,0:0:0:0:
329,192,106532,1,0,0:0:0:0:
402,192,106569,1,0,0:0:0:0:
475,192,106607,1,0,0:0:0:0:
36,192,106644,1,0,0:0:0:0:
109,192,106682,1,0,0:0:0:0:
182,192,106719,1,0,0:0:0:0:
256,192,106757,1,0,0:0:0:0:
329,192,106794,1,0,0:0:0:0:
402,192,106832,1,2,0:0:0:0:
36,192,106832,1,4,0:0:0:0:
475,192,106832,128,0,107132:0:0:0:0:
329,192,107132,1,8,0:0:0:0:
109,192,107132,1,0,0:0:0:0:
329,192,107282,1,0,0:0:0:0:
329,192,107432,1,0,0:0:0:0:
329,192,107582,1,2,0:0:0:0:
36,192,107582,1,0,0:0:0:0:
329,192,107732,1,8,0:0:0:0:
182,192,107732,1,0,0:0:0:0:
329,192,107882,1,0,0:0:0:0:
36,192,108032,128,2,108182:0:0:0:0:
402,192,108032,1,0,0:0:0:0:
182,192,108332,1,8,0:0:0:0:
475,192,108332,1,0,0:0:0:0:
256,192,108332,128,0,111032:0:0:0:0:
182,192,108482,1,0,0:0:0:0:
182,192,108632,1,0,0:0:0:0:
402,192,108782,1,2,0:0:0:0:
109,192,108782,1,0,0:0:0:0:
182,192,108932,1,8,0:0:0:0:
329,192,108932,1,0,0:0:0:0:
182,192,109082,1,0,0:0:0:0:
475,192,109232,128,2,109382:0:0:0:0:
36,192,109232,1,0,0:0:0:0:
109,192,109532,1,8,0:0:0:0:
402,192,109532,1,0,0:0:0:0:
402,192,109682,1,0,0:0:0:0:
402,192,109832,1,0,0:0:0:0:
402,192,109982,1,2,0:0:0:0:
109,192,109982,1,0,0:0:0:0:
402,192,110132,1,8,0:0:0:0:
36,192,110132,1,0,0:0:0:0:
402,192,110282,1,0,0:0:0:0:
109,192,110432,1,2,0:0:0:0:
329,192,110432,1,0,0:0:0:0:
182,192,110732,1,8,0:0:0:0:
402,192,110732,1,0,0:0:0:0:
475,192,111032,1,0,0:0:0:0:
402,192,111182,128,2,111332:0:0:0:0:
109,192,111182,128,0,111332:0:0:0:0:
182,192,111332,128,8,111632:0:0:0:0:
256,192,111632,128,4,112082:0:0:0:0:
36,192,111632,1,2,0:0:0:0:
402,192,111632,1,0,0:0:0:0:
329,192,111707,1,0,0:0:0:0:
109,192,111782,1,0,0:0:0:0:
475,192,111857,1,0,0:0:0:0:
329,192,111932,1,10,0:0:0:0:
36,192,111932,1,0,0:0:0:0:
109,192,112007,1,0,0:0:0:0:
402,192,112082,128,0,112232:0:0:0:0:
329,192,112082,1,0,0:0:0:0:
182,192,112157,1,0,0:0:0:0:
475,192,112232,128,2,112532:0:0:0:0:
36,192,112232,1,0,0:0:0:0:
109,192,112232,1,0,0:0:0:0:
329,192,112307,1,0,0:0:0:0:
256,192,112382,1,0,0:0:0:0:
182,192,112457,1,0,0:0:0:0:
329,192,112532,128,0,112832:0:0:0:0:
402,192,112532,1,8,0:0:0:0:
36,192,112532,1,2,0:0:0:0:
109,192,112607,1,0,0:0:0:0:
182,192,112682,1,0,0:0:0:0:
475,192,112757,1,0,0:0:0:0:
182,192,112832,128,2,113132:0:0:0:0:
256,192,112832,1,0,0:0:0:0:
402,192,112832,1,0,0:0:0:0:
475,192,112907,1,0,0:0:0:0:
36,192,112982,1,2,0:0:0:0:
329,192,112982,1,0,0:0:0:0:
256,192,113057,1,0,0:0:0:0:
36,192,113132,128,0,113432:0:0:0:0:
402,192,113132,1,2,0:0:0:0:
475,192,113132,1,8,0:0:0:0:
329,192,113207,1,0,0:0:0:0:
256,192,113282,1,0,0:0:0:0:
109,192,113357,1,0,0:0:0:0:
402,192,113432,1,2,0:0:0:0:
182,192,113432,1,0,0:0:0:0:
256,192,113507,1,0,0:0:0:0:
329,192,113582,1,0,0:0:0:0:
475,192,113657,1,0,0:0:0:0:
182,192,113732,128,0,113882:0:0:0:0:
402,192,113732,1,8,0:0:0:0:
36,192,113732,1,2,0:0:0:0:
109,192,113807,1,0,0:0:0:0:
329,192,113882,128,0,114032:0:0:0:0:
256,192,113882,1,0,0:0:0:0:
402,192,113957,1,0,0:0:0:0:
475,192,114032,128,2,114332:0:0:0:0:
36,192,114032,1,0,0:0:0:0:
109,192,114032,1,0,0:0:0:0:
182,192,114107,1,0,0:0:0:0:
256,192,114182,1,0,0:0:0:0:
182,192,114257,1,0,0:0:0:0:
329,192,114332,128,0,114632:0:0:0:0:
402,192,114332,1,8,0:0:0:0:
109,192,114332,1,2,0:0:0:0:
36,192,114407,1,0,0:0:0:0:
182,192,114482,1,0,0:0:0:0:
109,192,114557,1,0,0:0:0:0:
256,192,114632,128,2,114932:0:0:0:0:
182,192,114632,1,0,0:0:0:0:
475,192,114632,1,0,0:0:0:0:
402,192,114707,1,0,0:0:0:0:
329,192,114782,1,0,0:0:0:0:
475,192,114857,1,0,0:0:0:0:
182,192,114932,128,0,115232:0:0:0:0:
402,192,114932,1,8,0:0:0:0:
109,192,114932,1,2,0:0:0:0:
329,192,115007,1,0,0:0:0:0:
475,192,115082,1,0,0:0:0:0:
329,192,115157,1,0,0:0:0:0:
109,192,115232,128,2,115682:0:0:0:0:
475,192,115232,1,0,0:0:0:0:
36,192,115232,1,0,0:0:0:0:
402,192,115307,1,0,0:0:0:0:
329,192,115382,1,0,0:0:0:0:
402,192,115457,1,0,0:0:0:0:
256,192,115532,1,10,0:0:0:0:
475,192,115532,1,0,0:0:0:0:
329,192,115607,1,0,0:0:0:0:
256,192,115682,128,2,115832:0:0:0:0:
182,192,115682,1,0,0:0:0:0:
402,192,115682,1,0,0:0:0:0:
36,192,115757,1,0,0:0:0:0:
329,192,115832,128,2,116132:0:0:0:0:
475,192,115832,1,0,0:0:0:0:
109,192,115832,1,0,0:0:0:0:
402,192,115832,1,0,0:0:0:0:
182,192,115907,1,0,0:0:0:0:
256,192,115982,1,0,0:0:0:0:
109,192,116057,1,0,0:0:0:0:
402,192,116057,1,0,0:0:0:0:
475,192,116132,128,0,116432:0:0:0:0:
256,192,116132,1,2,0:0:0:0:
182,192,116132,1,8,0:0:0:0:
36,192,116207,1,0,0:0:0:0:
402,192,116282,1,0,0:0:0:0:
109,192,116357,1,0,0:0:0:0:
329,192,116432,128,2,116732:0:0:0:0:
182,192,116432,1,0,0:0:0:0:
402,192,116432,1,0,0:0:0:0:
256,192,116507,1,0,0:0:0:0:
182,192,116582,1,0,0:0:0:0:
109,192,116657,1,0,0:0:0:0:
256,192,116732,128,0,117032:0:0:0:0:
36,192,116732,1,2,0:0:0:0:
475,192,116732,1,8,0:0:0:0:
402,192,116807,1,0,0:0:0:0:
475,192,116882,1,0,0:0:0:0:
329,192,116957,1,0,0:0:0:0:
182,192,117032,128,2,117182:0:0:0:0:
402,192,117032,1,0,0:0:0:0:
36,192,117032,1,0,0:0:0:0:
475,192,117107,1,0,0:0:0:0:
109,192,117182,128,0,117332:0:0:0:0:
402,192,117182,1,0,0:0:0:0:
329,192,117257,1,0,0:0:0:0:
36,192,117332,128,0,117932:0:0:0:0:
256,192,117332,1,2,0:0:0:0:
475,192,117332,1,8,0:0:0:0:
402,192,117407,1,0,0:0:0:0:
329,192,117482,1,0,0:0:0:0:
256,192,117557,1,0,0:0:0:0:
109,192,117632,1,2,0:0:0:0:
182,192,117632,1,0,0:0:0:0:
256,192,117707,1,0,0:0:0:0:
329,192,117782,1,0,0:0:0:0:
402,192,117857,1,0,0:0:0:0:
475,192,117932,1,10,0:0:0:0:
182,192,117932,1,0,0:0:0:0:
329,192,118007,1,0,0:0:0:0:
256,192,118082,1,0,0:0:0:0:
402,192,118157,1,0,0:0:0:0:
182,192,118232,128,2,118382:0:0:0:0:
329,192,118232,1,0,0:0:0:0:
109,192,118232,1,0,0:0:0:0:
475,192,118232,1,0,0:0:0:0:
36,192,118307,1,0,0:0:0:0:
256,192,118382,128,2,118532:0:0:0:0:
109,192,118382,1,0,0:0:0:0:
329,192,118382,1,0,0:0:0:0:
402,192,118457,1,0,0:0:0:0:
329,192,118532,128,0,118682:0:0:0:0:
36,192,118532,1,2,0:0:0:0:
475,192,118532,1,0,0:0:0:0:
109,192,118532,1,8,0:0:0:0:
182,192,118607,1,0,0:0:0:0:
402,192,118682,128,2,118832:0:0:0:0:
36,192,118682,1,0,0:0:0:0:
256,192,118682,1,0,0:0:0:0:
109,192,118757,1,0,0:0:0:0:
475,192,118832,128,2,119132:0:0:0:0:
329,192,118832,1,0,0:0:0:0:
256,192,118832,1,0,0:0:0:0:
36,192,118832,1,0,0:0:0:0:
182,192,118907,1,0,0:0:0:0:
109,192,118982,1,0,0:0:0:0:
182,192,119057,1,0,0:0:0:0:
256,192,119132,128,0,119582:0:0:0:0:
402,192,119132,1,8,0:0:0:0:
36,192,119132,1,2,0:0:0:0:
329,192,119207,1,0,0:0:0:0:
109,192,119282,1,0,0:0:0:0:
475,192,119357,1,0,0:0:0:0:
182,192,119432,1,2,0:0:0:0:
329,192,119432,1,0,0:0:0:0:
36,192,119507,1,0,0:0:0:0:
329,192,119582,128,0,119732:0:0:0:0:
402,192,119582,1,0,0:0:0:0:
182,192,119657,1,0,0:0:0:0:
256,192,119732,128,0,119882:0:0:0:0:
36,192,119732,1,2,0:0:0:0:
475,192,119732,1,8,0:0:0:0:
109,192,119807,1,0,0:0:0:0:
182,192,119882,128,0,120032:0:0:0:0:
402,192,119882,1,0,0:0:0:0:
475,192,119957,1,0,0:0:0:0:
109,192,120032,128,2,120257:0:0:0:0:
329,192,120032,1,0,0:0:0:0:
402,192,120107,1,0,0:0:0:0:
256,192,120182,1,0,0:0:0:0:
475,192,120257,1,0,0:0:0:0:
109,192,120332,128,0,120632:0:0:0:0:
36,192,120332,1,2,0:0:0:0:
182,192,120332,1,8,0:0:0:0:
329,192,120407,1,0,0:0:0:0:
402,192,120482,1,0,0:0:0:0:
475,192,120557,1,0,0:0:0:0:
256,192,120632,128,2,120782:0:0:0:0:
329,192,120632,1,0,0:0:0:0:
182,192,120632,1,0,0:0:0:0:
402,192,120707,1,0,0:0:0:0:
182,192,120782,128,0,120932:0:0:0:0:
475,192,120782,1,0,0:0:0:0:
109,192,120857,1,0,0:0:0:0:
36,192,120932,128,0,121532:0:0:0:0:
329,192,120932,1,2,0:0:0:0:
402,192,120932,1,8,0:0:0:0:
256,192,121007,1,0,0:0:0:0:
182,192,121082,1,0,0:0:0:0:
109,192,121157,1,0,0:0:0:0:
256,192,121232,1,2,0:0:0:0:
475,192,121232,1,0,0:0:0:0:
402,192,121307,1,0,0:0:0:0:
329,192,121382,1,0,0:0:0:0:
256,192,121457,1,0,0:0:0:0:
182,192,121532,1,10,0:0:0:0:
109,192,121532,1,0,0:0:0:0:
256,192,121607,1,0,0:0:0:0:
329,192,121682,1,0,0:0:0:0:
402,192,121757,1,0,0:0:0:0:
182,192,121832,128,2,121982:0:0:0:0:
475,192,121832,1,0,0:0:0:0:
36,192,121832,1,0,0:0:0:0:
402,192,121907,1,0,0:0:0:0:
256,192,121982,128,0,122132:0:0:0:0:
329,192,121982,1,0,0:0:0:0:
36,192,122057,1,0,0:0:0:0:
329,192,122132,128,0,122282:0:0:0:0:
109,192,122132,1,2,0:0:0:0:
475,192,122132,1,8,0:0:0:0:
182,192,122207,1,0,0:0:0:0:
402,192,122282,128,0,122432:0:0:0:0:
36,192,122282,1,0,0:0:0:0:
182,192,122357,1,0,0:0:0:0:
475,192,122432,128,2,122582:0:0:0:0:
109,192,122432,1,0,0:0:0:0:
256,192,122432,1,0,0:0:0:0:
36,192,122507,1,0,0:0:0:0:
329,192,122582,1,0,0:0:0:0:
182,192,122657,1,0,0:0:0:0:
256,192,122732,128,0,123182:0:0:0:0:
402,192,122732,1,8,0:0:0:0:
109,192,122732,1,2,0:0:0:0:
36,192,122807,1,0,0:0:0:0:
475,192,122882,1,0,0:0:0:0:
329,192,122957,1,0,0:0:0:0:
109,192,123032,1,2,0:0:0:0:
402,192,123032,1,0,0:0:0:0:
182,192,123107,1,0,0:0:0:0:
329,192,123182,128,0,123332:0:0:0:0:
475,192,123182,1,0,0:0:0:0:
402,192,123257,1,0,0:0:0:0:
182,192,123332,128,0,123482:0:0:0:0:
256,192,123332,1,2,0:0:0:0:
36,192,123332,1,8,0:0:0:0:
402,192,123407,1,0,0:0:0:0:
36,192,123482,128,0,123932:0:0:0:0:
109,192,123482,1,0,0:0:0:0:
475,192,123557,1,0,0:0:0:0:
329,192,123632,1,2,0:0:0:0:
402,192,123632,1,0,0:0:0:0:
109,192,123707,1,0,0:0:0:0:
475,192,123782,1,0,0:0:0:0:
182,192,123857,1,0,0:0:0:0:
256,192,123932,128,0,124232:0:0:0:0:
402,192,123932,1,8,0:0:0:0:
109,192,123932,1,2,0:0:0:0:
329,192,124007,1,0,0:0:0:0:
182,192,124082,1,0,0:0:0:0:
36,192,124157,1,0,0:0:0:0:
329,192,124232,128,2,124382:0:0:0:0:
182,192,124232,1,0,0:0:0:0:
475,192,124232,1,0,0:0:0:0:
109,192,124307,1,0,0:0:0:0:
402,192,124382,128,0,124532:0:0:0:0:
36,192,124382,1,0,0:0:0:0:
109,192,124457,1,0,0:0:0:0:
475,192,124532,128,0,125432:0:0:0:0:
182,192,124532,1,2,0:0:0:0:
256,192,124532,1,8,0:0:0:0:
329,192,124607,1,0,0:0:0:0:
36,192,124682,1,0,0:0:0:0:
109,192,124757,1,0,0:0:0:0:
402,192,124832,1,2,0:0:0:0:
256,192,124832,1,0,0:0:0:0:
329,192,124907,1,0,0:0:0:0:
182,192,124982,1,0,0:0:0:0:
36,192,125057,1,0,0:0:0:0:
109,192,125132,1,10,0:0:0:0:
256,192,125132,1,0,0:0:0:0:
329,192,125207,1,0,0:0:0:0:
402,192,125282,1,0,0:0:0:0:
182,192,125357,1,0,0:0:0:0:
109,192,125432,128,2,125582:0:0:0:0:
256,192,125432,1,0,0:0:0:0:
402,192,125432,1,0,0:0:0:0:
329,192,125507,1,0,0:0:0:0:
182,192,125582,128,0,125732:0:0:0:0:
402,192,125582,1,0,0:0:0:0:
475,192,125657,1,0,0:0:0:0:
256,192,125732,128,0,125882:0:0:0:0:
36,192,125732,1,2,0:0:0:0:
402,192,125732,1,8,0:0:0:0:
109,192,125807,1,0,0:0:0:0:
329,192,125882,128,0,126032:0:0:0:0:
182,192,125882,1,0,0:0:0:0:
36,192,125957,1,0,0:0:0:0:
402,192,126032,128,2,126332:0:0:0:0:
109,192,126032,1,0,0:0:0:0:
475,192,126032,1,0,0:0:0:0:
256,192,126107,1,0,0:0:0:0:
182,192,126182,1,0,0:0:0:0:
329,192,126257,1,0,0:0:0:0:
36,192,126332,128,0,126632:0:0:0:0:
109,192,126332,1,2,0:0:0:0:
256,192,126332,1,8,0:0:0:0:
475,192,126407,1,0,0:0:0:0:
329,192,126482,1,0,0:0:0:0:
182,192,126557,1,0,0:0:0:0:
402,192,126632,1,2,0:0:0:0:
109,192,126632,1,0,0:0:0:0:
182,192,126707,1,0,0:0:0:0:
256,192,126782,128,0,126932:0:0:0:0:
475,192,126782,1,0,0:0:0:0:
109,192,126857,1,0,0:0:0:0:
329,192,126932,128,0,127082:0:0:0:0:
402,192,126932,1,2,0:0:0:0:
36,192,126932,1,8,0:0:0:0:
475,192,127007,1,0,0:0:0:0:
256,192,127082,1,0,0:0:0:0:
402,192,127082,1,0,0:0:0:0:
182,192,127132,1,0,0:0:0:0:
109,192,127182,1,0,0:0:0:0:
36,192,127232,128,2,127532:0:0:0:0:
256,192,127232,1,0,0:0:0:0:
475,192,127232,1,0,0:0:0:0:
402,192,127307,1,0,0:0:0:0:
329,192,127382,1,0,0:0:0:0:
402,192,127457,1,0,0:0:0:0:
256,192,127532,128,0,127832:0:0:0:0:
475,192,127532,1,8,0:0:0:0:
109,192,127532,1,2,0:0:0:0:
182,192,127607,1,0,0:0:0:0:
329,192,127682,1,0,0:0:0:0:
402,192,127757,1,0,0:0:0:0:
475,192,127832,128,2,128432:0:0:0:0:
36,192,127832,1,0,0:0:0:0:
109,192,127832,1,0,0:0:0:0:
182,192,127907,1,0,0:0:0:0:
402,192,127982,128,2,128432:0:0:0:0:
109,192,127982,1,0,0:0:0:0:
36,192,128057,1,0,0:0:0:0:
329,192,128132,128,10,128432:0:0:0:0:
182,192,128132,1,0,0:0:0:0:
109,192,128207,1,0,0:0:0:0:
36,192,128282,1,0,0:0:0:0:
109,192,128357,1,0,0:0:0:0:
182,192,128432,1,2,0:0:0:0:
256,192,128507,1,0,0:0:0:0:
329,192,128582,1,0,0:0:0:0:
402,192,128657,1,0,0:0:0:0:
36,192,128732,128,0,129332:0:0:0:0:
475,192,128732,1,8,0:0:0:0:
182,192,128732,1,2,0:0:0:0:
256,192,128807,1,0,0:0:0:0:
109,192,128882,128,2,129332:0:0:0:0:
329,192,128882,1,0,0:0:0:0:
402,192,128957,1,0,0:0:0:0:
182,192,129032,128,2,129332:0:0:0:0:
256,192,129032,1,0,0:0:0:0:
475,192,129032,1,0,0:0:0:0:
402,192,129107,1,0,0:0:0:0:
329,192,129182,1,0,0:0:0:0:
256,192,129257,1,0,0:0:0:0:
402,192,129332,1,10,0:0:0:0:
475,192,129332,1,0,0:0:0:0:
329,192,129407,1,0,0:0:0:0:
256,192,129482,1,0,0:0:0:0:
36,192,129482,1,0,0:0:0:0:
109,192,129557,1,0,0:0:0:0:
256,192,129632,128,2,130532:0:0:0:0:
329,192,129632,1,0,0:0:0:0:
182,192,129632,1,0,0:0:0:0:
109,192,129782,128,2,130532:0:0:0:0:
475,192,129782,1,0,0:0:0:0:
402,192,129932,128,0,130532:0:0:0:0:
182,192,129932,1,8,0:0:0:0:
329,192,129932,1,2,0:0:0:0:
36,192,130082,1,0,0:0:0:0:
182,192,130232,1,2,0:0:0:0:
329,192,130232,1,0,0:0:0:0:
475,192,130382,1,0,0:0:0:0:
329,192,130532,128,0,130832:0:0:0:0:
36,192,130532,1,8,0:0:0:0:
182,192,130532,1,2,0:0:0:0:
256,192,130682,1,0,0:0:0:0:
182,192,130832,128,2,131132:0:0:0:0:
109,192,130832,1,0,0:0:0:0:
36,192,130832,1,0,0:0:0:0:
256,192,130982,1,0,0:0:0:0:
36,192,131132,128,0,131432:0:0:0:0:
402,192,131132,1,2,0:0:0:0:
475,192,131132,1,8,0:0:0:0:
329,192,131282,1,0,0:0:0:0:
109,192,131432,128,2,131882:0:0:0:0:
182,192,131432,1,0,0:0:0:0:
256,192,131432,1,0,0:0:0:0:
402,192,131582,1,0,0:0:0:0:
256,192,131732,1,10,0:0:0:0:
475,192,131732,1,0,0:0:0:0:
402,192,131882,1,0,0:0:0:0:
36,192,132032,1,0,0:0:0:0:
182,192,132032,1,0,0:0:0:0:
475,192,132032,1,2,0:0:0:0:
329,192,132032,1,0,0:0:0:0:
36,192,132182,1,2,0:0:0:0:
109,192,132182,1,0,0:0:0:0:
402,192,132182,1,0,0:0:0:0:
475,192,132182,1,0,0:0:0:0:
475,192,132332,1,2,0:0:0:0:
329,192,132332,1,0,0:0:0:0:
182,192,132332,1,0,0:0:0:0:
36,192,132332,1,0,0:0:0:0:
109,192,132482,1,2,0:0:0:0:
182,192,132482,1,0,0:0:0:0:
329,192,132482,1,0,0:0:0:0:
402,192,132482,1,0,0:0:0:0:
475,192,132632,1,2,0:0:0:0:
329,192,132632,1,0,0:0:0:0:
182,192,132632,1,0,0:0:0:0:
36,192,132632,1,0,0:0:0:0:
256,192,132632,1,0,0:0:0:0:
109,192,133082,1,0,0:0:0:0:
402,192,133082,1,0,0:0:0:0:
256,192,133082,1,2,0:0:0:0:
36,192,133232,1,4,0:0:0:0:
109,192,133232,1,2,0:0:0:0:
402,192,133232,1,2,0:0:0:0:
475,192,133232,1,4,0:0:0:0:
256,192,133232,1,0,0:0:0:0:
256,192,133382,1,0,0:0:0:0:
182,192,133382,1,0,0:0:0:0:
329,192,133382,1,0,0:0:0:0:
329,192,133532,1,2,0:0:0:0:
402,192,133532,1,2,0:0:0:0:
36,192,133532,1,0,0:0:0:0:
109,192,133532,1,0,0:0:0:0:
475,192,133532,1,0,0:0:0:0:
182,192,133682,1,0,0:0:0:0:
256,192,133682,1,0,0:0:0:0:
402,192,133682,1,0,0:0:0:0:
475,192,133832,1,2,0:0:0:0:
109,192,133832,1,2,0:0:0:0:
402,192,133832,1,0,0:0:0:0:
36,192,133832,1,0,0:0:0:0:
182,192,133832,1,0,0:0:0:0:
36,192,133982,1,0,0:0:0:0:
256,192,133982,1,0,0:0:0:0:
329,192,133982,1,0,0:0:0:0:
109,192,134132,1,2,0:0:0:0:
182,192,134132,1,2,0:0:0:0:
402,192,134132,1,0,0:0:0:0:
475,192,134132,1,0,0:0:0:0:
256,192,134132,1,0,0:0:0:0:
36,192,134282,1,0,0:0:0:0:
402,192,134282,1,0,0:0:0:0:
329,192,134282,1,0,0:0:0:0:
329,192,134432,1,2,0:0:0:0:
475,192,134432,1,2,0:0:0:0:
256,192,134432,1,0,0:0:0:0:
109,192,134432,1,0,0:0:0:0:
182,192,134432,1,0,0:0:0:0:
402,192,134582,1,0,0:0:0:0:
36,192,134582,1,0,0:0:0:0:
182,192,134582,1,0,0:0:0:0:
109,192,134732,1,2,0:0:0:0:
36,192,134732,1,2,0:0:0:0:
475,192,134732,1,0,0:0:0:0:
402,192,134732,1,0,0:0:0:0:
256,192,134732,1,0,0:0:0:0:
475,192,134882,1,0,0:0:0:0:
182,192,134882,1,0,0:0:0:0:
329,192,134882,1,0,0:0:0:0:
182,192,135032,1,2,0:0:0:0:
329,192,135032,1,2,0:0:0:0:
109,192,135032,1,0,0:0:0:0:
36,192,135032,1,0,0:0:0:0:
402,192,135032,1,0,0:0:0:0:
109,192,135182,1,0,0:0:0:0:
475,192,135182,1,0,0:0:0:0:
256,192,135182,1,0,0:0:0:0:
182,192,135332,1,2,0:0:0:0:
402,192,135332,1,2,0:0:0:0:
36,192,135332,1,0,0:0:0:0:
329,192,135332,1,0,0:0:0:0:
475,192,135332,1,0,0:0:0:0:
329,192,135482,1,0,0:0:0:0:
256,192,135482,1,0,0:0:0:0:
36,192,135482,1,0,0:0:0:0:
182,192,135632,1,2,0:0:0:0:
475,192,135632,1,2,0:0:0:0:
402,192,135632,1,0,0:0:0:0:
256,192,135632,1,0,0:0:0:0:
109,192,135632,1,0,0:0:0:0:
329,192,135782,1,0,0:0:0:0:
402,192,135782,1,0,0:0:0:0:
109,192,135782,1,0,0:0:0:0:
329,192,135932,1,2,0:0:0:0:
256,192,135932,1,2,0:0:0:0:
182,192,135932,1,0,0:0:0:0:
36,192,135932,1,0,0:0:0:0:
475,192,135932,1,0,0:0:0:0:
402,192,136082,1,0,0:0:0:0:
109,192,136082,1,0,0:0:0:0:
36,192,136082,1,0,0:0:0:0:
256,192,136232,1,2,0:0:0:0:
475,192,136232,1,2,0:0:0:0:
402,192,136232,1,0,0:0:0:0:
182,192,136232,1,0,0:0:0:0:
329,192,136232,1,0,0:0:0:0:
36,192,136382,1,0,0:0:0:0:
329,192,136382,1,0,0:0:0:0:
182,192,136382,1,0,0:0:0:0:
36,192,136532,1,2,0:0:0:0:
256,192,136532,1,2,0:0:0:0:
475,192,136532,1,0,0:0:0:0:
402,192,136532,1,0,0:0:0:0:
109,192,136532,1,0,0:0:0:0:
182,192,136682,1,0,0:0:0:0:
329,192,136682,1,0,0:0:0:0:
402,192,136682,1,0,0:0:0:0:
36,192,136832,1,2,0:0:0:0:
256,192,136832,1,2,0:0:0:0:
109,192,136832,1,0,0:0:0:0:
182,192,136832,1,0,0:0:0:0:
475,192,136832,1,0,0:0:0:0:
402,192,136982,1,0,0:0:0:0:
329,192,136982,1,0,0:0:0:0:
36,192,136982,1,0,0:0:0:0:
109,192,137132,1,2,0:0:0:0:
182,192,137132,1,2,0:0:0:0:
402,192,137132,1,0,0:0:0:0:
475,192,137132,1,0,0:0:0:0:
256,192,137132,1,0,0:0:0:0:
182,192,137282,1,0,0:0:0:0:
36,192,137282,1,0,0:0:0:0:
329,192,137282,1,0,0:0:0:0:
109,192,137432,1,2,0:0:0:0:
256,192,137432,1,2,0:0:0:0:
402,192,137432,1,0,0:0:0:0:
475,192,137432,1,0,0:0:0:0:
36,192,137432,1,0,0:0:0:0:
256,192,137582,1,0,0:0:0:0:
329,192,137582,1,0,0:0:0:0:
182,192,137582,1,0,0:0:0:0:
182,192,137732,1,2,0:0:0:0:
329,192,137732,1,2,0:0:0:0:
109,192,137732,1,0,0:0:0:0:
475,192,137732,1,0,0:0:0:0:
36,192,137732,1,0,0:0:0:0:
256,192,137882,1,0,0:0:0:0:
402,192,137882,1,0,0:0:0:0:
109,192,137882,1,0,0:0:0:0:
402,192,138032,1,2,0:0:0:0:
475,192,138032,1,2,0:0:0:0:
36,192,138032,1,0,0:0:0:0:
182,192,138032,1,0,0:0:0:0:
329,192,138032,1,0,0:0:0:0:
475,192,138182,1,0,0:0:0:0:
36,192,138182,1,0,0:0:0:0:
256,192,138182,1,0,0:0:0:0:
256,192,138332,1,2,0:0:0:0:
402,192,138332,1,2,0:0:0:0:
182,192,138332,1,0,0:0:0:0:
109,192,138332,1,0,0:0:0:0:
329,192,138332,1,0,0:0:0:0:
475,192,138482,1,0,0:0:0:0:
329,192,138482,1,0,0:0:0:0:
36,192,138482,1,0,0:0:0:0:
182,192,138632,1,2,0:0:0:0:
256,192,138632,1,2,0:0:0:0:
36,192,138632,1,0,0:0:0:0:
402,192,138632,1,0,0:0:0:0:
109,192,138632,1,0,0:0:0:0:
182,192,138782,1,0,0:0:0:0:
475,192,138782,1,0,0:0:0:0:
402,192,138782,1,0,0:0:0:0:
36,192,138932,1,2,0:0:0:0:
109,192,138932,1,2,0:0:0:0:
475,192,138932,1,0,0:0:0:0:
329,192,138932,1,0,0:0:0:0:
256,192,138932,1,0,0:0:0:0:
36,192,139082,1,0,0:0:0:0:
182,192,139082,1,0,0:0:0:0:
402,192,139082,1,0,0:0:0:0:
182,192,139232,1,2,0:0:0:0:
402,192,139232,1,2,0:0:0:0:
329,192,139232,1,0,0:0:0:0:
475,192,139232,1,0,0:0:0:0:
109,192,139232,1,0,0:0:0:0:
256,192,139382,1,0,0:0:0:0:
36,192,139382,1,0,0:0:0:0:
329,192,139382,1,0,0:0:0:0:
402,192,139532,1,2,0:0:0:0:
109,192,139532,1,2,0:0:0:0:
182,192,139532,1,0,0:0:0:0:
475,192,139532,1,0,0:0:0:0:
256,192,139532,1,0,0:0:0:0:
329,192,139682,1,0,0:0:0:0:
109,192,139682,1,0,0:0:0:0:
36,192,139682,1,0,0:0:0:0:
36,192,139832,1,2,0:0:0:0:
182,192,139832,1,2,0:0:0:0:
329,192,139832,1,0,0:0:0:0:
402,192,139832,1,0,0:0:0:0:
475,192,139832,1,0,0:0:0:0:
475,192,139982,1,2,0:0:0:0:
109,192,139982,1,2,0:0:0:0:
256,192,139982,1,0,0:0:0:0:
329,192,139982,1,0,0:0:0:0:
402,192,139982,1,0,0:0:0:0:
402,192,140132,1,2,0:0:0:0:
36,192,140132,1,2,0:0:0:0:
329,192,140132,1,0,0:0:0:0:
182,192,140132,1,0,0:0:0:0:
256,192,140132,1,0,0:0:0:0:
475,192,140282,1,2,0:0:0:0:
182,192,140282,1,2,0:0:0:0:
329,192,140282,1,0,0:0:0:0:
109,192,140282,1,0,0:0:0:0:
256,192,140282,1,0,0:0:0:0:
109,192,140432,1,2,0:0:0:0:
36,192,140432,1,2,0:0:0:0:
402,192,140432,1,0,0:0:0:0:
182,192,140432,1,0,0:0:0:0:
256,192,140432,1,0,0:0:0:0:
475,192,140582,1,0,0:0:0:0:
182,192,140582,1,0,0:0:0:0:
36,192,140582,1,0,0:0:0:0:
402,192,140732,1,2,0:0:0:0:
109,192,140732,1,2,0:0:0:0:
329,192,140732,1,0,0:0:0:0:
475,192,140732,1,0,0:0:0:0:
256,192,140732,1,0,0:0:0:0:
109,192,140882,1,0,0:0:0:0:
402,192,140882,1,0,0:0:0:0:
182,192,140882,1,0,0:0:0:0:
182,192,141032,1,2,0:0:0:0:
329,192,141032,1,2,0:0:0:0:
36,192,141032,1,0,0:0:0:0:
256,192,141032,1,0,0:0:0:0:
475,192,141032,1,0,0:0:0:0:
402,192,141182,1,0,0:0:0:0:
36,192,141182,1,0,0:0:0:0:
109,192,141182,1,0,0:0:0:0:
402,192,141332,1,2,0:0:0:0:
475,192,141332,1,2,0:0:0:0:
182,192,141332,1,0,0:0:0:0:
329,192,141332,1,0,0:0:0:0:
109,192,141332,1,0,0:0:0:0:
36,192,141482,1,0,0:0:0:0:
475,192,141482,1,0,0:0:0:0:
256,192,141482,1,0,0:0:0:0:
182,192,141632,1,2,0:0:0:0:
36,192,141632,1,2,0:0:0:0:
402,192,141632,1,0,0:0:0:0:
256,192,141632,1,0,0:0:0:0:
329,192,141632,1,0,0:0:0:0:
329,192,141782,1,0,0:0:0:0:
109,192,141782,1,0,0:0:0:0:
475,192,141782,1,0,0:0:0:0:
109,192,141932,1,2,0:0:0:0:
182,192,141932,1,2,0:0:0:0:
475,192,141932,1,0,0:0:0:0:
36,192,141932,1,0,0:0:0:0:
256,192,141932,1,0,0:0:0:0:
182,192,142082,1,0,0:0:0:0:
402,192,142082,1,0,0:0:0:0:
329,192,142082,1,0,0:0:0:0:
109,192,142232,1,2,0:0:0:0:
329,192,142232,1,2,0:0:0:0:
475,192,142232,1,0,0:0:0:0:
256,192,142232,1,0,0:0:0:0:
36,192,142232,1,0,0:0:0:0:
402,192,142382,1,0,0:0:0:0:
475,192,142382,1,0,0:0:0:0:
182,192,142382,1,0,0:0:0:0:
256,192,142532,1,2,0:0:0:0:
329,192,142532,1,2,0:0:0:0:
182,192,142532,1,0,0:0:0:0:
109,192,142532,1,0,0:0:0:0:
36,192,142532,1,0,0:0:0:0:
329,192,142682,1,0,0:0:0:0:
475,192,142682,1,0,0:0:0:0:
109,192,142682,1,0,0:0:0:0:
36,192,142832,1,2,0:0:0:0:
402,192,142832,1,2,0:0:0:0:
182,192,142832,1,0,0:0:0:0:
475,192,142832,1,0,0:0:0:0:
256,192,142832,1,0,0:0:0:0:
402,192,142982,1,0,0:0:0:0:
109,192,142982,1,0,0:0:0:0:
256,192,142982,1,0,0:0:0:0:
182,192,143132,1,2,0:0:0:0:
329,192,143132,1,2,0:0:0:0:
109,192,143132,1,0,0:0:0:0:
36,192,143132,1,0,0:0:0:0:
475,192,143132,1,0,0:0:0:0:
402,192,143282,1,0,0:0:0:0:
256,192,143282,1,0,0:0:0:0:
329,192,143282,1,0,0:0:0:0:
36,192,143432,1,2,0:0:0:0:
182,192,143432,1,2,0:0:0:0:
475,192,143432,1,0,0:0:0:0:
256,192,143432,1,0,0:0:0:0:
402,192,143432,1,0,0:0:0:0:
109,192,143582,1,0,0:0:0:0:
329,192,143582,1,0,0:0:0:0:
182,192,143582,1,0,0:0:0:0:
256,192,143732,1,2,0:0:0:0:
329,192,143732,1,2,0:0:0:0:
475,192,143732,1,0,0:0:0:0:
109,192,143732,1,0,0:0:0:0:
402,192,143732,1,0,0:0:0:0:
256,192,143882,1,0,0:0:0:0:
402,192,143882,1,0,0:0:0:0:
182,192,143882,1,0,0:0:0:0:
36,192,144032,1,2,0:0:0:0:
329,192,144032,1,2,0:0:0:0:
109,192,144032,1,0,0:0:0:0:
475,192,144032,1,0,0:0:0:0:
182,192,144032,1,0,0:0:0:0:
256,192,144182,1,0,0:0:0:0:
402,192,144182,1,0,0:0:0:0:
329,192,144182,1,0,0:0:0:0:
109,192,144332,1,2,0:0:0:0:
182,192,144332,1,2,0:0:0:0:
256,192,144332,1,0,0:0:0:0:
36,192,144332,1,0,0:0:0:0:
475,192,144332,1,0,0:0:0:0:
329,192,144482,1,0,0:0:0:0:
475,192,144482,1,0,0:0:0:0:
402,192,144482,1,0,0:0:0:0:
109,192,144632,1,2,0:0:0:0:
256,192,144632,1,2,0:0:0:0:
36,192,144632,1,0,0:0:0:0:
182,192,144632,1,0,0:0:0:0:
402,192,144632,1,0,0:0:0:0:
109,192,144782,1,0,0:0:0:0:
475,192,144782,1,0,0:0:0:0:
329,192,144782,1,0,0:0:0:0:
475,192,144932,1,2,0:0:0:0:
402,192,144932,1,2,0:0:0:0:
182,192,144932,1,0,0:0:0:0:
329,192,144932,1,0,0:0:0:0:
36,192,144932,1,0,0:0:0:0:
109,192,145082,1,0,0:0:0:0:
402,192,145082,1,0,0:0:0:0:
256,192,145082,1,0,0:0:0:0:
36,192,145232,1,2,0:0:0:0:
182,192,145232,1,2,0:0:0:0:
329,192,145232,1,0,0:0:0:0:
256,192,145232,1,0,0:0:0:0:
475,192,145232,1,0,0:0:0:0:
182,192,145382,1,0,0:0:0:0:
475,192,145382,1,0,0:0:0:0:
109,192,145382,1,0,0:0:0:0:
256,192,145532,1,2,0:0:0:0:
36,192,145532,1,2,0:0:0:0:
402,192,145532,1,0,0:0:0:0:
109,192,145532,1,0,0:0:0:0:
329,192,145532,1,0,0:0:0:0:
475,192,145682,1,0,0:0:0:0:
402,192,145682,1,0,0:0:0:0:
182,192,145682,1,0,0:0:0:0:
256,192,145832,1,2,0:0:0:0:
475,192,145832,1,2,0:0:0:0:
329,192,145832,1,0,0:0:0:0:
109,192,145832,1,0,0:0:0:0:
36,192,145832,1,0,0:0:0:0:
182,192,145982,1,0,0:0:0:0:
109,192,145982,1,0,0:0:0:0:
402,192,145982,1,0,0:0:0:0:
182,192,146132,1,2,0:0:0:0:
36,192,146132,1,2,0:0:0:0:
329,192,146132,1,0,0:0:0:0:
256,192,146132,1,0,0:0:0:0:
475,192,146132,1,0,0:0:0:0:
109,192,146282,1,0,0:0:0:0:
402,192,146282,1,0,0:0:0:0:
256,192,146282,1,0,0:0:0:0:
475,192,146432,1,2,0:0:0:0:
329,192,146432,1,2,0:0:0:0:
182,192,146432,1,0,0:0:0:0:
36,192,146432,1,0,0:0:0:0:
109,192,146432,1,0,0:0:0:0:
256,192,146582,1,0,0:0:0:0:
329,192,146582,1,0,0:0:0:0:
402,192,146582,1,0,0:0:0:0:
256,192,146732,1,2,0:0:0:0:
182,192,146732,1,2,0:0:0:0:
109,192,146732,1,0,0:0:0:0:
475,192,146732,1,0,0:0:0:0:
36,192,146732,1,0,0:0:0:0:
109,192,146882,1,0,0:0:0:0:
329,192,146882,1,0,0:0:0:0:
402,192,146882,1,0,0:0:0:0:
36,192,147032,1,2,0:0:0:0:
402,192,147032,1,2,0:0:0:0:
182,192,147032,1,0,0:0:0:0:
256,192,147032,1,0,0:0:0:0:
475,192,147032,1,0,0:0:0:0:
329,192,147182,1,0,0:0:0:0:
475,192,147182,1,0,0:0:0:0:
182,192,147182,1,0,0:0:0:0:
36,192,147332,1,2,0:0:0:0:
402,192,147332,1,2,0:0:0:0:
109,192,147332,1,0,0:0:0:0:
329,192,147332,1,0,0:0:0:0:
256,192,147332,1,0,0:0:0:0:
256,192,147482,1,0,0:0:0:0:
402,192,147482,1,0,0:0:0:0:
475,192,147482,1,0,0:0:0:0:
475,192,147632,1,2,0:0:0:0:
329,192,147632,1,2,0:0:0:0:
182,192,147632,1,0,0:0:0:0:
109,192,147632,1,0,0:0:0:0:
36,192,147632,1,0,0:0:0:0:
402,192,147782,1,0,0:0:0:0:
109,192,147782,1,0,0:0:0:0:
36,192,147782,1,0,0:0:0:0:
256,192,147932,1,2,0:0:0:0:
402,192,147932,1,2,0:0:0:0:
475,192,147932,1,0,0:0:0:0:
329,192,147932,1,0,0:0:0:0:
182,192,147932,1,0,0:0:0:0:
109,192,148082,1,0,0:0:0:0:
329,192,148082,1,0,0:0:0:0:
36,192,148082,1,0,0:0:0:0:
475,192,148232,1,2,0:0:0:0:
36,192,148232,1,2,0:0:0:0:
182,192,148232,1,0,0:0:0:0:
402,192,148232,1,0,0:0:0:0:
256,192,148232,1,0,0:0:0:0:
109,192,148382,1,0,0:0:0:0:
329,192,148382,1,0,0:0:0:0:
256,192,148382,1,0,0:0:0:0:
475,192,148532,1,2,0:0:0:0:
402,192,148532,1,2,0:0:0:0:
36,192,148532,1,0,0:0:0:0:
329,192,148532,1,0,0:0:0:0:
182,192,148532,1,0,0:0:0:0:
109,192,148682,1,0,0:0:0:0:
256,192,148682,1,0,0:0:0:0:
36,192,148682,1,0,0:0:0:0:
109,192,148832,1,2,0:0:0:0:
329,192,148832,1,2,0:0:0:0:
182,192,148832,1,0,0:0:0:0:
402,192,148832,1,0,0:0:0:0:
475,192,148832,1,0,0:0:0:0:
329,192,148982,1,0,0:0:0:0:
36,192,148982,1,0,0:0:0:0:
475,192,148982,1,0,0:0:0:0:
402,192,149132,1,2,0:0:0:0:
256,192,149132,1,2,0:0:0:0:
36,192,149132,1,0,0:0:0:0:
109,192,149132,1,0,0:0:0:0:
182,192,149132,1,0,0:0:0:0:
475,192,149282,1,0,0:0:0:0:
182,192,149282,1,0,0:0:0:0:
329,192,149282,1,0,0:0:0:0:
402,192,149432,1,2,0:0:0:0:
109,192,149432,1,2,0:0:0:0:
329,192,149432,1,0,0:0:0:0:
256,192,149432,1,0,0:0:0:0:
36,192,149432,1,0,0:0:0:0:
256,192,149582,1,0,0:0:0:0:
36,192,149582,1,0,0:0:0:0:
182,192,149582,1,0,0:0:0:0:
329,192,149732,1,2,0:0:0:0:
402,192,149732,1,2,0:0:0:0:
109,192,149732,1,0,0:0:0:0:
475,192,149732,1,0,0:0:0:0:
182,192,149732,1,0,0:0:0:0:
475,192,149882,1,0,0:0:0:0:
256,192,149882,1,0,0:0:0:0:
36,192,149882,1,0,0:0:0:0:
36,192,150032,1,2,0:0:0:0:
402,192,150032,1,2,0:0:0:0:
182,192,150032,1,0,0:0:0:0:
329,192,150032,1,0,0:0:0:0:
109,192,150032,1,0,0:0:0:0:
329,192,150182,1,0,0:0:0:0:
182,192,150182,1,0,0:0:0:0:
256,192,150182,1,0,0:0:0:0:
256,192,150332,1,0,0:0:0:0:
36,192,150332,1,2,0:0:0:0:
402,192,150332,1,0,0:0:0:0:
475,192,150332,1,2,0:0:0:0:
109,192,150332,1,0,0:0:0:0:
36,192,150482,1,2,0:0:0:0:
256,192,150482,1,0,0:0:0:0:
402,192,150482,1,0,0:0:0:0:
475,192,150482,1,2,0:0:0:0:
109,192,150482,1,0,0:0:0:0:
256,192,150632,1,0,0:0:0:0:
402,192,150632,1,2,0:0:0:0:
36,192,150632,1,0,0:0:0:0:
475,192,150632,1,0,0:0:0:0:
109,192,150632,1,2,0:0:0:0:
182,192,150782,1,0,0:0:0:0:
329,192,150782,1,0,0:0:0:0:
256,192,150932,1,0,0:0:0:0:
402,192,150932,1,0,0:0:0:0:
36,192,150932,1,0,0:0:0:0:
329,192,151082,1,0,0:0:0:0:
475,192,151082,1,0,0:0:0:0:
402,192,151232,1,2,0:0:0:0:
182,192,151232,1,0,0:0:0:0:
256,192,151232,1,0,0:0:0:0:
36,192,151232,1,0,0:0:0:0:
109,192,151232,1,2,0:0:0:0:
36,192,151382,1,0,0:0:0:0:
182,192,151382,1,0,0:0:0:0:
256,192,151382,1,0,0:0:0:0:
402,192,151382,1,2,0:0:0:0:
109,192,151382,1,2,0:0:0:0:
36,192,151532,1,0,0:0:0:0:
182,192,151532,1,0,0:0:0:0:
256,192,151532,1,0,0:0:0:0:
402,192,151532,1,2,0:0:0:0:
109,192,151532,1,2,0:0:0:0:
329,192,151682,1,0,0:0:0:0:
475,192,151682,1,0,0:0:0:0:
402,192,151832,1,0,0:0:0:0:
256,192,151832,1,0,0:0:0:0:
182,192,151832,1,0,0:0:0:0:
109,192,151982,1,0,0:0:0:0:
36,192,151982,1,0,0:0:0:0:
256,192,152132,1,0,0:0:0:0:
329,192,152132,1,2,0:0:0:0:
475,192,152132,1,0,0:0:0:0:
402,192,152132,1,0,0:0:0:0:
182,192,152132,1,2,0:0:0:0:
256,192,152282,1,0,0:0:0:0:
329,192,152282,1,2,0:0:0:0:
402,192,152282,1,0,0:0:0:0:
475,192,152282,1,0,0:0:0:0:
182,192,152282,1,2,0:0:0:0:
256,192,152432,1,0,0:0:0:0:
329,192,152432,1,2,0:0:0:0:
402,192,152432,1,0,0:0:0:0:
475,192,152432,1,0,0:0:0:0:
182,192,152432,1,2,0:0:0:0:
109,192,152582,1,0,0:0:0:0:
36,192,152582,1,0,0:0:0:0:
329,192,152732,1,2,0:0:0:0:
402,192,152732,1,2,0:0:0:0:
36,192,152732,1,0,0:0:0:0:
182,192,152732,1,0,0:0:0:0:
475,192,152732,1,0,0:0:0:0:
109,192,152882,1,0,0:0:0:0:
402,192,152882,1,0,0:0:0:0:
256,192,153032,1,0,0:0:0:0:
475,192,153032,1,2,0:0:0:0:
182,192,153032,1,0,0:0:0:0:
36,192,153032,1,2,0:0:0:0:
329,192,153032,1,0,0:0:0:0:
36,192,153182,1,2,0:0:0:0:
182,192,153182,1,0,0:0:0:0:
256,192,153182,1,0,0:0:0:0:
475,192,153182,1,2,0:0:0:0:
329,192,153182,1,0,0:0:0:0:
36,192,153332,1,2,0:0:0:0:
182,192,153332,1,0,0:0:0:0:
256,192,153332,1,0,0:0:0:0:
475,192,153332,1,2,0:0:0:0:
329,192,153332,1,0,0:0:0:0:
402,192,153482,1,0,0:0:0:0:
109,192,153482,1,0,0:0:0:0:
182,192,153632,1,2,0:0:0:0:
329,192,153632,1,0,0:0:0:0:
109,192,153707,1,0,0:0:0:0:
402,192,153707,1,2,0:0:0:0:
36,192,153782,1,2,0:0:0:0:
475,192,153782,1,0,0:0:0:0:
109,192,153857,1,0,0:0:0:0:
402,192,153857,1,2,0:0:0:0:
182,192,153932,1,2,0:0:0:0:
329,192,153932,1,0,0:0:0:0:
256,192,154007,1,0,0:0:0:0:
402,192,154007,1,2,0:0:0:0:
182,192,154082,1,2,0:0:0:0:
475,192,154082,1,0,0:0:0:0:
109,192,154157,1,0,0:0:0:0:
402,192,154157,1,2,0:0:0:0:
36,192,154232,1,2,0:0:0:0:
329,192,154232,1,0,0:0:0:0:
109,192,154307,5,0,0:0:0:0:
402,192,154307,1,2,0:0:0:0:
182,192,154382,1,2,0:0:0:0:
475,192,154382,1,0,0:0:0:0:
256,192,154457,1,0,0:0:0:0:
402,192,154457,1,2,0:0:0:0:
182,192,154532,1,2,0:0:0:0:
329,192,154532,1,0,0:0:0:0:
109,192,154607,1,0,0:0:0:0:
402,192,154607,1,2,0:0:0:0:
36,192,154682,1,2,0:0:0:0:
475,192,154682,1,0,0:0:0:0:
109,192,154832,5,0,0:0:0:0:
182,192,154832,1,2,0:0:0:0:
256,192,154832,1,4,0:0:0:0:
329,192,154832,1,2,0:0:0:0:
402,192,154832,1,0,0:0:0:0:
