osu file format v14

[General]
AudioFilename: audio.mp3
AudioLeadIn: 0
PreviewTime: 143830
Countdown: 0
SampleSet: Normal
StackLeniency: 0.7
Mode: 1
LetterboxInBreaks: 0
WidescreenStoryboard: 1

[Editor]
Bookmarks: 38505,57705,76905,96105,105705,115305,124905,144105,163305,168105,177705,196905,216105,235305,244905
DistanceSpacing: 2
BeatDivisor: 4
GridSize: 4
TimelineZoom: 2.499999

[Metadata]
Title:Gateway to Psycho
TitleUnicode:Gateway to Psycho
Artist:Helblinde
ArtistUnicode:Helblinde
Creator:kitafuma
Version:Oni
Source:PSYCHO-PASS
Tags:Psycho Pass サイコパス EGOIST chelly supercell ryo りょー reche 日髙範子 Hidaka Noriko 伊東範子 Itou Noriko featured artist fa 名前のない怪物 namae no nai kaibutsu Monster without a name 1 anime ed ending theme life starts at 200bpm japanese j-core hardcore techno dnb drum and bass SRCL-8149 SRCL-8147 sony records ost remix arrange electronic
BeatmapID:3136172
BeatmapSetID:1529254

[Difficulty]
HPDrainRate:5
CircleSize:5
OverallDifficulty:6
ApproachRate:5
SliderMultiplier:1.4
SliderTickRate:1

[Events]
//Background and Video events
0,0,"psycho pass kakkee.jpg",0,100
//Break Periods
2,96455,104405
2,197255,205205
//Storyboard Layer 0 (Background)
//Storyboard Layer 1 (Fail)
//Storyboard Layer 2 (Pass)
//Storyboard Layer 3 (Foreground)
//Storyboard Layer 4 (Overlay)
//Storyboard Sound Samples

[TimingPoints]
5,300,4,1,0,20,1,0
19180,-100,4,1,0,80,0,0
37180,-121.951219512195,4,1,0,50,0,0
37330,-133.333333333333,4,1,0,50,0,0
38380,-100,4,1,0,80,0,0
52805,300,16,1,0,80,1,0
52830,-133.333333333333,4,1,0,40,0,0
57280,-133.333333333333,4,1,0,70,0,0
57605,300,4,1,0,70,1,0
57605,-133.333333333333,4,1,0,70,0,0
65980,-133.333333333333,4,1,0,70,0,0
66130,-129.87012987013,4,1,0,71,0,0
66280,-126.582278481013,4,1,0,72,0,0
66430,-123.456790123457,4,1,0,73,0,0
66505,-121.951219512195,4,1,0,73,0,0
66580,-120.481927710843,4,1,0,74,0,0
66730,-117.647058823529,4,1,0,74,0,0
66880,-114.942528735632,4,1,0,75,0,0
75580,-113.636363636364,4,1,0,75,0,0
75730,-112.359550561798,4,1,0,76,0,0
75880,-111.111111111111,4,1,0,76,0,0
76030,-109.89010989011,4,1,0,77,0,0
76180,-108.695652173913,4,1,0,77,0,0
76330,-107.52688172043,4,1,0,78,0,0
76480,-106.382978723404,4,1,0,78,0,0
76555,-105.263157894737,4,1,0,79,0,0
76630,-104.166666666667,4,1,0,79,0,0
76780,-103.092783505155,4,1,0,80,0,0
86705,-100,4,1,0,80,0,0
94805,-99.009900990099,4,1,0,80,0,0
94955,-98.0392156862745,4,1,0,80,0,0
95105,-97.0873786407767,4,1,0,80,0,0
95255,-96.1538461538461,4,1,0,80,0,0
95405,-95.2380952380952,4,1,0,80,0,0
95555,-94.3396226415094,4,1,0,80,0,0
95705,-93.4579439252336,4,1,0,80,0,0
95780,-92.5925925925926,4,1,0,80,0,0
95855,-91.743119266055,4,1,0,80,0,0
95980,-83.3333333333333,32,1,0,90,0,0
96005,-83.3333333333333,4,1,0,90,0,0
96030,-125,4,1,0,50,0,0
97180,-90.9090909090909,4,1,0,50,0,0
98380,-100,4,1,0,50,0,0
99580,-109.89010989011,4,1,0,50,0,0
100780,-117.647058823529,4,1,0,50,0,0
101980,-125,4,1,0,50,0,0
103180,-131.578947368421,4,1,0,50,0,0
104380,-136.986301369863,4,1,0,60,0,0
105580,-125,4,1,0,70,0,0
105605,-125,4,1,0,70,0,1
107980,-121.951219512195,4,1,0,73,0,1
110230,-117.647058823529,4,1,0,74,0,1
110380,-112.866817155756,4,1,0,76,0,1
110980,-113.636363636364,4,1,0,77,0,1
111430,-112.359550561798,4,1,0,78,0,1
111880,-111.111111111111,4,1,0,79,0,1
112330,-109.89010989011,4,1,0,80,0,1
112780,-107.52688172043,4,1,0,80,0,1
113380,-105.263157894737,4,1,0,80,0,1
113980,-103.092783505155,4,1,0,80,0,1
115180,-125,4,1,0,80,0,1
115205,-125,4,1,0,80,0,0
119980,-123.456790123457,4,1,0,80,0,0
120130,-121.951219512195,4,1,0,80,0,0
120280,-120.481927710843,4,1,0,80,0,0
120430,-119.047619047619,4,1,0,80,0,0
120580,-117.647058823529,4,1,0,80,0,0
120730,-116.279069767442,4,1,0,80,0,0
120880,-114.942528735632,4,1,0,80,0,0
121030,-113.636363636364,4,1,0,80,0,0
121180,-112.359550561798,4,1,0,80,0,0
121330,-111.111111111111,4,1,0,80,0,0
121480,-109.89010989011,4,1,0,80,0,0
121630,-108.695652173913,4,1,0,80,0,0
121780,-107.52688172043,4,1,0,80,0,0
121930,-106.382978723404,4,1,0,80,0,0
122080,-105.263157894737,4,1,0,80,0,0
122230,-104.166666666667,4,1,0,80,0,0
122380,-103.092783505155,4,1,0,83,0,0
122455,-102.040816326531,4,1,0,83,0,0
122530,-101.010101010101,4,1,0,83,0,0
122605,-100,4,1,0,83,0,0
122680,-99.009900990099,4,1,0,83,0,0
122755,-98.0392156862745,4,1,0,83,0,0
122830,-97.0873786407767,4,1,0,83,0,0
122905,-96.1538461538461,4,1,0,83,0,0
122980,-95.2380952380952,4,1,0,83,0,0
123055,-94.3396226415094,4,1,0,83,0,0
123130,-93.4579439252336,4,1,0,83,0,0
123205,-92.5925925925926,4,1,0,83,0,0
123280,-91.743119266055,4,1,0,83,0,0
123355,-90.9090909090909,4,1,0,83,0,0
123430,-90.0900900900901,4,1,0,83,0,0
123505,-89.2857142857143,4,1,0,83,0,0
123580,-88.4955752212389,4,1,0,83,0,0
123730,-86.9565217391304,4,1,0,50,0,0
123805,-86.2068965517241,4,1,0,50,0,0
123955,-84.7457627118644,4,1,0,50,0,0
124030,-84.0336134453781,4,1,0,50,0,0
124105,-83.3333333333333,4,1,0,50,0,0
124180,-82.6446280991736,4,1,0,50,0,0
124330,-81.3008130081301,4,1,0,50,0,0
124405,-80.6451612903226,4,1,0,50,0,0
124630,-100,4,1,0,85,0,0
124780,-100,4,1,0,90,0,0
124805,-100,4,1,0,90,0,1
141580,-100,4,1,0,85,0,1
141605,-100,4,1,0,85,0,0
143405,-111.111111111111,4,1,0,80,0,0
143555,-108.695652173913,4,1,0,80,0,0
143705,-106.382978723404,4,1,0,80,0,0
143855,-104.166666666667,4,1,0,80,0,0
143980,-102.040816326531,4,1,0,90,0,0
144005,-100,4,1,0,90,0,1
163205,-100,4,1,0,90,0,0
163230,-100,4,1,0,70,0,0
163780,-100,4,1,0,65,0,0
164380,-111.111111111111,4,1,0,60,0,0
165580,-125,4,1,0,55,0,0
166780,-133.333333333333,4,1,0,55,0,0
166930,-133.333333333333,4,1,0,53,0,0
167080,-133.333333333333,4,1,0,51,0,0
167230,-133.333333333333,4,1,0,49,0,0
167380,-133.333333333333,4,1,0,47,0,0
167530,-133.333333333333,4,1,0,45,0,0
167680,-133.333333333333,4,1,0,43,0,0
167980,-105.263157894737,4,1,0,70,0,0
177580,-100,4,1,0,75,0,0
195605,-101.010101010101,4,1,0,75,0,0
195755,-102.040816326531,4,1,0,75,0,0
195905,-103.092783505155,4,1,0,75,0,0
195980,-104.166666666667,4,1,0,75,0,0
196055,-105.263157894737,4,1,0,75,0,0
196205,-106.382978723404,4,1,0,75,0,0
196280,-107.52688172043,4,1,0,75,0,0
196355,-108.695652173913,4,1,0,75,0,0
196505,-109.89010989011,4,1,0,75,0,0
196655,-111.111111111111,4,1,0,75,0,0
196805,-112.359550561798,4,1,0,80,0,0
196830,-112.359550561798,4,1,0,50,0,0
197980,-117.647058823529,4,1,0,50,0,0
199180,-121.951219512195,4,1,0,50,0,0
200380,-126.582278481013,4,1,0,50,0,0
201580,-129.87012987013,4,1,0,50,0,0
202780,-131.578947368421,4,1,0,50,0,0
203980,-133.333333333333,4,1,0,50,0,0
205180,-133.333333333333,4,1,0,60,0,0
206380,-133.333333333333,4,1,0,80,0,0
206405,-125,4,1,0,80,0,1
206430,-125,4,1,0,70,0,1
208180,-123.456790123457,4,1,0,71,0,1
208330,-121.951219512195,4,1,0,72,0,1
208480,-120.481927710843,4,1,0,73,0,1
208630,-119.047619047619,4,1,0,74,0,1
208780,-117.647058823529,4,1,0,75,0,1
210580,-116.279069767442,4,1,0,76,0,1
210655,-114.942528735632,4,1,0,77,0,1
210730,-113.636363636364,4,1,0,78,0,1
211030,-112.359550561798,4,1,0,79,0,1
211180,-111.111111111111,4,1,0,80,0,1
215105,-109.89010989011,4,1,0,80,0,0
215280,-109.89010989011,4,1,0,70,0,0
215980,-109.89010989011,4,1,0,90,0,0
216005,-95.2380952380952,4,1,0,90,0,1
234580,-95.2380952380952,4,1,0,88,0,1
234730,-96.1538461538461,4,1,0,86,0,1
234880,-97.0873786407767,4,1,0,84,0,1
235030,-98.0392156862745,4,1,0,82,0,1
235105,-99.009900990099,4,1,0,81,0,1
235180,-100,4,1,0,80,0,1
235205,-100,4,1,0,80,0,0
235355,-100,4,1,0,78,0,0
235480,-100,4,1,0,76,0,0
235630,-100,4,1,0,74,0,0
235705,-100,4,1,0,73,0,0
235780,-100,4,1,0,72,0,0
235930,-100,4,1,0,71,0,0
236080,-100,4,1,0,70,0,0
236230,-100,4,1,0,70,0,0
236305,-100,4,1,0,70,0,0
236380,-100,4,1,0,70,0,0
243580,-125,4,1,0,80,0,0
244780,-105.263157894737,4,1,0,65,0,0
249630,-108.695652173913,4,1,0,62,0,0
250530,-112.359550561798,4,1,0,59,0,0
252025,-116.279069767442,4,1,0,56,0,0
254380,-116.279069767442,4,1,0,80,0,0
254430,-116.279069767442,4,1,0,60,0,0

[HitObjects]
256,192,19205,5,4,0:0:0:0:
256,192,19505,1,2,0:0:0:0:
256,192,19805,1,0,0:0:0:0:
256,192,19955,1,0,0:0:0:0:
256,192,20105,1,2,0:0:0:0:
256,192,20405,1,2,0:0:0:0:
256,192,20705,1,0,0:0:0:0:
256,192,21005,1,2,0:0:0:0:
256,192,21155,1,2,0:0:0:0:
256,192,21305,1,0,0:0:0:0:
256,192,21605,1,2,0:0:0:0:
256,192,21905,1,0,0:0:0:0:
256,192,22205,1,2,0:0:0:0:
256,192,22355,1,0,0:0:0:0:
256,192,22505,1,2,0:0:0:0:
256,192,22805,1,2,0:0:0:0:
256,192,22955,1,2,0:0:0:0:
256,192,23105,1,0,0:0:0:0:
256,192,23255,1,2,0:0:0:0:
256,192,23405,1,0,0:0:0:0:
256,192,23555,1,0,0:0:0:0:
256,192,23705,1,2,0:0:0:0:
256,192,24005,1,0,0:0:0:0:
256,192,24305,1,2,0:0:0:0:
256,192,24605,1,0,0:0:0:0:
256,192,24755,1,0,0:0:0:0:
256,192,24905,1,2,0:0:0:0:
256,192,25205,1,2,0:0:0:0:
256,192,25505,1,0,0:0:0:0:
256,192,25805,1,2,0:0:0:0:
256,192,25955,1,2,0:0:0:0:
256,192,26105,1,0,0:0:0:0:
256,192,26405,1,2,0:0:0:0:
256,192,26705,1,0,0:0:0:0:
256,192,26855,1,0,0:0:0:0:
256,192,27005,1,2,0:0:0:0:
256,192,27155,1,0,0:0:0:0:
256,192,27305,1,2,0:0:0:0:
256,192,27605,1,2,0:0:0:0:
256,192,27755,1,2,0:0:0:0:
256,192,27905,1,0,0:0:0:0:
256,192,28055,1,0,0:0:0:0:
256,192,28205,1,2,0:0:0:0:
256,192,28430,1,2,0:0:0:0:
256,192,28655,1,2,0:0:0:0:
256,192,28730,1,2,0:0:0:0:
256,192,28805,1,0,0:0:0:0:
256,192,29105,1,2,0:0:0:0:
256,192,29255,1,2,0:0:0:0:
256,192,29405,1,0,0:0:0:0:
256,192,29555,1,0,0:0:0:0:
256,192,29705,1,2,0:0:0:0:
256,192,30005,1,2,0:0:0:0:
256,192,30155,1,2,0:0:0:0:
256,192,30305,1,0,0:0:0:0:
256,192,30455,1,2,0:0:0:0:
256,192,30605,1,0,0:0:0:0:
256,192,30755,1,0,0:0:0:0:
256,192,30905,1,2,0:0:0:0:
256,192,31205,1,2,0:0:0:0:
256,192,31505,1,0,0:0:0:0:
256,192,31655,1,2,0:0:0:0:
256,192,31805,1,2,0:0:0:0:
256,192,31955,1,0,0:0:0:0:
256,192,32105,1,2,0:0:0:0:
256,192,32405,1,2,0:0:0:0:
256,192,32555,1,2,0:0:0:0:
256,192,32705,1,0,0:0:0:0:
256,192,32855,1,2,0:0:0:0:
256,192,33005,1,0,0:0:0:0:
256,192,33155,1,0,0:0:0:0:
256,192,33455,1,2,0:0:0:0:
256,192,33605,1,0,0:0:0:0:
256,192,33905,1,2,0:0:0:0:
256,192,34055,1,0,0:0:0:0:
256,192,34205,1,0,0:0:0:0:
256,192,34355,1,0,0:0:0:0:
256,192,34505,1,2,0:0:0:0:
256,192,34805,1,2,0:0:0:0:
256,192,34955,1,2,0:0:0:0:
256,192,35105,1,0,0:0:0:0:
256,192,35255,1,2,0:0:0:0:
256,192,35405,1,0,0:0:0:0:
256,192,35555,1,0,0:0:0:0:
256,192,35705,1,2,0:0:0:0:
256,192,35855,1,0,0:0:0:0:
256,192,36005,1,2,0:0:0:0:
256,192,36305,1,2,0:0:0:0:
256,192,36455,1,0,0:0:0:0:
256,192,36605,1,0,0:0:0:0:
256,192,36755,1,2,0:0:0:0:
256,192,36905,1,2,0:0:0:0:
256,192,37205,5,2,0:0:0:0:
256,192,37355,1,2,0:0:0:0:
256,192,37505,1,0,0:0:0:0:
256,192,37655,1,0,0:0:0:0:
256,192,37955,1,2,0:0:0:0:
256,192,38105,1,0,0:0:0:0:
256,192,38405,1,4,0:0:0:0:
256,192,38705,1,2,0:0:0:0:
256,192,39005,1,0,0:0:0:0:
256,192,39155,1,2,0:0:0:0:
256,192,39305,1,0,0:0:0:0:
256,192,39455,1,0,0:0:0:0:
256,192,39530,1,0,0:0:0:0:
256,192,39605,1,2,0:0:0:0:
256,192,39755,1,0,0:0:0:0:
256,192,39905,1,2,0:0:0:0:
256,192,40055,1,2,0:0:0:0:
256,192,40205,1,0,0:0:0:0:
256,192,40355,1,2,0:0:0:0:
256,192,40505,1,0,0:0:0:0:
256,192,40805,1,0,0:0:0:0:
256,192,40955,1,2,0:0:0:0:
256,192,41105,1,0,0:0:0:0:
256,192,41180,1,0,0:0:0:0:
256,192,41255,1,0,0:0:0:0:
256,192,41405,1,0,0:0:0:0:
256,192,41555,1,2,0:0:0:0:
256,192,41705,1,0,0:0:0:0:
256,192,41855,1,0,0:0:0:0:
256,192,41930,1,2,0:0:0:0:
256,192,42005,1,2,0:0:0:0:
256,192,42155,1,0,0:0:0:0:
256,192,42305,1,2,0:0:0:0:
256,192,42455,1,2,0:0:0:0:
256,192,42605,1,0,0:0:0:0:
256,192,42755,1,2,0:0:0:0:
256,192,42905,1,0,0:0:0:0:
256,192,43205,1,6,0:0:0:0:
256,192,43655,1,6,0:0:0:0:
256,192,44105,1,4,0:0:0:0:
256,192,44255,12,4,45305,0:0:0:0:
255,192,45605,5,4,0:0:0:0:
255,192,45905,1,2,0:0:0:0:
255,192,46055,1,2,0:0:0:0:
255,192,46130,1,2,0:0:0:0:
255,192,46205,1,0,0:0:0:0:
255,192,46355,1,0,0:0:0:0:
255,192,46505,1,2,0:0:0:0:
255,192,46655,1,0,0:0:0:0:
255,192,46805,1,2,0:0:0:0:
255,192,46880,1,2,0:0:0:0:
255,192,46955,1,2,0:0:0:0:
255,192,47105,1,2,0:0:0:0:
255,192,47255,1,0,0:0:0:0:
255,192,47405,1,2,0:0:0:0:
255,192,47555,1,0,0:0:0:0:
255,192,47630,1,0,0:0:0:0:
255,192,47705,1,2,0:0:0:0:
255,192,48005,1,0,0:0:0:0:
255,192,48155,1,2,0:0:0:0:
255,192,48230,1,2,0:0:0:0:
255,192,48305,1,0,0:0:0:0:
255,192,48455,1,2,0:0:0:0:
255,192,48605,1,0,0:0:0:0:
255,192,48755,1,2,0:0:0:0:
255,192,48830,1,2,0:0:0:0:
255,192,48905,1,0,0:0:0:0:
255,192,49055,1,0,0:0:0:0:
255,192,49205,1,2,0:0:0:0:
255,192,49280,1,2,0:0:0:0:
255,192,49355,1,2,0:0:0:0:
255,192,49505,1,2,0:0:0:0:
255,192,49655,1,0,0:0:0:0:
255,192,49805,1,2,0:0:0:0:
255,192,49955,1,2,0:0:0:0:
255,192,50105,1,0,0:0:0:0:
255,192,50405,1,0,0:0:0:0:
255,192,50555,1,2,0:0:0:0:
255,192,50705,1,0,0:0:0:0:
318,222,50780,1,0,0:0:0:0:
255,192,50855,1,0,0:0:0:0:
255,192,51005,1,2,0:0:0:0:
255,192,51155,1,2,0:0:0:0:
255,192,51305,1,0,0:0:0:0:
255,192,51455,1,2,0:0:0:0:
255,192,51530,1,2,0:0:0:0:
255,192,51605,1,0,0:0:0:0:
255,192,51755,1,2,0:0:0:0:
255,192,51905,1,2,0:0:0:0:
255,192,52055,1,0,0:0:0:0:
255,192,52205,1,2,0:0:0:0:
255,192,52355,1,2,0:0:0:0:
255,192,52505,1,0,0:0:0:0:
255,192,52655,1,2,0:0:0:0:
255,192,52805,1,4,0:0:0:0:
238,170,57305,1,0,0:0:0:0:
238,170,57605,1,0,0:0:0:0:
238,170,57905,1,2,0:0:0:0:
238,170,58205,1,0,0:0:0:0:
238,170,58355,1,0,0:0:0:0:
238,170,58505,1,2,0:0:0:0:
355,264,58805,1,0,0:0:0:0:
238,170,59105,1,2,0:0:0:0:
238,170,59255,1,0,0:0:0:0:
238,170,59405,1,0,0:0:0:0:
322,272,59555,1,2,0:0:0:0:
238,170,59705,1,2,0:0:0:0:
238,170,60005,1,0,0:0:0:0:
238,170,60305,1,2,0:0:0:0:
361,218,60455,1,2,0:0:0:0:
238,170,60605,1,0,0:0:0:0:
238,170,60905,1,2,0:0:0:0:
240,168,61205,1,0,0:0:0:0:
325,268,61355,1,0,0:0:0:0:
238,170,61505,1,2,0:0:0:0:
325,268,61655,1,2,0:0:0:0:
324,244,61805,1,0,0:0:0:0:
238,170,62105,1,2,0:0:0:0:
238,170,62255,1,0,0:0:0:0:
238,170,62405,1,0,0:0:0:0:
238,170,62705,1,2,0:0:0:0:
238,170,63005,1,0,0:0:0:0:
238,169,63155,1,0,0:0:0:0:
238,170,63305,1,2,0:0:0:0:
238,170,63605,1,0,0:0:0:0:
238,170,63905,1,2,0:0:0:0:
238,169,64055,1,2,0:0:0:0:
238,170,64205,1,0,0:0:0:0:
238,170,64355,1,0,0:0:0:0:
238,170,64505,1,2,0:0:0:0:
238,170,64805,1,0,0:0:0:0:
238,170,65105,1,2,0:0:0:0:
238,170,65405,1,0,0:0:0:0:
238,170,65705,1,2,0:0:0:0:
238,170,66005,1,0,0:0:0:0:
238,170,66155,1,2,0:0:0:0:
238,170,66305,1,2,0:0:0:0:
238,170,66455,1,2,0:0:0:0:
238,170,66605,1,0,0:0:0:0:
238,170,66755,1,0,0:0:0:0:
238,170,66905,1,2,0:0:0:0:
238,170,67055,1,0,0:0:0:0:
238,170,67205,1,4,0:0:0:0:
238,170,67505,1,2,0:0:0:0:
238,170,67805,1,0,0:0:0:0:
238,170,67955,1,0,0:0:0:0:
238,170,68105,1,2,0:0:0:0:
238,170,68255,1,2,0:0:0:0:
104,164,68405,1,0,0:0:0:0:
238,170,68705,1,2,0:0:0:0:
238,170,68855,1,0,0:0:0:0:
238,170,69005,1,0,0:0:0:0:
238,170,69155,1,2,0:0:0:0:
238,170,69305,1,2,0:0:0:0:
238,170,69455,1,2,0:0:0:0:
238,170,69605,1,0,0:0:0:0:
238,170,69905,1,2,0:0:0:0:
238,170,70055,1,2,0:0:0:0:
238,170,70205,1,0,0:0:0:0:
238,170,70355,1,2,0:0:0:0:
238,170,70505,1,2,0:0:0:0:
238,170,70805,1,0,0:0:0:0:
238,170,70955,1,2,0:0:0:0:
238,170,71105,1,2,0:0:0:0:
238,170,71255,1,0,0:0:0:0:
238,170,71405,1,0,0:0:0:0:
238,170,71555,1,2,0:0:0:0:
238,170,71855,1,2,0:0:0:0:
238,170,72005,1,0,0:0:0:0:
238,170,72155,1,2,0:0:0:0:
238,170,72305,1,2,0:0:0:0:
238,170,72455,1,0,0:0:0:0:
238,170,72605,1,0,0:0:0:0:
238,170,72755,1,2,0:0:0:0:
238,170,72905,1,2,0:0:0:0:
238,170,73055,1,2,0:0:0:0:
238,170,73205,1,0,0:0:0:0:
238,170,73505,1,2,0:0:0:0:
238,170,73655,1,0,0:0:0:0:
238,170,73805,1,2,0:0:0:0:
238,170,73955,1,2,0:0:0:0:
238,170,74105,1,0,0:0:0:0:
238,170,74255,1,2,0:0:0:0:
238,170,74405,1,0,0:0:0:0:
238,170,74555,1,0,0:0:0:0:
238,170,74705,1,2,0:0:0:0:
238,170,75005,1,2,0:0:0:0:
238,170,75155,1,0,0:0:0:0:
238,170,75305,1,2,0:0:0:0:
238,170,75605,1,2,0:0:0:0:
238,170,75755,1,0,0:0:0:0:
238,170,75905,1,2,0:0:0:0:
238,170,76055,1,2,0:0:0:0:
238,170,76205,1,0,0:0:0:0:
238,170,76355,1,0,0:0:0:0:
238,170,76505,1,0,0:0:0:0:
238,170,76580,1,0,0:0:0:0:
238,170,76655,1,0,0:0:0:0:
238,170,76805,1,4,0:0:0:0:
238,170,77105,1,2,0:0:0:0:
238,170,77255,1,0,0:0:0:0:
238,170,77405,1,2,0:0:0:0:
238,170,77480,1,2,0:0:0:0:
238,170,77555,1,0,0:0:0:0:
238,170,77705,1,2,0:0:0:0:
238,170,77855,1,2,0:0:0:0:
238,170,78005,1,0,0:0:0:0:
238,170,78305,1,2,0:0:0:0:
238,170,78455,1,0,0:0:0:0:
238,170,78530,1,0,0:0:0:0:
238,170,78605,1,2,0:0:0:0:
238,170,78755,1,0,0:0:0:0:
238,170,78905,1,2,0:0:0:0:
238,170,79055,1,2,0:0:0:0:
238,170,79205,1,0,0:0:0:0:
238,170,79505,1,2,0:0:0:0:
238,170,79655,1,0,0:0:0:0:
238,170,79805,1,2,0:0:0:0:
238,170,79955,1,0,0:0:0:0:
238,170,80030,1,0,0:0:0:0:
238,170,80105,1,2,0:0:0:0:
238,170,80255,1,2,0:0:0:0:
238,170,80405,1,0,0:0:0:0:
238,170,80555,1,0,0:0:0:0:
238,170,80705,1,2,0:0:0:0:
238,170,80855,1,0,0:0:0:0:
238,170,81005,1,0,0:0:0:0:
238,170,81155,1,2,0:0:0:0:
238,170,81230,1,2,0:0:0:0:
238,170,81305,1,2,0:0:0:0:
238,170,81455,1,2,0:0:0:0:
238,170,81605,1,0,0:0:0:0:
238,170,81905,1,0,0:0:0:0:
238,170,82055,1,2,0:0:0:0:
238,170,82205,1,2,0:0:0:0:
238,170,82280,1,2,0:0:0:0:
238,170,82355,1,0,0:0:0:0:
238,170,82505,1,2,0:0:0:0:
238,170,82655,1,2,0:0:0:0:
238,170,82805,1,0,0:0:0:0:
238,170,83105,1,2,0:0:0:0:
238,170,83255,1,0,0:0:0:0:
238,170,83405,1,2,0:0:0:0:
238,170,83480,1,2,0:0:0:0:
238,170,83555,1,0,0:0:0:0:
238,170,83705,1,2,0:0:0:0:
238,170,83855,1,2,0:0:0:0:
238,170,84005,1,0,0:0:0:0:
238,170,84305,1,2,0:0:0:0:
238,170,84455,1,2,0:0:0:0:
238,170,84605,1,0,0:0:0:0:
238,170,84755,1,2,0:0:0:0:
238,170,84830,1,2,0:0:0:0:
238,170,84905,1,0,0:0:0:0:
238,170,84980,1,0,0:0:0:0:
238,170,85055,1,2,0:0:0:0:
238,170,85205,1,0,0:0:0:0:
238,170,85355,1,0,0:0:0:0:
238,170,85505,1,2,0:0:0:0:
238,170,85655,1,0,0:0:0:0:
238,170,85730,1,0,0:0:0:0:
238,170,85805,1,2,0:0:0:0:
238,170,85955,1,0,0:0:0:0:
238,170,86105,1,2,0:0:0:0:
238,170,86255,1,2,0:0:0:0:
238,170,86330,1,2,0:0:0:0:
238,170,86405,1,0,0:0:0:0:
238,170,86705,1,2,0:0:0:0:
238,170,86855,1,0,0:0:0:0:
238,170,87005,1,2,0:0:0:0:
238,170,87080,1,2,0:0:0:0:
238,170,87155,1,0,0:0:0:0:
238,170,87305,1,2,0:0:0:0:
238,170,87455,1,2,0:0:0:0:
238,170,87605,1,0,0:0:0:0:
272,189,87680,1,0,0:0:0:0:
238,170,87755,1,0,0:0:0:0:
238,170,87905,1,2,0:0:0:0:
238,170,88055,1,0,0:0:0:0:
238,170,88205,1,2,0:0:0:0:
238,170,88355,1,0,0:0:0:0:
238,170,88430,1,0,0:0:0:0:
238,170,88505,1,2,0:0:0:0:
238,170,88655,1,2,0:0:0:0:
238,170,88805,1,0,0:0:0:0:
238,170,89105,1,2,0:0:0:0:
238,170,89180,1,2,0:0:0:0:
238,170,89255,1,2,0:0:0:0:
238,170,89405,1,0,0:0:0:0:
238,170,89555,1,2,0:0:0:0:
238,170,89630,1,2,0:0:0:0:
238,170,89705,1,0,0:0:0:0:
238,170,89855,1,2,0:0:0:0:
238,170,90005,1,0,0:0:0:0:
238,170,90155,1,0,0:0:0:0:
238,170,90305,1,2,0:0:0:0:
238,170,90455,1,0,0:0:0:0:
238,170,90605,1,2,0:0:0:0:
238,170,90755,1,2,0:0:0:0:
238,170,90830,1,2,0:0:0:0:
238,170,90905,1,0,0:0:0:0:
238,170,91055,1,2,0:0:0:0:
238,170,91205,1,0,0:0:0:0:
238,170,91505,1,2,0:0:0:0:
238,170,91655,1,2,0:0:0:0:
238,170,91805,1,0,0:0:0:0:
238,170,91955,1,2,0:0:0:0:
238,170,92105,1,0,0:0:0:0:
238,170,92180,1,2,0:0:0:0:
238,170,92255,1,2,0:0:0:0:
238,170,92405,1,0,0:0:0:0:
238,170,92705,1,2,0:0:0:0:
238,170,92855,1,0,0:0:0:0:
238,170,93005,1,0,0:0:0:0:
238,170,93155,1,2,0:0:0:0:
238,170,93305,1,0,0:0:0:0:
238,170,93380,1,0,0:0:0:0:
238,170,93455,1,2,0:0:0:0:
238,170,93605,1,0,0:0:0:0:
238,170,93755,1,2,0:0:0:0:
238,170,93905,1,0,0:0:0:0:
238,170,94055,1,0,0:0:0:0:
238,170,94205,1,2,0:0:0:0:
238,170,94355,1,2,0:0:0:0:
238,170,94505,1,0,0:0:0:0:
238,170,94805,1,0,0:0:0:0:
238,170,94955,1,0,0:0:0:0:
238,170,95105,1,0,0:0:0:0:
238,170,95255,1,0,0:0:0:0:
238,170,95405,1,2,0:0:0:0:
238,170,95555,1,0,0:0:0:0:
238,170,95705,1,2,0:0:0:0:
238,170,95780,1,2,0:0:0:0:
238,170,95855,1,2,0:0:0:0:
238,170,96005,1,4,0:0:0:0:
248,264,105605,5,4,0:0:0:0:
120,236,105755,1,0,0:0:0:0:
248,264,105905,1,2,0:0:0:0:
196,252,106205,1,0,0:0:0:0:
196,252,106355,1,0,0:0:0:0:
223,203,106430,1,0,0:0:0:0:
224,304,106505,1,2,0:0:0:0:
100,76,106805,1,0,0:0:0:0:
156,176,106955,1,0,0:0:0:0:
195,228,107030,1,0,0:0:0:0:
216,292,107105,1,2,0:0:0:0:
200,336,107405,1,0,0:0:0:0:
200,336,107555,1,0,0:0:0:0:
199,280,107630,1,0,0:0:0:0:
152,288,107705,1,2,0:0:0:0:
196,40,108005,1,0,0:0:0:0:
180,140,108155,1,0,0:0:0:0:
205,198,108230,1,0,0:0:0:0:
160,248,108305,1,2,0:0:0:0:
160,248,108605,1,0,0:0:0:0:
160,248,108755,1,0,0:0:0:0:
213,269,108830,1,0,0:0:0:0:
160,248,108905,1,2,0:0:0:0:
176,264,109205,1,0,0:0:0:0:
176,264,109355,1,0,0:0:0:0:
176,264,109505,1,2,0:0:0:0:
176,264,109655,1,0,0:0:0:0:
160,248,109805,1,0,0:0:0:0:
176,264,109955,1,2,0:0:0:0:
176,264,110255,1,2,0:0:0:0:
176,264,110405,1,0,0:0:0:0:
176,264,110480,1,0,0:0:0:0:
176,264,110555,1,0,0:0:0:0:
176,264,110705,1,2,0:0:0:0:
176,264,111005,1,0,0:0:0:0:
176,264,111155,1,2,0:0:0:0:
40,36,111455,1,0,0:0:0:0:
176,264,111605,1,2,0:0:0:0:
176,264,111905,1,2,0:0:0:0:
176,264,112055,1,2,0:0:0:0:
156,244,112355,1,2,0:0:0:0:
156,244,112505,1,2,0:0:0:0:
156,244,112805,1,0,0:0:0:0:
156,244,112955,1,2,0:0:0:0:
156,244,113405,1,0,0:0:0:0:
156,244,113555,1,2,0:0:0:0:
156,244,114005,1,0,0:0:0:0:
112,360,114155,1,0,0:0:0:0:
196,136,114455,1,0,0:0:0:0:
148,264,114755,1,0,0:0:0:0:
148,264,114905,1,2,0:0:0:0:
148,264,115205,1,4,0:0:0:0:
372,180,115505,1,2,0:0:0:0:
272,192,115655,1,2,0:0:0:0:
244,312,115805,1,0,0:0:0:0:
100,88,116105,1,2,0:0:0:0:
244,312,116405,1,0,0:0:0:0:
376,80,116705,1,2,0:0:0:0:
312,192,116855,1,2,0:0:0:0:
248,308,117005,1,0,0:0:0:0:
204,44,117305,1,2,0:0:0:0:
288,296,117605,1,0,0:0:0:0:
212,40,117905,1,2,0:0:0:0:
292,148,118055,1,2,0:0:0:0:
408,216,118205,1,0,0:0:0:0:
140,204,118505,1,2,0:0:0:0:
400,252,118805,1,0,0:0:0:0:
136,212,119105,1,2,0:0:0:0:
396,268,119405,1,0,0:0:0:0:
272,224,119555,1,0,0:0:0:0:
136,212,119705,1,2,0:0:0:0:
396,164,120005,1,2,0:0:0:0:
264,188,120155,1,2,0:0:0:0:
264,188,120305,1,0,0:0:0:0:
264,188,120455,1,0,0:0:0:0:
264,188,120605,1,2,0:0:0:0:
256,320,120755,1,0,0:0:0:0:
264,188,120905,1,0,0:0:0:0:
264,188,121055,1,0,0:0:0:0:
264,188,121205,1,2,0:0:0:0:
284,320,121355,1,2,0:0:0:0:
264,192,121505,1,0,0:0:0:0:
264,192,121655,1,0,0:0:0:0:
252,324,121805,1,2,0:0:0:0:
268,192,121955,1,0,0:0:0:0:
268,192,122105,1,0,0:0:0:0:
136,204,122255,1,0,0:0:0:0:
264,172,122405,1,2,0:0:0:0:
232,232,122480,1,2,0:0:0:0:
264,172,122555,1,0,0:0:0:0:
264,172,122705,1,2,0:0:0:0:
232,232,122780,1,2,0:0:0:0:
264,172,122855,1,0,0:0:0:0:
264,172,123005,1,2,0:0:0:0:
232,232,123080,1,2,0:0:0:0:
264,176,123155,1,0,0:0:0:0:
264,172,123305,1,2,0:0:0:0:
236,232,123380,1,2,0:0:0:0:
264,172,123455,1,2,0:0:0:0:
256,192,123605,12,0,124505,0:0:0:0:
280,236,124805,5,6,0:0:0:0:
88,176,125030,1,0,0:0:0:0:
152,196,125105,1,2,0:0:0:0:
280,232,125255,1,0,0:0:0:0:
280,232,125405,1,2,0:0:0:0:
176,148,125555,1,0,0:0:0:0:
216,212,125630,1,0,0:0:0:0:
276,236,125705,1,2,0:0:0:0:
272,236,125855,1,0,0:0:0:0:
176,140,126005,1,2,0:0:0:0:
220,192,126080,1,2,0:0:0:0:
264,244,126155,1,0,0:0:0:0:
176,144,126305,1,2,0:0:0:0:
236,264,126455,1,0,0:0:0:0:
208,204,126530,1,0,0:0:0:0:
240,264,126605,1,2,0:0:0:0:
268,320,126755,1,2,0:0:0:0:
246,182,126905,1,0,0:0:0:0:
151,149,127055,1,0,0:0:0:0:
235,259,127205,1,2,0:0:0:0:
340,284,127430,1,0,0:0:0:0:
228,216,127505,1,2,0:0:0:0:
344,256,127655,1,0,0:0:0:0:
228,216,127805,1,2,0:0:0:0:
228,216,127880,1,2,0:0:0:0:
248,280,127955,1,0,0:0:0:0:
260,148,128105,1,2,0:0:0:0:
128,176,128255,1,0,0:0:0:0:
196,172,128330,1,0,0:0:0:0:
256,148,128405,1,2,0:0:0:0:
264,280,128555,1,2,0:0:0:0:
256,144,128705,1,0,0:0:0:0:
256,148,128855,1,2,0:0:0:0:
256,148,129005,1,0,0:0:0:0:
256,148,129155,1,2,0:0:0:0:
256,148,129230,1,2,0:0:0:0:
244,196,129305,1,0,0:0:0:0:
244,196,129455,1,0,0:0:0:0:
380,188,129605,1,2,0:0:0:0:
180,176,129830,1,0,0:0:0:0:
244,196,129905,1,2,0:0:0:0:
248,168,130055,1,0,0:0:0:0:
248,168,130205,1,2,0:0:0:0:
148,340,130280,1,2,0:0:0:0:
12,288,130355,1,0,0:0:0:0:
132,228,130505,1,2,0:0:0:0:
227,300,130805,1,2,0:0:0:0:
484,40,130955,1,0,0:0:0:0:
368,104,131105,1,2,0:0:0:0:
324,160,131180,1,2,0:0:0:0:
252,168,131255,1,0,0:0:0:0:
212,236,131405,1,2,0:0:0:0:
16,288,131555,1,0,0:0:0:0:
252,168,131630,1,0,0:0:0:0:
136,228,131705,1,2,0:0:0:0:
252,168,131855,1,0,0:0:0:0:
144,244,132005,1,2,0:0:0:0:
308,132,132230,1,0,0:0:0:0:
144,244,132305,1,2,0:0:0:0:
264,188,132455,1,2,0:0:0:0:
144,248,132605,1,0,0:0:0:0:
108,264,132680,1,0,0:0:0:0:
144,244,132755,1,2,0:0:0:0:
144,244,132905,1,2,0:0:0:0:
144,244,133055,1,0,0:0:0:0:
144,244,133205,1,2,0:0:0:0:
256,192,133355,1,0,0:0:0:0:
188,184,133430,1,0,0:0:0:0:
188,184,133505,1,2,0:0:0:0:
188,184,133805,1,2,0:0:0:0:
144,244,134105,1,2,0:0:0:0:
144,244,134405,1,2,0:0:0:0:
256,192,134555,1,2,0:0:0:0:
256,192,134705,1,2,0:0:0:0:
256,192,134855,1,0,0:0:0:0:
256,192,135005,1,2,0:0:0:0:
256,192,135155,1,0,0:0:0:0:
256,192,135230,1,0,0:0:0:0:
256,192,135305,1,2,0:0:0:0:
256,192,135455,1,0,0:0:0:0:
256,192,135605,1,2,0:0:0:0:
256,192,135755,1,0,0:0:0:0:
226,235,135830,1,0,0:0:0:0:
256,192,135905,1,2,0:0:0:0:
256,192,136055,1,0,0:0:0:0:
256,192,136205,1,2,0:0:0:0:
256,192,136355,1,2,0:0:0:0:
221,184,136655,1,0,0:0:0:0:
256,192,136805,1,2,0:0:0:0:
256,192,136955,1,2,0:0:0:0:
256,192,137105,1,2,0:0:0:0:
256,192,137255,1,0,0:0:0:0:
148,268,137405,1,2,0:0:0:0:
200,228,137555,1,0,0:0:0:0:
200,228,137705,1,2,0:0:0:0:
256,192,137855,1,2,0:0:0:0:
200,228,137930,1,2,0:0:0:0:
240,324,138005,1,2,0:0:0:0:
196,200,138155,1,0,0:0:0:0:
256,192,138305,1,2,0:0:0:0:
212,240,138380,1,2,0:0:0:0:
168,292,138455,1,0,0:0:0:0:
212,240,138605,1,2,0:0:0:0:
212,240,138755,1,0,0:0:0:0:
270,120,138905,1,0,0:0:0:0:
212,240,139055,1,2,0:0:0:0:
252,240,139205,1,2,0:0:0:0:
68,316,139430,1,0,0:0:0:0:
100,254,139505,1,2,0:0:0:0:
236,132,139655,1,0,0:0:0:0:
252,256,139805,1,2,0:0:0:0:
252,256,139955,1,0,0:0:0:0:
252,256,140030,1,0,0:0:0:0:
248,208,140105,1,2,0:0:0:0:
220,336,140255,1,0,0:0:0:0:
248,208,140405,1,2,0:0:0:0:
252,256,140630,1,0,0:0:0:0:
248,208,140705,1,2,0:0:0:0:
252,256,140855,1,0,0:0:0:0:
248,208,141005,1,2,0:0:0:0:
252,256,141155,1,0,0:0:0:0:
252,256,141230,1,0,0:0:0:0:
248,208,141305,1,2,0:0:0:0:
248,208,141455,1,2,0:0:0:0:
248,208,141605,1,4,0:0:0:0:
248,208,141905,1,6,0:0:0:0:
252,256,142055,1,4,0:0:0:0:
248,208,142355,1,6,0:0:0:0:
252,256,142505,1,4,0:0:0:0:
248,208,142655,1,6,0:0:0:0:
252,256,142805,1,4,0:0:0:0:
268,340,143405,1,2,0:0:0:0:
244,208,143555,1,2,0:0:0:0:
244,208,143705,1,2,0:0:0:0:
252,272,143855,1,2,0:0:0:0:
248,208,144005,1,4,0:0:0:0:
248,208,144155,1,0,0:0:0:0:
248,208,144230,1,0,0:0:0:0:
248,208,144305,1,2,0:0:0:0:
244,208,144605,1,0,0:0:0:0:
248,208,144755,1,0,0:0:0:0:
248,208,144830,1,0,0:0:0:0:
248,208,144905,1,2,0:0:0:0:
248,208,145205,1,0,0:0:0:0:
244,208,145355,1,0,0:0:0:0:
244,208,145430,1,0,0:0:0:0:
244,208,145505,1,2,0:0:0:0:
248,208,145805,1,0,0:0:0:0:
248,208,145955,1,2,0:0:0:0:
248,208,146105,1,2,0:0:0:0:
244,208,146255,1,2,0:0:0:0:
244,208,146330,1,2,0:0:0:0:
244,208,146405,1,0,0:0:0:0:
248,208,146555,1,0,0:0:0:0:
248,208,146630,1,0,0:0:0:0:
248,208,146705,1,2,0:0:0:0:
244,208,146855,1,2,0:0:0:0:
244,208,147005,1,0,0:0:0:0:
244,208,147155,1,0,0:0:0:0:
248,208,147305,1,2,0:0:0:0:
218,344,147455,1,0,0:0:0:0:
248,208,147530,1,2,0:0:0:0:
248,208,147605,1,0,0:0:0:0:
248,208,147755,1,0,0:0:0:0:
248,208,147905,1,2,0:0:0:0:
244,208,148055,1,0,0:0:0:0:
244,208,148205,1,2,0:0:0:0:
244,208,148280,1,2,0:0:0:0:
248,208,148355,1,2,0:0:0:0:
248,208,148655,1,0,0:0:0:0:
248,208,148805,1,2,0:0:0:0:
244,208,148955,1,0,0:0:0:0:
244,208,149105,1,2,0:0:0:0:
244,208,149180,1,0,0:0:0:0:
248,208,149330,1,0,0:0:0:0:
244,208,149405,1,2,0:0:0:0:
248,208,149555,1,0,0:0:0:0:
248,208,149705,1,2,0:0:0:0:
244,208,150005,1,0,0:0:0:0:
112,196,150155,1,0,0:0:0:0:
232,200,150305,1,2,0:0:0:0:
244,208,150605,1,0,0:0:0:0:
244,208,150755,1,2,0:0:0:0:
244,208,150905,1,2,0:0:0:0:
232,200,151055,1,2,0:0:0:0:
244,208,151130,1,2,0:0:0:0:
244,208,151205,1,0,0:0:0:0:
244,208,151355,1,0,0:0:0:0:
244,208,151505,1,2,0:0:0:0:
244,208,151805,1,0,0:0:0:0:
232,200,151955,1,0,0:0:0:0:
232,200,152030,1,0,0:0:0:0:
244,208,152105,1,2,0:0:0:0:
244,208,152255,1,2,0:0:0:0:
244,208,152405,1,0,0:0:0:0:
244,208,152630,1,2,0:0:0:0:
244,208,152705,1,0,0:0:0:0:
232,200,152855,1,2,0:0:0:0:
232,200,153005,1,0,0:0:0:0:
244,208,153155,1,2,0:0:0:0:
244,208,153230,1,2,0:0:0:0:
244,208,153305,1,2,0:0:0:0:
244,208,153455,1,2,0:0:0:0:
244,208,153605,1,0,0:0:0:0:
244,208,153755,1,0,0:0:0:0:
232,200,153830,1,0,0:0:0:0:
244,208,153905,1,2,0:0:0:0:
244,208,154205,1,0,0:0:0:0:
244,208,154355,1,0,0:0:0:0:
307,237,154430,1,0,0:0:0:0:
244,208,154505,1,2,0:0:0:0:
244,208,154655,1,2,0:0:0:0:
244,208,154805,1,0,0:0:0:0:
244,208,154955,1,0,0:0:0:0:
244,208,155105,1,2,0:0:0:0:
244,208,155405,1,0,0:0:0:0:
244,208,155555,1,2,0:0:0:0:
244,208,155705,1,2,0:0:0:0:
244,208,155855,1,2,0:0:0:0:
244,208,155930,1,2,0:0:0:0:
244,208,156005,1,0,0:0:0:0:
244,208,156155,1,0,0:0:0:0:
244,208,156305,1,2,0:0:0:0:
244,208,156455,1,0,0:0:0:0:
244,208,156530,1,0,0:0:0:0:
244,208,156605,1,0,0:0:0:0:
255,282,156755,1,0,0:0:0:0:
308,224,156905,1,2,0:0:0:0:
244,208,157055,1,2,0:0:0:0:
244,208,157130,1,2,0:0:0:0:
244,208,157205,1,0,0:0:0:0:
244,208,157355,1,0,0:0:0:0:
244,208,157430,1,0,0:0:0:0:
244,208,157505,1,2,0:0:0:0:
244,208,157655,1,2,0:0:0:0:
244,208,157805,1,0,0:0:0:0:
303,245,157880,1,0,0:0:0:0:
244,208,157955,1,2,0:0:0:0:
244,208,158255,1,2,0:0:0:0:
244,208,158405,1,0,0:0:0:0:
244,208,158555,1,0,0:0:0:0:
240,212,158630,1,0,0:0:0:0:
244,208,158705,1,2,0:0:0:0:
108,196,159005,1,0,0:0:0:0:
240,212,159155,1,0,0:0:0:0:
244,208,159230,1,0,0:0:0:0:
240,212,159305,1,2,0:0:0:0:
240,212,159455,1,2,0:0:0:0:
240,212,159605,1,0,0:0:0:0:
240,212,159755,1,0,0:0:0:0:
176,228,159905,1,2,0:0:0:0:
240,212,160205,1,0,0:0:0:0:
240,212,160355,1,2,0:0:0:0:
240,212,160505,1,2,0:0:0:0:
240,212,160655,1,2,0:0:0:0:
240,212,160730,1,2,0:0:0:0:
240,212,160805,1,0,0:0:0:0:
240,212,160955,1,0,0:0:0:0:
240,212,161030,1,0,0:0:0:0:
240,212,161105,1,2,0:0:0:0:
240,212,161255,1,2,0:0:0:0:
240,212,161405,1,0,0:0:0:0:
240,212,161555,1,0,0:0:0:0:
240,212,161705,1,2,0:0:0:0:
252,192,162005,1,4,0:0:0:0:
252,192,162305,1,4,0:0:0:0:
252,192,162455,1,4,0:0:0:0:
252,192,162755,1,4,0:0:0:0:
252,192,162905,1,4,0:0:0:0:
252,192,163205,1,4,0:0:0:0:
256,192,163355,12,6,166655,0:0:0:0:
256,192,166805,12,0,167855,0:0:0:0:
252,192,168005,5,4,0:0:0:0:
252,192,168305,1,2,0:0:0:0:
252,192,168455,1,0,0:0:0:0:
180,304,168605,1,2,0:0:0:0:
248,192,168755,1,0,0:0:0:0:
248,192,168830,1,0,0:0:0:0:
248,192,168905,1,2,0:0:0:0:
248,192,169055,1,2,0:0:0:0:
252,192,169205,1,0,0:0:0:0:
252,192,169355,1,2,0:0:0:0:
248,192,169505,1,0,0:0:0:0:
248,192,169655,1,0,0:0:0:0:
248,192,169805,1,2,0:0:0:0:
248,192,169955,1,0,0:0:0:0:
248,192,170030,1,0,0:0:0:0:
248,192,170105,1,2,0:0:0:0:
252,192,170405,1,0,0:0:0:0:
320,304,170555,1,2,0:0:0:0:
284,248,170630,1,2,0:0:0:0:
252,188,170705,1,2,0:0:0:0:
312,304,170855,1,0,0:0:0:0:
248,192,171005,1,2,0:0:0:0:
248,192,171155,1,0,0:0:0:0:
248,192,171305,1,2,0:0:0:0:
124,144,171455,1,2,0:0:0:0:
240,212,171605,1,0,0:0:0:0:
152,112,171755,1,0,0:0:0:0:
190,162,171830,1,0,0:0:0:0:
228,224,171905,1,2,0:0:0:0:
228,224,172055,1,0,0:0:0:0:
228,224,172205,1,2,0:0:0:0:
228,224,172355,1,0,0:0:0:0:
228,224,172430,1,0,0:0:0:0:
228,224,172505,1,2,0:0:0:0:
228,224,172655,1,2,0:0:0:0:
296,108,172805,1,0,0:0:0:0:
228,224,173105,1,2,0:0:0:0:
228,224,173255,1,0,0:0:0:0:
228,224,173330,1,0,0:0:0:0:
228,224,173405,1,2,0:0:0:0:
228,224,173555,1,2,0:0:0:0:
216,216,173705,1,0,0:0:0:0:
216,216,173855,1,2,0:0:0:0:
228,224,174005,1,0,0:0:0:0:
228,224,174305,1,2,0:0:0:0:
228,224,174455,1,0,0:0:0:0:
228,224,174530,1,0,0:0:0:0:
228,224,174605,1,2,0:0:0:0:
216,216,174755,1,0,0:0:0:0:
228,224,174905,1,2,0:0:0:0:
216,216,175055,1,2,0:0:0:0:
216,216,175205,1,0,0:0:0:0:
216,216,175355,1,0,0:0:0:0:
216,216,175505,1,2,0:0:0:0:
216,216,175655,1,0,0:0:0:0:
216,216,175805,1,2,0:0:0:0:
216,216,175955,1,2,0:0:0:0:
216,216,176105,1,0,0:0:0:0:
216,216,176255,1,2,0:0:0:0:
216,216,176405,1,0,0:0:0:0:
216,216,176555,1,0,0:0:0:0:
216,216,176855,1,0,0:0:0:0:
216,216,177005,1,0,0:0:0:0:
228,184,177305,1,0,0:0:0:0:
216,216,177605,1,6,0:0:0:0:
204,236,177905,1,0,0:0:0:0:
204,236,178055,1,2,0:0:0:0:
204,236,178205,1,0,0:0:0:0:
204,236,178355,1,2,0:0:0:0:
216,216,178430,1,2,0:0:0:0:
216,300,178505,1,0,0:0:0:0:
188,168,178655,1,2,0:0:0:0:
216,296,178805,1,0,0:0:0:0:
192,164,178955,1,2,0:0:0:0:
204,228,179030,1,2,0:0:0:0:
216,292,179105,1,0,0:0:0:0:
200,228,179180,1,0,0:0:0:0:
216,292,179255,1,2,0:0:0:0:
204,236,179405,1,0,0:0:0:0:
204,236,179555,1,0,0:0:0:0:
240,292,179630,1,0,0:0:0:0:
204,236,179705,1,2,0:0:0:0:
204,236,179855,1,2,0:0:0:0:
204,236,180005,1,0,0:0:0:0:
204,236,180305,1,2,0:0:0:0:
204,236,180455,1,0,0:0:0:0:
204,236,180605,1,2,0:0:0:0:
152,360,180755,1,0,0:0:0:0:
216,248,180830,1,0,0:0:0:0:
216,248,180905,1,2,0:0:0:0:
216,248,181055,1,2,0:0:0:0:
96,304,181205,1,0,0:0:0:0:
216,248,181355,1,2,0:0:0:0:
156,276,181430,1,2,0:0:0:0:
156,276,181505,1,0,0:0:0:0:
156,276,181655,1,2,0:0:0:0:
156,276,181805,1,2,0:0:0:0:
156,276,181955,1,0,0:0:0:0:
156,276,182105,1,2,0:0:0:0:
156,276,182180,1,2,0:0:0:0:
156,276,182255,1,2,0:0:0:0:
232,148,182405,1,0,0:0:0:0:
204,236,182705,1,2,0:0:0:0:
204,236,182855,1,0,0:0:0:0:
204,236,183005,1,2,0:0:0:0:
204,236,183155,1,0,0:0:0:0:
216,216,183230,1,0,0:0:0:0:
216,300,183305,1,2,0:0:0:0:
188,168,183455,1,2,0:0:0:0:
216,296,183605,1,0,0:0:0:0:
192,164,183755,1,2,0:0:0:0:
204,228,183830,1,2,0:0:0:0:
216,292,183905,1,0,0:0:0:0:
200,228,183980,1,0,0:0:0:0:
216,292,184055,1,2,0:0:0:0:
204,236,184205,1,0,0:0:0:0:
204,236,184355,1,0,0:0:0:0:
240,292,184430,1,0,0:0:0:0:
204,236,184505,1,2,0:0:0:0:
280,344,184655,1,2,0:0:0:0:
204,236,184805,1,0,0:0:0:0:
204,236,185105,1,2,0:0:0:0:
204,236,185255,1,2,0:0:0:0:
204,236,185405,1,0,0:0:0:0:
152,360,185555,1,2,0:0:0:0:
216,248,185630,1,0,0:0:0:0:
216,248,185705,1,2,0:0:0:0:
216,248,185855,1,2,0:0:0:0:
96,304,186005,1,0,0:0:0:0:
216,248,186155,1,2,0:0:0:0:
156,276,186230,1,2,0:0:0:0:
156,276,186305,1,0,0:0:0:0:
188,216,186455,1,2,0:0:0:0:
156,276,186605,1,0,0:0:0:0:
156,276,186755,1,2,0:0:0:0:
156,276,186830,1,2,0:0:0:0:
156,276,186905,1,2,0:0:0:0:
188,216,187055,1,2,0:0:0:0:
232,148,187205,1,4,0:0:0:0:
204,236,187505,1,0,0:0:0:0:
204,236,187655,1,2,0:0:0:0:
204,236,187805,1,0,0:0:0:0:
204,236,187955,1,0,0:0:0:0:
216,216,188030,1,0,0:0:0:0:
216,300,188105,1,2,0:0:0:0:
188,168,188255,1,2,0:0:0:0:
216,296,188405,1,0,0:0:0:0:
192,164,188555,1,2,0:0:0:0:
200,228,188630,1,2,0:0:0:0:
216,292,188705,1,0,0:0:0:0:
216,292,188780,1,2,0:0:0:0:
216,216,188855,1,2,0:0:0:0:
204,236,189005,1,0,0:0:0:0:
204,236,189155,1,0,0:0:0:0:
240,292,189230,1,0,0:0:0:0:
204,236,189305,1,2,0:0:0:0:
280,344,189455,1,2,0:0:0:0:
204,236,189605,1,0,0:0:0:0:
204,236,189905,1,0,0:0:0:0:
204,236,190055,1,2,0:0:0:0:
204,236,190205,1,0,0:0:0:0:
152,360,190355,1,2,0:0:0:0:
216,248,190430,1,0,0:0:0:0:
216,248,190505,1,2,0:0:0:0:
216,248,190655,1,2,0:0:0:0:
96,304,190805,1,0,0:0:0:0:
216,248,190955,1,2,0:0:0:0:
156,276,191030,1,2,0:0:0:0:
204,236,191105,1,0,0:0:0:0:
156,276,191255,1,2,0:0:0:0:
156,276,191405,1,0,0:0:0:0:
156,276,191555,1,2,0:0:0:0:
156,276,191630,1,2,0:0:0:0:
156,276,191705,1,0,0:0:0:0:
180,180,191780,1,0,0:0:0:0:
196,224,191855,1,2,0:0:0:0:
232,148,192005,1,0,0:0:0:0:
234,204,192305,1,2,0:0:0:0:
156,276,192455,1,0,0:0:0:0:
156,276,192530,1,0,0:0:0:0:
156,276,192605,1,2,0:0:0:0:
156,276,192755,1,2,0:0:0:0:
156,276,192905,1,0,0:0:0:0:
156,276,193055,1,2,0:0:0:0:
208,152,193205,1,0,0:0:0:0:
184,216,193505,1,2,0:0:0:0:
184,216,193655,1,0,0:0:0:0:
184,216,193730,1,0,0:0:0:0:
184,216,193805,1,2,0:0:0:0:
164,348,193955,1,0,0:0:0:0:
184,220,194105,1,2,0:0:0:0:
184,220,194255,1,2,0:0:0:0:
180,220,194405,1,0,0:0:0:0:
144,176,194705,1,2,0:0:0:0:
176,236,194855,1,0,0:0:0:0:
148,176,195005,1,2,0:0:0:0:
148,176,195155,1,0,0:0:0:0:
210,198,195230,1,0,0:0:0:0:
212,292,195305,1,2,0:0:0:0:
148,176,195455,1,2,0:0:0:0:
256,284,195605,1,0,0:0:0:0:
180,176,195755,1,0,0:0:0:0:
220,228,196055,1,0,0:0:0:0:
220,228,196205,1,0,0:0:0:0:
220,228,196505,1,0,0:0:0:0:
220,228,196805,1,4,0:0:0:0:
252,192,206405,5,4,0:0:0:0:
328,288,206555,1,0,0:0:0:0:
252,192,206705,1,2,0:0:0:0:
252,192,207005,1,0,0:0:0:0:
252,192,207305,1,2,0:0:0:0:
252,192,207605,1,0,0:0:0:0:
252,192,207755,1,0,0:0:0:0:
252,192,207905,1,2,0:0:0:0:
248,212,208205,1,0,0:0:0:0:
248,212,208355,1,2,0:0:0:0:
248,212,208505,1,2,0:0:0:0:
248,212,208655,1,2,0:0:0:0:
248,212,208805,1,0,0:0:0:0:
248,344,208955,1,0,0:0:0:0:
248,212,209105,1,2,0:0:0:0:
248,344,209255,1,2,0:0:0:0:
244,212,209405,1,0,0:0:0:0:
248,344,209555,1,0,0:0:0:0:
240,208,209705,1,2,0:0:0:0:
208,224,210005,1,0,0:0:0:0:
244,212,210155,1,0,0:0:0:0:
228,276,210305,1,2,0:0:0:0:
240,172,210455,1,2,0:0:0:0:
228,8,210605,1,0,0:0:0:0:
244,212,210755,1,2,0:0:0:0:
220,240,211055,1,2,0:0:0:0:
220,240,211205,1,0,0:0:0:0:
220,240,211355,1,0,0:0:0:0:
220,240,211505,1,2,0:0:0:0:
220,240,211655,1,2,0:0:0:0:
220,240,211805,1,0,0:0:0:0:
220,240,211955,1,0,0:0:0:0:
220,240,212105,1,2,0:0:0:0:
20,64,212405,1,0,0:0:0:0:
220,240,212555,1,0,0:0:0:0:
220,240,212705,1,2,0:0:0:0:
220,240,213005,1,0,0:0:0:0:
220,240,213155,1,0,0:0:0:0:
220,240,213305,1,2,0:0:0:0:
220,240,213605,1,0,0:0:0:0:
300,348,213755,1,0,0:0:0:0:
220,240,213905,1,2,0:0:0:0:
224,260,214205,1,0,0:0:0:0:
224,260,214355,1,0,0:0:0:0:
224,260,214505,1,2,0:0:0:0:
208,284,214805,1,0,0:0:0:0:
208,284,214955,1,0,0:0:0:0:
208,284,215105,1,2,0:0:0:0:
208,284,215255,1,0,0:0:0:0:
504,360,216005,1,4,0:0:0:0:
296,220,216230,1,2,0:0:0:0:
280,196,216305,1,0,0:0:0:0:
172,168,216455,1,2,0:0:0:0:
80,80,216605,1,0,0:0:0:0:
192,176,216755,1,2,0:0:0:0:
280,196,216830,1,2,0:0:0:0:
308,228,216905,1,0,0:0:0:0:
308,228,217055,1,2,0:0:0:0:
96,88,217205,1,0,0:0:0:0:
262,215,217430,1,2,0:0:0:0:
296,220,217505,1,0,0:0:0:0:
308,228,217655,1,2,0:0:0:0:
308,228,217730,1,2,0:0:0:0:
88,84,217805,1,0,0:0:0:0:
308,228,217880,1,0,0:0:0:0:
296,220,217955,1,2,0:0:0:0:
296,220,218105,1,0,0:0:0:0:
84,84,218255,1,2,0:0:0:0:
339,240,218405,1,0,0:0:0:0:
296,220,218630,1,2,0:0:0:0:
300,220,218705,1,0,0:0:0:0:
296,220,218855,1,2,0:0:0:0:
72,84,219005,1,0,0:0:0:0:
296,220,219080,1,0,0:0:0:0:
296,220,219155,1,2,0:0:0:0:
296,216,219305,1,0,0:0:0:0:
296,220,219455,1,2,0:0:0:0:
280,204,219530,1,2,0:0:0:0:
72,92,219605,1,0,0:0:0:0:
296,220,219755,1,0,0:0:0:0:
280,204,219830,1,0,0:0:0:0:
292,212,219905,1,2,0:0:0:0:
280,204,220055,1,2,0:0:0:0:
68,100,220205,1,0,0:0:0:0:
296,216,220280,1,0,0:0:0:0:
280,204,220355,1,2,0:0:0:0:
280,204,220505,1,0,0:0:0:0:
296,220,220655,1,0,0:0:0:0:
48,108,220805,1,0,0:0:0:0:
280,204,221030,1,2,0:0:0:0:
272,200,221105,1,0,0:0:0:0:
280,204,221255,1,2,0:0:0:0:
272,200,221405,1,0,0:0:0:0:
280,204,221480,1,0,0:0:0:0:
280,204,221555,1,2,0:0:0:0:
280,204,221705,1,0,0:0:0:0:
280,204,221855,1,2,0:0:0:0:
280,204,221930,1,2,0:0:0:0:
272,200,222005,1,0,0:0:0:0:
280,204,222230,1,2,0:0:0:0:
280,204,222305,1,0,0:0:0:0:
280,204,222455,1,2,0:0:0:0:
280,204,222530,1,2,0:0:0:0:
280,204,222605,1,0,0:0:0:0:
280,204,222755,1,0,0:0:0:0:
280,204,222905,1,2,0:0:0:0:
280,204,223055,1,0,0:0:0:0:
280,204,223130,1,0,0:0:0:0:
280,204,223205,1,0,0:0:0:0:
280,204,223430,1,2,0:0:0:0:
272,200,223505,1,0,0:0:0:0:
280,204,223655,1,2,0:0:0:0:
272,200,223805,1,0,0:0:0:0:
280,204,223880,1,0,0:0:0:0:
280,204,223955,1,2,0:0:0:0:
280,204,224030,1,2,0:0:0:0:
280,204,224105,1,0,0:0:0:0:
280,204,224255,1,2,0:0:0:0:
272,200,224405,1,0,0:0:0:0:
280,204,224555,1,2,0:0:0:0:
280,204,224630,1,0,0:0:0:0:
272,200,224705,1,2,0:0:0:0:
280,204,224855,1,0,0:0:0:0:
272,200,225005,1,2,0:0:0:0:
280,204,225155,1,0,0:0:0:0:
280,204,225230,1,0,0:0:0:0:
272,200,225305,1,2,0:0:0:0:
272,200,225455,1,2,0:0:0:0:
272,200,225530,1,2,0:0:0:0:
272,200,225605,1,0,0:0:0:0:
272,200,225830,1,2,0:0:0:0:
272,200,225905,1,0,0:0:0:0:
280,204,226055,1,2,0:0:0:0:
272,200,226205,1,0,0:0:0:0:
280,204,226280,1,0,0:0:0:0:
280,204,226355,1,2,0:0:0:0:
272,200,226505,1,0,0:0:0:0:
280,204,226655,1,2,0:0:0:0:
280,204,226730,1,2,0:0:0:0:
272,200,226805,1,0,0:0:0:0:
280,204,226880,1,0,0:0:0:0:
280,204,226955,1,2,0:0:0:0:
272,200,227105,1,0,0:0:0:0:
280,204,227255,1,2,0:0:0:0:
280,204,227330,1,2,0:0:0:0:
272,200,227405,1,0,0:0:0:0:
272,200,227555,1,2,0:0:0:0:
272,200,227705,1,0,0:0:0:0:
280,204,227855,1,0,0:0:0:0:
280,204,227930,1,2,0:0:0:0:
272,200,228005,1,0,0:0:0:0:
272,200,228230,1,2,0:0:0:0:
272,200,228305,1,0,0:0:0:0:
272,200,228455,1,2,0:0:0:0:
272,200,228605,1,0,0:0:0:0:
272,200,228680,1,0,0:0:0:0:
280,204,228755,1,2,0:0:0:0:
280,204,228905,1,0,0:0:0:0:
272,200,229055,1,2,0:0:0:0:
272,200,229130,1,2,0:0:0:0:
272,200,229205,1,0,0:0:0:0:
272,200,229355,1,0,0:0:0:0:
272,200,229430,1,0,0:0:0:0:
272,200,229505,1,2,0:0:0:0:
272,200,229655,1,2,0:0:0:0:
272,200,229805,1,0,0:0:0:0:
280,204,229880,1,0,0:0:0:0:
272,200,229955,1,2,0:0:0:0:
272,200,230105,1,0,0:0:0:0:
272,200,230255,1,2,0:0:0:0:
324,255,230330,1,2,0:0:0:0:
272,200,230405,1,0,0:0:0:0:
272,200,230630,1,2,0:0:0:0:
272,200,230705,1,0,0:0:0:0:
272,200,230855,1,2,0:0:0:0:
272,200,231005,1,0,0:0:0:0:
272,200,231155,1,2,0:0:0:0:
272,200,231230,1,2,0:0:0:0:
272,200,231305,1,0,0:0:0:0:
272,200,231455,1,2,0:0:0:0:
272,200,231605,1,0,0:0:0:0:
272,200,231830,1,2,0:0:0:0:
272,200,231905,1,0,0:0:0:0:
272,200,232055,1,2,0:0:0:0:
272,200,232205,1,0,0:0:0:0:
272,200,232355,1,0,0:0:0:0:
272,200,232430,1,0,0:0:0:0:
272,200,232505,1,2,0:0:0:0:
272,200,232655,1,2,0:0:0:0:
272,200,232805,1,0,0:0:0:0:
272,200,232955,1,0,0:0:0:0:
272,200,233255,1,0,0:0:0:0:
272,200,233405,1,0,0:0:0:0:
272,200,233705,1,0,0:0:0:0:
272,200,233855,1,0,0:0:0:0:
272,200,234005,1,0,0:0:0:0:
272,200,234605,1,2,0:0:0:0:
272,200,234755,1,2,0:0:0:0:
272,200,234905,1,2,0:0:0:0:
272,200,235055,1,2,0:0:0:0:
272,200,235205,1,4,0:0:0:0:
272,200,235505,1,2,0:0:0:0:
272,200,235655,1,2,0:0:0:0:
272,200,235805,1,0,0:0:0:0:
272,200,235880,1,0,0:0:0:0:
272,200,235955,1,2,0:0:0:0:
272,200,236105,1,0,0:0:0:0:
272,200,236255,1,2,0:0:0:0:
272,200,236405,1,0,0:0:0:0:
272,200,236705,1,2,0:0:0:0:
272,200,236855,1,2,0:0:0:0:
272,200,237005,1,0,0:0:0:0:
272,200,237155,1,2,0:0:0:0:
272,200,237305,1,0,0:0:0:0:
272,200,237380,1,0,0:0:0:0:
272,200,237455,1,2,0:0:0:0:
272,200,237605,1,0,0:0:0:0:
272,200,237905,1,2,0:0:0:0:
272,200,238055,1,2,0:0:0:0:
272,200,238205,1,0,0:0:0:0:
272,200,238355,1,2,0:0:0:0:
272,200,238430,1,2,0:0:0:0:
272,200,238505,1,0,0:0:0:0:
272,200,238655,1,2,0:0:0:0:
272,200,238805,1,0,0:0:0:0:
272,200,238955,1,0,0:0:0:0:
272,200,239105,1,2,0:0:0:0:
272,200,239255,1,2,0:0:0:0:
272,200,239330,1,2,0:0:0:0:
272,200,239405,1,0,0:0:0:0:
272,200,239555,1,0,0:0:0:0:
272,200,239705,1,0,0:0:0:0:
272,200,239855,1,2,0:0:0:0:
272,200,240005,1,0,0:0:0:0:
272,200,240305,1,2,0:0:0:0:
272,200,240455,1,2,0:0:0:0:
272,200,240605,1,0,0:0:0:0:
272,200,240755,1,2,0:0:0:0:
272,200,240830,1,2,0:0:0:0:
272,200,240905,1,0,0:0:0:0:
272,200,241055,1,2,0:0:0:0:
272,200,241205,1,0,0:0:0:0:
272,200,241505,1,2,0:0:0:0:
272,200,241655,1,0,0:0:0:0:
272,200,241805,1,0,0:0:0:0:
272,200,241955,1,2,0:0:0:0:
272,200,242105,1,0,0:0:0:0:
272,200,242180,1,0,0:0:0:0:
272,200,242255,1,2,0:0:0:0:
272,200,242405,1,0,0:0:0:0:
272,200,242705,1,0,0:0:0:0:
272,200,242855,1,2,0:0:0:0:
360,332,243005,1,0,0:0:0:0:
272,200,243155,1,2,0:0:0:0:
272,200,243230,1,2,0:0:0:0:
272,200,243305,1,2,0:0:0:0:
152,144,243605,1,0,0:0:0:0:
266,211,243755,1,0,0:0:0:0:
208,178,243905,1,2,0:0:0:0:
208,178,244055,1,0,0:0:0:0:
208,178,244355,1,0,0:0:0:0:
208,178,244505,1,2,0:0:0:0:
216,208,244655,1,0,0:0:0:0:
256,192,244805,1,4,0:0:0:0:
256,192,245105,1,2,0:0:0:0:
340,296,245255,1,2,0:0:0:0:
256,192,245405,1,0,0:0:0:0:
256,192,245555,1,0,0:0:0:0:
124,164,245705,1,2,0:0:0:0:
256,192,245855,1,0,0:0:0:0:
124,164,246005,1,2,0:0:0:0:
256,192,246155,1,2,0:0:0:0:
380,240,246305,1,0,0:0:0:0:
256,192,246455,1,2,0:0:0:0:
256,192,246605,1,0,0:0:0:0:
256,192,246755,1,2,0:0:0:0:
256,192,246905,1,2,0:0:0:0:
256,192,247205,1,2,0:0:0:0:
256,192,247355,1,0,0:0:0:0:
256,192,247505,1,2,0:0:0:0:
256,192,247655,1,2,0:0:0:0:
256,192,247805,1,0,0:0:0:0:
256,192,247955,1,0,0:0:0:0:
256,192,248105,1,2,0:0:0:0:
256,192,248255,1,0,0:0:0:0:
256,192,248405,1,2,0:0:0:0:
256,192,248555,1,2,0:0:0:0:
256,192,248705,1,0,0:0:0:0:
256,192,248855,1,0,0:0:0:0:
256,192,249005,1,2,0:0:0:0:
256,192,249155,1,0,0:0:0:0:
256,192,249305,1,2,0:0:0:0:
256,192,249455,1,2,0:0:0:0:
256,192,249605,1,0,0:0:0:0:
256,192,249905,1,2,0:0:0:0:
256,192,250055,1,2,0:0:0:0:
256,192,250205,1,0,0:0:0:0:
256,192,250355,1,2,0:0:0:0:
256,192,250505,1,0,0:0:0:0:
256,192,250805,1,0,0:0:0:0:
256,192,250955,1,0,0:0:0:0:
256,192,251105,1,2,0:0:0:0:
256,192,251255,1,0,0:0:0:0:
256,192,251405,1,2,0:0:0:0:
256,192,251555,1,2,0:0:0:0:
256,192,251705,1,0,0:0:0:0:
256,192,251855,1,2,0:0:0:0:
256,192,252005,1,0,0:0:0:0:
256,192,252305,1,2,0:0:0:0:
256,192,252455,1,2,0:0:0:0:
256,192,252605,1,0,0:0:0:0:
256,192,252755,1,2,0:0:0:0:
256,192,252905,1,0,0:0:0:0:
256,192,253055,1,0,0:0:0:0:
236,176,253205,1,0,0:0:0:0:
236,176,253355,1,2,0:0:0:0:
236,176,253505,1,0,0:0:0:0:
236,176,253655,1,2,0:0:0:0:
236,176,253805,1,0,0:0:0:0:
236,176,253955,1,2,0:0:0:0:
236,176,254105,1,0,0:0:0:0:
236,176,254255,1,2,0:0:0:0:
236,176,254405,1,6,0:0:0:0:
