osu file format v14

[General]
AudioFilename: gatway.mp3
AudioLeadIn: 0
PreviewTime: 124852
Countdown: 0
SampleSet: Normal
StackLeniency: 0.7
Mode: 3
LetterboxInBreaks: 0
SpecialStyle: 0
WidescreenStoryboard: 1

[Editor]
DistanceSpacing: 1.1
BeatDivisor: 16
GridSize: 16
TimelineZoom: 2.7

[Metadata]
Title:Gateway to Psycho
TitleUnicode:Gateway to Psycho
Artist:Helblinde
ArtistUnicode:Helblinde
Creator:Jole
Version:CLEAR MIND
Source:PSYCHO-PASS
Tags:jumpstream stamina trills life starts at 200bpm Christofer Nilsson featured artist fa j-core jcore freeform hardcore techno dnb drum and bass japanese electronic サイコパス ending ed ost anime EGOIST Namae no Nai Kaibutsu 名前のない怪物 SRCL-8149 SRCL-8147 ryo りょー chelly reche Sony Records 日髙範子 Hidaka Noriko 伊東範子 Itou Noriko
BeatmapID:3278946
BeatmapSetID:1605766

[Difficulty]
HPDrainRate:8
CircleSize:4
OverallDifficulty:8
ApproachRate:5
SliderMultiplier:1.4
SliderTickRate:1

[Events]
//Background and Video events
0,0,"gb.jpg",0,0
//Break Periods
//Storyboard Layer 0 (Background)
//Storyboard Layer 1 (Fail)
//Storyboard Layer 2 (Pass)
//Storyboard Layer 3 (Foreground)
//Storyboard Layer 4 (Overlay)
//Storyboard Sound Samples

[TimingPoints]
19189,300,4,1,1,35,1,0

[HitObjects]
192,192,19189,5,0,0:0:0:0:
448,192,19189,1,0,0:0:0:0:
64,192,19189,1,0,0:0:0:0:
64,192,19339,1,0,0:0:0:0:
320,192,19339,1,0,0:0:0:0:
192,192,19489,1,0,0:0:0:0:
320,192,19489,1,0,0:0:0:0:
192,192,19639,1,0,0:0:0:0:
64,192,19639,1,0,0:0:0:0:
192,192,19789,1,0,0:0:0:0:
448,192,19789,1,0,0:0:0:0:
320,192,19939,128,0,20239:0:0:0:0:
192,192,20089,1,0,0:0:0:0:
64,192,20089,1,0,0:0:0:0:
448,192,20239,1,0,0:0:0:0:
64,192,20389,1,0,0:0:0:0:
192,192,20389,1,0,0:0:0:0:
192,192,20539,1,0,0:0:0:0:
448,192,20539,1,0,0:0:0:0:
320,192,20689,1,0,0:0:0:0:
448,192,20689,1,0,0:0:0:0:
64,192,20839,1,0,0:0:0:0:
448,192,20839,1,0,0:0:0:0:
320,192,20989,1,0,0:0:0:0:
64,192,20989,1,0,0:0:0:0:
192,192,21139,128,0,21439:0:0:0:0:
320,192,21289,1,0,0:0:0:0:
448,192,21289,1,0,0:0:0:0:
64,192,21439,1,0,0:0:0:0:
192,192,21589,1,0,0:0:0:0:
320,192,21589,1,0,0:0:0:0:
192,192,21739,1,0,0:0:0:0:
448,192,21739,1,0,0:0:0:0:
64,192,21889,1,0,0:0:0:0:
320,192,21889,1,0,0:0:0:0:
320,192,22039,1,0,0:0:0:0:
448,192,22039,1,0,0:0:0:0:
64,192,22189,1,0,0:0:0:0:
320,192,22189,1,0,0:0:0:0:
448,192,22339,128,0,22639:0:0:0:0:
192,192,22489,1,0,0:0:0:0:
64,192,22489,1,0,0:0:0:0:
320,192,22639,1,0,0:0:0:0:
192,192,22789,1,0,0:0:0:0:
448,192,22789,1,0,0:0:0:0:
192,192,22939,1,0,0:0:0:0:
320,192,22939,1,0,0:0:0:0:
64,192,23089,1,0,0:0:0:0:
448,192,23089,1,0,0:0:0:0:
320,192,23239,1,0,0:0:0:0:
448,192,23239,1,0,0:0:0:0:
192,192,23389,1,0,0:0:0:0:
448,192,23389,1,0,0:0:0:0:
64,192,23539,128,0,23839:0:0:0:0:
320,192,23689,1,0,0:0:0:0:
448,192,23689,1,0,0:0:0:0:
192,192,23839,1,0,0:0:0:0:
192,192,23989,1,0,0:0:0:0:
448,192,23989,1,0,0:0:0:0:
320,192,24139,1,0,0:0:0:0:
448,192,24139,1,0,0:0:0:0:
192,192,24289,1,0,0:0:0:0:
448,192,24289,1,0,0:0:0:0:
320,192,24439,1,0,0:0:0:0:
448,192,24439,1,0,0:0:0:0:
64,192,24589,1,0,0:0:0:0:
448,192,24589,1,0,0:0:0:0:
320,192,24739,128,0,25039:0:0:0:0:
192,192,24889,1,0,0:0:0:0:
64,192,24889,1,0,0:0:0:0:
448,192,25039,1,0,0:0:0:0:
192,192,25189,1,0,0:0:0:0:
320,192,25189,1,0,0:0:0:0:
64,192,25339,1,0,0:0:0:0:
320,192,25339,1,0,0:0:0:0:
192,192,25489,1,0,0:0:0:0:
320,192,25489,1,0,0:0:0:0:
64,192,25639,1,0,0:0:0:0:
320,192,25639,1,0,0:0:0:0:
192,192,25789,1,0,0:0:0:0:
320,192,25789,1,0,0:0:0:0:
64,192,25939,128,0,26239:0:0:0:0:
448,192,26089,1,0,0:0:0:0:
320,192,26089,1,0,0:0:0:0:
192,192,26239,1,0,0:0:0:0:
192,192,26389,1,0,0:0:0:0:
320,192,26389,1,0,0:0:0:0:
320,192,26539,1,0,0:0:0:0:
64,192,26539,1,0,0:0:0:0:
192,192,26689,1,0,0:0:0:0:
320,192,26689,1,0,0:0:0:0:
64,192,26839,1,0,0:0:0:0:
320,192,26839,1,0,0:0:0:0:
192,192,26989,1,0,0:0:0:0:
320,192,26989,1,0,0:0:0:0:
448,192,27139,128,0,27439:0:0:0:0:
192,192,27289,1,0,0:0:0:0:
64,192,27289,1,0,0:0:0:0:
320,192,27439,1,0,0:0:0:0:
192,192,27589,1,0,0:0:0:0:
448,192,27589,1,0,0:0:0:0:
192,192,27739,1,0,0:0:0:0:
320,192,27739,1,0,0:0:0:0:
192,192,27889,1,0,0:0:0:0:
448,192,27889,1,0,0:0:0:0:
192,192,28039,1,0,0:0:0:0:
320,192,28039,1,0,0:0:0:0:
192,192,28189,1,0,0:0:0:0:
448,192,28189,1,0,0:0:0:0:
64,192,28389,1,0,0:0:0:0:
64,192,28589,1,0,0:0:0:0:
192,192,28789,1,0,0:0:0:0:
320,192,28789,1,0,0:0:0:0:
64,192,28939,1,0,0:0:0:0:
320,192,28939,1,0,0:0:0:0:
192,192,29089,1,0,0:0:0:0:
320,192,29089,1,0,0:0:0:0:
320,192,29239,1,0,0:0:0:0:
64,192,29239,1,0,0:0:0:0:
64,192,29389,1,0,0:0:0:0:
192,192,29389,1,0,0:0:0:0:
320,192,29539,128,0,29839:0:0:0:0:
192,192,29689,1,0,0:0:0:0:
64,192,29689,1,0,0:0:0:0:
448,192,29839,1,0,0:0:0:0:
64,192,29989,1,0,0:0:0:0:
320,192,29989,1,0,0:0:0:0:
192,192,30139,1,0,0:0:0:0:
64,192,30139,1,0,0:0:0:0:
64,192,30289,1,0,0:0:0:0:
320,192,30289,1,0,0:0:0:0:
64,192,30439,1,0,0:0:0:0:
448,192,30439,1,0,0:0:0:0:
448,192,30589,1,0,0:0:0:0:
320,192,30589,1,0,0:0:0:0:
192,192,30739,128,0,31039:0:0:0:0:
320,192,30889,1,0,0:0:0:0:
448,192,30889,1,0,0:0:0:0:
64,192,31039,1,0,0:0:0:0:
192,192,31189,1,0,0:0:0:0:
320,192,31189,1,0,0:0:0:0:
64,192,31339,1,0,0:0:0:0:
320,192,31339,1,0,0:0:0:0:
192,192,31489,1,0,0:0:0:0:
320,192,31489,1,0,0:0:0:0:
320,192,31639,1,0,0:0:0:0:
64,192,31639,1,0,0:0:0:0:
192,192,31789,1,0,0:0:0:0:
320,192,31789,1,0,0:0:0:0:
448,192,31939,128,0,32239:0:0:0:0:
192,192,32089,1,0,0:0:0:0:
64,192,32089,1,0,0:0:0:0:
320,192,32239,1,0,0:0:0:0:
64,192,32389,1,0,0:0:0:0:
192,192,32389,1,0,0:0:0:0:
64,192,32539,1,0,0:0:0:0:
320,192,32539,1,0,0:0:0:0:
192,192,32689,1,0,0:0:0:0:
64,192,32689,1,0,0:0:0:0:
64,192,32839,1,0,0:0:0:0:
320,192,32839,1,0,0:0:0:0:
64,192,32989,1,0,0:0:0:0:
192,192,32989,1,0,0:0:0:0:
192,192,33139,1,0,0:0:0:0:
64,192,33139,1,0,0:0:0:0:
320,192,33139,128,0,33439:0:0:0:0:
192,192,33439,1,0,0:0:0:0:
64,192,33439,1,0,0:0:0:0:
192,192,33589,1,0,0:0:0:0:
64,192,33589,1,0,0:0:0:0:
192,192,33739,1,0,0:0:0:0:
448,192,33739,1,0,0:0:0:0:
320,192,33889,1,0,0:0:0:0:
448,192,33889,1,0,0:0:0:0:
192,192,34039,1,0,0:0:0:0:
448,192,34039,1,0,0:0:0:0:
320,192,34189,1,0,0:0:0:0:
448,192,34189,1,0,0:0:0:0:
192,192,34339,128,0,34639:0:0:0:0:
320,192,34489,1,0,0:0:0:0:
448,192,34489,1,0,0:0:0:0:
64,192,34639,1,0,0:0:0:0:
64,192,34789,1,0,0:0:0:0:
320,192,34789,1,0,0:0:0:0:
192,192,34939,1,0,0:0:0:0:
320,192,34939,1,0,0:0:0:0:
64,192,35089,1,0,0:0:0:0:
320,192,35089,1,0,0:0:0:0:
320,192,35239,1,0,0:0:0:0:
192,192,35239,1,0,0:0:0:0:
64,192,35389,1,0,0:0:0:0:
320,192,35389,1,0,0:0:0:0:
448,192,35539,128,0,35839:0:0:0:0:
192,192,35689,1,0,0:0:0:0:
64,192,35689,1,0,0:0:0:0:
320,192,35839,1,0,0:0:0:0:
192,192,35989,1,0,0:0:0:0:
448,192,35989,1,0,0:0:0:0:
192,192,36139,1,0,0:0:0:0:
320,192,36139,1,0,0:0:0:0:
192,192,36289,1,0,0:0:0:0:
448,192,36289,1,0,0:0:0:0:
320,192,36439,1,0,0:0:0:0:
192,192,36439,1,0,0:0:0:0:
192,192,36589,1,0,0:0:0:0:
448,192,36589,1,0,0:0:0:0:
320,192,36739,128,0,37039:0:0:0:0:
192,192,36889,1,0,0:0:0:0:
64,192,36889,1,0,0:0:0:0:
448,192,37039,1,0,0:0:0:0:
192,192,37189,1,0,0:0:0:0:
192,192,37339,1,0,0:0:0:0:
192,192,37489,1,0,0:0:0:0:
320,192,37789,1,0,0:0:0:0:
320,192,37939,1,0,0:0:0:0:
320,192,38089,1,0,0:0:0:0:
64,192,38389,1,0,0:0:0:0:
192,192,38389,1,0,0:0:0:0:
320,192,38389,1,0,0:0:0:0:
64,192,38539,1,0,0:0:0:0:
320,192,38539,1,0,0:0:0:0:
448,192,38539,1,0,0:0:0:0:
192,192,38689,1,0,0:0:0:0:
448,192,38689,1,0,0:0:0:0:
64,192,38839,1,0,0:0:0:0:
192,192,38839,1,0,0:0:0:0:
64,192,38989,1,0,0:0:0:0:
192,192,38989,1,0,0:0:0:0:
448,192,38989,1,0,0:0:0:0:
192,192,39139,1,0,0:0:0:0:
320,192,39139,1,0,0:0:0:0:
448,192,39139,1,0,0:0:0:0:
64,192,39289,1,0,0:0:0:0:
320,192,39289,1,0,0:0:0:0:
192,192,39439,1,0,0:0:0:0:
320,192,39439,1,0,0:0:0:0:
64,192,39589,1,0,0:0:0:0:
192,192,39589,1,0,0:0:0:0:
320,192,39589,1,0,0:0:0:0:
64,192,39739,1,0,0:0:0:0:
320,192,39739,1,0,0:0:0:0:
448,192,39739,1,0,0:0:0:0:
320,192,39889,1,0,0:0:0:0:
192,192,39889,1,0,0:0:0:0:
64,192,39889,1,0,0:0:0:0:
64,192,40039,1,0,0:0:0:0:
192,192,40039,1,0,0:0:0:0:
448,192,40039,1,0,0:0:0:0:
320,192,40189,1,0,0:0:0:0:
192,192,40189,1,0,0:0:0:0:
64,192,40339,1,0,0:0:0:0:
320,192,40339,1,0,0:0:0:0:
448,192,40339,1,0,0:0:0:0:
192,192,40339,1,0,0:0:0:0:
64,192,40489,1,0,0:0:0:0:
448,192,40489,1,0,0:0:0:0:
64,192,40639,1,0,0:0:0:0:
192,192,40639,1,0,0:0:0:0:
64,192,40789,1,0,0:0:0:0:
192,192,40789,1,0,0:0:0:0:
448,192,40789,1,0,0:0:0:0:
192,192,40939,1,0,0:0:0:0:
320,192,40939,1,0,0:0:0:0:
448,192,40939,1,0,0:0:0:0:
64,192,41089,1,0,0:0:0:0:
320,192,41089,1,0,0:0:0:0:
320,192,41239,1,0,0:0:0:0:
448,192,41239,1,0,0:0:0:0:
64,192,41389,1,0,0:0:0:0:
192,192,41389,1,0,0:0:0:0:
320,192,41389,1,0,0:0:0:0:
64,192,41539,1,0,0:0:0:0:
448,192,41539,1,0,0:0:0:0:
320,192,41539,1,0,0:0:0:0:
192,192,41689,1,0,0:0:0:0:
320,192,41689,1,0,0:0:0:0:
192,192,41839,1,0,0:0:0:0:
64,192,41839,1,0,0:0:0:0:
448,192,41839,1,0,0:0:0:0:
192,192,41989,1,0,0:0:0:0:
320,192,41989,1,0,0:0:0:0:
448,192,41989,1,0,0:0:0:0:
64,192,42139,1,0,0:0:0:0:
192,192,42139,1,0,0:0:0:0:
448,192,42139,1,0,0:0:0:0:
192,192,42289,1,0,0:0:0:0:
320,192,42289,1,0,0:0:0:0:
448,192,42289,1,0,0:0:0:0:
64,192,42439,1,0,0:0:0:0:
192,192,42439,1,0,0:0:0:0:
448,192,42439,1,0,0:0:0:0:
64,192,42589,1,0,0:0:0:0:
320,192,42589,1,0,0:0:0:0:
192,192,42739,1,0,0:0:0:0:
320,192,42739,1,0,0:0:0:0:
448,192,42739,1,0,0:0:0:0:
64,192,42739,1,0,0:0:0:0:
64,192,42889,1,0,0:0:0:0:
192,192,42889,1,0,0:0:0:0:
64,192,43189,1,0,0:0:0:0:
192,192,43189,1,0,0:0:0:0:
448,192,43189,1,0,0:0:0:0:
320,192,43339,1,0,0:0:0:0:
64,192,43639,1,0,0:0:0:0:
192,192,43639,1,0,0:0:0:0:
448,192,43639,1,0,0:0:0:0:
320,192,43789,1,0,0:0:0:0:
192,192,44089,1,0,0:0:0:0:
64,192,44089,1,0,0:0:0:0:
64,192,44389,1,0,0:0:0:0:
320,192,44539,1,0,0:0:0:0:
192,192,44839,1,0,0:0:0:0:
448,192,45139,1,0,0:0:0:0:
64,192,45589,1,0,0:0:0:0:
192,192,45589,1,0,0:0:0:0:
320,192,45589,1,0,0:0:0:0:
448,192,45589,1,0,0:0:0:0:
64,192,45739,1,0,0:0:0:0:
320,192,45739,1,0,0:0:0:0:
448,192,45739,1,0,0:0:0:0:
192,192,45889,1,0,0:0:0:0:
320,192,45889,1,0,0:0:0:0:
192,192,46039,1,0,0:0:0:0:
448,192,46039,1,0,0:0:0:0:
64,192,46189,1,0,0:0:0:0:
192,192,46189,1,0,0:0:0:0:
448,192,46189,1,0,0:0:0:0:
192,192,46339,1,0,0:0:0:0:
320,192,46339,1,0,0:0:0:0:
448,192,46339,1,0,0:0:0:0:
64,192,46489,1,0,0:0:0:0:
448,192,46489,1,0,0:0:0:0:
64,192,46639,1,0,0:0:0:0:
192,192,46639,1,0,0:0:0:0:
320,192,46639,1,0,0:0:0:0:
192,192,46789,1,0,0:0:0:0:
320,192,46789,1,0,0:0:0:0:
448,192,46789,1,0,0:0:0:0:
64,192,46939,1,0,0:0:0:0:
192,192,46939,1,0,0:0:0:0:
320,192,46939,1,0,0:0:0:0:
64,192,47089,1,0,0:0:0:0:
320,192,47089,1,0,0:0:0:0:
448,192,47089,1,0,0:0:0:0:
192,192,47239,1,0,0:0:0:0:
448,192,47239,1,0,0:0:0:0:
320,192,47239,1,0,0:0:0:0:
64,192,47389,1,0,0:0:0:0:
320,192,47389,1,0,0:0:0:0:
192,192,47539,1,0,0:0:0:0:
320,192,47539,1,0,0:0:0:0:
448,192,47539,1,0,0:0:0:0:
64,192,47539,1,0,0:0:0:0:
192,192,47689,1,0,0:0:0:0:
448,192,47689,1,0,0:0:0:0:
192,192,47839,1,0,0:0:0:0:
64,192,47839,1,0,0:0:0:0:
64,192,47989,1,0,0:0:0:0:
320,192,47989,1,0,0:0:0:0:
448,192,47989,1,0,0:0:0:0:
192,192,48139,1,0,0:0:0:0:
320,192,48139,1,0,0:0:0:0:
448,192,48139,1,0,0:0:0:0:
64,192,48289,1,0,0:0:0:0:
192,192,48289,1,0,0:0:0:0:
192,192,48439,1,0,0:0:0:0:
448,192,48439,1,0,0:0:0:0:
64,192,48589,1,0,0:0:0:0:
192,192,48589,1,0,0:0:0:0:
320,192,48589,1,0,0:0:0:0:
64,192,48739,1,0,0:0:0:0:
320,192,48739,1,0,0:0:0:0:
448,192,48739,1,0,0:0:0:0:
192,192,48889,1,0,0:0:0:0:
448,192,48889,1,0,0:0:0:0:
64,192,49039,1,0,0:0:0:0:
192,192,49039,1,0,0:0:0:0:
64,192,49189,1,0,0:0:0:0:
320,192,49189,1,0,0:0:0:0:
448,192,49189,1,0,0:0:0:0:
192,192,49339,1,0,0:0:0:0:
320,192,49339,1,0,0:0:0:0:
448,192,49339,1,0,0:0:0:0:
64,192,49489,1,0,0:0:0:0:
320,192,49489,1,0,0:0:0:0:
448,192,49489,1,0,0:0:0:0:
64,192,49639,1,0,0:0:0:0:
192,192,49639,1,0,0:0:0:0:
448,192,49639,1,0,0:0:0:0:
192,192,49789,1,0,0:0:0:0:
320,192,49789,1,0,0:0:0:0:
192,192,49939,1,0,0:0:0:0:
320,192,49939,1,0,0:0:0:0:
448,192,49939,1,0,0:0:0:0:
64,192,49939,1,0,0:0:0:0:
64,192,50089,1,0,0:0:0:0:
448,192,50089,1,0,0:0:0:0:
64,192,50239,1,0,0:0:0:0:
192,192,50239,1,0,0:0:0:0:
64,192,50389,1,0,0:0:0:0:
192,192,50389,1,0,0:0:0:0:
320,192,50389,1,0,0:0:0:0:
64,192,50539,1,0,0:0:0:0:
320,192,50539,1,0,0:0:0:0:
448,192,50539,1,0,0:0:0:0:
192,192,50689,1,0,0:0:0:0:
448,192,50689,1,0,0:0:0:0:
64,192,50839,1,0,0:0:0:0:
192,192,50839,1,0,0:0:0:0:
64,192,50989,1,0,0:0:0:0:
320,192,50989,1,0,0:0:0:0:
448,192,50989,1,0,0:0:0:0:
192,192,51139,1,0,0:0:0:0:
320,192,51139,1,0,0:0:0:0:
448,192,51139,1,0,0:0:0:0:
64,192,51289,1,0,0:0:0:0:
448,192,51289,1,0,0:0:0:0:
320,192,51439,1,0,0:0:0:0:
192,192,51439,1,0,0:0:0:0:
64,192,51439,1,0,0:0:0:0:
64,192,51589,1,0,0:0:0:0:
192,192,51589,1,0,0:0:0:0:
448,192,51589,1,0,0:0:0:0:
192,192,51739,1,0,0:0:0:0:
320,192,51739,1,0,0:0:0:0:
448,192,51739,1,0,0:0:0:0:
192,192,51889,1,0,0:0:0:0:
64,192,51889,1,0,0:0:0:0:
448,192,51889,1,0,0:0:0:0:
64,192,52039,1,0,0:0:0:0:
320,192,52039,1,0,0:0:0:0:
448,192,52039,1,0,0:0:0:0:
320,192,52189,1,0,0:0:0:0:
64,192,52189,1,0,0:0:0:0:
192,192,52339,1,0,0:0:0:0:
320,192,52339,1,0,0:0:0:0:
448,192,52339,1,0,0:0:0:0:
64,192,52339,1,0,0:0:0:0:
64,192,52489,1,0,0:0:0:0:
192,192,52489,1,0,0:0:0:0:
192,192,52639,1,0,0:0:0:0:
448,192,52639,1,0,0:0:0:0:
64,192,52789,1,0,0:0:0:0:
320,192,52789,1,0,0:0:0:0:
448,192,52789,1,0,0:0:0:0:
320,192,52939,1,0,0:0:0:0:
192,192,53089,1,0,0:0:0:0:
448,192,53239,1,0,0:0:0:0:
64,192,53389,1,0,0:0:0:0:
320,192,53539,1,0,0:0:0:0:
192,192,53689,1,0,0:0:0:0:
320,192,53839,1,0,0:0:0:0:
448,192,53989,1,0,0:0:0:0:
192,192,54139,1,0,0:0:0:0:
320,192,54289,1,0,0:0:0:0:
64,192,54439,1,0,0:0:0:0:
320,192,54589,1,0,0:0:0:0:
64,192,54739,1,0,0:0:0:0:
320,192,54889,1,0,0:0:0:0:
192,192,55039,1,0,0:0:0:0:
448,192,55189,1,0,0:0:0:0:
64,192,55339,1,0,0:0:0:0:
320,192,55489,1,0,0:0:0:0:
192,192,55639,1,0,0:0:0:0:
448,192,55789,1,0,0:0:0:0:
192,192,55939,1,0,0:0:0:0:
64,192,56089,1,0,0:0:0:0:
448,192,56239,1,0,0:0:0:0:
64,192,56839,5,0,0:0:0:0:
192,192,57139,1,0,0:0:0:0:
320,192,57289,5,0,0:0:0:0:
448,192,57289,1,0,0:0:0:0:
320,192,57589,1,0,0:0:0:0:
448,192,57589,1,0,0:0:0:0:
192,192,57664,1,0,0:0:0:0:
64,192,57739,1,0,0:0:0:0:
448,192,57814,1,0,0:0:0:0:
192,192,57889,1,0,0:0:0:0:
320,192,57889,1,0,0:0:0:0:
64,192,57964,1,0,0:0:0:0:
320,192,58039,1,0,0:0:0:0:
448,192,58114,1,0,0:0:0:0:
64,192,58189,1,0,0:0:0:0:
192,192,58189,1,0,0:0:0:0:
320,192,58264,1,0,0:0:0:0:
448,192,58339,1,0,0:0:0:0:
64,192,58414,1,0,0:0:0:0:
448,192,58489,1,0,0:0:0:0:
192,192,58489,1,0,0:0:0:0:
320,192,58564,1,0,0:0:0:0:
64,192,58639,1,0,0:0:0:0:
192,192,58714,1,0,0:0:0:0:
448,192,58789,1,0,0:0:0:0:
320,192,58789,1,0,0:0:0:0:
64,192,58864,1,0,0:0:0:0:
320,192,58939,1,0,0:0:0:0:
192,192,59014,1,0,0:0:0:0:
320,192,59089,1,0,0:0:0:0:
448,192,59089,1,0,0:0:0:0:
64,192,59164,1,0,0:0:0:0:
192,192,59239,1,0,0:0:0:0:
448,192,59314,1,0,0:0:0:0:
64,192,59389,1,0,0:0:0:0:
320,192,59389,1,0,0:0:0:0:
192,192,59464,1,0,0:0:0:0:
448,192,59539,1,0,0:0:0:0:
320,192,59614,1,0,0:0:0:0:
192,192,59689,1,0,0:0:0:0:
64,192,59689,1,0,0:0:0:0:
448,192,59764,1,0,0:0:0:0:
192,192,59839,1,0,0:0:0:0:
320,192,59914,1,0,0:0:0:0:
64,192,59989,1,0,0:0:0:0:
192,192,59989,1,0,0:0:0:0:
448,192,60064,1,0,0:0:0:0:
320,192,60139,1,0,0:0:0:0:
448,192,60214,1,0,0:0:0:0:
64,192,60289,1,0,0:0:0:0:
320,192,60289,1,0,0:0:0:0:
192,192,60364,1,0,0:0:0:0:
448,192,60439,1,0,0:0:0:0:
64,192,60514,1,0,0:0:0:0:
192,192,60589,1,0,0:0:0:0:
320,192,60589,1,0,0:0:0:0:
448,192,60664,1,0,0:0:0:0:
64,192,60739,1,0,0:0:0:0:
320,192,60814,1,0,0:0:0:0:
192,192,60889,1,0,0:0:0:0:
448,192,60889,1,0,0:0:0:0:
64,192,60964,1,0,0:0:0:0:
320,192,61039,1,0,0:0:0:0:
448,192,61114,1,0,0:0:0:0:
192,192,61189,1,0,0:0:0:0:
64,192,61189,1,0,0:0:0:0:
448,192,61264,1,0,0:0:0:0:
320,192,61339,1,0,0:0:0:0:
64,192,61414,1,0,0:0:0:0:
192,192,61489,1,0,0:0:0:0:
448,192,61489,1,0,0:0:0:0:
320,192,61564,1,0,0:0:0:0:
64,192,61639,1,0,0:0:0:0:
448,192,61714,1,0,0:0:0:0:
320,192,61789,1,0,0:0:0:0:
192,192,61789,1,0,0:0:0:0:
64,192,61864,1,0,0:0:0:0:
192,192,61939,1,0,0:0:0:0:
64,192,62014,1,0,0:0:0:0:
448,192,62089,1,0,0:0:0:0:
320,192,62089,1,0,0:0:0:0:
192,192,62164,1,0,0:0:0:0:
320,192,62239,1,0,0:0:0:0:
448,192,62239,1,0,0:0:0:0:
64,192,62314,1,0,0:0:0:0:
320,192,62389,1,0,0:0:0:0:
448,192,62389,1,0,0:0:0:0:
192,192,62464,1,0,0:0:0:0:
64,192,62539,1,0,0:0:0:0:
448,192,62614,1,0,0:0:0:0:
64,192,62689,1,0,0:0:0:0:
192,192,62689,1,0,0:0:0:0:
320,192,62764,1,0,0:0:0:0:
448,192,62839,1,0,0:0:0:0:
192,192,62914,1,0,0:0:0:0:
320,192,62989,1,0,0:0:0:0:
64,192,62989,1,0,0:0:0:0:
448,192,63064,1,0,0:0:0:0:
192,192,63139,1,0,0:0:0:0:
320,192,63214,1,0,0:0:0:0:
64,192,63289,1,0,0:0:0:0:
192,192,63289,1,0,0:0:0:0:
448,192,63364,1,0,0:0:0:0:
320,192,63439,1,0,0:0:0:0:
64,192,63514,1,0,0:0:0:0:
192,192,63589,1,0,0:0:0:0:
448,192,63589,1,0,0:0:0:0:
320,192,63664,1,0,0:0:0:0:
64,192,63739,1,0,0:0:0:0:
192,192,63814,1,0,0:0:0:0:
320,192,63889,1,0,0:0:0:0:
448,192,63889,1,0,0:0:0:0:
192,192,63964,1,0,0:0:0:0:
64,192,64039,1,0,0:0:0:0:
448,192,64114,1,0,0:0:0:0:
192,192,64189,1,0,0:0:0:0:
64,192,64189,1,0,0:0:0:0:
320,192,64264,1,0,0:0:0:0:
448,192,64339,1,0,0:0:0:0:
64,192,64414,1,0,0:0:0:0:
192,192,64489,1,0,0:0:0:0:
448,192,64489,1,0,0:0:0:0:
320,192,64564,1,0,0:0:0:0:
64,192,64639,1,0,0:0:0:0:
448,192,64714,1,0,0:0:0:0:
64,192,64789,1,0,0:0:0:0:
192,192,64789,1,0,0:0:0:0:
320,192,64864,1,0,0:0:0:0:
448,192,64939,1,0,0:0:0:0:
320,192,65014,1,0,0:0:0:0:
448,192,65089,1,0,0:0:0:0:
192,192,65089,1,0,0:0:0:0:
64,192,65164,1,0,0:0:0:0:
320,192,65239,1,0,0:0:0:0:
192,192,65314,1,0,0:0:0:0:
320,192,65389,1,0,0:0:0:0:
448,192,65389,1,0,0:0:0:0:
64,192,65464,1,0,0:0:0:0:
192,192,65539,1,0,0:0:0:0:
448,192,65614,1,0,0:0:0:0:
64,192,65689,1,0,0:0:0:0:
320,192,65689,1,0,0:0:0:0:
192,192,65764,1,0,0:0:0:0:
448,192,65839,1,0,0:0:0:0:
64,192,65914,1,0,0:0:0:0:
192,192,65989,1,0,0:0:0:0:
320,192,65989,1,0,0:0:0:0:
448,192,66064,1,0,0:0:0:0:
64,192,66139,1,0,0:0:0:0:
192,192,66139,1,0,0:0:0:0:
320,192,66214,1,0,0:0:0:0:
192,192,66289,1,0,0:0:0:0:
448,192,66289,1,0,0:0:0:0:
64,192,66364,1,0,0:0:0:0:
320,192,66439,1,0,0:0:0:0:
448,192,66439,1,0,0:0:0:0:
192,192,66514,1,0,0:0:0:0:
64,192,66589,1,0,0:0:0:0:
320,192,66589,1,0,0:0:0:0:
192,192,66664,1,0,0:0:0:0:
448,192,66739,1,0,0:0:0:0:
64,192,66739,1,0,0:0:0:0:
192,192,66814,1,0,0:0:0:0:
320,192,66889,1,0,0:0:0:0:
448,192,66889,1,0,0:0:0:0:
64,192,66964,1,0,0:0:0:0:
320,192,67039,1,0,0:0:0:0:
448,192,67039,1,0,0:0:0:0:
192,192,67114,1,0,0:0:0:0:
64,192,67189,1,0,0:0:0:0:
320,192,67189,1,0,0:0:0:0:
448,192,67189,1,0,0:0:0:0:
192,192,67264,1,0,0:0:0:0:
64,192,67339,1,0,0:0:0:0:
320,192,67339,1,0,0:0:0:0:
448,192,67414,1,0,0:0:0:0:
64,192,67489,1,0,0:0:0:0:
192,192,67489,1,0,0:0:0:0:
320,192,67564,1,0,0:0:0:0:
192,192,67639,1,0,0:0:0:0:
448,192,67639,1,0,0:0:0:0:
64,192,67714,1,0,0:0:0:0:
192,192,67789,1,0,0:0:0:0:
320,192,67789,1,0,0:0:0:0:
448,192,67864,1,0,0:0:0:0:
64,192,67939,1,0,0:0:0:0:
320,192,67939,1,0,0:0:0:0:
192,192,68014,1,0,0:0:0:0:
320,192,68089,1,0,0:0:0:0:
448,192,68089,1,0,0:0:0:0:
64,192,68164,1,0,0:0:0:0:
192,192,68239,1,0,0:0:0:0:
448,192,68239,1,0,0:0:0:0:
320,192,68314,1,0,0:0:0:0:
64,192,68389,1,0,0:0:0:0:
192,192,68389,1,0,0:0:0:0:
320,192,68464,1,0,0:0:0:0:
192,192,68539,1,0,0:0:0:0:
448,192,68539,1,0,0:0:0:0:
64,192,68614,1,0,0:0:0:0:
320,192,68689,1,0,0:0:0:0:
448,192,68689,1,0,0:0:0:0:
192,192,68764,1,0,0:0:0:0:
64,192,68839,1,0,0:0:0:0:
448,192,68839,1,0,0:0:0:0:
320,192,68914,1,0,0:0:0:0:
192,192,68989,1,0,0:0:0:0:
64,192,68989,1,0,0:0:0:0:
448,192,69064,1,0,0:0:0:0:
64,192,69139,1,0,0:0:0:0:
320,192,69139,1,0,0:0:0:0:
192,192,69214,1,0,0:0:0:0:
320,192,69289,1,0,0:0:0:0:
448,192,69289,1,0,0:0:0:0:
64,192,69364,1,0,0:0:0:0:
192,192,69439,1,0,0:0:0:0:
448,192,69439,1,0,0:0:0:0:
320,192,69514,1,0,0:0:0:0:
64,192,69589,1,0,0:0:0:0:
192,192,69589,1,0,0:0:0:0:
320,192,69664,1,0,0:0:0:0:
192,192,69739,1,0,0:0:0:0:
448,192,69739,1,0,0:0:0:0:
64,192,69814,1,0,0:0:0:0:
320,192,69889,1,0,0:0:0:0:
448,192,69889,1,0,0:0:0:0:
192,192,69964,1,0,0:0:0:0:
64,192,70039,1,0,0:0:0:0:
320,192,70039,1,0,0:0:0:0:
448,192,70114,1,0,0:0:0:0:
192,192,70189,1,0,0:0:0:0:
320,192,70189,1,0,0:0:0:0:
64,192,70264,1,0,0:0:0:0:
192,192,70339,1,0,0:0:0:0:
448,192,70339,1,0,0:0:0:0:
320,192,70414,1,0,0:0:0:0:
64,192,70489,1,0,0:0:0:0:
192,192,70489,1,0,0:0:0:0:
448,192,70564,1,0,0:0:0:0:
64,192,70639,1,0,0:0:0:0:
320,192,70639,1,0,0:0:0:0:
192,192,70714,1,0,0:0:0:0:
320,192,70789,1,0,0:0:0:0:
448,192,70789,1,0,0:0:0:0:
64,192,70864,1,0,0:0:0:0:
192,192,70939,1,0,0:0:0:0:
448,192,70939,1,0,0:0:0:0:
320,192,71014,1,0,0:0:0:0:
64,192,71089,1,0,0:0:0:0:
192,192,71089,1,0,0:0:0:0:
448,192,71164,1,0,0:0:0:0:
64,192,71239,1,0,0:0:0:0:
320,192,71239,1,0,0:0:0:0:
192,192,71314,1,0,0:0:0:0:
320,192,71389,1,0,0:0:0:0:
448,192,71389,1,0,0:0:0:0:
64,192,71464,1,0,0:0:0:0:
320,192,71539,1,0,0:0:0:0:
448,192,71539,1,0,0:0:0:0:
448,192,71839,1,0,0:0:0:0:
320,192,71839,1,0,0:0:0:0:
320,192,71989,1,0,0:0:0:0:
448,192,71989,1,0,0:0:0:0:
192,192,72064,1,0,0:0:0:0:
64,192,72139,1,0,0:0:0:0:
448,192,72139,1,0,0:0:0:0:
320,192,72214,1,0,0:0:0:0:
192,192,72289,1,0,0:0:0:0:
64,192,72289,1,0,0:0:0:0:
320,192,72364,1,0,0:0:0:0:
192,192,72439,1,0,0:0:0:0:
448,192,72439,1,0,0:0:0:0:
64,192,72514,1,0,0:0:0:0:
320,192,72589,1,0,0:0:0:0:
448,192,72589,1,0,0:0:0:0:
192,192,72664,1,0,0:0:0:0:
64,192,72739,1,0,0:0:0:0:
320,192,72739,1,0,0:0:0:0:
448,192,72814,1,0,0:0:0:0:
192,192,72889,1,0,0:0:0:0:
64,192,72889,1,0,0:0:0:0:
320,192,72964,1,0,0:0:0:0:
192,192,73039,1,0,0:0:0:0:
448,192,73039,1,0,0:0:0:0:
64,192,73114,1,0,0:0:0:0:
320,192,73189,1,0,0:0:0:0:
448,192,73189,1,0,0:0:0:0:
192,192,73264,1,0,0:0:0:0:
64,192,73339,1,0,0:0:0:0:
448,192,73339,1,0,0:0:0:0:
192,192,73414,1,0,0:0:0:0:
320,192,73489,1,0,0:0:0:0:
448,192,73489,1,0,0:0:0:0:
64,192,73564,1,0,0:0:0:0:
192,192,73639,1,0,0:0:0:0:
448,192,73639,1,0,0:0:0:0:
320,192,73714,1,0,0:0:0:0:
192,192,73789,1,0,0:0:0:0:
64,192,73789,1,0,0:0:0:0:
448,192,73864,1,0,0:0:0:0:
64,192,73939,1,0,0:0:0:0:
320,192,73939,1,0,0:0:0:0:
192,192,74014,1,0,0:0:0:0:
320,192,74089,1,0,0:0:0:0:
448,192,74089,1,0,0:0:0:0:
64,192,74164,1,0,0:0:0:0:
192,192,74239,1,0,0:0:0:0:
448,192,74239,1,0,0:0:0:0:
320,192,74314,1,0,0:0:0:0:
64,192,74389,1,0,0:0:0:0:
192,192,74389,1,0,0:0:0:0:
448,192,74464,1,0,0:0:0:0:
64,192,74539,1,0,0:0:0:0:
320,192,74539,1,0,0:0:0:0:
192,192,74614,1,0,0:0:0:0:
320,192,74689,1,0,0:0:0:0:
448,192,74689,1,0,0:0:0:0:
192,192,74764,1,0,0:0:0:0:
64,192,74839,1,0,0:0:0:0:
448,192,74839,1,0,0:0:0:0:
320,192,74914,1,0,0:0:0:0:
64,192,74989,1,0,0:0:0:0:
192,192,74989,1,0,0:0:0:0:
448,192,75064,1,0,0:0:0:0:
64,192,75139,1,0,0:0:0:0:
320,192,75139,1,0,0:0:0:0:
192,192,75214,1,0,0:0:0:0:
320,192,75289,1,0,0:0:0:0:
448,192,75289,1,0,0:0:0:0:
64,192,75364,1,0,0:0:0:0:
192,192,75439,1,0,0:0:0:0:
448,192,75439,1,0,0:0:0:0:
320,192,75514,1,0,0:0:0:0:
192,192,75589,1,0,0:0:0:0:
64,192,75589,1,0,0:0:0:0:
448,192,75664,1,0,0:0:0:0:
192,192,75739,1,0,0:0:0:0:
64,192,75739,1,0,0:0:0:0:
320,192,75814,1,0,0:0:0:0:
64,192,75889,1,0,0:0:0:0:
192,192,75889,1,0,0:0:0:0:
448,192,75964,1,0,0:0:0:0:
192,192,76039,1,0,0:0:0:0:
64,192,76039,1,0,0:0:0:0:
320,192,76114,1,0,0:0:0:0:
192,192,76189,1,0,0:0:0:0:
64,192,76189,1,0,0:0:0:0:
448,192,76264,1,0,0:0:0:0:
64,192,76339,1,0,0:0:0:0:
192,192,76339,1,0,0:0:0:0:
320,192,76414,1,0,0:0:0:0:
192,192,76489,1,0,0:0:0:0:
64,192,76489,1,0,0:0:0:0:
320,192,76564,1,0,0:0:0:0:
448,192,76564,1,0,0:0:0:0:
192,192,76639,1,0,0:0:0:0:
64,192,76639,1,0,0:0:0:0:
320,192,76714,1,0,0:0:0:0:
448,192,76714,1,0,0:0:0:0:
192,192,76789,1,0,0:0:0:0:
64,192,76789,1,0,0:0:0:0:
320,192,76864,1,0,0:0:0:0:
448,192,76939,1,0,0:0:0:0:
64,192,77014,1,0,0:0:0:0:
320,192,77089,1,0,0:0:0:0:
192,192,77089,1,0,0:0:0:0:
448,192,77164,1,0,0:0:0:0:
64,192,77239,1,0,0:0:0:0:
320,192,77239,1,0,0:0:0:0:
448,192,77314,1,0,0:0:0:0:
64,192,77389,1,0,0:0:0:0:
192,192,77389,1,0,0:0:0:0:
320,192,77464,1,0,0:0:0:0:
192,192,77539,1,0,0:0:0:0:
448,192,77539,1,0,0:0:0:0:
320,192,77614,1,0,0:0:0:0:
64,192,77689,1,0,0:0:0:0:
448,192,77689,1,0,0:0:0:0:
192,192,77764,1,0,0:0:0:0:
64,192,77839,1,0,0:0:0:0:
448,192,77839,1,0,0:0:0:0:
320,192,77914,1,0,0:0:0:0:
192,192,77989,1,0,0:0:0:0:
64,192,77989,1,0,0:0:0:0:
448,192,78064,1,0,0:0:0:0:
320,192,78139,1,0,0:0:0:0:
448,192,78214,1,0,0:0:0:0:
320,192,78289,1,0,0:0:0:0:
192,192,78289,1,0,0:0:0:0:
64,192,78364,1,0,0:0:0:0:
192,192,78439,1,0,0:0:0:0:
448,192,78439,1,0,0:0:0:0:
320,192,78514,1,0,0:0:0:0:
64,192,78589,1,0,0:0:0:0:
448,192,78589,1,0,0:0:0:0:
192,192,78664,1,0,0:0:0:0:
320,192,78739,1,0,0:0:0:0:
192,192,78814,1,0,0:0:0:0:
320,192,78889,1,0,0:0:0:0:
448,192,78889,1,0,0:0:0:0:
64,192,78964,1,0,0:0:0:0:
320,192,79039,1,0,0:0:0:0:
448,192,79039,1,0,0:0:0:0:
192,192,79114,1,0,0:0:0:0:
320,192,79189,1,0,0:0:0:0:
448,192,79189,1,0,0:0:0:0:
64,192,79264,1,0,0:0:0:0:
192,192,79339,1,0,0:0:0:0:
64,192,79414,1,0,0:0:0:0:
192,192,79489,1,0,0:0:0:0:
448,192,79489,1,0,0:0:0:0:
320,192,79564,1,0,0:0:0:0:
64,192,79639,1,0,0:0:0:0:
192,192,79639,1,0,0:0:0:0:
448,192,79714,1,0,0:0:0:0:
64,192,79789,1,0,0:0:0:0:
320,192,79789,1,0,0:0:0:0:
192,192,79864,1,0,0:0:0:0:
64,192,79939,1,0,0:0:0:0:
448,192,79939,1,0,0:0:0:0:
192,192,80014,1,0,0:0:0:0:
64,192,80089,1,0,0:0:0:0:
320,192,80089,1,0,0:0:0:0:
448,192,80164,1,0,0:0:0:0:
192,192,80239,1,0,0:0:0:0:
64,192,80239,1,0,0:0:0:0:
320,192,80314,1,0,0:0:0:0:
192,192,80389,1,0,0:0:0:0:
448,192,80389,1,0,0:0:0:0:
64,192,80464,1,0,0:0:0:0:
320,192,80539,1,0,0:0:0:0:
448,192,80614,1,0,0:0:0:0:
192,192,80689,1,0,0:0:0:0:
64,192,80689,1,0,0:0:0:0:
448,192,80764,1,0,0:0:0:0:
64,192,80839,1,0,0:0:0:0:
320,192,80839,1,0,0:0:0:0:
192,192,80914,1,0,0:0:0:0:
448,192,80989,1,0,0:0:0:0:
320,192,80989,1,0,0:0:0:0:
64,192,81064,1,0,0:0:0:0:
192,192,81139,1,0,0:0:0:0:
320,192,81139,1,0,0:0:0:0:
448,192,81214,1,0,0:0:0:0:
320,192,81289,1,0,0:0:0:0:
64,192,81289,1,0,0:0:0:0:
448,192,81364,1,0,0:0:0:0:
192,192,81439,1,0,0:0:0:0:
64,192,81439,1,0,0:0:0:0:
320,192,81514,1,0,0:0:0:0:
192,192,81589,1,0,0:0:0:0:
448,192,81589,1,0,0:0:0:0:
64,192,81664,1,0,0:0:0:0:
448,192,81739,1,0,0:0:0:0:
320,192,81814,1,0,0:0:0:0:
64,192,81889,1,0,0:0:0:0:
192,192,81889,1,0,0:0:0:0:
448,192,81964,1,0,0:0:0:0:
320,192,82039,1,0,0:0:0:0:
192,192,82039,1,0,0:0:0:0:
64,192,82114,1,0,0:0:0:0:
192,192,82189,1,0,0:0:0:0:
448,192,82189,1,0,0:0:0:0:
320,192,82264,1,0,0:0:0:0:
64,192,82339,1,0,0:0:0:0:
448,192,82339,1,0,0:0:0:0:
192,192,82414,1,0,0:0:0:0:
320,192,82489,1,0,0:0:0:0:
448,192,82489,1,0,0:0:0:0:
64,192,82564,1,0,0:0:0:0:
192,192,82639,1,0,0:0:0:0:
448,192,82639,1,0,0:0:0:0:
320,192,82714,1,0,0:0:0:0:
64,192,82789,1,0,0:0:0:0:
192,192,82789,1,0,0:0:0:0:
448,192,82864,1,0,0:0:0:0:
320,192,82939,1,0,0:0:0:0:
448,192,83014,1,0,0:0:0:0:
320,192,83089,1,0,0:0:0:0:
192,192,83089,1,0,0:0:0:0:
64,192,83164,1,0,0:0:0:0:
320,192,83239,1,0,0:0:0:0:
448,192,83239,1,0,0:0:0:0:
192,192,83314,1,0,0:0:0:0:
64,192,83389,1,0,0:0:0:0:
448,192,83389,1,0,0:0:0:0:
320,192,83464,1,0,0:0:0:0:
192,192,83539,1,0,0:0:0:0:
448,192,83614,1,0,0:0:0:0:
192,192,83689,1,0,0:0:0:0:
320,192,83689,1,0,0:0:0:0:
448,192,83764,1,0,0:0:0:0:
64,192,83839,1,0,0:0:0:0:
192,192,83839,1,0,0:0:0:0:
320,192,83914,1,0,0:0:0:0:
192,192,83989,1,0,0:0:0:0:
64,192,83989,1,0,0:0:0:0:
448,192,84064,1,0,0:0:0:0:
320,192,84139,1,0,0:0:0:0:
192,192,84214,1,0,0:0:0:0:
64,192,84289,1,0,0:0:0:0:
320,192,84289,1,0,0:0:0:0:
192,192,84364,1,0,0:0:0:0:
64,192,84439,1,0,0:0:0:0:
448,192,84439,1,0,0:0:0:0:
192,192,84514,1,0,0:0:0:0:
320,192,84589,1,0,0:0:0:0:
448,192,84589,1,0,0:0:0:0:
64,192,84664,1,0,0:0:0:0:
192,192,84739,1,0,0:0:0:0:
448,192,84739,1,0,0:0:0:0:
320,192,84814,1,0,0:0:0:0:
64,192,84889,1,0,0:0:0:0:
448,192,84889,1,0,0:0:0:0:
320,192,84964,1,0,0:0:0:0:
192,192,85039,1,0,0:0:0:0:
64,192,85039,1,0,0:0:0:0:
448,192,85114,1,0,0:0:0:0:
192,192,85189,1,0,0:0:0:0:
64,192,85189,1,0,0:0:0:0:
320,192,85264,1,0,0:0:0:0:
192,192,85339,1,0,0:0:0:0:
64,192,85414,1,0,0:0:0:0:
320,192,85489,1,0,0:0:0:0:
448,192,85489,1,0,0:0:0:0:
192,192,85564,1,0,0:0:0:0:
64,192,85639,1,0,0:0:0:0:
448,192,85639,1,0,0:0:0:0:
320,192,85714,1,0,0:0:0:0:
192,192,85789,1,0,0:0:0:0:
448,192,85789,1,0,0:0:0:0:
64,192,85864,1,0,0:0:0:0:
192,192,85939,1,0,0:0:0:0:
320,192,85939,1,0,0:0:0:0:
448,192,86014,1,0,0:0:0:0:
192,192,86089,1,0,0:0:0:0:
64,192,86089,1,0,0:0:0:0:
320,192,86164,1,0,0:0:0:0:
64,192,86239,1,0,0:0:0:0:
448,192,86239,1,0,0:0:0:0:
192,192,86314,1,0,0:0:0:0:
320,192,86389,1,0,0:0:0:0:
448,192,86389,1,0,0:0:0:0:
64,192,86464,1,0,0:0:0:0:
320,192,86539,1,0,0:0:0:0:
192,192,86614,1,0,0:0:0:0:
320,192,86689,1,0,0:0:0:0:
448,192,86689,1,0,0:0:0:0:
64,192,86764,1,0,0:0:0:0:
192,192,86839,1,0,0:0:0:0:
448,192,86839,1,0,0:0:0:0:
320,192,86914,1,0,0:0:0:0:
64,192,86989,1,0,0:0:0:0:
448,192,86989,1,0,0:0:0:0:
192,192,87064,1,0,0:0:0:0:
320,192,87139,1,0,0:0:0:0:
448,192,87139,1,0,0:0:0:0:
64,192,87214,1,0,0:0:0:0:
192,192,87289,1,0,0:0:0:0:
448,192,87289,1,0,0:0:0:0:
320,192,87364,1,0,0:0:0:0:
192,192,87439,1,0,0:0:0:0:
64,192,87439,1,0,0:0:0:0:
448,192,87514,1,0,0:0:0:0:
192,192,87589,1,0,0:0:0:0:
320,192,87589,1,0,0:0:0:0:
64,192,87664,1,0,0:0:0:0:
448,192,87739,1,0,0:0:0:0:
320,192,87814,1,0,0:0:0:0:
192,192,87889,1,0,0:0:0:0:
64,192,87889,1,0,0:0:0:0:
448,192,87964,1,0,0:0:0:0:
64,192,88039,1,0,0:0:0:0:
320,192,88039,1,0,0:0:0:0:
192,192,88114,1,0,0:0:0:0:
320,192,88189,1,0,0:0:0:0:
448,192,88189,1,0,0:0:0:0:
192,192,88264,1,0,0:0:0:0:
64,192,88339,1,0,0:0:0:0:
448,192,88339,1,0,0:0:0:0:
320,192,88414,1,0,0:0:0:0:
192,192,88489,1,0,0:0:0:0:
448,192,88489,1,0,0:0:0:0:
320,192,88564,1,0,0:0:0:0:
192,192,88639,1,0,0:0:0:0:
64,192,88639,1,0,0:0:0:0:
448,192,88714,1,0,0:0:0:0:
64,192,88789,1,0,0:0:0:0:
192,192,88789,1,0,0:0:0:0:
320,192,88864,1,0,0:0:0:0:
448,192,88939,1,0,0:0:0:0:
64,192,89014,1,0,0:0:0:0:
320,192,89089,1,0,0:0:0:0:
448,192,89089,1,0,0:0:0:0:
192,192,89164,1,0,0:0:0:0:
448,192,89239,1,0,0:0:0:0:
64,192,89239,1,0,0:0:0:0:
320,192,89314,1,0,0:0:0:0:
192,192,89389,1,0,0:0:0:0:
448,192,89389,1,0,0:0:0:0:
64,192,89464,1,0,0:0:0:0:
320,192,89539,1,0,0:0:0:0:
448,192,89539,1,0,0:0:0:0:
192,192,89614,1,0,0:0:0:0:
64,192,89689,1,0,0:0:0:0:
448,192,89689,1,0,0:0:0:0:
320,192,89764,1,0,0:0:0:0:
192,192,89839,1,0,0:0:0:0:
64,192,89839,1,0,0:0:0:0:
448,192,89914,1,0,0:0:0:0:
320,192,89989,1,0,0:0:0:0:
64,192,89989,1,0,0:0:0:0:
192,192,90064,1,0,0:0:0:0:
448,192,90139,1,0,0:0:0:0:
320,192,90214,1,0,0:0:0:0:
192,192,90289,1,0,0:0:0:0:
64,192,90289,1,0,0:0:0:0:
448,192,90364,1,0,0:0:0:0:
64,192,90439,1,0,0:0:0:0:
320,192,90439,1,0,0:0:0:0:
192,192,90514,1,0,0:0:0:0:
320,192,90589,1,0,0:0:0:0:
448,192,90589,1,0,0:0:0:0:
64,192,90664,1,0,0:0:0:0:
192,192,90739,1,0,0:0:0:0:
448,192,90739,1,0,0:0:0:0:
320,192,90814,1,0,0:0:0:0:
192,192,90889,1,0,0:0:0:0:
64,192,90889,1,0,0:0:0:0:
448,192,90964,1,0,0:0:0:0:
64,192,91039,1,0,0:0:0:0:
320,192,91039,1,0,0:0:0:0:
192,192,91114,1,0,0:0:0:0:
320,192,91189,1,0,0:0:0:0:
448,192,91189,1,0,0:0:0:0:
64,192,91264,1,0,0:0:0:0:
320,192,91339,1,0,0:0:0:0:
192,192,91414,1,0,0:0:0:0:
320,192,91489,1,0,0:0:0:0:
448,192,91489,1,0,0:0:0:0:
64,192,91564,1,0,0:0:0:0:
192,192,91639,1,0,0:0:0:0:
320,192,91639,1,0,0:0:0:0:
64,192,91714,1,0,0:0:0:0:
192,192,91789,1,0,0:0:0:0:
448,192,91789,1,0,0:0:0:0:
320,192,91864,1,0,0:0:0:0:
64,192,91939,1,0,0:0:0:0:
448,192,91939,1,0,0:0:0:0:
192,192,92014,1,0,0:0:0:0:
320,192,92089,1,0,0:0:0:0:
448,192,92089,1,0,0:0:0:0:
192,192,92164,1,0,0:0:0:0:
64,192,92239,1,0,0:0:0:0:
320,192,92239,1,0,0:0:0:0:
448,192,92314,1,0,0:0:0:0:
192,192,92389,1,0,0:0:0:0:
64,192,92389,1,0,0:0:0:0:
320,192,92464,1,0,0:0:0:0:
448,192,92539,1,0,0:0:0:0:
192,192,92614,1,0,0:0:0:0:
320,192,92689,1,0,0:0:0:0:
448,192,92689,1,0,0:0:0:0:
64,192,92764,1,0,0:0:0:0:
192,192,92839,1,0,0:0:0:0:
448,192,92839,1,0,0:0:0:0:
320,192,92914,1,0,0:0:0:0:
192,192,92989,1,0,0:0:0:0:
64,192,92989,1,0,0:0:0:0:
320,192,93064,1,0,0:0:0:0:
448,192,93139,1,0,0:0:0:0:
64,192,93139,1,0,0:0:0:0:
192,192,93214,1,0,0:0:0:0:
320,192,93289,1,0,0:0:0:0:
448,192,93289,1,0,0:0:0:0:
64,192,93364,1,0,0:0:0:0:
192,192,93439,1,0,0:0:0:0:
320,192,93439,1,0,0:0:0:0:
448,192,93514,1,0,0:0:0:0:
192,192,93589,1,0,0:0:0:0:
64,192,93589,1,0,0:0:0:0:
320,192,93664,1,0,0:0:0:0:
448,192,93739,1,0,0:0:0:0:
320,192,93814,1,0,0:0:0:0:
192,192,93889,1,0,0:0:0:0:
64,192,93889,1,0,0:0:0:0:
320,192,93964,1,0,0:0:0:0:
192,192,94039,1,0,0:0:0:0:
64,192,94114,1,0,0:0:0:0:
448,192,94189,1,0,0:0:0:0:
320,192,94189,1,0,0:0:0:0:
192,192,94264,1,0,0:0:0:0:
320,192,94339,1,0,0:0:0:0:
448,192,94414,1,0,0:0:0:0:
64,192,94489,1,0,0:0:0:0:
192,192,94489,1,0,0:0:0:0:
320,192,94564,1,0,0:0:0:0:
448,192,94639,1,0,0:0:0:0:
64,192,94639,1,0,0:0:0:0:
192,192,94714,1,0,0:0:0:0:
320,192,94789,1,0,0:0:0:0:
448,192,94789,1,0,0:0:0:0:
64,192,94864,1,0,0:0:0:0:
320,192,94939,1,0,0:0:0:0:
448,192,94939,1,0,0:0:0:0:
192,192,95014,1,0,0:0:0:0:
448,192,95089,1,0,0:0:0:0:
320,192,95089,1,0,0:0:0:0:
64,192,95164,1,0,0:0:0:0:
320,192,95239,1,0,0:0:0:0:
448,192,95239,1,0,0:0:0:0:
192,192,95314,1,0,0:0:0:0:
320,192,95389,1,0,0:0:0:0:
448,192,95389,1,0,0:0:0:0:
64,192,95464,1,0,0:0:0:0:
448,192,95539,1,0,0:0:0:0:
320,192,95539,1,0,0:0:0:0:
192,192,95614,1,0,0:0:0:0:
320,192,95689,1,0,0:0:0:0:
448,192,95689,1,0,0:0:0:0:
192,192,95764,1,0,0:0:0:0:
64,192,95764,1,0,0:0:0:0:
320,192,95839,1,0,0:0:0:0:
448,192,95839,1,0,0:0:0:0:
192,192,95914,1,0,0:0:0:0:
64,192,95914,1,0,0:0:0:0:
320,192,95989,1,0,0:0:0:0:
448,192,95989,1,0,0:0:0:0:
192,192,96289,1,0,0:0:0:0:
320,192,96439,1,0,0:0:0:0:
64,192,96439,1,0,0:0:0:0:
320,192,97039,1,0,0:0:0:0:
448,192,97189,1,0,0:0:0:0:
192,192,97339,1,0,0:0:0:0:
64,192,97489,1,0,0:0:0:0:
320,192,97639,1,0,0:0:0:0:
448,192,97789,1,0,0:0:0:0:
448,192,97939,1,0,0:0:0:0:
192,192,98239,1,0,0:0:0:0:
448,192,98389,1,0,0:0:0:0:
64,192,98389,1,0,0:0:0:0:
320,192,98689,1,0,0:0:0:0:
192,192,98839,1,0,0:0:0:0:
448,192,98839,1,0,0:0:0:0:
448,192,99439,1,0,0:0:0:0:
320,192,99514,1,0,0:0:0:0:
448,192,99589,1,0,0:0:0:0:
192,192,99739,1,0,0:0:0:0:
448,192,99889,1,0,0:0:0:0:
320,192,100039,1,0,0:0:0:0:
64,192,100189,1,0,0:0:0:0:
448,192,100339,1,0,0:0:0:0:
64,192,100639,1,0,0:0:0:0:
320,192,100789,1,0,0:0:0:0:
448,192,100789,1,0,0:0:0:0:
448,192,101089,1,0,0:0:0:0:
320,192,101239,1,0,0:0:0:0:
64,192,101539,1,0,0:0:0:0:
320,192,101689,1,0,0:0:0:0:
192,192,101839,1,0,0:0:0:0:
448,192,102289,1,0,0:0:0:0:
320,192,102289,1,0,0:0:0:0:
448,192,102439,1,0,0:0:0:0:
320,192,102439,1,0,0:0:0:0:
320,192,102739,1,0,0:0:0:0:
448,192,102889,1,0,0:0:0:0:
192,192,103039,1,0,0:0:0:0:
320,192,103189,1,0,0:0:0:0:
64,192,103489,1,0,0:0:0:0:
192,192,103489,1,0,0:0:0:0:
64,192,103639,1,0,0:0:0:0:
192,192,103639,1,0,0:0:0:0:
448,192,103939,1,0,0:0:0:0:
192,192,104089,1,0,0:0:0:0:
320,192,104239,1,0,0:0:0:0:
64,192,104389,1,0,0:0:0:0:
192,192,104389,1,0,0:0:0:0:
320,192,104989,1,0,0:0:0:0:
448,192,104989,1,0,0:0:0:0:
192,192,105589,1,0,0:0:0:0:
64,192,105589,1,0,0:0:0:0:
448,192,105589,1,0,0:0:0:0:
320,192,105664,1,0,0:0:0:0:
192,192,105739,1,0,0:0:0:0:
64,192,105739,1,0,0:0:0:0:
448,192,105814,1,0,0:0:0:0:
320,192,105814,1,0,0:0:0:0:
192,192,105889,1,0,0:0:0:0:
64,192,105889,1,0,0:0:0:0:
448,192,105964,1,0,0:0:0:0:
192,192,106039,1,0,0:0:0:0:
320,192,106114,1,0,0:0:0:0:
448,192,106189,1,0,0:0:0:0:
64,192,106189,1,0,0:0:0:0:
192,192,106264,1,0,0:0:0:0:
320,192,106339,1,0,0:0:0:0:
448,192,106339,1,0,0:0:0:0:
192,192,106414,1,0,0:0:0:0:
64,192,106414,1,0,0:0:0:0:
320,192,106489,1,0,0:0:0:0:
448,192,106489,1,0,0:0:0:0:
64,192,106564,1,0,0:0:0:0:
192,192,106639,1,0,0:0:0:0:
320,192,106714,1,0,0:0:0:0:
192,192,106789,1,0,0:0:0:0:
448,192,106789,1,0,0:0:0:0:
64,192,106864,1,0,0:0:0:0:
320,192,106939,1,0,0:0:0:0:
448,192,106939,1,0,0:0:0:0:
192,192,107014,1,0,0:0:0:0:
64,192,107014,1,0,0:0:0:0:
320,192,107089,1,0,0:0:0:0:
448,192,107089,1,0,0:0:0:0:
192,192,107164,1,0,0:0:0:0:
64,192,107239,1,0,0:0:0:0:
320,192,107314,1,0,0:0:0:0:
192,192,107389,1,0,0:0:0:0:
448,192,107389,1,0,0:0:0:0:
320,192,107464,1,0,0:0:0:0:
192,192,107539,1,0,0:0:0:0:
64,192,107539,1,0,0:0:0:0:
448,192,107614,1,0,0:0:0:0:
320,192,107614,1,0,0:0:0:0:
192,192,107689,1,0,0:0:0:0:
64,192,107689,1,0,0:0:0:0:
448,192,107764,1,0,0:0:0:0:
320,192,107839,1,0,0:0:0:0:
64,192,107914,1,0,0:0:0:0:
192,192,107989,1,0,0:0:0:0:
320,192,107989,1,0,0:0:0:0:
448,192,108064,1,0,0:0:0:0:
192,192,108139,1,0,0:0:0:0:
64,192,108139,1,0,0:0:0:0:
320,192,108214,1,0,0:0:0:0:
448,192,108214,1,0,0:0:0:0:
192,192,108289,1,0,0:0:0:0:
64,192,108289,1,0,0:0:0:0:
448,192,108364,1,0,0:0:0:0:
320,192,108439,1,0,0:0:0:0:
64,192,108514,1,0,0:0:0:0:
192,192,108589,1,0,0:0:0:0:
448,192,108589,1,0,0:0:0:0:
320,192,108664,1,0,0:0:0:0:
192,192,108739,1,0,0:0:0:0:
64,192,108739,1,0,0:0:0:0:
448,192,108814,1,0,0:0:0:0:
320,192,108814,1,0,0:0:0:0:
192,192,108889,1,0,0:0:0:0:
64,192,108889,1,0,0:0:0:0:
448,192,108964,1,0,0:0:0:0:
320,192,109039,1,0,0:0:0:0:
192,192,109114,1,0,0:0:0:0:
64,192,109189,1,0,0:0:0:0:
320,192,109189,1,0,0:0:0:0:
448,192,109264,1,0,0:0:0:0:
192,192,109339,1,0,0:0:0:0:
64,192,109339,1,0,0:0:0:0:
320,192,109414,1,0,0:0:0:0:
448,192,109414,1,0,0:0:0:0:
192,192,109489,1,0,0:0:0:0:
64,192,109489,1,0,0:0:0:0:
320,192,109564,1,0,0:0:0:0:
192,192,109639,1,0,0:0:0:0:
64,192,109639,1,0,0:0:0:0:
448,192,109714,1,0,0:0:0:0:
192,192,109789,1,0,0:0:0:0:
64,192,109789,1,0,0:0:0:0:
320,192,109864,1,0,0:0:0:0:
448,192,109864,1,0,0:0:0:0:
192,192,109939,1,0,0:0:0:0:
64,192,109939,1,0,0:0:0:0:
448,192,110014,1,0,0:0:0:0:
320,192,110089,1,0,0:0:0:0:
64,192,110164,1,0,0:0:0:0:
448,192,110239,1,0,0:0:0:0:
192,192,110239,1,0,0:0:0:0:
320,192,110314,1,0,0:0:0:0:
64,192,110389,1,0,0:0:0:0:
448,192,110389,1,0,0:0:0:0:
192,192,110464,1,0,0:0:0:0:
64,192,110539,1,0,0:0:0:0:
320,192,110539,1,0,0:0:0:0:
192,192,110614,1,0,0:0:0:0:
448,192,110689,1,0,0:0:0:0:
64,192,110689,1,0,0:0:0:0:
320,192,110764,1,0,0:0:0:0:
192,192,110839,1,0,0:0:0:0:
320,192,110914,1,0,0:0:0:0:
448,192,110989,1,0,0:0:0:0:
64,192,110989,1,0,0:0:0:0:
192,192,111064,1,0,0:0:0:0:
64,192,111139,1,0,0:0:0:0:
320,192,111139,1,0,0:0:0:0:
448,192,111214,1,0,0:0:0:0:
192,192,111289,1,0,0:0:0:0:
64,192,111364,1,0,0:0:0:0:
192,192,111439,1,0,0:0:0:0:
448,192,111439,1,0,0:0:0:0:
320,192,111514,1,0,0:0:0:0:
448,192,111589,1,0,0:0:0:0:
64,192,111589,1,0,0:0:0:0:
192,192,111664,1,0,0:0:0:0:
320,192,111739,1,0,0:0:0:0:
448,192,111814,1,0,0:0:0:0:
64,192,111889,1,0,0:0:0:0:
320,192,111889,1,0,0:0:0:0:
192,192,111964,1,0,0:0:0:0:
64,192,112039,1,0,0:0:0:0:
448,192,112039,1,0,0:0:0:0:
320,192,112114,1,0,0:0:0:0:
192,192,112189,1,0,0:0:0:0:
448,192,112264,1,0,0:0:0:0:
64,192,112339,1,0,0:0:0:0:
320,192,112339,1,0,0:0:0:0:
192,192,112414,1,0,0:0:0:0:
64,192,112489,1,0,0:0:0:0:
448,192,112489,1,0,0:0:0:0:
192,192,112789,1,0,0:0:0:0:
64,192,112789,1,0,0:0:0:0:
320,192,112939,1,0,0:0:0:0:
192,192,113389,1,0,0:0:0:0:
64,192,113389,1,0,0:0:0:0:
320,192,113539,1,0,0:0:0:0:
192,192,113989,1,0,0:0:0:0:
64,192,113989,1,0,0:0:0:0:
192,192,114139,1,0,0:0:0:0:
64,192,114139,1,0,0:0:0:0:
448,192,114289,1,0,0:0:0:0:
192,192,114439,1,0,0:0:0:0:
64,192,114439,1,0,0:0:0:0:
192,192,114739,1,0,0:0:0:0:
64,192,114739,1,0,0:0:0:0:
192,192,114889,1,0,0:0:0:0:
448,192,114889,1,0,0:0:0:0:
192,192,115189,1,0,0:0:0:0:
64,192,115189,1,0,0:0:0:0:
448,192,115189,1,0,0:0:0:0:
192,192,115339,1,0,0:0:0:0:
320,192,115339,1,0,0:0:0:0:
192,192,115489,1,0,0:0:0:0:
320,192,115489,1,0,0:0:0:0:
448,192,115489,1,0,0:0:0:0:
64,192,115639,1,0,0:0:0:0:
320,192,115639,1,0,0:0:0:0:
448,192,115639,1,0,0:0:0:0:
64,192,115789,1,0,0:0:0:0:
192,192,115789,1,0,0:0:0:0:
320,192,115789,1,0,0:0:0:0:
192,192,115939,1,0,0:0:0:0:
448,192,115939,1,0,0:0:0:0:
64,192,116089,1,0,0:0:0:0:
192,192,116089,1,0,0:0:0:0:
448,192,116089,1,0,0:0:0:0:
320,192,116239,1,0,0:0:0:0:
448,192,116239,1,0,0:0:0:0:
64,192,116389,1,0,0:0:0:0:
192,192,116389,1,0,0:0:0:0:
320,192,116389,1,0,0:0:0:0:
192,192,116539,1,0,0:0:0:0:
448,192,116539,1,0,0:0:0:0:
64,192,116689,1,0,0:0:0:0:
448,192,116689,1,0,0:0:0:0:
320,192,116689,1,0,0:0:0:0:
64,192,116839,1,0,0:0:0:0:
448,192,116839,1,0,0:0:0:0:
448,192,116989,1,0,0:0:0:0:
64,192,116989,1,0,0:0:0:0:
320,192,116989,1,0,0:0:0:0:
192,192,117139,1,0,0:0:0:0:
320,192,117139,1,0,0:0:0:0:
192,192,117289,1,0,0:0:0:0:
320,192,117289,1,0,0:0:0:0:
448,192,117289,1,0,0:0:0:0:
64,192,117589,1,0,0:0:0:0:
192,192,117589,1,0,0:0:0:0:
448,192,117589,1,0,0:0:0:0:
192,192,117739,1,0,0:0:0:0:
320,192,117739,1,0,0:0:0:0:
64,192,117889,1,0,0:0:0:0:
192,192,117889,1,0,0:0:0:0:
448,192,117889,1,0,0:0:0:0:
64,192,118039,1,0,0:0:0:0:
448,192,118039,1,0,0:0:0:0:
64,192,118189,1,0,0:0:0:0:
192,192,118189,1,0,0:0:0:0:
448,192,118189,1,0,0:0:0:0:
320,192,118339,1,0,0:0:0:0:
448,192,118339,1,0,0:0:0:0:
64,192,118489,1,0,0:0:0:0:
192,192,118489,1,0,0:0:0:0:
320,192,118489,1,0,0:0:0:0:
192,192,118639,1,0,0:0:0:0:
448,192,118639,1,0,0:0:0:0:
64,192,118789,1,0,0:0:0:0:
320,192,118789,1,0,0:0:0:0:
448,192,118789,1,0,0:0:0:0:
64,192,118939,1,0,0:0:0:0:
192,192,118939,1,0,0:0:0:0:
192,192,119089,1,0,0:0:0:0:
320,192,119089,1,0,0:0:0:0:
448,192,119089,1,0,0:0:0:0:
192,192,119389,1,0,0:0:0:0:
320,192,119389,1,0,0:0:0:0:
448,192,119389,1,0,0:0:0:0:
64,192,119539,1,0,0:0:0:0:
320,192,119539,1,0,0:0:0:0:
64,192,119689,1,0,0:0:0:0:
192,192,119689,1,0,0:0:0:0:
448,192,119689,1,0,0:0:0:0:
192,192,119839,1,0,0:0:0:0:
448,192,119839,1,0,0:0:0:0:
64,192,119989,1,0,0:0:0:0:
320,192,119989,1,0,0:0:0:0:
448,192,119989,1,0,0:0:0:0:
192,192,120139,1,0,0:0:0:0:
320,192,120139,1,0,0:0:0:0:
448,192,120139,1,0,0:0:0:0:
64,192,120289,1,0,0:0:0:0:
192,192,120289,1,0,0:0:0:0:
448,192,120289,1,0,0:0:0:0:
64,192,120439,1,0,0:0:0:0:
192,192,120439,1,0,0:0:0:0:
320,192,120439,1,0,0:0:0:0:
64,192,120589,1,0,0:0:0:0:
320,192,120589,1,0,0:0:0:0:
448,192,120589,1,0,0:0:0:0:
192,192,120739,1,0,0:0:0:0:
320,192,120739,1,0,0:0:0:0:
448,192,120739,1,0,0:0:0:0:
64,192,120889,1,0,0:0:0:0:
192,192,120889,1,0,0:0:0:0:
320,192,120889,1,0,0:0:0:0:
64,192,121039,1,0,0:0:0:0:
192,192,121039,1,0,0:0:0:0:
448,192,121039,1,0,0:0:0:0:
192,192,121189,1,0,0:0:0:0:
320,192,121189,1,0,0:0:0:0:
448,192,121189,1,0,0:0:0:0:
192,192,121339,1,0,0:0:0:0:
64,192,121339,1,0,0:0:0:0:
448,192,121339,1,0,0:0:0:0:
64,192,121489,1,0,0:0:0:0:
192,192,121489,1,0,0:0:0:0:
320,192,121489,1,0,0:0:0:0:
64,192,121639,1,0,0:0:0:0:
320,192,121639,1,0,0:0:0:0:
448,192,121639,1,0,0:0:0:0:
192,192,121789,1,0,0:0:0:0:
320,192,121789,1,0,0:0:0:0:
448,192,121789,1,0,0:0:0:0:
64,192,121939,1,0,0:0:0:0:
192,192,121939,1,0,0:0:0:0:
448,192,121939,1,0,0:0:0:0:
64,192,122089,1,0,0:0:0:0:
320,192,122089,1,0,0:0:0:0:
448,192,122089,1,0,0:0:0:0:
192,192,122239,1,0,0:0:0:0:
64,192,122239,1,0,0:0:0:0:
320,192,122239,1,0,0:0:0:0:
320,192,122389,1,0,0:0:0:0:
448,192,122389,1,0,0:0:0:0:
192,192,122464,1,0,0:0:0:0:
64,192,122464,1,0,0:0:0:0:
320,192,122539,1,0,0:0:0:0:
448,192,122539,1,0,0:0:0:0:
192,192,122614,1,0,0:0:0:0:
64,192,122614,1,0,0:0:0:0:
320,192,122689,1,0,0:0:0:0:
448,192,122689,1,0,0:0:0:0:
192,192,122764,1,0,0:0:0:0:
64,192,122764,1,0,0:0:0:0:
320,192,122839,1,0,0:0:0:0:
448,192,122839,1,0,0:0:0:0:
192,192,122914,1,0,0:0:0:0:
64,192,122914,1,0,0:0:0:0:
320,192,122989,1,0,0:0:0:0:
448,192,122989,1,0,0:0:0:0:
192,192,123064,1,0,0:0:0:0:
64,192,123064,1,0,0:0:0:0:
320,192,123139,1,0,0:0:0:0:
448,192,123139,1,0,0:0:0:0:
192,192,123214,1,0,0:0:0:0:
64,192,123214,1,0,0:0:0:0:
320,192,123289,1,0,0:0:0:0:
448,192,123289,1,0,0:0:0:0:
192,192,123364,1,0,0:0:0:0:
64,192,123364,1,0,0:0:0:0:
320,192,123439,1,0,0:0:0:0:
448,192,123439,1,0,0:0:0:0:
192,192,123514,1,0,0:0:0:0:
64,192,123514,1,0,0:0:0:0:
448,192,123589,1,0,0:0:0:0:
192,192,123664,1,0,0:0:0:0:
448,192,123739,1,0,0:0:0:0:
320,192,123814,1,0,0:0:0:0:
64,192,123889,1,0,0:0:0:0:
320,192,123964,1,0,0:0:0:0:
448,192,124039,1,0,0:0:0:0:
320,192,124114,1,0,0:0:0:0:
64,192,124189,1,0,0:0:0:0:
192,192,124264,1,0,0:0:0:0:
448,192,124339,1,0,0:0:0:0:
320,192,124414,1,0,0:0:0:0:
192,192,124489,1,0,0:0:0:0:
320,192,124564,1,0,0:0:0:0:
192,192,124639,1,0,0:0:0:0:
64,192,124639,1,0,0:0:0:0:
64,192,124789,1,0,0:0:0:0:
320,192,124789,1,0,0:0:0:0:
448,192,124789,1,0,0:0:0:0:
192,192,124864,1,0,0:0:0:0:
320,192,124939,1,0,0:0:0:0:
448,192,125014,1,0,0:0:0:0:
64,192,125089,1,0,0:0:0:0:
192,192,125089,1,0,0:0:0:0:
320,192,125164,1,0,0:0:0:0:
448,192,125239,1,0,0:0:0:0:
64,192,125239,1,0,0:0:0:0:
192,192,125314,1,0,0:0:0:0:
320,192,125389,1,0,0:0:0:0:
448,192,125389,1,0,0:0:0:0:
64,192,125464,1,0,0:0:0:0:
192,192,125539,1,0,0:0:0:0:
64,192,125614,1,0,0:0:0:0:
192,192,125689,1,0,0:0:0:0:
448,192,125689,1,0,0:0:0:0:
320,192,125764,1,0,0:0:0:0:
64,192,125839,1,0,0:0:0:0:
448,192,125839,1,0,0:0:0:0:
320,192,125914,1,0,0:0:0:0:
192,192,125989,1,0,0:0:0:0:
448,192,125989,1,0,0:0:0:0:
64,192,126064,1,0,0:0:0:0:
448,192,126139,1,0,0:0:0:0:
320,192,126139,1,0,0:0:0:0:
64,192,126214,1,0,0:0:0:0:
192,192,126289,1,0,0:0:0:0:
448,192,126289,1,0,0:0:0:0:
64,192,126364,1,0,0:0:0:0:
448,192,126439,1,0,0:0:0:0:
320,192,126439,1,0,0:0:0:0:
192,192,126514,1,0,0:0:0:0:
64,192,126589,1,0,0:0:0:0:
448,192,126589,1,0,0:0:0:0:
320,192,126664,1,0,0:0:0:0:
192,192,126739,1,0,0:0:0:0:
64,192,126739,1,0,0:0:0:0:
448,192,126739,1,0,0:0:0:0:
320,192,126814,1,0,0:0:0:0:
192,192,126889,1,0,0:0:0:0:
64,192,126964,1,0,0:0:0:0:
320,192,127039,1,0,0:0:0:0:
192,192,127039,1,0,0:0:0:0:
448,192,127114,1,0,0:0:0:0:
64,192,127189,1,0,0:0:0:0:
192,192,127189,1,0,0:0:0:0:
320,192,127189,1,0,0:0:0:0:
448,192,127264,1,0,0:0:0:0:
192,192,127339,1,0,0:0:0:0:
64,192,127414,1,0,0:0:0:0:
448,192,127489,1,0,0:0:0:0:
320,192,127489,1,0,0:0:0:0:
192,192,127564,1,0,0:0:0:0:
64,192,127639,1,0,0:0:0:0:
320,192,127639,1,0,0:0:0:0:
448,192,127714,1,0,0:0:0:0:
192,192,127789,1,0,0:0:0:0:
64,192,127864,1,0,0:0:0:0:
448,192,127939,1,0,0:0:0:0:
192,192,127939,1,0,0:0:0:0:
64,192,128014,1,0,0:0:0:0:
320,192,128089,1,0,0:0:0:0:
448,192,128164,1,0,0:0:0:0:
64,192,128239,1,0,0:0:0:0:
192,192,128239,1,0,0:0:0:0:
320,192,128314,1,0,0:0:0:0:
64,192,128389,1,0,0:0:0:0:
448,192,128389,1,0,0:0:0:0:
320,192,128464,1,0,0:0:0:0:
64,192,128539,1,0,0:0:0:0:
192,192,128539,1,0,0:0:0:0:
320,192,128614,1,0,0:0:0:0:
448,192,128689,1,0,0:0:0:0:
192,192,128689,1,0,0:0:0:0:
320,192,128764,1,0,0:0:0:0:
64,192,128839,1,0,0:0:0:0:
192,192,128839,1,0,0:0:0:0:
448,192,128914,1,0,0:0:0:0:
64,192,128989,1,0,0:0:0:0:
320,192,128989,1,0,0:0:0:0:
192,192,129064,1,0,0:0:0:0:
320,192,129139,1,0,0:0:0:0:
448,192,129139,1,0,0:0:0:0:
64,192,129214,1,0,0:0:0:0:
192,192,129289,1,0,0:0:0:0:
64,192,129364,1,0,0:0:0:0:
192,192,129439,1,0,0:0:0:0:
320,192,129439,1,0,0:0:0:0:
448,192,129514,1,0,0:0:0:0:
64,192,129589,1,0,0:0:0:0:
320,192,129589,1,0,0:0:0:0:
192,192,129589,1,0,0:0:0:0:
448,192,129664,1,0,0:0:0:0:
192,192,129739,1,0,0:0:0:0:
64,192,129814,1,0,0:0:0:0:
320,192,129889,1,0,0:0:0:0:
448,192,129889,1,0,0:0:0:0:
192,192,129964,1,0,0:0:0:0:
64,192,130039,1,0,0:0:0:0:
320,192,130039,1,0,0:0:0:0:
448,192,130114,1,0,0:0:0:0:
192,192,130189,1,0,0:0:0:0:
448,192,130264,1,0,0:0:0:0:
64,192,130339,1,0,0:0:0:0:
192,192,130339,1,0,0:0:0:0:
320,192,130414,1,0,0:0:0:0:
192,192,130489,1,0,0:0:0:0:
448,192,130489,1,0,0:0:0:0:
320,192,130564,1,0,0:0:0:0:
192,192,130639,1,0,0:0:0:0:
448,192,130639,1,0,0:0:0:0:
320,192,130714,1,0,0:0:0:0:
64,192,130789,1,0,0:0:0:0:
192,192,130864,1,0,0:0:0:0:
320,192,130939,1,0,0:0:0:0:
448,192,130939,1,0,0:0:0:0:
192,192,131014,1,0,0:0:0:0:
64,192,131089,1,0,0:0:0:0:
448,192,131089,1,0,0:0:0:0:
320,192,131164,1,0,0:0:0:0:
192,192,131239,1,0,0:0:0:0:
64,192,131239,1,0,0:0:0:0:
448,192,131314,1,0,0:0:0:0:
192,192,131389,1,0,0:0:0:0:
64,192,131464,1,0,0:0:0:0:
192,192,131539,1,0,0:0:0:0:
448,192,131539,1,0,0:0:0:0:
320,192,131614,1,0,0:0:0:0:
64,192,131689,1,0,0:0:0:0:
448,192,131689,1,0,0:0:0:0:
320,192,131764,1,0,0:0:0:0:
192,192,131839,1,0,0:0:0:0:
448,192,131839,1,0,0:0:0:0:
320,192,131914,1,0,0:0:0:0:
192,192,131989,1,0,0:0:0:0:
64,192,131989,1,0,0:0:0:0:
448,192,132064,1,0,0:0:0:0:
64,192,132139,1,0,0:0:0:0:
192,192,132214,1,0,0:0:0:0:
448,192,132289,1,0,0:0:0:0:
320,192,132289,1,0,0:0:0:0:
64,192,132364,1,0,0:0:0:0:
192,192,132439,1,0,0:0:0:0:
448,192,132439,1,0,0:0:0:0:
320,192,132514,1,0,0:0:0:0:
64,192,132589,1,0,0:0:0:0:
448,192,132664,1,0,0:0:0:0:
320,192,132739,1,0,0:0:0:0:
192,192,132739,1,0,0:0:0:0:
448,192,132814,1,0,0:0:0:0:
64,192,132889,1,0,0:0:0:0:
320,192,132889,1,0,0:0:0:0:
448,192,132964,1,0,0:0:0:0:
320,192,133039,1,0,0:0:0:0:
192,192,133039,1,0,0:0:0:0:
64,192,133114,1,0,0:0:0:0:
320,192,133189,1,0,0:0:0:0:
448,192,133189,1,0,0:0:0:0:
192,192,133264,1,0,0:0:0:0:
64,192,133339,1,0,0:0:0:0:
192,192,133414,1,0,0:0:0:0:
64,192,133489,1,0,0:0:0:0:
448,192,133489,1,0,0:0:0:0:
320,192,133564,1,0,0:0:0:0:
192,192,133639,1,0,0:0:0:0:
64,192,133714,1,0,0:0:0:0:
320,192,133789,1,0,0:0:0:0:
448,192,133789,1,0,0:0:0:0:
192,192,133864,1,0,0:0:0:0:
320,192,133939,1,0,0:0:0:0:
64,192,134014,1,0,0:0:0:0:
192,192,134089,1,0,0:0:0:0:
448,192,134089,1,0,0:0:0:0:
320,192,134164,1,0,0:0:0:0:
64,192,134239,1,0,0:0:0:0:
320,192,134314,1,0,0:0:0:0:
448,192,134389,1,0,0:0:0:0:
192,192,134389,1,0,0:0:0:0:
320,192,134464,1,0,0:0:0:0:
64,192,134464,1,0,0:0:0:0:
448,192,134539,1,0,0:0:0:0:
192,192,134539,1,0,0:0:0:0:
320,192,134614,1,0,0:0:0:0:
64,192,134614,1,0,0:0:0:0:
192,192,134689,1,0,0:0:0:0:
448,192,134689,1,0,0:0:0:0:
64,192,134764,1,0,0:0:0:0:
448,192,134839,1,0,0:0:0:0:
320,192,134839,1,0,0:0:0:0:
64,192,134914,1,0,0:0:0:0:
192,192,134989,1,0,0:0:0:0:
448,192,135064,1,0,0:0:0:0:
64,192,135139,1,0,0:0:0:0:
192,192,135139,1,0,0:0:0:0:
320,192,135214,1,0,0:0:0:0:
448,192,135289,1,0,0:0:0:0:
64,192,135364,1,0,0:0:0:0:
320,192,135439,1,0,0:0:0:0:
448,192,135439,1,0,0:0:0:0:
192,192,135514,1,0,0:0:0:0:
64,192,135589,1,0,0:0:0:0:
448,192,135589,1,0,0:0:0:0:
192,192,135664,1,0,0:0:0:0:
320,192,135739,1,0,0:0:0:0:
448,192,135739,1,0,0:0:0:0:
192,192,135814,1,0,0:0:0:0:
64,192,135889,1,0,0:0:0:0:
320,192,135889,1,0,0:0:0:0:
192,192,135964,1,0,0:0:0:0:
448,192,136039,1,0,0:0:0:0:
64,192,136039,1,0,0:0:0:0:
320,192,136114,1,0,0:0:0:0:
192,192,136189,1,0,0:0:0:0:
64,192,136189,1,0,0:0:0:0:
320,192,136264,1,0,0:0:0:0:
64,192,136339,1,0,0:0:0:0:
448,192,136339,1,0,0:0:0:0:
192,192,136414,1,0,0:0:0:0:
320,192,136489,1,0,0:0:0:0:
64,192,136564,1,0,0:0:0:0:
320,192,136639,1,0,0:0:0:0:
448,192,136639,1,0,0:0:0:0:
192,192,136714,1,0,0:0:0:0:
64,192,136789,1,0,0:0:0:0:
448,192,136789,1,0,0:0:0:0:
320,192,136864,1,0,0:0:0:0:
192,192,136864,1,0,0:0:0:0:
448,192,136939,1,0,0:0:0:0:
64,192,136939,1,0,0:0:0:0:
320,192,137014,1,0,0:0:0:0:
192,192,137014,1,0,0:0:0:0:
448,192,137089,1,0,0:0:0:0:
64,192,137089,1,0,0:0:0:0:
192,192,137164,1,0,0:0:0:0:
320,192,137239,1,0,0:0:0:0:
448,192,137239,1,0,0:0:0:0:
64,192,137314,1,0,0:0:0:0:
192,192,137389,1,0,0:0:0:0:
448,192,137464,1,0,0:0:0:0:
192,192,137539,1,0,0:0:0:0:
64,192,137539,1,0,0:0:0:0:
320,192,137614,1,0,0:0:0:0:
448,192,137689,1,0,0:0:0:0:
192,192,137764,1,0,0:0:0:0:
64,192,137839,1,0,0:0:0:0:
320,192,137839,1,0,0:0:0:0:
192,192,137914,1,0,0:0:0:0:
64,192,137989,1,0,0:0:0:0:
448,192,137989,1,0,0:0:0:0:
320,192,138064,1,0,0:0:0:0:
192,192,138139,1,0,0:0:0:0:
64,192,138139,1,0,0:0:0:0:
320,192,138214,1,0,0:0:0:0:
448,192,138289,1,0,0:0:0:0:
64,192,138289,1,0,0:0:0:0:
320,192,138364,1,0,0:0:0:0:
192,192,138439,1,0,0:0:0:0:
64,192,138439,1,0,0:0:0:0:
320,192,138514,1,0,0:0:0:0:
192,192,138589,1,0,0:0:0:0:
448,192,138589,1,0,0:0:0:0:
320,192,138664,1,0,0:0:0:0:
64,192,138739,1,0,0:0:0:0:
192,192,138739,1,0,0:0:0:0:
448,192,138814,1,0,0:0:0:0:
192,192,138889,1,0,0:0:0:0:
64,192,138964,1,0,0:0:0:0:
320,192,139039,1,0,0:0:0:0:
448,192,139039,1,0,0:0:0:0:
192,192,139114,1,0,0:0:0:0:
64,192,139189,1,0,0:0:0:0:
320,192,139189,1,0,0:0:0:0:
448,192,139189,1,0,0:0:0:0:
192,192,139264,1,0,0:0:0:0:
448,192,139339,1,0,0:0:0:0:
320,192,139414,1,0,0:0:0:0:
192,192,139489,1,0,0:0:0:0:
64,192,139489,1,0,0:0:0:0:
448,192,139564,1,0,0:0:0:0:
320,192,139639,1,0,0:0:0:0:
64,192,139639,1,0,0:0:0:0:
192,192,139714,1,0,0:0:0:0:
320,192,139789,1,0,0:0:0:0:
192,192,139864,1,0,0:0:0:0:
448,192,139939,1,0,0:0:0:0:
64,192,139939,1,0,0:0:0:0:
320,192,140014,1,0,0:0:0:0:
64,192,140089,1,0,0:0:0:0:
192,192,140089,1,0,0:0:0:0:
320,192,140164,1,0,0:0:0:0:
192,192,140239,1,0,0:0:0:0:
448,192,140239,1,0,0:0:0:0:
64,192,140314,1,0,0:0:0:0:
448,192,140389,1,0,0:0:0:0:
320,192,140389,1,0,0:0:0:0:
192,192,140389,1,0,0:0:0:0:
64,192,140464,1,0,0:0:0:0:
192,192,140539,1,0,0:0:0:0:
320,192,140614,1,0,0:0:0:0:
64,192,140689,1,0,0:0:0:0:
448,192,140689,1,0,0:0:0:0:
192,192,140764,1,0,0:0:0:0:
320,192,140839,1,0,0:0:0:0:
448,192,140839,1,0,0:0:0:0:
64,192,140914,1,0,0:0:0:0:
320,192,140989,1,0,0:0:0:0:
192,192,141064,1,0,0:0:0:0:
320,192,141139,1,0,0:0:0:0:
448,192,141139,1,0,0:0:0:0:
64,192,141214,1,0,0:0:0:0:
192,192,141289,1,0,0:0:0:0:
448,192,141289,1,0,0:0:0:0:
64,192,141364,1,0,0:0:0:0:
320,192,141439,1,0,0:0:0:0:
448,192,141439,1,0,0:0:0:0:
192,192,141514,1,0,0:0:0:0:
64,192,141589,1,0,0:0:0:0:
320,192,141589,1,0,0:0:0:0:
448,192,141589,1,0,0:0:0:0:
192,192,141889,1,0,0:0:0:0:
64,192,141889,1,0,0:0:0:0:
448,192,141889,1,0,0:0:0:0:
64,192,142039,1,0,0:0:0:0:
192,192,142039,1,0,0:0:0:0:
320,192,142039,1,0,0:0:0:0:
64,192,142339,1,0,0:0:0:0:
192,192,142339,1,0,0:0:0:0:
320,192,142339,1,0,0:0:0:0:
64,192,142489,1,0,0:0:0:0:
192,192,142489,1,0,0:0:0:0:
448,192,142489,1,0,0:0:0:0:
64,192,142639,1,0,0:0:0:0:
192,192,142639,1,0,0:0:0:0:
320,192,142639,1,0,0:0:0:0:
64,192,142789,1,0,0:0:0:0:
448,192,142789,1,0,0:0:0:0:
448,192,143089,1,0,0:0:0:0:
320,192,143239,1,0,0:0:0:0:
64,192,143389,1,0,0:0:0:0:
192,192,143389,1,0,0:0:0:0:
64,192,143539,1,0,0:0:0:0:
192,192,143539,1,0,0:0:0:0:
64,192,143689,1,0,0:0:0:0:
192,192,143689,1,0,0:0:0:0:
64,192,143839,1,0,0:0:0:0:
192,192,143839,1,0,0:0:0:0:
64,192,143989,1,0,0:0:0:0:
192,192,143989,1,0,0:0:0:0:
448,192,144064,1,0,0:0:0:0:
192,192,144139,1,0,0:0:0:0:
64,192,144139,1,0,0:0:0:0:
320,192,144214,1,0,0:0:0:0:
448,192,144289,1,0,0:0:0:0:
64,192,144289,1,0,0:0:0:0:
192,192,144364,1,0,0:0:0:0:
320,192,144439,1,0,0:0:0:0:
64,192,144514,1,0,0:0:0:0:
192,192,144589,1,0,0:0:0:0:
320,192,144589,1,0,0:0:0:0:
448,192,144664,1,0,0:0:0:0:
64,192,144739,1,0,0:0:0:0:
192,192,144814,1,0,0:0:0:0:
64,192,144889,1,0,0:0:0:0:
448,192,144889,1,0,0:0:0:0:
320,192,144964,1,0,0:0:0:0:
192,192,145039,1,0,0:0:0:0:
64,192,145114,1,0,0:0:0:0:
448,192,145189,1,0,0:0:0:0:
320,192,145189,1,0,0:0:0:0:
192,192,145264,1,0,0:0:0:0:
320,192,145339,1,0,0:0:0:0:
448,192,145339,1,0,0:0:0:0:
192,192,145414,1,0,0:0:0:0:
448,192,145489,1,0,0:0:0:0:
64,192,145489,1,0,0:0:0:0:
320,192,145564,1,0,0:0:0:0:
192,192,145639,1,0,0:0:0:0:
448,192,145714,1,0,0:0:0:0:
64,192,145789,1,0,0:0:0:0:
192,192,145789,1,0,0:0:0:0:
320,192,145864,1,0,0:0:0:0:
448,192,145939,1,0,0:0:0:0:
64,192,145939,1,0,0:0:0:0:
320,192,146014,1,0,0:0:0:0:
64,192,146089,1,0,0:0:0:0:
448,192,146089,1,0,0:0:0:0:
320,192,146164,1,0,0:0:0:0:
64,192,146239,1,0,0:0:0:0:
448,192,146239,1,0,0:0:0:0:
192,192,146314,1,0,0:0:0:0:
448,192,146389,1,0,0:0:0:0:
320,192,146389,1,0,0:0:0:0:
64,192,146464,1,0,0:0:0:0:
320,192,146539,1,0,0:0:0:0:
448,192,146539,1,0,0:0:0:0:
192,192,146614,1,0,0:0:0:0:
64,192,146689,1,0,0:0:0:0:
448,192,146689,1,0,0:0:0:0:
192,192,146764,1,0,0:0:0:0:
448,192,146839,1,0,0:0:0:0:
64,192,146839,1,0,0:0:0:0:
320,192,146914,1,0,0:0:0:0:
192,192,146989,1,0,0:0:0:0:
64,192,146989,1,0,0:0:0:0:
320,192,147064,1,0,0:0:0:0:
192,192,147139,1,0,0:0:0:0:
64,192,147139,1,0,0:0:0:0:
320,192,147214,1,0,0:0:0:0:
64,192,147289,1,0,0:0:0:0:
448,192,147289,1,0,0:0:0:0:
192,192,147364,1,0,0:0:0:0:
320,192,147439,1,0,0:0:0:0:
64,192,147514,1,0,0:0:0:0:
320,192,147589,1,0,0:0:0:0:
448,192,147589,1,0,0:0:0:0:
192,192,147664,1,0,0:0:0:0:
448,192,147739,1,0,0:0:0:0:
320,192,147739,1,0,0:0:0:0:
64,192,147814,1,0,0:0:0:0:
192,192,147814,1,0,0:0:0:0:
320,192,147889,1,0,0:0:0:0:
448,192,147889,1,0,0:0:0:0:
64,192,147964,1,0,0:0:0:0:
192,192,148039,1,0,0:0:0:0:
320,192,148039,1,0,0:0:0:0:
448,192,148114,1,0,0:0:0:0:
192,192,148189,1,0,0:0:0:0:
64,192,148189,1,0,0:0:0:0:
320,192,148264,1,0,0:0:0:0:
448,192,148264,1,0,0:0:0:0:
192,192,148339,1,0,0:0:0:0:
64,192,148339,1,0,0:0:0:0:
320,192,148414,1,0,0:0:0:0:
448,192,148489,1,0,0:0:0:0:
192,192,148564,1,0,0:0:0:0:
64,192,148639,1,0,0:0:0:0:
448,192,148714,1,0,0:0:0:0:
192,192,148789,1,0,0:0:0:0:
64,192,148789,1,0,0:0:0:0:
320,192,148864,1,0,0:0:0:0:
192,192,148939,1,0,0:0:0:0:
64,192,148939,1,0,0:0:0:0:
448,192,149014,1,0,0:0:0:0:
192,192,149089,1,0,0:0:0:0:
64,192,149089,1,0,0:0:0:0:
320,192,149164,1,0,0:0:0:0:
448,192,149239,1,0,0:0:0:0:
192,192,149314,1,0,0:0:0:0:
64,192,149314,1,0,0:0:0:0:
320,192,149389,1,0,0:0:0:0:
192,192,149464,1,0,0:0:0:0:
64,192,149539,1,0,0:0:0:0:
320,192,149614,1,0,0:0:0:0:
448,192,149689,1,0,0:0:0:0:
64,192,149689,1,0,0:0:0:0:
192,192,149764,1,0,0:0:0:0:
320,192,149839,1,0,0:0:0:0:
64,192,149914,1,0,0:0:0:0:
320,192,149989,1,0,0:0:0:0:
448,192,149989,1,0,0:0:0:0:
192,192,150064,1,0,0:0:0:0:
320,192,150139,1,0,0:0:0:0:
448,192,150139,1,0,0:0:0:0:
192,192,150214,1,0,0:0:0:0:
64,192,150289,1,0,0:0:0:0:
448,192,150289,1,0,0:0:0:0:
192,192,150364,1,0,0:0:0:0:
320,192,150439,1,0,0:0:0:0:
448,192,150514,1,0,0:0:0:0:
64,192,150589,1,0,0:0:0:0:
192,192,150664,1,0,0:0:0:0:
64,192,150739,1,0,0:0:0:0:
448,192,150739,1,0,0:0:0:0:
320,192,150814,1,0,0:0:0:0:
64,192,150889,1,0,0:0:0:0:
448,192,150889,1,0,0:0:0:0:
320,192,150964,1,0,0:0:0:0:
448,192,151039,1,0,0:0:0:0:
64,192,151039,1,0,0:0:0:0:
320,192,151114,1,0,0:0:0:0:
192,192,151189,1,0,0:0:0:0:
64,192,151189,1,0,0:0:0:0:
448,192,151264,1,0,0:0:0:0:
192,192,151339,1,0,0:0:0:0:
64,192,151339,1,0,0:0:0:0:
320,192,151414,1,0,0:0:0:0:
64,192,151489,1,0,0:0:0:0:
448,192,151489,1,0,0:0:0:0:
192,192,151564,1,0,0:0:0:0:
320,192,151639,1,0,0:0:0:0:
448,192,151639,1,0,0:0:0:0:
192,192,151714,1,0,0:0:0:0:
320,192,151789,1,0,0:0:0:0:
448,192,151789,1,0,0:0:0:0:
64,192,151864,1,0,0:0:0:0:
320,192,151939,1,0,0:0:0:0:
448,192,151939,1,0,0:0:0:0:
192,192,152014,1,0,0:0:0:0:
64,192,152089,1,0,0:0:0:0:
448,192,152089,1,0,0:0:0:0:
320,192,152164,1,0,0:0:0:0:
192,192,152239,1,0,0:0:0:0:
448,192,152314,1,0,0:0:0:0:
320,192,152389,1,0,0:0:0:0:
192,192,152389,1,0,0:0:0:0:
64,192,152464,1,0,0:0:0:0:
192,192,152539,1,0,0:0:0:0:
320,192,152614,1,0,0:0:0:0:
64,192,152689,1,0,0:0:0:0:
448,192,152689,1,0,0:0:0:0:
192,192,152764,1,0,0:0:0:0:
320,192,152839,1,0,0:0:0:0:
448,192,152914,1,0,0:0:0:0:
192,192,152989,1,0,0:0:0:0:
64,192,153064,1,0,0:0:0:0:
320,192,153139,1,0,0:0:0:0:
448,192,153139,1,0,0:0:0:0:
192,192,153214,1,0,0:0:0:0:
64,192,153289,1,0,0:0:0:0:
448,192,153289,1,0,0:0:0:0:
192,192,153364,1,0,0:0:0:0:
320,192,153439,1,0,0:0:0:0:
448,192,153439,1,0,0:0:0:0:
64,192,153514,1,0,0:0:0:0:
192,192,153589,1,0,0:0:0:0:
320,192,153589,1,0,0:0:0:0:
448,192,153664,1,0,0:0:0:0:
64,192,153739,1,0,0:0:0:0:
192,192,153739,1,0,0:0:0:0:
320,192,153814,1,0,0:0:0:0:
64,192,153889,1,0,0:0:0:0:
448,192,153889,1,0,0:0:0:0:
192,192,153964,1,0,0:0:0:0:
320,192,154039,1,0,0:0:0:0:
64,192,154114,1,0,0:0:0:0:
320,192,154189,1,0,0:0:0:0:
448,192,154189,1,0,0:0:0:0:
192,192,154264,1,0,0:0:0:0:
64,192,154339,1,0,0:0:0:0:
320,192,154414,1,0,0:0:0:0:
64,192,154489,1,0,0:0:0:0:
448,192,154489,1,0,0:0:0:0:
192,192,154564,1,0,0:0:0:0:
320,192,154639,1,0,0:0:0:0:
64,192,154714,1,0,0:0:0:0:
320,192,154789,1,0,0:0:0:0:
448,192,154789,1,0,0:0:0:0:
64,192,154864,1,0,0:0:0:0:
320,192,154939,1,0,0:0:0:0:
448,192,154939,1,0,0:0:0:0:
192,192,155014,1,0,0:0:0:0:
64,192,155089,1,0,0:0:0:0:
448,192,155089,1,0,0:0:0:0:
320,192,155164,1,0,0:0:0:0:
192,192,155239,1,0,0:0:0:0:
448,192,155314,1,0,0:0:0:0:
64,192,155389,1,0,0:0:0:0:
192,192,155389,1,0,0:0:0:0:
320,192,155464,1,0,0:0:0:0:
64,192,155539,1,0,0:0:0:0:
448,192,155539,1,0,0:0:0:0:
192,192,155614,1,0,0:0:0:0:
64,192,155689,1,0,0:0:0:0:
448,192,155689,1,0,0:0:0:0:
192,192,155764,1,0,0:0:0:0:
64,192,155839,1,0,0:0:0:0:
448,192,155839,1,0,0:0:0:0:
192,192,155914,1,0,0:0:0:0:
320,192,155989,1,0,0:0:0:0:
448,192,155989,1,0,0:0:0:0:
64,192,156064,1,0,0:0:0:0:
320,192,156139,1,0,0:0:0:0:
448,192,156139,1,0,0:0:0:0:
192,192,156214,1,0,0:0:0:0:
64,192,156289,1,0,0:0:0:0:
448,192,156289,1,0,0:0:0:0:
320,192,156364,1,0,0:0:0:0:
64,192,156439,1,0,0:0:0:0:
448,192,156439,1,0,0:0:0:0:
320,192,156514,1,0,0:0:0:0:
192,192,156589,1,0,0:0:0:0:
64,192,156589,1,0,0:0:0:0:
448,192,156664,1,0,0:0:0:0:
64,192,156739,1,0,0:0:0:0:
192,192,156739,1,0,0:0:0:0:
320,192,156814,1,0,0:0:0:0:
64,192,156889,1,0,0:0:0:0:
448,192,156889,1,0,0:0:0:0:
192,192,156964,1,0,0:0:0:0:
320,192,157039,1,0,0:0:0:0:
448,192,157114,1,0,0:0:0:0:
192,192,157189,1,0,0:0:0:0:
64,192,157189,1,0,0:0:0:0:
320,192,157264,1,0,0:0:0:0:
192,192,157339,1,0,0:0:0:0:
64,192,157339,1,0,0:0:0:0:
320,192,157414,1,0,0:0:0:0:
448,192,157414,1,0,0:0:0:0:
192,192,157489,1,0,0:0:0:0:
64,192,157489,1,0,0:0:0:0:
448,192,157564,1,0,0:0:0:0:
192,192,157639,1,0,0:0:0:0:
320,192,157639,1,0,0:0:0:0:
64,192,157714,1,0,0:0:0:0:
320,192,157789,1,0,0:0:0:0:
448,192,157789,1,0,0:0:0:0:
192,192,157864,1,0,0:0:0:0:
64,192,157864,1,0,0:0:0:0:
320,192,157939,1,0,0:0:0:0:
448,192,157939,1,0,0:0:0:0:
192,192,158014,1,0,0:0:0:0:
64,192,158089,1,0,0:0:0:0:
448,192,158164,1,0,0:0:0:0:
192,192,158239,1,0,0:0:0:0:
320,192,158239,1,0,0:0:0:0:
64,192,158314,1,0,0:0:0:0:
320,192,158389,1,0,0:0:0:0:
448,192,158389,1,0,0:0:0:0:
64,192,158464,1,0,0:0:0:0:
320,192,158539,1,0,0:0:0:0:
448,192,158539,1,0,0:0:0:0:
192,192,158614,1,0,0:0:0:0:
448,192,158689,1,0,0:0:0:0:
64,192,158689,1,0,0:0:0:0:
320,192,158764,1,0,0:0:0:0:
192,192,158839,1,0,0:0:0:0:
64,192,158914,1,0,0:0:0:0:
320,192,158989,1,0,0:0:0:0:
448,192,158989,1,0,0:0:0:0:
192,192,159064,1,0,0:0:0:0:
64,192,159139,1,0,0:0:0:0:
320,192,159214,1,0,0:0:0:0:
64,192,159289,1,0,0:0:0:0:
448,192,159289,1,0,0:0:0:0:
192,192,159364,1,0,0:0:0:0:
448,192,159439,1,0,0:0:0:0:
64,192,159514,1,0,0:0:0:0:
192,192,159589,1,0,0:0:0:0:
320,192,159589,1,0,0:0:0:0:
448,192,159664,1,0,0:0:0:0:
64,192,159739,1,0,0:0:0:0:
192,192,159739,1,0,0:0:0:0:
320,192,159814,1,0,0:0:0:0:
64,192,159889,1,0,0:0:0:0:
448,192,159889,1,0,0:0:0:0:
192,192,159964,1,0,0:0:0:0:
320,192,160039,1,0,0:0:0:0:
64,192,160114,1,0,0:0:0:0:
320,192,160189,1,0,0:0:0:0:
448,192,160189,1,0,0:0:0:0:
192,192,160264,1,0,0:0:0:0:
64,192,160339,1,0,0:0:0:0:
448,192,160339,1,0,0:0:0:0:
192,192,160414,1,0,0:0:0:0:
64,192,160489,1,0,0:0:0:0:
448,192,160489,1,0,0:0:0:0:
192,192,160564,1,0,0:0:0:0:
64,192,160639,1,0,0:0:0:0:
448,192,160639,1,0,0:0:0:0:
192,192,160714,1,0,0:0:0:0:
320,192,160789,1,0,0:0:0:0:
448,192,160789,1,0,0:0:0:0:
64,192,160864,1,0,0:0:0:0:
448,192,160939,1,0,0:0:0:0:
320,192,160939,1,0,0:0:0:0:
192,192,161014,1,0,0:0:0:0:
64,192,161089,1,0,0:0:0:0:
448,192,161089,1,0,0:0:0:0:
320,192,161164,1,0,0:0:0:0:
64,192,161239,1,0,0:0:0:0:
448,192,161239,1,0,0:0:0:0:
320,192,161314,1,0,0:0:0:0:
192,192,161389,1,0,0:0:0:0:
64,192,161389,1,0,0:0:0:0:
448,192,161464,1,0,0:0:0:0:
192,192,161539,1,0,0:0:0:0:
64,192,161539,1,0,0:0:0:0:
320,192,161614,1,0,0:0:0:0:
64,192,161689,1,0,0:0:0:0:
448,192,161689,1,0,0:0:0:0:
192,192,161764,1,0,0:0:0:0:
320,192,161839,1,0,0:0:0:0:
64,192,161914,1,0,0:0:0:0:
320,192,161989,1,0,0:0:0:0:
448,192,161989,1,0,0:0:0:0:
192,192,162064,5,0,0:0:0:0:
64,192,162139,1,0,0:0:0:0:
448,192,162289,1,0,0:0:0:0:
320,192,162289,1,0,0:0:0:0:
320,192,162439,1,0,0:0:0:0:
448,192,162439,1,0,0:0:0:0:
320,192,162739,1,0,0:0:0:0:
448,192,162739,1,0,0:0:0:0:
192,192,162889,1,0,0:0:0:0:
448,192,162889,1,0,0:0:0:0:
64,192,163189,5,0,0:0:0:0:
448,192,163189,1,0,0:0:0:0:
320,192,163376,1,0,0:0:0:0:
192,192,163489,1,0,0:0:0:0:
320,192,163601,1,0,0:0:0:0:
448,192,163770,1,0,0:0:0:0:
448,192,164314,1,0,0:0:0:0:
192,192,164426,1,0,0:0:0:0:
320,192,164539,1,0,0:0:0:0:
448,192,164689,1,0,0:0:0:0:
320,192,164914,1,0,0:0:0:0:
64,192,164989,1,0,0:0:0:0:
320,192,165139,1,0,0:0:0:0:
192,192,165195,1,0,0:0:0:0:
448,192,165251,1,0,0:0:0:0:
64,192,165364,1,0,0:0:0:0:
320,192,165589,1,0,0:0:0:0:
192,192,165701,1,0,0:0:0:0:
64,192,166076,1,0,0:0:0:0:
320,192,166189,1,0,0:0:0:0:
192,192,166301,1,0,0:0:0:0:
448,192,166414,1,0,0:0:0:0:
192,192,166714,1,0,0:0:0:0:
320,192,166789,1,0,0:0:0:0:
320,192,166939,1,0,0:0:0:0:
320,192,167089,1,0,0:0:0:0:
320,192,167239,1,0,0:0:0:0:
320,192,167389,1,0,0:0:0:0:
320,192,167539,1,0,0:0:0:0:
320,192,167689,1,0,0:0:0:0:
320,192,167839,1,0,0:0:0:0:
192,192,167989,1,0,0:0:0:0:
64,192,167989,1,0,0:0:0:0:
448,192,167989,1,0,0:0:0:0:
320,192,168064,1,0,0:0:0:0:
192,192,168139,1,0,0:0:0:0:
448,192,168139,1,0,0:0:0:0:
64,192,168214,1,0,0:0:0:0:
192,192,168289,1,0,0:0:0:0:
320,192,168289,1,0,0:0:0:0:
448,192,168364,1,0,0:0:0:0:
64,192,168439,1,0,0:0:0:0:
192,192,168439,1,0,0:0:0:0:
320,192,168514,1,0,0:0:0:0:
448,192,168589,1,0,0:0:0:0:
64,192,168664,1,0,0:0:0:0:
192,192,168739,1,0,0:0:0:0:
448,192,168739,1,0,0:0:0:0:
320,192,168814,1,0,0:0:0:0:
192,192,168889,1,0,0:0:0:0:
64,192,168889,1,0,0:0:0:0:
448,192,168964,1,0,0:0:0:0:
320,192,169039,1,0,0:0:0:0:
192,192,169039,1,0,0:0:0:0:
64,192,169114,1,0,0:0:0:0:
320,192,169189,1,0,0:0:0:0:
448,192,169264,1,0,0:0:0:0:
192,192,169339,1,0,0:0:0:0:
64,192,169339,1,0,0:0:0:0:
320,192,169414,1,0,0:0:0:0:
192,192,169489,1,0,0:0:0:0:
448,192,169489,1,0,0:0:0:0:
64,192,169564,1,0,0:0:0:0:
192,192,169639,1,0,0:0:0:0:
320,192,169639,1,0,0:0:0:0:
448,192,169714,1,0,0:0:0:0:
64,192,169789,1,0,0:0:0:0:
320,192,169864,1,0,0:0:0:0:
192,192,169939,1,0,0:0:0:0:
448,192,169939,1,0,0:0:0:0:
64,192,170014,1,0,0:0:0:0:
320,192,170089,1,0,0:0:0:0:
448,192,170089,1,0,0:0:0:0:
192,192,170164,1,0,0:0:0:0:
64,192,170239,1,0,0:0:0:0:
448,192,170239,1,0,0:0:0:0:
320,192,170314,1,0,0:0:0:0:
192,192,170389,1,0,0:0:0:0:
64,192,170389,1,0,0:0:0:0:
448,192,170464,1,0,0:0:0:0:
320,192,170539,1,0,0:0:0:0:
64,192,170539,1,0,0:0:0:0:
192,192,170614,1,0,0:0:0:0:
64,192,170689,1,0,0:0:0:0:
448,192,170689,1,0,0:0:0:0:
320,192,170764,1,0,0:0:0:0:
192,192,170839,1,0,0:0:0:0:
64,192,170839,1,0,0:0:0:0:
448,192,170914,1,0,0:0:0:0:
320,192,170989,1,0,0:0:0:0:
448,192,171064,1,0,0:0:0:0:
64,192,171139,1,0,0:0:0:0:
192,192,171139,1,0,0:0:0:0:
320,192,171214,1,0,0:0:0:0:
448,192,171289,1,0,0:0:0:0:
192,192,171289,1,0,0:0:0:0:
64,192,171364,1,0,0:0:0:0:
320,192,171439,1,0,0:0:0:0:
448,192,171439,1,0,0:0:0:0:
64,192,171514,1,0,0:0:0:0:
192,192,171589,1,0,0:0:0:0:
320,192,171589,1,0,0:0:0:0:
448,192,171664,1,0,0:0:0:0:
64,192,171739,1,0,0:0:0:0:
320,192,171739,1,0,0:0:0:0:
192,192,171814,1,0,0:0:0:0:
64,192,171889,1,0,0:0:0:0:
448,192,171889,1,0,0:0:0:0:
320,192,171964,1,0,0:0:0:0:
192,192,172039,1,0,0:0:0:0:
64,192,172039,1,0,0:0:0:0:
320,192,172114,1,0,0:0:0:0:
448,192,172189,1,0,0:0:0:0:
320,192,172264,1,0,0:0:0:0:
64,192,172339,1,0,0:0:0:0:
192,192,172339,1,0,0:0:0:0:
448,192,172414,1,0,0:0:0:0:
64,192,172489,1,0,0:0:0:0:
320,192,172489,1,0,0:0:0:0:
192,192,172564,1,0,0:0:0:0:
320,192,172639,1,0,0:0:0:0:
448,192,172639,1,0,0:0:0:0:
64,192,172714,1,0,0:0:0:0:
192,192,172789,1,0,0:0:0:0:
448,192,172789,1,0,0:0:0:0:
320,192,172864,1,0,0:0:0:0:
448,192,172939,1,0,0:0:0:0:
64,192,172939,1,0,0:0:0:0:
192,192,173014,1,0,0:0:0:0:
320,192,173089,1,0,0:0:0:0:
448,192,173164,1,0,0:0:0:0:
64,192,173239,1,0,0:0:0:0:
192,192,173239,1,0,0:0:0:0:
320,192,173314,1,0,0:0:0:0:
64,192,173389,1,0,0:0:0:0:
448,192,173389,1,0,0:0:0:0:
192,192,173464,1,0,0:0:0:0:
64,192,173539,1,0,0:0:0:0:
320,192,173539,1,0,0:0:0:0:
448,192,173614,1,0,0:0:0:0:
192,192,173689,1,0,0:0:0:0:
64,192,173689,1,0,0:0:0:0:
320,192,173764,1,0,0:0:0:0:
192,192,173839,1,0,0:0:0:0:
448,192,173839,1,0,0:0:0:0:
320,192,173914,1,0,0:0:0:0:
64,192,173989,1,0,0:0:0:0:
192,192,173989,1,0,0:0:0:0:
448,192,174064,1,0,0:0:0:0:
320,192,174139,1,0,0:0:0:0:
64,192,174139,1,0,0:0:0:0:
192,192,174214,1,0,0:0:0:0:
448,192,174289,1,0,0:0:0:0:
320,192,174289,1,0,0:0:0:0:
64,192,174364,1,0,0:0:0:0:
192,192,174439,1,0,0:0:0:0:
448,192,174439,1,0,0:0:0:0:
320,192,174514,1,0,0:0:0:0:
64,192,174589,1,0,0:0:0:0:
448,192,174589,1,0,0:0:0:0:
192,192,174664,1,0,0:0:0:0:
320,192,174739,1,0,0:0:0:0:
448,192,174739,1,0,0:0:0:0:
64,192,174814,1,0,0:0:0:0:
192,192,174889,1,0,0:0:0:0:
448,192,174889,1,0,0:0:0:0:
320,192,174964,1,0,0:0:0:0:
192,192,175039,1,0,0:0:0:0:
64,192,175039,1,0,0:0:0:0:
448,192,175114,1,0,0:0:0:0:
192,192,175189,1,0,0:0:0:0:
64,192,175189,1,0,0:0:0:0:
320,192,175264,1,0,0:0:0:0:
192,192,175339,1,0,0:0:0:0:
448,192,175339,1,0,0:0:0:0:
64,192,175414,1,0,0:0:0:0:
320,192,175489,1,0,0:0:0:0:
448,192,175489,1,0,0:0:0:0:
192,192,175564,1,0,0:0:0:0:
64,192,175639,1,0,0:0:0:0:
320,192,175639,1,0,0:0:0:0:
448,192,175714,1,0,0:0:0:0:
64,192,175789,1,0,0:0:0:0:
192,192,175789,1,0,0:0:0:0:
320,192,175864,1,0,0:0:0:0:
64,192,175939,1,0,0:0:0:0:
448,192,175939,1,0,0:0:0:0:
192,192,176014,1,0,0:0:0:0:
320,192,176089,1,0,0:0:0:0:
448,192,176089,1,0,0:0:0:0:
64,192,176164,1,0,0:0:0:0:
320,192,176239,1,0,0:0:0:0:
448,192,176239,1,0,0:0:0:0:
192,192,176314,1,0,0:0:0:0:
64,192,176389,1,0,0:0:0:0:
320,192,176389,1,0,0:0:0:0:
448,192,176464,1,0,0:0:0:0:
192,192,176539,1,0,0:0:0:0:
64,192,176539,1,0,0:0:0:0:
448,192,176689,1,0,0:0:0:0:
192,192,176839,1,0,0:0:0:0:
64,192,176839,1,0,0:0:0:0:
320,192,176839,1,0,0:0:0:0:
64,192,176989,1,0,0:0:0:0:
192,192,176989,1,0,0:0:0:0:
448,192,176989,1,0,0:0:0:0:
448,192,177139,1,0,0:0:0:0:
192,192,177289,1,0,0:0:0:0:
64,192,177289,1,0,0:0:0:0:
64,192,177589,1,0,0:0:0:0:
192,192,177589,1,0,0:0:0:0:
448,192,177589,1,0,0:0:0:0:
320,192,177664,1,0,0:0:0:0:
192,192,177739,1,0,0:0:0:0:
448,192,177739,1,0,0:0:0:0:
64,192,177814,1,0,0:0:0:0:
192,192,177889,1,0,0:0:0:0:
320,192,177889,1,0,0:0:0:0:
64,192,177964,1,0,0:0:0:0:
192,192,178039,1,0,0:0:0:0:
448,192,178039,1,0,0:0:0:0:
320,192,178114,1,0,0:0:0:0:
64,192,178189,1,0,0:0:0:0:
192,192,178264,1,0,0:0:0:0:
64,192,178339,1,0,0:0:0:0:
320,192,178339,1,0,0:0:0:0:
448,192,178414,1,0,0:0:0:0:
320,192,178489,1,0,0:0:0:0:
192,192,178489,1,0,0:0:0:0:
64,192,178564,1,0,0:0:0:0:
192,192,178639,1,0,0:0:0:0:
448,192,178639,1,0,0:0:0:0:
320,192,178714,1,0,0:0:0:0:
448,192,178789,1,0,0:0:0:0:
320,192,178864,1,0,0:0:0:0:
64,192,178939,1,0,0:0:0:0:
192,192,178939,1,0,0:0:0:0:
448,192,179014,1,0,0:0:0:0:
64,192,179089,1,0,0:0:0:0:
320,192,179089,1,0,0:0:0:0:
192,192,179164,1,0,0:0:0:0:
320,192,179239,1,0,0:0:0:0:
448,192,179239,1,0,0:0:0:0:
64,192,179314,1,0,0:0:0:0:
192,192,179389,1,0,0:0:0:0:
64,192,179464,1,0,0:0:0:0:
448,192,179539,1,0,0:0:0:0:
192,192,179539,1,0,0:0:0:0:
320,192,179614,1,0,0:0:0:0:
64,192,179689,1,0,0:0:0:0:
192,192,179689,1,0,0:0:0:0:
448,192,179764,1,0,0:0:0:0:
64,192,179839,1,0,0:0:0:0:
320,192,179839,1,0,0:0:0:0:
192,192,179914,1,0,0:0:0:0:
64,192,179989,1,0,0:0:0:0:
192,192,180064,1,0,0:0:0:0:
448,192,180139,1,0,0:0:0:0:
320,192,180139,1,0,0:0:0:0:
64,192,180214,1,0,0:0:0:0:
192,192,180289,1,0,0:0:0:0:
448,192,180289,1,0,0:0:0:0:
320,192,180364,1,0,0:0:0:0:
192,192,180439,1,0,0:0:0:0:
64,192,180439,1,0,0:0:0:0:
448,192,180514,1,0,0:0:0:0:
320,192,180589,1,0,0:0:0:0:
448,192,180664,1,0,0:0:0:0:
64,192,180739,1,0,0:0:0:0:
320,192,180739,1,0,0:0:0:0:
192,192,180814,1,0,0:0:0:0:
64,192,180889,1,0,0:0:0:0:
448,192,180889,1,0,0:0:0:0:
320,192,180964,1,0,0:0:0:0:
192,192,181039,1,0,0:0:0:0:
64,192,181039,1,0,0:0:0:0:
448,192,181114,1,0,0:0:0:0:
320,192,181189,1,0,0:0:0:0:
448,192,181264,1,0,0:0:0:0:
320,192,181339,1,0,0:0:0:0:
64,192,181339,1,0,0:0:0:0:
192,192,181414,1,0,0:0:0:0:
320,192,181489,1,0,0:0:0:0:
448,192,181489,1,0,0:0:0:0:
64,192,181564,1,0,0:0:0:0:
192,192,181639,1,0,0:0:0:0:
448,192,181639,1,0,0:0:0:0:
320,192,181714,1,0,0:0:0:0:
192,192,181789,1,0,0:0:0:0:
320,192,181864,1,0,0:0:0:0:
64,192,181939,1,0,0:0:0:0:
448,192,181939,1,0,0:0:0:0:
192,192,182014,1,0,0:0:0:0:
320,192,182089,1,0,0:0:0:0:
448,192,182089,1,0,0:0:0:0:
64,192,182164,1,0,0:0:0:0:
192,192,182239,1,0,0:0:0:0:
448,192,182239,1,0,0:0:0:0:
320,192,182314,1,0,0:0:0:0:
448,192,182389,1,0,0:0:0:0:
64,192,182389,1,0,0:0:0:0:
320,192,182464,1,0,0:0:0:0:
192,192,182539,1,0,0:0:0:0:
64,192,182539,1,0,0:0:0:0:
448,192,182614,1,0,0:0:0:0:
192,192,182689,1,0,0:0:0:0:
320,192,182689,1,0,0:0:0:0:
448,192,182764,1,0,0:0:0:0:
64,192,182839,1,0,0:0:0:0:
320,192,182839,1,0,0:0:0:0:
192,192,182914,1,0,0:0:0:0:
64,192,182989,1,0,0:0:0:0:
192,192,183064,1,0,0:0:0:0:
320,192,183139,1,0,0:0:0:0:
448,192,183139,1,0,0:0:0:0:
64,192,183214,1,0,0:0:0:0:
192,192,183289,1,0,0:0:0:0:
320,192,183289,1,0,0:0:0:0:
448,192,183364,1,0,0:0:0:0:
64,192,183439,1,0,0:0:0:0:
320,192,183439,1,0,0:0:0:0:
192,192,183514,1,0,0:0:0:0:
448,192,183589,1,0,0:0:0:0:
192,192,183664,1,0,0:0:0:0:
448,192,183739,1,0,0:0:0:0:
320,192,183739,1,0,0:0:0:0:
64,192,183814,1,0,0:0:0:0:
192,192,183889,1,0,0:0:0:0:
320,192,183889,1,0,0:0:0:0:
448,192,183964,1,0,0:0:0:0:
64,192,184039,1,0,0:0:0:0:
320,192,184039,1,0,0:0:0:0:
192,192,184114,1,0,0:0:0:0:
64,192,184189,1,0,0:0:0:0:
192,192,184264,1,0,0:0:0:0:
448,192,184339,1,0,0:0:0:0:
320,192,184339,1,0,0:0:0:0:
64,192,184414,1,0,0:0:0:0:
192,192,184489,1,0,0:0:0:0:
448,192,184489,1,0,0:0:0:0:
320,192,184564,1,0,0:0:0:0:
64,192,184639,1,0,0:0:0:0:
448,192,184639,1,0,0:0:0:0:
192,192,184714,1,0,0:0:0:0:
64,192,184789,1,0,0:0:0:0:
192,192,184864,1,0,0:0:0:0:
448,192,184939,1,0,0:0:0:0:
320,192,184939,1,0,0:0:0:0:
64,192,185014,1,0,0:0:0:0:
192,192,185089,1,0,0:0:0:0:
448,192,185089,1,0,0:0:0:0:
320,192,185164,1,0,0:0:0:0:
192,192,185239,1,0,0:0:0:0:
64,192,185239,1,0,0:0:0:0:
448,192,185314,1,0,0:0:0:0:
320,192,185389,1,0,0:0:0:0:
448,192,185464,1,0,0:0:0:0:
64,192,185539,1,0,0:0:0:0:
192,192,185539,1,0,0:0:0:0:
320,192,185614,1,0,0:0:0:0:
192,192,185689,1,0,0:0:0:0:
448,192,185689,1,0,0:0:0:0:
320,192,185764,1,0,0:0:0:0:
64,192,185839,1,0,0:0:0:0:
448,192,185839,1,0,0:0:0:0:
192,192,185914,1,0,0:0:0:0:
64,192,185989,1,0,0:0:0:0:
192,192,186064,1,0,0:0:0:0:
320,192,186139,1,0,0:0:0:0:
448,192,186139,1,0,0:0:0:0:
64,192,186214,1,0,0:0:0:0:
192,192,186289,1,0,0:0:0:0:
448,192,186289,1,0,0:0:0:0:
320,192,186364,1,0,0:0:0:0:
64,192,186439,1,0,0:0:0:0:
448,192,186439,1,0,0:0:0:0:
192,192,186514,1,0,0:0:0:0:
320,192,186589,1,0,0:0:0:0:
192,192,186664,1,0,0:0:0:0:
320,192,186739,1,0,0:0:0:0:
448,192,186739,1,0,0:0:0:0:
64,192,186814,1,0,0:0:0:0:
192,192,186889,1,0,0:0:0:0:
448,192,186889,1,0,0:0:0:0:
320,192,186964,1,0,0:0:0:0:
64,192,187039,1,0,0:0:0:0:
448,192,187039,1,0,0:0:0:0:
192,192,187114,1,0,0:0:0:0:
64,192,187189,1,0,0:0:0:0:
320,192,187189,1,0,0:0:0:0:
448,192,187189,1,0,0:0:0:0:
192,192,187264,1,0,0:0:0:0:
320,192,187339,1,0,0:0:0:0:
448,192,187339,1,0,0:0:0:0:
64,192,187414,1,0,0:0:0:0:
192,192,187489,1,0,0:0:0:0:
448,192,187489,1,0,0:0:0:0:
320,192,187564,1,0,0:0:0:0:
192,192,187639,1,0,0:0:0:0:
64,192,187639,1,0,0:0:0:0:
448,192,187714,1,0,0:0:0:0:
320,192,187789,1,0,0:0:0:0:
448,192,187864,1,0,0:0:0:0:
64,192,187939,1,0,0:0:0:0:
192,192,187939,1,0,0:0:0:0:
320,192,188014,1,0,0:0:0:0:
192,192,188089,1,0,0:0:0:0:
448,192,188089,1,0,0:0:0:0:
320,192,188164,1,0,0:0:0:0:
64,192,188239,1,0,0:0:0:0:
448,192,188239,1,0,0:0:0:0:
192,192,188314,1,0,0:0:0:0:
320,192,188389,1,0,0:0:0:0:
448,192,188389,1,0,0:0:0:0:
64,192,188464,1,0,0:0:0:0:
192,192,188539,1,0,0:0:0:0:
320,192,188539,1,0,0:0:0:0:
64,192,188614,1,0,0:0:0:0:
320,192,188689,1,0,0:0:0:0:
448,192,188689,1,0,0:0:0:0:
192,192,188764,1,0,0:0:0:0:
64,192,188839,1,0,0:0:0:0:
320,192,188839,1,0,0:0:0:0:
448,192,188914,1,0,0:0:0:0:
320,192,188989,1,0,0:0:0:0:
448,192,189064,1,0,0:0:0:0:
64,192,189139,1,0,0:0:0:0:
192,192,189139,1,0,0:0:0:0:
320,192,189214,1,0,0:0:0:0:
192,192,189289,1,0,0:0:0:0:
448,192,189289,1,0,0:0:0:0:
320,192,189364,1,0,0:0:0:0:
64,192,189439,1,0,0:0:0:0:
448,192,189439,1,0,0:0:0:0:
192,192,189514,1,0,0:0:0:0:
320,192,189589,1,0,0:0:0:0:
448,192,189589,1,0,0:0:0:0:
192,192,189664,1,0,0:0:0:0:
64,192,189739,1,0,0:0:0:0:
320,192,189739,1,0,0:0:0:0:
448,192,189814,1,0,0:0:0:0:
192,192,189889,1,0,0:0:0:0:
320,192,189889,1,0,0:0:0:0:
64,192,189964,1,0,0:0:0:0:
320,192,190039,1,0,0:0:0:0:
448,192,190039,1,0,0:0:0:0:
192,192,190114,1,0,0:0:0:0:
64,192,190189,1,0,0:0:0:0:
192,192,190264,1,0,0:0:0:0:
320,192,190339,1,0,0:0:0:0:
448,192,190339,1,0,0:0:0:0:
64,192,190414,1,0,0:0:0:0:
192,192,190489,1,0,0:0:0:0:
448,192,190489,1,0,0:0:0:0:
320,192,190564,1,0,0:0:0:0:
64,192,190639,1,0,0:0:0:0:
448,192,190639,1,0,0:0:0:0:
192,192,190714,1,0,0:0:0:0:
64,192,190789,1,0,0:0:0:0:
192,192,190864,1,0,0:0:0:0:
448,192,190939,1,0,0:0:0:0:
320,192,190939,1,0,0:0:0:0:
64,192,191014,1,0,0:0:0:0:
192,192,191089,1,0,0:0:0:0:
448,192,191089,1,0,0:0:0:0:
320,192,191164,1,0,0:0:0:0:
64,192,191239,1,0,0:0:0:0:
448,192,191239,1,0,0:0:0:0:
320,192,191314,1,0,0:0:0:0:
192,192,191389,1,0,0:0:0:0:
64,192,191464,1,0,0:0:0:0:
192,192,191539,1,0,0:0:0:0:
320,192,191539,1,0,0:0:0:0:
448,192,191614,1,0,0:0:0:0:
64,192,191689,1,0,0:0:0:0:
320,192,191689,1,0,0:0:0:0:
192,192,191764,1,0,0:0:0:0:
64,192,191839,1,0,0:0:0:0:
448,192,191839,1,0,0:0:0:0:
192,192,191914,1,0,0:0:0:0:
320,192,191989,1,0,0:0:0:0:
448,192,191989,1,0,0:0:0:0:
64,192,192064,1,0,0:0:0:0:
192,192,192139,1,0,0:0:0:0:
448,192,192139,1,0,0:0:0:0:
320,192,192214,1,0,0:0:0:0:
192,192,192289,1,0,0:0:0:0:
448,192,192364,1,0,0:0:0:0:
320,192,192439,1,0,0:0:0:0:
64,192,192439,1,0,0:0:0:0:
192,192,192514,1,0,0:0:0:0:
64,192,192589,1,0,0:0:0:0:
448,192,192589,1,0,0:0:0:0:
192,192,192664,1,0,0:0:0:0:
320,192,192739,1,0,0:0:0:0:
448,192,192739,1,0,0:0:0:0:
64,192,192814,1,0,0:0:0:0:
192,192,192889,1,0,0:0:0:0:
448,192,192889,1,0,0:0:0:0:
320,192,192964,1,0,0:0:0:0:
64,192,193039,1,0,0:0:0:0:
448,192,193039,1,0,0:0:0:0:
192,192,193114,1,0,0:0:0:0:
320,192,193189,1,0,0:0:0:0:
448,192,193189,1,0,0:0:0:0:
64,192,193264,1,0,0:0:0:0:
192,192,193339,1,0,0:0:0:0:
448,192,193339,1,0,0:0:0:0:
320,192,193414,1,0,0:0:0:0:
64,192,193489,1,0,0:0:0:0:
192,192,193489,1,0,0:0:0:0:
448,192,193564,1,0,0:0:0:0:
64,192,193639,1,0,0:0:0:0:
320,192,193639,1,0,0:0:0:0:
192,192,193714,1,0,0:0:0:0:
64,192,193789,1,0,0:0:0:0:
448,192,193789,1,0,0:0:0:0:
192,192,193864,1,0,0:0:0:0:
320,192,193939,1,0,0:0:0:0:
448,192,193939,1,0,0:0:0:0:
64,192,194014,1,0,0:0:0:0:
192,192,194089,1,0,0:0:0:0:
448,192,194089,1,0,0:0:0:0:
320,192,194164,1,0,0:0:0:0:
64,192,194239,1,0,0:0:0:0:
448,192,194239,1,0,0:0:0:0:
192,192,194314,1,0,0:0:0:0:
320,192,194389,1,0,0:0:0:0:
448,192,194389,1,0,0:0:0:0:
64,192,194464,1,0,0:0:0:0:
192,192,194539,1,0,0:0:0:0:
320,192,194614,1,0,0:0:0:0:
64,192,194689,1,0,0:0:0:0:
448,192,194689,1,0,0:0:0:0:
192,192,194764,1,0,0:0:0:0:
320,192,194839,1,0,0:0:0:0:
448,192,194839,1,0,0:0:0:0:
64,192,194914,1,0,0:0:0:0:
192,192,194989,1,0,0:0:0:0:
448,192,194989,1,0,0:0:0:0:
320,192,195064,1,0,0:0:0:0:
64,192,195139,1,0,0:0:0:0:
448,192,195139,1,0,0:0:0:0:
192,192,195214,1,0,0:0:0:0:
320,192,195289,1,0,0:0:0:0:
448,192,195289,1,0,0:0:0:0:
64,192,195364,1,0,0:0:0:0:
192,192,195439,1,0,0:0:0:0:
448,192,195439,1,0,0:0:0:0:
320,192,195514,1,0,0:0:0:0:
64,192,195589,1,0,0:0:0:0:
192,192,195589,1,0,0:0:0:0:
192,192,195739,1,0,0:0:0:0:
64,192,195739,1,0,0:0:0:0:
320,192,195789,1,0,0:0:0:0:
320,192,195989,1,0,0:0:0:0:
320,192,196189,1,0,0:0:0:0:
192,192,196389,1,0,0:0:0:0:
192,192,196589,1,0,0:0:0:0:
320,192,196789,1,0,0:0:0:0:
64,192,196789,1,0,0:0:0:0:
448,192,196789,1,0,0:0:0:0:
320,192,197089,1,0,0:0:0:0:
192,192,197239,1,0,0:0:0:0:
448,192,197239,1,0,0:0:0:0:
192,192,197839,1,0,0:0:0:0:
448,192,197989,1,0,0:0:0:0:
320,192,198139,1,0,0:0:0:0:
64,192,198289,1,0,0:0:0:0:
192,192,198439,1,0,0:0:0:0:
448,192,198589,1,0,0:0:0:0:
448,192,198739,1,0,0:0:0:0:
192,192,199039,1,0,0:0:0:0:
448,192,199189,1,0,0:0:0:0:
64,192,199189,1,0,0:0:0:0:
320,192,199489,1,0,0:0:0:0:
192,192,199639,1,0,0:0:0:0:
448,192,199639,1,0,0:0:0:0:
448,192,200239,1,0,0:0:0:0:
320,192,200314,1,0,0:0:0:0:
448,192,200389,1,0,0:0:0:0:
64,192,200539,1,0,0:0:0:0:
320,192,200689,1,0,0:0:0:0:
192,192,200839,1,0,0:0:0:0:
64,192,200989,1,0,0:0:0:0:
448,192,201139,1,0,0:0:0:0:
320,192,201439,1,0,0:0:0:0:
192,192,201589,1,0,0:0:0:0:
448,192,201889,1,0,0:0:0:0:
320,192,202039,1,0,0:0:0:0:
320,192,202339,1,0,0:0:0:0:
448,192,202489,1,0,0:0:0:0:
192,192,202639,1,0,0:0:0:0:
192,192,203089,1,0,0:0:0:0:
64,192,203089,1,0,0:0:0:0:
192,192,203239,1,0,0:0:0:0:
64,192,203239,1,0,0:0:0:0:
448,192,203539,1,0,0:0:0:0:
192,192,203689,1,0,0:0:0:0:
320,192,203839,1,0,0:0:0:0:
64,192,203989,1,0,0:0:0:0:
448,192,204289,1,0,0:0:0:0:
320,192,204289,1,0,0:0:0:0:
320,192,204439,1,0,0:0:0:0:
448,192,204439,1,0,0:0:0:0:
192,192,204739,1,0,0:0:0:0:
448,192,204889,1,0,0:0:0:0:
320,192,205039,1,0,0:0:0:0:
64,192,205189,1,0,0:0:0:0:
192,192,205189,1,0,0:0:0:0:
448,192,205789,1,0,0:0:0:0:
320,192,205789,1,0,0:0:0:0:
192,192,206389,1,0,0:0:0:0:
64,192,206389,1,0,0:0:0:0:
448,192,206464,1,0,0:0:0:0:
64,192,206539,1,0,0:0:0:0:
192,192,206539,1,0,0:0:0:0:
320,192,206614,1,0,0:0:0:0:
64,192,206689,1,0,0:0:0:0:
448,192,206689,1,0,0:0:0:0:
192,192,206764,1,0,0:0:0:0:
320,192,206839,1,0,0:0:0:0:
64,192,206914,1,0,0:0:0:0:
320,192,206989,1,0,0:0:0:0:
192,192,206989,1,0,0:0:0:0:
448,192,207064,1,0,0:0:0:0:
64,192,207139,1,0,0:0:0:0:
192,192,207214,1,0,0:0:0:0:
448,192,207289,1,0,0:0:0:0:
64,192,207289,1,0,0:0:0:0:
320,192,207364,1,0,0:0:0:0:
192,192,207439,1,0,0:0:0:0:
64,192,207514,1,0,0:0:0:0:
320,192,207589,1,0,0:0:0:0:
448,192,207589,1,0,0:0:0:0:
192,192,207664,1,0,0:0:0:0:
448,192,207739,1,0,0:0:0:0:
320,192,207739,1,0,0:0:0:0:
192,192,207814,1,0,0:0:0:0:
64,192,207889,1,0,0:0:0:0:
448,192,207889,1,0,0:0:0:0:
320,192,207964,1,0,0:0:0:0:
192,192,208039,1,0,0:0:0:0:
448,192,208114,1,0,0:0:0:0:
192,192,208189,1,0,0:0:0:0:
64,192,208189,1,0,0:0:0:0:
320,192,208264,1,0,0:0:0:0:
64,192,208339,1,0,0:0:0:0:
448,192,208339,1,0,0:0:0:0:
320,192,208414,1,0,0:0:0:0:
448,192,208489,1,0,0:0:0:0:
64,192,208489,1,0,0:0:0:0:
320,192,208564,1,0,0:0:0:0:
448,192,208639,1,0,0:0:0:0:
64,192,208639,1,0,0:0:0:0:
192,192,208714,1,0,0:0:0:0:
320,192,208789,1,0,0:0:0:0:
448,192,208789,1,0,0:0:0:0:
64,192,208864,1,0,0:0:0:0:
448,192,208939,1,0,0:0:0:0:
320,192,208939,1,0,0:0:0:0:
192,192,209014,1,0,0:0:0:0:
448,192,209089,1,0,0:0:0:0:
64,192,209089,1,0,0:0:0:0:
192,192,209164,1,0,0:0:0:0:
64,192,209239,1,0,0:0:0:0:
448,192,209239,1,0,0:0:0:0:
320,192,209314,1,0,0:0:0:0:
64,192,209389,1,0,0:0:0:0:
192,192,209389,1,0,0:0:0:0:
320,192,209464,1,0,0:0:0:0:
64,192,209539,1,0,0:0:0:0:
192,192,209539,1,0,0:0:0:0:
320,192,209614,1,0,0:0:0:0:
448,192,209689,1,0,0:0:0:0:
64,192,209689,1,0,0:0:0:0:
192,192,209764,1,0,0:0:0:0:
320,192,209839,1,0,0:0:0:0:
64,192,209914,1,0,0:0:0:0:
448,192,209989,1,0,0:0:0:0:
320,192,209989,1,0,0:0:0:0:
192,192,210064,1,0,0:0:0:0:
320,192,210139,1,0,0:0:0:0:
448,192,210139,1,0,0:0:0:0:
192,192,210214,1,0,0:0:0:0:
64,192,210214,1,0,0:0:0:0:
448,192,210289,1,0,0:0:0:0:
320,192,210289,1,0,0:0:0:0:
64,192,210364,1,0,0:0:0:0:
320,192,210439,1,0,0:0:0:0:
192,192,210439,1,0,0:0:0:0:
448,192,210514,1,0,0:0:0:0:
64,192,210589,1,0,0:0:0:0:
192,192,210589,1,0,0:0:0:0:
448,192,210664,1,0,0:0:0:0:
320,192,210664,1,0,0:0:0:0:
64,192,210739,1,0,0:0:0:0:
192,192,210739,1,0,0:0:0:0:
320,192,210889,1,0,0:0:0:0:
448,192,210964,1,0,0:0:0:0:
192,192,211039,1,0,0:0:0:0:
64,192,211039,1,0,0:0:0:0:
320,192,211114,1,0,0:0:0:0:
64,192,211189,1,0,0:0:0:0:
192,192,211189,1,0,0:0:0:0:
448,192,211264,1,0,0:0:0:0:
192,192,211339,1,0,0:0:0:0:
64,192,211339,1,0,0:0:0:0:
320,192,211414,1,0,0:0:0:0:
448,192,211414,1,0,0:0:0:0:
192,192,211489,1,0,0:0:0:0:
64,192,211489,1,0,0:0:0:0:
448,192,211564,1,0,0:0:0:0:
320,192,211639,1,0,0:0:0:0:
64,192,211714,1,0,0:0:0:0:
448,192,211789,1,0,0:0:0:0:
320,192,211789,1,0,0:0:0:0:
192,192,211864,1,0,0:0:0:0:
320,192,211939,1,0,0:0:0:0:
448,192,211939,1,0,0:0:0:0:
64,192,212014,1,0,0:0:0:0:
192,192,212014,1,0,0:0:0:0:
320,192,212089,1,0,0:0:0:0:
448,192,212089,1,0,0:0:0:0:
64,192,212164,1,0,0:0:0:0:
192,192,212239,1,0,0:0:0:0:
448,192,212314,1,0,0:0:0:0:
192,192,212389,1,0,0:0:0:0:
64,192,212389,1,0,0:0:0:0:
320,192,212464,1,0,0:0:0:0:
192,192,212539,1,0,0:0:0:0:
64,192,212539,1,0,0:0:0:0:
320,192,212614,1,0,0:0:0:0:
448,192,212614,1,0,0:0:0:0:
192,192,212689,1,0,0:0:0:0:
64,192,212689,1,0,0:0:0:0:
448,192,212764,1,0,0:0:0:0:
320,192,212839,1,0,0:0:0:0:
192,192,212914,1,0,0:0:0:0:
448,192,212989,1,0,0:0:0:0:
320,192,212989,1,0,0:0:0:0:
64,192,213064,1,0,0:0:0:0:
320,192,213139,1,0,0:0:0:0:
448,192,213139,1,0,0:0:0:0:
192,192,213214,1,0,0:0:0:0:
64,192,213214,1,0,0:0:0:0:
448,192,213289,1,0,0:0:0:0:
320,192,213289,1,0,0:0:0:0:
192,192,213364,1,0,0:0:0:0:
64,192,213439,1,0,0:0:0:0:
448,192,213514,1,0,0:0:0:0:
64,192,213589,1,0,0:0:0:0:
192,192,213589,1,0,0:0:0:0:
320,192,213664,1,0,0:0:0:0:
192,192,213739,1,0,0:0:0:0:
64,192,213739,1,0,0:0:0:0:
320,192,213814,1,0,0:0:0:0:
448,192,213814,1,0,0:0:0:0:
64,192,213889,1,0,0:0:0:0:
192,192,213889,1,0,0:0:0:0:
448,192,213964,1,0,0:0:0:0:
320,192,214039,1,0,0:0:0:0:
64,192,214114,1,0,0:0:0:0:
320,192,214189,1,0,0:0:0:0:
448,192,214189,1,0,0:0:0:0:
192,192,214264,1,0,0:0:0:0:
320,192,214339,1,0,0:0:0:0:
448,192,214339,1,0,0:0:0:0:
192,192,214414,1,0,0:0:0:0:
64,192,214414,1,0,0:0:0:0:
448,192,214489,1,0,0:0:0:0:
320,192,214489,1,0,0:0:0:0:
64,192,214564,1,0,0:0:0:0:
192,192,214639,1,0,0:0:0:0:
320,192,214714,1,0,0:0:0:0:
192,192,214789,1,0,0:0:0:0:
64,192,214789,1,0,0:0:0:0:
448,192,214864,1,0,0:0:0:0:
192,192,214939,1,0,0:0:0:0:
64,192,214939,1,0,0:0:0:0:
320,192,215014,1,0,0:0:0:0:
448,192,215014,1,0,0:0:0:0:
64,192,215089,1,0,0:0:0:0:
192,192,215089,1,0,0:0:0:0:
320,192,215239,1,0,0:0:0:0:
448,192,215389,1,0,0:0:0:0:
192,192,215839,1,0,0:0:0:0:
64,192,215989,1,0,0:0:0:0:
320,192,215989,1,0,0:0:0:0:
448,192,215989,1,0,0:0:0:0:
192,192,216064,1,0,0:0:0:0:
320,192,216139,1,0,0:0:0:0:
448,192,216214,1,0,0:0:0:0:
64,192,216289,1,0,0:0:0:0:
192,192,216289,1,0,0:0:0:0:
320,192,216364,1,0,0:0:0:0:
448,192,216439,1,0,0:0:0:0:
64,192,216439,1,0,0:0:0:0:
192,192,216514,1,0,0:0:0:0:
320,192,216589,1,0,0:0:0:0:
448,192,216589,1,0,0:0:0:0:
64,192,216664,1,0,0:0:0:0:
192,192,216739,1,0,0:0:0:0:
64,192,216814,1,0,0:0:0:0:
192,192,216889,1,0,0:0:0:0:
448,192,216889,1,0,0:0:0:0:
320,192,216964,1,0,0:0:0:0:
64,192,217039,1,0,0:0:0:0:
448,192,217039,1,0,0:0:0:0:
320,192,217114,1,0,0:0:0:0:
192,192,217189,1,0,0:0:0:0:
448,192,217189,1,0,0:0:0:0:
64,192,217264,1,0,0:0:0:0:
448,192,217339,1,0,0:0:0:0:
320,192,217339,1,0,0:0:0:0:
64,192,217414,1,0,0:0:0:0:
192,192,217489,1,0,0:0:0:0:
448,192,217489,1,0,0:0:0:0:
64,192,217564,1,0,0:0:0:0:
448,192,217639,1,0,0:0:0:0:
320,192,217639,1,0,0:0:0:0:
192,192,217714,1,0,0:0:0:0:
64,192,217789,1,0,0:0:0:0:
448,192,217789,1,0,0:0:0:0:
320,192,217864,1,0,0:0:0:0:
192,192,217939,1,0,0:0:0:0:
448,192,217939,1,0,0:0:0:0:
320,192,218014,1,0,0:0:0:0:
192,192,218089,1,0,0:0:0:0:
64,192,218164,1,0,0:0:0:0:
320,192,218239,1,0,0:0:0:0:
192,192,218239,1,0,0:0:0:0:
448,192,218314,1,0,0:0:0:0:
64,192,218389,1,0,0:0:0:0:
192,192,218389,1,0,0:0:0:0:
320,192,218389,1,0,0:0:0:0:
448,192,218464,1,0,0:0:0:0:
192,192,218539,1,0,0:0:0:0:
64,192,218614,1,0,0:0:0:0:
448,192,218689,1,0,0:0:0:0:
320,192,218689,1,0,0:0:0:0:
192,192,218764,1,0,0:0:0:0:
64,192,218839,1,0,0:0:0:0:
320,192,218839,1,0,0:0:0:0:
448,192,218914,1,0,0:0:0:0:
192,192,218989,1,0,0:0:0:0:
64,192,219064,1,0,0:0:0:0:
448,192,219139,1,0,0:0:0:0:
192,192,219139,1,0,0:0:0:0:
64,192,219214,1,0,0:0:0:0:
320,192,219289,1,0,0:0:0:0:
448,192,219364,1,0,0:0:0:0:
64,192,219439,1,0,0:0:0:0:
192,192,219439,1,0,0:0:0:0:
320,192,219514,1,0,0:0:0:0:
448,192,219514,1,0,0:0:0:0:
64,192,219589,1,0,0:0:0:0:
192,192,219589,1,0,0:0:0:0:
448,192,219664,1,0,0:0:0:0:
64,192,219739,1,0,0:0:0:0:
192,192,219739,1,0,0:0:0:0:
320,192,219814,1,0,0:0:0:0:
448,192,219889,1,0,0:0:0:0:
192,192,219889,1,0,0:0:0:0:
320,192,219964,1,0,0:0:0:0:
64,192,220039,1,0,0:0:0:0:
192,192,220039,1,0,0:0:0:0:
448,192,220114,1,0,0:0:0:0:
64,192,220189,1,0,0:0:0:0:
320,192,220189,1,0,0:0:0:0:
192,192,220264,1,0,0:0:0:0:
320,192,220339,1,0,0:0:0:0:
448,192,220339,1,0,0:0:0:0:
64,192,220414,1,0,0:0:0:0:
192,192,220489,1,0,0:0:0:0:
64,192,220564,1,0,0:0:0:0:
192,192,220639,1,0,0:0:0:0:
320,192,220639,1,0,0:0:0:0:
448,192,220714,1,0,0:0:0:0:
64,192,220789,1,0,0:0:0:0:
320,192,220789,1,0,0:0:0:0:
192,192,220789,1,0,0:0:0:0:
448,192,220864,1,0,0:0:0:0:
192,192,220939,1,0,0:0:0:0:
64,192,221014,1,0,0:0:0:0:
320,192,221089,1,0,0:0:0:0:
448,192,221089,1,0,0:0:0:0:
192,192,221164,1,0,0:0:0:0:
64,192,221239,1,0,0:0:0:0:
320,192,221239,1,0,0:0:0:0:
448,192,221314,1,0,0:0:0:0:
192,192,221389,1,0,0:0:0:0:
448,192,221464,1,0,0:0:0:0:
64,192,221539,1,0,0:0:0:0:
192,192,221539,1,0,0:0:0:0:
320,192,221614,1,0,0:0:0:0:
192,192,221689,1,0,0:0:0:0:
448,192,221689,1,0,0:0:0:0:
320,192,221764,1,0,0:0:0:0:
192,192,221839,1,0,0:0:0:0:
64,192,221839,1,0,0:0:0:0:
448,192,221914,1,0,0:0:0:0:
64,192,221989,1,0,0:0:0:0:
192,192,221989,1,0,0:0:0:0:
320,192,221989,1,0,0:0:0:0:
448,192,222064,1,0,0:0:0:0:
320,192,222139,1,0,0:0:0:0:
192,192,222214,1,0,0:0:0:0:
64,192,222289,1,0,0:0:0:0:
448,192,222289,1,0,0:0:0:0:
320,192,222364,1,0,0:0:0:0:
192,192,222439,1,0,0:0:0:0:
64,192,222439,1,0,0:0:0:0:
448,192,222514,1,0,0:0:0:0:
192,192,222589,1,0,0:0:0:0:
64,192,222664,1,0,0:0:0:0:
192,192,222739,1,0,0:0:0:0:
448,192,222739,1,0,0:0:0:0:
320,192,222814,1,0,0:0:0:0:
64,192,222889,1,0,0:0:0:0:
448,192,222889,1,0,0:0:0:0:
320,192,222964,1,0,0:0:0:0:
192,192,223039,1,0,0:0:0:0:
64,192,223039,1,0,0:0:0:0:
320,192,223114,1,0,0:0:0:0:
192,192,223189,1,0,0:0:0:0:
64,192,223189,1,0,0:0:0:0:
448,192,223189,1,0,0:0:0:0:
320,192,223264,1,0,0:0:0:0:
64,192,223339,1,0,0:0:0:0:
192,192,223414,1,0,0:0:0:0:
448,192,223489,1,0,0:0:0:0:
320,192,223489,1,0,0:0:0:0:
64,192,223564,1,0,0:0:0:0:
192,192,223639,1,0,0:0:0:0:
448,192,223639,1,0,0:0:0:0:
320,192,223714,1,0,0:0:0:0:
64,192,223789,1,0,0:0:0:0:
448,192,223864,1,0,0:0:0:0:
320,192,223939,1,0,0:0:0:0:
192,192,223939,1,0,0:0:0:0:
448,192,224014,1,0,0:0:0:0:
64,192,224089,1,0,0:0:0:0:
320,192,224089,1,0,0:0:0:0:
448,192,224164,1,0,0:0:0:0:
320,192,224239,1,0,0:0:0:0:
192,192,224239,1,0,0:0:0:0:
64,192,224314,1,0,0:0:0:0:
320,192,224389,1,0,0:0:0:0:
448,192,224389,1,0,0:0:0:0:
192,192,224389,1,0,0:0:0:0:
64,192,224464,1,0,0:0:0:0:
192,192,224539,1,0,0:0:0:0:
320,192,224614,1,0,0:0:0:0:
64,192,224689,1,0,0:0:0:0:
448,192,224689,1,0,0:0:0:0:
320,192,224764,1,0,0:0:0:0:
192,192,224839,1,0,0:0:0:0:
64,192,224914,1,0,0:0:0:0:
320,192,224989,1,0,0:0:0:0:
448,192,224989,1,0,0:0:0:0:
192,192,224989,1,0,0:0:0:0:
64,192,225064,1,0,0:0:0:0:
320,192,225139,1,0,0:0:0:0:
448,192,225214,1,0,0:0:0:0:
192,192,225289,1,0,0:0:0:0:
64,192,225289,1,0,0:0:0:0:
320,192,225364,1,0,0:0:0:0:
448,192,225439,1,0,0:0:0:0:
192,192,225514,1,0,0:0:0:0:
320,192,225589,1,0,0:0:0:0:
448,192,225589,1,0,0:0:0:0:
64,192,225589,1,0,0:0:0:0:
192,192,225664,1,0,0:0:0:0:
320,192,225739,1,0,0:0:0:0:
64,192,225814,1,0,0:0:0:0:
192,192,225889,1,0,0:0:0:0:
448,192,225889,1,0,0:0:0:0:
320,192,225964,1,0,0:0:0:0:
64,192,226039,1,0,0:0:0:0:
448,192,226039,1,0,0:0:0:0:
320,192,226114,1,0,0:0:0:0:
192,192,226189,1,0,0:0:0:0:
64,192,226189,1,0,0:0:0:0:
320,192,226264,1,0,0:0:0:0:
448,192,226339,1,0,0:0:0:0:
64,192,226414,1,0,0:0:0:0:
192,192,226489,1,0,0:0:0:0:
320,192,226489,1,0,0:0:0:0:
64,192,226564,1,0,0:0:0:0:
320,192,226639,1,0,0:0:0:0:
448,192,226639,1,0,0:0:0:0:
192,192,226714,1,0,0:0:0:0:
64,192,226789,1,0,0:0:0:0:
448,192,226789,1,0,0:0:0:0:
192,192,226864,1,0,0:0:0:0:
320,192,226939,1,0,0:0:0:0:
448,192,226939,1,0,0:0:0:0:
192,192,227014,1,0,0:0:0:0:
64,192,227089,1,0,0:0:0:0:
320,192,227089,1,0,0:0:0:0:
192,192,227164,1,0,0:0:0:0:
448,192,227239,1,0,0:0:0:0:
64,192,227239,1,0,0:0:0:0:
320,192,227314,1,0,0:0:0:0:
192,192,227389,1,0,0:0:0:0:
64,192,227389,1,0,0:0:0:0:
320,192,227464,1,0,0:0:0:0:
64,192,227539,1,0,0:0:0:0:
448,192,227539,1,0,0:0:0:0:
192,192,227614,1,0,0:0:0:0:
448,192,227689,1,0,0:0:0:0:
64,192,227764,1,0,0:0:0:0:
320,192,227839,1,0,0:0:0:0:
448,192,227839,1,0,0:0:0:0:
192,192,227914,1,0,0:0:0:0:
64,192,227989,1,0,0:0:0:0:
320,192,227989,1,0,0:0:0:0:
448,192,227989,1,0,0:0:0:0:
192,192,228064,1,0,0:0:0:0:
320,192,228139,1,0,0:0:0:0:
448,192,228214,1,0,0:0:0:0:
64,192,228289,1,0,0:0:0:0:
192,192,228289,1,0,0:0:0:0:
320,192,228364,1,0,0:0:0:0:
448,192,228439,1,0,0:0:0:0:
64,192,228439,1,0,0:0:0:0:
320,192,228514,1,0,0:0:0:0:
192,192,228589,1,0,0:0:0:0:
64,192,228589,1,0,0:0:0:0:
448,192,228664,1,0,0:0:0:0:
320,192,228739,1,0,0:0:0:0:
192,192,228814,1,0,0:0:0:0:
64,192,228889,1,0,0:0:0:0:
448,192,228964,1,0,0:0:0:0:
64,192,229039,1,0,0:0:0:0:
192,192,229039,1,0,0:0:0:0:
320,192,229114,1,0,0:0:0:0:
448,192,229114,1,0,0:0:0:0:
64,192,229189,1,0,0:0:0:0:
192,192,229189,1,0,0:0:0:0:
320,192,229264,1,0,0:0:0:0:
192,192,229339,1,0,0:0:0:0:
64,192,229339,1,0,0:0:0:0:
320,192,229414,1,0,0:0:0:0:
448,192,229489,1,0,0:0:0:0:
64,192,229489,1,0,0:0:0:0:
320,192,229564,1,0,0:0:0:0:
192,192,229639,1,0,0:0:0:0:
64,192,229639,1,0,0:0:0:0:
320,192,229714,1,0,0:0:0:0:
192,192,229789,1,0,0:0:0:0:
448,192,229789,1,0,0:0:0:0:
320,192,229864,1,0,0:0:0:0:
64,192,229939,1,0,0:0:0:0:
192,192,229939,1,0,0:0:0:0:
448,192,230014,1,0,0:0:0:0:
192,192,230089,1,0,0:0:0:0:
64,192,230164,1,0,0:0:0:0:
320,192,230239,1,0,0:0:0:0:
448,192,230239,1,0,0:0:0:0:
192,192,230314,1,0,0:0:0:0:
64,192,230389,1,0,0:0:0:0:
320,192,230389,1,0,0:0:0:0:
448,192,230389,1,0,0:0:0:0:
192,192,230464,1,0,0:0:0:0:
448,192,230539,1,0,0:0:0:0:
320,192,230614,1,0,0:0:0:0:
192,192,230689,1,0,0:0:0:0:
64,192,230689,1,0,0:0:0:0:
448,192,230764,1,0,0:0:0:0:
320,192,230839,1,0,0:0:0:0:
64,192,230839,1,0,0:0:0:0:
192,192,230914,1,0,0:0:0:0:
320,192,230989,1,0,0:0:0:0:
192,192,231064,1,0,0:0:0:0:
448,192,231139,1,0,0:0:0:0:
64,192,231139,1,0,0:0:0:0:
320,192,231214,1,0,0:0:0:0:
64,192,231289,1,0,0:0:0:0:
192,192,231289,1,0,0:0:0:0:
320,192,231364,1,0,0:0:0:0:
192,192,231439,1,0,0:0:0:0:
448,192,231439,1,0,0:0:0:0:
64,192,231514,1,0,0:0:0:0:
448,192,231589,1,0,0:0:0:0:
320,192,231589,1,0,0:0:0:0:
192,192,231589,1,0,0:0:0:0:
64,192,231664,1,0,0:0:0:0:
192,192,231739,1,0,0:0:0:0:
320,192,231814,1,0,0:0:0:0:
64,192,231889,1,0,0:0:0:0:
448,192,231889,1,0,0:0:0:0:
192,192,231964,1,0,0:0:0:0:
320,192,232039,1,0,0:0:0:0:
448,192,232039,1,0,0:0:0:0:
64,192,232114,1,0,0:0:0:0:
320,192,232189,1,0,0:0:0:0:
192,192,232264,1,0,0:0:0:0:
320,192,232339,1,0,0:0:0:0:
448,192,232339,1,0,0:0:0:0:
192,192,232414,1,0,0:0:0:0:
448,192,232489,1,0,0:0:0:0:
64,192,232489,1,0,0:0:0:0:
320,192,232564,1,0,0:0:0:0:
192,192,232639,1,0,0:0:0:0:
448,192,232639,1,0,0:0:0:0:
64,192,232714,1,0,0:0:0:0:
320,192,232789,1,0,0:0:0:0:
448,192,232789,1,0,0:0:0:0:
192,192,232789,1,0,0:0:0:0:
64,192,232864,1,0,0:0:0:0:
320,192,232939,1,0,0:0:0:0:
448,192,232939,1,0,0:0:0:0:
192,192,233014,1,0,0:0:0:0:
320,192,233089,1,0,0:0:0:0:
448,192,233164,1,0,0:0:0:0:
192,192,233239,1,0,0:0:0:0:
64,192,233239,1,0,0:0:0:0:
320,192,233314,1,0,0:0:0:0:
192,192,233389,1,0,0:0:0:0:
64,192,233389,1,0,0:0:0:0:
448,192,233464,1,0,0:0:0:0:
192,192,233539,1,0,0:0:0:0:
64,192,233614,1,0,0:0:0:0:
448,192,233689,1,0,0:0:0:0:
320,192,233689,1,0,0:0:0:0:
192,192,233764,1,0,0:0:0:0:
320,192,233839,1,0,0:0:0:0:
448,192,233839,1,0,0:0:0:0:
64,192,233914,1,0,0:0:0:0:
320,192,233989,1,0,0:0:0:0:
448,192,233989,1,0,0:0:0:0:
192,192,234064,1,0,0:0:0:0:
64,192,234139,1,0,0:0:0:0:
448,192,234214,1,0,0:0:0:0:
192,192,234289,1,0,0:0:0:0:
320,192,234289,1,0,0:0:0:0:
448,192,234364,1,0,0:0:0:0:
64,192,234439,1,0,0:0:0:0:
320,192,234439,1,0,0:0:0:0:
192,192,234514,1,0,0:0:0:0:
320,192,234589,1,0,0:0:0:0:
448,192,234589,1,0,0:0:0:0:
64,192,234664,1,0,0:0:0:0:
320,192,234739,1,0,0:0:0:0:
448,192,234739,1,0,0:0:0:0:
192,192,234814,1,0,0:0:0:0:
320,192,234889,1,0,0:0:0:0:
448,192,234889,1,0,0:0:0:0:
64,192,234964,1,0,0:0:0:0:
320,192,235039,1,0,0:0:0:0:
448,192,235039,1,0,0:0:0:0:
192,192,235114,1,0,0:0:0:0:
64,192,235189,1,0,0:0:0:0:
448,192,235189,1,0,0:0:0:0:
