osu file format v14

[General]
AudioFilename: audio.mp3
AudioLeadIn: 0
PreviewTime: 128439
Countdown: 0
SampleSet: Normal
StackLeniency: 0.7
Mode: 2
LetterboxInBreaks: 0
WidescreenStoryboard: 0

[Editor]
DistanceSpacing: 1
BeatDivisor: 4
GridSize: 8
TimelineZoom: 1.7

[Metadata]
Title:Dreamers Solitude
TitleUnicode:Dreamers Solitude
Artist:Helblinde
ArtistUnicode:Helblinde
Creator:Astreachan
Version:414
Source:Angel Beats!
Tags:Tada Aoi Brave Song Ending Anime
BeatmapID:1694561
BeatmapSetID:807416

[Difficulty]
HPDrainRate:6
CircleSize:4
OverallDifficulty:9.5
ApproachRate:9.5
SliderMultiplier:1.4
SliderTickRate:1

[Events]
//Background and Video events
0,0,"maxresdefault.jpg",0,0
//Break Periods
//Storyboard Layer 0 (Background)
//Storyboard Layer 1 (Fail)
//Storyboard Layer 2 (Pass)
//Storyboard Layer 3 (Foreground)
//Storyboard Layer 4 (Overlay)
//Storyboard Sound Samples

[TimingPoints]
-14,352.941176470588,4,2,0,70,1,0
11280,-100,4,1,0,70,0,0
67750,-100,4,1,1,70,0,0
79044,-100,4,1,0,70,0,0
84162,-25,4,1,0,70,0,0
84338,-100,4,1,0,70,0,0
85574,-25,4,1,0,70,0,0
85750,-100,4,1,0,70,0,0
86985,-25,4,1,0,70,0,0
87162,-100,4,1,0,70,0,0
88397,-25,4,1,0,70,0,0
88574,-100,4,1,0,70,0,0
89809,-25,4,1,0,70,0,0
89985,-100,4,1,0,70,0,0
91221,-25,4,1,0,70,0,0
91397,-100,4,1,0,70,0,0
92633,-25,4,1,0,70,0,0
92809,-100,4,1,0,70,0,0
94044,-25,4,1,0,70,0,0
94221,-100,4,1,0,70,0,0
105868,-50,4,1,0,70,0,1
128368,-50,4,1,0,70,0,0
128456,-50,4,1,2,70,0,1
151044,-50,4,1,0,70,0,0
231515,-50,4,1,0,70,0,1
254103,-50,4,1,0,70,0,0

[Colours]
Combo1 : 255,255,128
Combo2 : 192,192,192
Combo3 : 168,168,168
Combo4 : 214,214,214

[HitObjects]
200,232,15,5,4,0:0:0:0:
336,208,338,5,8,0:1:0:0:
440,216,515,1,0,0:0:0:0:
336,208,691,1,8,0:1:0:0:
216,208,868,1,0,0:0:0:0:
336,208,1044,1,8,0:1:0:0:
472,208,1221,1,0,0:0:0:0:
336,208,1397,1,8,0:1:0:0:
472,208,1574,1,0,0:0:0:0:
336,208,1750,1,8,0:1:0:0:
464,208,1927,1,0,0:0:0:0:
336,208,2103,1,8,0:1:0:0:
208,200,2280,1,0,0:0:0:0:
80,192,2456,1,8,0:1:0:0:
208,200,2633,1,0,0:0:0:0:
448,192,2809,1,2,0:0:0:0:
312,184,3162,5,4,0:0:0:0:
176,176,3338,1,0,0:0:0:0:
48,192,3515,1,8,0:1:0:0:
176,176,3691,1,0,0:0:0:0:
312,168,3868,1,8,0:1:0:0:
448,160,4044,1,0,0:0:0:0:
312,176,4221,1,8,0:1:0:0:
160,168,4397,1,0,0:0:0:0:
336,152,4574,1,8,0:1:0:0:
200,152,4750,1,0,0:0:0:0:
64,152,4927,1,8,0:1:0:0:
256,144,5103,1,8,0:1:0:0:
456,152,5280,1,8,0:1:0:0:
264,144,5456,1,8,0:1:0:0:
96,144,5633,1,8,0:1:0:0:
336,208,5986,5,4,0:0:0:0:
440,216,6162,1,0,0:0:0:0:
320,208,6338,1,8,0:1:0:0:
216,208,6515,1,0,0:0:0:0:
336,208,6691,1,8,0:1:0:0:
472,208,6868,1,0,0:0:0:0:
336,208,7044,1,8,0:1:0:0:
472,208,7221,1,0,0:0:0:0:
336,208,7397,1,8,0:1:0:0:
464,208,7574,1,0,0:0:0:0:
336,208,7750,1,8,0:1:0:0:
208,200,7927,1,0,0:0:0:0:
80,192,8103,1,8,0:1:0:0:
208,200,8280,1,0,0:0:0:0:
448,192,8456,1,2,0:0:0:0:
136,152,8809,5,4,0:0:0:0:
32,152,8986,1,0,0:0:0:0:
168,152,9162,1,8,0:1:0:0:
280,152,9338,1,0,0:0:0:0:
168,144,9515,1,8,0:1:0:0:
304,144,9691,1,0,0:0:0:0:
432,152,9868,1,8,0:1:0:0:
264,136,10044,1,0,0:0:0:0:
152,136,10221,1,8,0:1:0:0:
280,136,10397,1,0,0:0:0:0:
424,144,10574,1,8,0:1:0:0:
96,184,10750,5,2,0:0:0:0:
48,136,10927,5,2,0:0:0:0:
96,88,11103,5,2,0:0:0:0:
376,160,11280,5,4,1:0:0:0:
472,160,11456,1,0,0:0:0:0:
344,160,11633,1,8,0:0:0:0:
192,160,11809,1,0,0:0:0:0:
56,160,11986,1,8,0:0:0:0:
192,168,12162,1,0,0:0:0:0:
64,168,12338,1,8,0:0:0:0:
192,168,12515,1,0,0:0:0:0:
256,184,14103,5,4,0:0:0:0:
392,192,14280,1,0,0:0:0:0:
256,200,14456,1,8,0:0:0:0:
136,192,14633,1,0,0:0:0:0:
256,208,14809,1,8,0:0:0:0:
400,200,14986,1,0,0:0:0:0:
248,208,15162,1,8,0:0:0:0:
400,200,15338,1,0,0:0:0:0:
40,176,16927,5,4,0:0:0:0:
160,176,17103,1,0,0:0:0:0:
280,184,17280,1,8,0:0:0:0:
416,192,17456,1,0,0:0:0:0:
280,184,17633,1,8,0:0:0:0:
136,176,17809,1,0,0:0:0:0:
280,184,17986,1,8,0:0:0:0:
136,176,18162,1,0,0:0:0:0:
448,184,19750,5,4,0:0:0:0:
320,192,19927,1,0,0:0:0:0:
192,184,20103,1,8,0:0:0:0:
72,184,20280,1,0,0:0:0:0:
192,184,20456,1,8,0:0:0:0:
336,184,20633,1,0,0:0:0:0:
192,168,20809,1,8,0:0:0:0:
56,168,20986,1,0,0:0:0:0:
472,192,22574,5,4,0:0:0:0:
128,184,23103,5,2,0:2:0:0:
472,176,23633,5,8,0:0:0:0:
40,192,23986,1,8,0:0:0:0:
304,160,24515,5,2,0:2:0:0:
48,160,25044,5,8,0:0:0:0:
472,176,25397,1,8,0:0:0:0:
80,168,25927,5,2,0:2:0:0:
440,184,26456,5,8,0:0:0:0:
160,160,26809,5,2,0:2:0:0:
272,160,26986,1,2,0:2:0:0:
56,152,27338,5,2,0:2:0:0:
480,184,27691,1,2,0:2:0:0:
248,176,28221,5,4,0:0:0:0:
240,176,28243,1,0,0:0:0:0:
232,176,28265,1,0,0:0:0:0:
456,192,28750,5,2,0:2:0:0:
40,168,29280,5,8,0:0:0:0:
464,192,29633,1,8,0:0:0:0:
472,192,29655,1,0,0:0:0:0:
40,168,30162,5,2,0:2:0:0:
472,192,30691,5,8,0:0:0:0:
56,208,31044,1,8,0:0:0:0:
56,208,31066,1,0,0:0:0:0:
56,208,31088,1,0,0:0:0:0:
464,200,31750,5,2,0:2:0:0:
112,224,32456,5,2,2:2:0:0:
56,192,32809,5,2,2:2:0:0:
88,152,33162,5,2,2:2:0:0:
136,136,33515,5,2,2:2:0:0:
464,192,33868,5,4,0:0:0:0:
160,192,34221,5,8,0:0:0:0:
48,168,34397,1,2,0:2:0:0:
464,184,34927,5,8,0:0:0:0:
40,184,35280,5,4,0:0:0:0:
376,200,35633,5,8,0:0:0:0:
288,160,35809,1,2,0:2:0:0:
48,160,36338,5,8,0:0:0:0:
472,176,36691,5,4,0:0:0:0:
232,184,37044,5,8,0:0:0:0:
96,176,37221,1,2,0:2:0:0:
448,192,37750,5,4,0:0:0:0:
216,192,38103,5,8,0:0:0:0:
120,160,38280,1,2,0:2:0:0:
336,192,38633,1,2,0:2:0:0:
120,160,38986,1,2,0:2:0:0:
448,200,39515,5,4,0:0:0:0:
208,168,39868,5,8,0:0:0:0:
296,144,40044,1,2,0:2:0:0:
472,168,40574,5,8,0:0:0:0:
48,160,40927,5,4,0:0:0:0:
320,184,41280,5,8,0:0:0:0:
408,152,41456,1,2,0:2:0:0:
40,184,41986,5,8,0:0:0:0:
472,200,42338,5,4,0:0:0:0:
40,168,43044,5,2,0:2:0:0:
408,248,43750,5,4,0:0:0:0:
448,200,44103,5,2,2:0:0:0:
408,136,44456,5,2,2:0:0:0:
344,96,44809,5,2,2:0:0:0:
136,256,45162,5,8,0:0:0:0:
96,224,45338,1,0,0:0:0:0:
80,184,45515,1,8,0:0:0:0:
88,136,45691,1,0,0:0:0:0:
368,80,46574,5,8,0:0:0:0:
400,104,46750,1,0,0:0:0:0:
432,144,46927,1,8,0:0:0:0:
448,176,47103,1,0,0:0:0:0:
168,208,47986,5,8,0:0:0:0:
144,208,48162,1,0,0:0:0:0:
168,208,48338,1,8,0:0:0:0:
192,208,48515,1,0,0:0:0:0:
336,216,49397,5,8,0:0:0:0:
360,216,49574,1,0,0:0:0:0:
336,216,49750,1,8,0:0:0:0:
312,216,49927,1,0,0:0:0:0:
128,192,50809,5,8,0:0:0:0:
160,192,50986,1,0,0:0:0:0:
192,192,51162,1,8,0:0:0:0:
224,192,51338,1,0,0:0:0:0:
344,224,52221,5,8,0:0:0:0:
384,224,52397,1,0,0:0:0:0:
432,224,52574,1,8,0:0:0:0:
472,224,52750,1,0,0:0:0:0:
192,208,53633,5,8,0:0:0:0:
144,208,53809,1,0,0:0:0:0:
96,208,53986,1,8,0:0:0:0:
56,208,54162,1,0,0:0:0:0:
352,144,55044,5,8,0:0:0:0:
384,160,55221,1,0,0:0:0:0:
328,192,55397,1,8,0:0:0:0:
256,192,55574,1,0,0:0:0:0:
184,184,55750,1,8,0:0:0:0:
104,176,55927,1,0,0:0:0:0:
256,168,56103,1,8,0:0:0:0:
104,168,56280,1,0,0:0:0:0:
440,176,56456,5,4,0:0:0:0:
344,176,56633,1,0,0:0:0:0:
448,176,56809,1,8,0:0:0:0:
344,176,56986,1,0,0:0:0:0:
40,176,57338,1,2,2:0:0:0:
120,176,57515,5,8,0:0:0:0:
192,176,57691,1,0,0:0:0:0:
432,176,57868,1,8,0:0:0:0:
384,176,58044,1,0,0:0:0:0:
336,176,58221,1,8,0:0:0:0:
288,176,58397,1,0,0:0:0:0:
440,176,58750,1,2,2:2:0:0:
392,176,58927,5,8,0:0:0:0:
344,176,59103,1,0,0:0:0:0:
64,176,59280,1,8,0:0:0:0:
112,176,59456,1,0,0:0:0:0:
160,176,59633,1,8,0:0:0:0:
208,176,59809,1,0,0:0:0:0:
48,168,60162,1,2,2:0:0:0:
96,168,60338,5,8,0:0:0:0:
144,168,60515,1,0,0:0:0:0:
440,168,60691,1,8,0:0:0:0:
392,168,60868,1,0,0:0:0:0:
344,168,61044,1,8,0:0:0:0:
296,168,61221,1,0,0:0:0:0:
384,184,61574,1,2,2:0:0:0:
472,184,61750,5,8,0:0:0:0:
384,184,61927,1,0,0:0:0:0:
128,184,62103,1,8,0:0:0:0:
40,192,62280,1,0,0:0:0:0:
128,184,62456,1,8,0:0:0:0:
40,192,62633,1,0,0:0:0:0:
64,192,62986,5,2,2:0:0:0:
152,192,63162,1,8,0:0:0:0:
64,192,63338,1,0,0:0:0:0:
384,200,63515,1,8,0:0:0:0:
472,200,63691,1,0,0:0:0:0:
384,200,63868,1,8,0:0:0:0:
296,192,64044,1,0,0:0:0:0:
64,192,64397,1,2,2:0:0:0:
152,192,64574,5,8,0:0:0:0:
240,192,64750,1,0,0:0:0:0:
480,200,64927,1,8,0:0:0:0:
392,200,65103,1,0,0:0:0:0:
304,200,65280,1,8,0:0:0:0:
216,192,65456,1,0,0:0:0:0:
336,192,65809,1,2,2:0:0:0:
456,192,65986,5,8,0:0:0:0:
328,184,66162,1,0,0:0:0:0:
192,176,66338,1,8,0:0:0:0:
464,184,67044,5,2,2:0:0:0:
152,208,67750,5,0,0:0:0:0:
96,184,67927,1,0,0:0:0:0:
56,136,68103,1,0,0:0:0:0:
40,96,68280,1,0,0:0:0:0:
448,112,68456,1,4,0:0:0:0:
320,152,69162,5,0,0:0:0:0:
256,152,69338,1,0,0:0:0:0:
320,152,69515,1,0,0:0:0:0:
384,152,69691,1,0,0:0:0:0:
40,152,69868,1,4,0:0:0:0:
296,168,70574,5,0,0:0:0:0:
376,168,70750,1,0,0:0:0:0:
296,168,70927,1,0,0:0:0:0:
376,168,71103,1,0,0:0:0:0:
48,184,71280,1,4,0:0:0:0:
96,192,71986,5,0,0:0:0:0:
168,192,72162,1,0,0:0:0:0:
96,192,72338,1,0,0:0:0:0:
168,192,72515,1,0,0:0:0:0:
440,192,72691,1,4,0:0:0:0:
160,168,73750,5,0,0:0:0:0:
216,168,73927,1,0,0:0:0:0:
272,168,74103,1,0,0:0:0:0:
328,168,74280,1,0,0:0:0:0:
72,168,75515,1,4,0:0:0:0:
248,176,76221,5,0,0:0:0:0:
296,176,76397,1,0,0:0:0:0:
248,176,76574,1,0,0:0:0:0:
192,176,76750,1,0,0:0:0:0:
328,176,77633,1,0,0:0:0:0:
384,176,77809,1,0,0:0:0:0:
432,176,77986,1,0,0:0:0:0:
480,176,78162,1,0,0:0:0:0:
152,160,78338,1,4,0:0:0:0:
80,176,79044,5,0,0:0:0:0:
256,176,79397,1,0,0:0:0:0:
432,184,79750,1,0,0:0:0:0:
256,184,80103,1,0,0:0:0:0:
40,168,80456,1,0,0:0:0:0:
416,248,81162,5,0,0:0:0:0:
448,224,81250,1,0,0:0:0:0:
464,184,81338,1,0,0:0:0:0:
456,144,81427,1,0,0:0:0:0:
432,112,81515,1,0,0:0:0:0:
400,72,81603,1,0,0:0:0:0:
368,48,81691,1,0,0:0:0:0:
320,32,81780,1,0,0:0:0:0:
56,48,81868,1,4,0:0:0:0:
464,184,82927,5,0,0:0:0:0:
152,176,83280,6,0,L|304:176,1,140,0|8,0:0|0:0,0:0:0:0:
448,168,84162,2,0,L|152:168,1,280,0|8,0:0|0:0,0:0:0:0:
384,224,84691,6,0,P|416:200|368:120,1,140,0|8,0:0|0:0,0:0:0:0:
144,160,85574,2,0,L|424:160,1,280,0|8,0:0|0:0,0:0:0:0:
128,240,86103,6,0,P|88:192|136:144,1,140,0|8,0:0|0:0,0:0:0:0:
384,208,86986,2,0,L|80:208,1,280,0|8,0:0|0:0,0:0:0:0:
296,152,87515,6,0,L|448:152,1,140,0|8,0:0|0:0,0:0:0:0:
336,160,88397,2,0,L|40:160,1,280,0|8,0:0|0:0,0:0:0:0:
240,160,88927,6,0,B|320:160|320:160|232:160,1,140,0|8,0:0|0:0,0:0:0:0:
128,144,89809,2,0,L|416:144,1,280,0|8,0:0|0:0,0:0:0:0:
184,216,90338,6,0,L|184:56,1,140,0|8,0:0|0:0,0:0:0:0:
408,176,91221,2,0,L|96:176,1,280,0|8,0:0|0:0,0:0:0:0:
400,112,91750,6,0,L|400:256,1,140,0|8,0:0|0:0,0:0:0:0:
144,176,92633,2,0,L|432:176,1,280,0|8,0:0|0:0,0:0:0:0:
184,184,93162,6,0,B|232:184|232:184|192:184|192:184|264:184,1,140,0|8,0:0|0:0,0:0:0:0:
384,176,94044,2,0,L|88:176,1,280,0|8,0:0|0:0,0:0:0:0:
432,208,94574,5,8,0:0:0:0:
320,208,94927,1,8,0:0:0:0:
432,208,95280,1,8,0:0:0:0:
320,208,95633,1,8,0:0:0:0:
152,192,95986,5,8,0:0:0:0:
48,192,96338,1,8,0:0:0:0:
152,192,96691,1,8,0:0:0:0:
272,200,96868,1,8,0:0:0:0:
312,192,96956,1,8,0:0:0:0:
352,176,97044,1,8,0:0:0:0:
256,160,97221,1,8,0:0:0:0:
152,152,97397,5,8,0:0:0:0:
72,152,97750,1,8,0:0:0:0:
232,152,98103,1,8,0:0:0:0:
400,144,98456,1,8,0:0:0:0:
248,152,98809,5,8,0:0:0:0:
80,144,99162,1,8,0:0:0:0:
288,152,99515,1,8,0:0:0:0:
352,144,99691,1,0,0:0:0:0:
288,152,99868,1,8,0:0:0:0:
352,144,100044,1,0,0:0:0:0:
288,152,100221,5,8,0:0:0:0:
112,152,100397,1,8,0:0:0:0:
256,152,100574,1,8,0:0:0:0:
400,168,100750,1,8,0:0:0:0:
264,152,100927,1,8,0:0:0:0:
72,144,101103,1,8,0:0:0:0:
256,152,101280,1,8,0:0:0:0:
440,144,101456,1,8,0:0:0:0:
256,128,101633,5,8,0:0:0:0:
440,136,101809,1,8,0:0:0:0:
256,128,101986,1,8,0:0:0:0:
80,128,102162,1,8,0:0:0:0:
256,120,102338,1,8,0:0:0:0:
432,128,102515,1,8,0:0:0:0:
256,112,102691,1,8,0:0:0:0:
96,120,102868,1,8,0:0:0:0:
360,208,103044,5,8,0:0:0:0:
384,192,103133,1,8,0:0:0:0:
408,160,103221,1,8,0:0:0:0:
408,128,103309,1,8,0:0:0:0:
152,232,103397,1,8,0:0:0:0:
112,208,103486,1,8,0:0:0:0:
88,184,103574,1,8,0:0:0:0:
80,152,103662,1,8,0:0:0:0:
376,240,103750,5,8,0:0:0:0:
400,216,103838,1,8,0:0:0:0:
416,184,103927,1,8,0:0:0:0:
416,144,104015,1,8,0:0:0:0:
168,248,104103,1,8,0:0:0:0:
144,224,104191,1,8,0:0:0:0:
128,192,104280,1,8,0:0:0:0:
112,144,104368,1,8,0:0:0:0:
328,216,104456,6,8,L|352:216,7,17.5
384,216,104809,2,8,L|401:216,7,17.5
440,216,105162,6,8,L|464:216,7,17.5
72,176,105515,2,8,L|56:168,1,17.5,12|8,0:0|0:0,0:0:0:0:
328,200,105868,6,0,L|480:200,1,140,4|0,0:0|0:0,0:0:0:0:
400,200,106221,1,8,0:0:0:0:
152,200,106397,2,0,L|8:200,2,140,0|8|0,0:0|0:0|0:0,0:0:0:0:
336,208,106927,1,8,0:0:0:0:
40,208,107103,2,0,L|192:208,1,140,0|8,0:0|0:0,0:0:0:0:
48,208,107456,5,0,0:0:0:0:
192,208,107633,1,8,0:0:0:0:
480,216,107809,2,0,L|328:216,1,140,0|8,0:0|0:0,0:0:0:0:
80,192,108162,2,0,L|152:192,1,70
368,208,108338,2,0,L|280:208,1,70,8|0,0:0|0:0,0:0:0:0:
136,192,108515,2,0,L|64:192,2,70,0|0|8,0:0|0:0|0:0,0:0:0:0:
456,192,108868,5,0,0:0:0:0:
192,184,109044,2,0,L|40:184,1,140,8|0,0:0|0:0,0:0:0:0:
192,184,109397,1,8,0:0:0:0:
320,184,109574,1,0,0:0:0:0:
112,192,109750,1,8,0:0:0:0:
328,200,109927,1,0,0:0:0:0:
168,192,110103,6,0,L|88:176,1,70,8|0,0:0|0:0,0:0:0:0:
256,208,110280,2,0,L|320:176,1,70
152,208,110456,2,0,L|88:168,1,70,8|0,0:0|0:0,0:0:0:0:
264,216,110633,2,0,L|352:176,1,70
176,168,110809,6,0,L|24:168,1,140,12|0,0:0|0:0,0:0:0:0:
248,184,111162,2,0,L|320:184,1,70,8|0,0:0|0:0,0:0:0:0:
448,192,111338,2,0,L|376:192,1,70
240,176,111515,1,8,0:0:0:0:
120,184,111691,2,0,L|48:176,1,70
208,184,111868,2,0,L|208:112,1,70,8|0,0:0|0:0,0:0:0:0:
368,168,112044,6,0,L|520:168,2,140,0|8|0,0:0|0:0|0:0,0:0:0:0:
256,160,112574,2,0,L|184:144,1,70,8|0,0:0|0:0,0:0:0:0:
16,128,112750,2,0,L|136:112,1,70
264,128,112927,1,8,0:0:0:0:
360,144,113103,6,0,L|432:128,1,70
264,144,113280,2,0,L|192:128,1,70,8|0,0:0|0:0,0:0:0:0:
48,112,113456,2,0,L|216:112,1,140,0|8,0:0|0:0,0:0:0:0:
464,120,113809,2,0,L|312:120,1,140,0|8,0:0|0:0,0:0:0:0:
24,104,114162,2,0,L|184:104,1,140,0|8,0:0|0:0,0:0:0:0:
424,104,114515,6,0,L|504:104,1,70
320,120,114691,2,0,L|320:48,1,70,8|0,0:0|0:0,0:0:0:0:
144,88,114868,2,0,L|64:88,1,70
376,56,115044,2,0,P|424:112|376:136,1,140,8|0,0:0|0:0,0:0:0:0:
232,120,115397,6,0,L|128:120,1,70,8|0,0:0|0:0,0:0:0:0:
16,120,115574,2,0,L|168:120,1,140,0|8,0:0|0:0,0:0:0:0:
408,120,115927,2,0,L|480:120,1,70
320,112,116103,2,0,L|320:32,1,70,8|0,0:0|0:0,0:0:0:0:
152,112,116280,2,0,L|8:112,1,140,0|8,0:0|0:0,0:0:0:0:
312,104,116633,2,0,L|464:104,1,140,0|8,0:0|0:0,0:0:0:0:
208,104,116986,2,0,L|64:104,1,140,0|8,0:0|0:0,0:0:0:0:
304,88,117338,6,0,L|376:88,1,70
112,88,117515,2,0,L|24:88,1,70,8|0,0:0|0:0,0:0:0:0:
376,80,117691,2,0,L|224:80,1,140,0|8,0:0|0:0,0:0:0:0:
24,80,118044,2,0,L|96:80,1,70
288,80,118221,2,0,L|128:80,1,140,8|0,0:0|0:0,0:0:0:0:
64,80,118574,1,8,0:0:0:0:
358,80,118750,6,0,L|288:80,1,70
504,80,118927,2,0,L|416:80,1,70,8|0,0:0|0:0,0:0:0:0:
192,80,119103,2,0,L|32:80,1,140,0|8,0:0|0:0,0:0:0:0:
424,80,119456,2,0,L|496:80,1,70
202,80,119633,2,0,L|272:80,1,70,8|0,0:0|0:0,0:0:0:0:
16,72,119809,2,0,L|176:72,1,140,0|8,0:0|0:0,0:0:0:0:
392,80,120162,6,0,L|472:80,1,70
298,80,120338,2,0,L|368:80,1,70,8|0,0:0|0:0,0:0:0:0:
216,80,120515,2,0,L|76:80,1,140,0|8,0:0|0:0,0:0:0:0:
352,80,120868,2,0,L|424:80,1,70
216,80,121044,2,0,L|368:80,1,140,8|0,0:0|0:0,0:0:0:0:
288,80,121397,5,8,0:0:0:0:
168,80,121574,2,0,L|80:80,1,70
288,80,121750,2,0,L|368:80,1,70,8|0,0:0|0:0,0:0:0:0:
192,80,121927,2,0,L|48:80,1,140,0|8,0:0|0:0,0:0:0:0:
192,80,122280,2,0,L|272:80,1,70
72,80,122456,2,0,L|-16:80,1,70,8|0,0:0|0:0,0:0:0:0:
160,80,122633,2,0,L|304:80,1,140,0|8,0:0|0:0,0:0:0:0:
416,80,122986,6,0,L|496:80,1,70
336,80,123162,2,0,L|248:80,1,70,8|0,0:0|0:0,0:0:0:0:
80,80,123338,2,0,L|220:80,1,140,0|8,0:0|0:0,0:0:0:0:
496,80,123691,2,0,L|356:80,1,140,0|8,0:0|0:0,0:0:0:0:
160,72,124044,2,0,L|16:72,1,140,0|8,0:0|0:0,0:0:0:0:
310,80,124397,6,0,L|240:80,1,70
400,88,124574,2,0,L|480:88,1,70,8|0,0:0|0:0,0:0:0:0:
192,80,124750,2,0,L|40:80,1,140,0|8,0:0|0:0,0:0:0:0:
328,80,125103,2,0,L|472:80,1,140,0|8,0:0|0:0,0:0:0:0:
192,80,125456,2,0,L|8:80,1,140,0|8,0:0|0:0,0:0:0:0:
384,80,125809,6,0,L|464:80,1,70
304,80,125986,2,0,L|200:80,1,70,8|0,0:0|0:0,0:0:0:0:
24,80,126162,2,0,L|176:80,1,140,0|8,0:0|0:0,0:0:0:0:
416,104,126515,2,0,L|488:104,1,70
256,104,126691,2,0,L|168:104,1,70,8|0,0:0|0:0,0:0:0:0:
360,96,126868,2,0,L|448:96,1,70
256,104,127044,2,0,L|160:104,1,70,8|0,0:0|0:0,0:0:0:0:
360,96,127221,2,0,L|448:96,1,70
128,96,127397,6,8,L|56:96,4,70
376,120,127927,2,8,L|456:120,2,70
80,104,128280,1,8,0:0:0:0:
328,64,128456,6,0,P|400:104|464:288,1,280,4|8,0:3|0:0,0:0:0:0:
