osu file format v14

[General]
AudioFilename: audio.mp3
AudioLeadIn: 0
PreviewTime: 133369
Countdown: 0
SampleSet: None
StackLeniency: 0.7
Mode: 3
LetterboxInBreaks: 0
SpecialStyle: 0
WidescreenStoryboard: 0

[Editor]
DistanceSpacing: 0.8
BeatDivisor: 4
GridSize: 4
TimelineZoom: 1.9

[Metadata]
Title:Dead End
TitleUnicode:Dead End
Artist:Helblinde
ArtistUnicode:Helblinde
Creator:Verald
Version:Something
Source:
Tags:
BeatmapID:1435889
BeatmapSetID:679136

[Difficulty]
HPDrainRate:9
CircleSize:4
OverallDifficulty:9
ApproachRate:5
SliderMultiplier:1.4
SliderTickRate:1

[Events]
//Background and Video events
//Break Periods
//Storyboard Layer 0 (Background)
//Storyboard Layer 1 (Fail)
//Storyboard Layer 2 (Pass)
//Storyboard Layer 3 (Foreground)
//Storyboard Sound Samples

[TimingPoints]
33231,260.869565217391,4,3,0,100,1,0
40599,4.6875,4,3,0,10,1,0
40599,-10,4,3,0,10,0,0
40600,600000000,4,3,0,10,1,0
41578,260.869565217391,4,3,0,100,1,0
41806,260.869565217391,4,3,0,100,1,0
80478,4.6875,4,3,0,10,1,0
80478,-10,4,3,0,10,0,0
80479,600000000,4,3,0,10,1,0
81197,260.869565217391,4,3,0,100,1,0
81458,260.869565217391,4,3,0,100,1,0
81522,4.6875,4,3,0,10,1,0
81522,-10,4,3,0,10,0,0
81523,600000000,4,3,0,10,1,0
81979,260.869565217391,4,3,0,100,1,0
82501,260.869565217391,4,3,0,100,1,0
82565,4.6875,4,3,0,10,1,0
82565,-10,4,3,0,10,0,0
82566,600000000,4,3,0,10,1,0
83283,260.869565217391,4,3,0,100,1,0
83544,260.869565217391,4,3,0,100,1,0
94042,4.6875,4,3,0,10,1,0
94042,-10,4,3,0,10,0,0
94043,600000000,4,3,0,10,1,0
98413,260.869565217391,4,3,0,100,1,0
99196,260.869565217391,4,3,0,100,1,0
137868,4.6875,4,3,0,10,1,0
137868,-10,4,3,0,10,0,0
137869,600000000,4,3,0,10,1,0
139633,260.869565217391,4,3,0,100,1,0
139893,260.869565217391,4,3,0,100,1,0
174391,4.6875,4,3,0,10,1,0
174391,-10,4,3,0,10,0,0
174392,600000000,4,3,0,10,1,0
174849,260.869565217391,4,3,0,100,1,0
175371,260.869565217391,4,3,0,100,1,0
190565,4.6875,4,3,0,10,1,0
190565,-10,4,3,0,10,0,0
190566,600000000,4,3,0,10,1,0
190762,260.869565217391,4,3,0,100,1,0
191023,260.869565217391,4,3,0,100,1,0
199304,4.6875,4,3,0,10,1,0
199304,-10,4,3,0,10,0,0
199305,600000000,4,3,0,10,1,0
200153,260.869565217391,4,3,0,100,1,0
200414,260.869565217391,4,3,0,100,1,0
200478,4.6875,4,3,0,10,1,0
200478,-10,4,3,0,10,0,0
200479,600000000,4,3,0,10,1,0
204327,260.869565217391,4,3,0,100,1,0
204587,260.869565217391,4,3,0,100,1,0
226042,4.6875,4,3,0,10,1,0
226042,-10,4,3,0,10,0,0
226043,600000000,4,3,0,10,1,0
226239,260.869565217391,4,3,0,100,1,0
226500,260.869565217391,4,3,0,100,1,0
267259,4.6875,4,3,0,10,1,0
267259,-10,4,3,0,10,0,0
267260,600000000,4,3,0,10,1,0
267978,260.869565217391,4,3,0,100,1,0
268239,260.869565217391,4,3,0,100,1,0

[HitObjects]
192,192,33230,5,0,0:0:0:0:
64,192,33230,1,0,0:0:0:0:
448,192,33230,1,0,0:0:0:0:
320,192,33361,1,0,0:0:0:0:
64,192,33491,1,0,0:0:0:0:
448,192,33491,1,0,0:0:0:0:
320,192,33491,1,0,0:0:0:0:
192,192,33622,1,0,0:0:0:0:
448,192,33752,1,0,0:0:0:0:
320,192,33752,1,0,0:0:0:0:
192,192,33752,1,0,0:0:0:0:
64,192,33883,1,0,0:0:0:0:
64,192,34013,1,0,0:0:0:0:
192,192,34013,1,0,0:0:0:0:
320,192,34013,1,0,0:0:0:0:
448,192,34144,1,0,0:0:0:0:
320,192,34274,1,0,0:0:0:0:
192,192,34274,1,0,0:0:0:0:
64,192,34274,1,0,0:0:0:0:
448,192,34404,1,0,0:0:0:0:
448,192,34535,1,0,0:0:0:0:
320,192,34535,1,0,0:0:0:0:
192,192,34535,1,0,0:0:0:0:
64,192,34665,1,0,0:0:0:0:
448,192,34796,1,0,0:0:0:0:
320,192,34796,1,0,0:0:0:0:
192,192,34796,1,0,0:0:0:0:
64,192,34926,1,0,0:0:0:0:
448,192,35057,1,0,0:0:0:0:
320,192,35057,1,0,0:0:0:0:
64,192,35057,1,0,0:0:0:0:
192,192,35187,1,0,0:0:0:0:
448,192,35317,1,0,0:0:0:0:
64,192,35317,1,0,0:0:0:0:
320,192,35317,1,0,0:0:0:0:
192,192,35448,1,0,0:0:0:0:
64,192,35578,1,0,0:0:0:0:
192,192,35578,1,0,0:0:0:0:
448,192,35578,1,0,0:0:0:0:
320,192,35709,1,0,0:0:0:0:
64,192,35839,1,0,0:0:0:0:
192,192,35839,1,0,0:0:0:0:
448,192,35839,1,0,0:0:0:0:
320,192,35970,1,0,0:0:0:0:
448,192,36100,1,0,0:0:0:0:
64,192,36100,1,0,0:0:0:0:
320,192,36100,1,0,0:0:0:0:
192,192,36230,1,0,0:0:0:0:
64,192,36361,1,0,0:0:0:0:
192,192,36361,1,0,0:0:0:0:
320,192,36361,1,0,0:0:0:0:
448,192,36491,1,0,0:0:0:0:
448,192,36622,1,0,0:0:0:0:
320,192,36622,1,0,0:0:0:0:
64,192,36622,1,0,0:0:0:0:
192,192,36752,1,0,0:0:0:0:
64,192,36883,1,0,0:0:0:0:
320,192,36883,1,0,0:0:0:0:
192,192,36883,1,0,0:0:0:0:
448,192,37013,1,0,0:0:0:0:
192,192,37144,1,0,0:0:0:0:
64,192,37144,1,0,0:0:0:0:
448,192,37144,1,0,0:0:0:0:
320,192,37274,1,0,0:0:0:0:
64,192,37404,1,0,0:0:0:0:
192,192,37404,1,0,0:0:0:0:
320,192,37404,1,0,0:0:0:0:
448,192,37535,1,0,0:0:0:0:
64,192,37535,1,0,0:0:0:0:
192,192,37535,1,0,0:0:0:0:
448,192,37665,1,0,0:0:0:0:
320,192,37665,1,0,0:0:0:0:
192,192,37665,1,0,0:0:0:0:
64,192,37796,1,0,0:0:0:0:
192,192,37796,1,0,0:0:0:0:
320,192,37796,1,0,0:0:0:0:
448,192,37926,1,0,0:0:0:0:
320,192,37926,1,0,0:0:0:0:
64,192,37926,1,0,0:0:0:0:
64,192,38057,1,0,0:0:0:0:
192,192,38057,1,0,0:0:0:0:
448,192,38057,1,0,0:0:0:0:
448,192,38187,1,0,0:0:0:0:
320,192,38187,1,0,0:0:0:0:
192,192,38187,1,0,0:0:0:0:
64,192,38317,1,0,0:0:0:0:
192,192,38317,1,0,0:0:0:0:
448,192,38317,1,0,0:0:0:0:
64,192,38448,1,0,0:0:0:0:
192,192,38448,1,0,0:0:0:0:
320,192,38448,1,0,0:0:0:0:
320,192,38578,1,0,0:0:0:0:
448,192,38578,1,0,0:0:0:0:
64,192,38578,1,0,0:0:0:0:
64,192,38709,1,0,0:0:0:0:
192,192,38709,1,0,0:0:0:0:
320,192,38709,1,0,0:0:0:0:
448,192,38839,1,0,0:0:0:0:
320,192,38839,1,0,0:0:0:0:
64,192,38839,1,0,0:0:0:0:
64,192,38970,1,0,0:0:0:0:
192,192,38970,1,0,0:0:0:0:
320,192,38970,1,0,0:0:0:0:
448,192,39100,1,0,0:0:0:0:
64,192,39100,1,0,0:0:0:0:
192,192,39100,1,0,0:0:0:0:
448,192,39230,1,0,0:0:0:0:
192,192,39230,1,0,0:0:0:0:
320,192,39230,1,0,0:0:0:0:
64,192,39361,1,0,0:0:0:0:
192,192,39361,1,0,0:0:0:0:
320,192,39361,1,0,0:0:0:0:
320,192,39491,1,0,0:0:0:0:
448,192,39491,1,0,0:0:0:0:
192,192,39557,1,0,0:0:0:0:
64,192,39557,1,0,0:0:0:0:
320,192,39622,1,0,0:0:0:0:
448,192,39622,1,0,0:0:0:0:
192,192,39687,1,0,0:0:0:0:
64,192,39687,1,0,0:0:0:0:
320,192,39752,1,0,0:0:0:0:
448,192,39752,1,0,0:0:0:0:
192,192,39817,1,0,0:0:0:0:
64,192,39817,1,0,0:0:0:0:
320,192,39883,1,0,0:0:0:0:
448,192,39883,1,0,0:0:0:0:
192,192,39948,1,0,0:0:0:0:
64,192,39948,1,0,0:0:0:0:
448,192,40013,1,0,0:0:0:0:
320,192,40013,1,0,0:0:0:0:
64,192,40078,1,0,0:0:0:0:
192,192,40078,1,0,0:0:0:0:
448,192,40144,1,0,0:0:0:0:
320,192,40144,1,0,0:0:0:0:
192,192,40209,1,0,0:0:0:0:
64,192,40209,1,0,0:0:0:0:
320,192,40274,1,0,0:0:0:0:
448,192,40274,1,0,0:0:0:0:
192,192,40339,1,0,0:0:0:0:
64,192,40339,1,0,0:0:0:0:
448,192,40404,1,0,0:0:0:0:
320,192,40404,1,0,0:0:0:0:
192,192,40470,1,0,0:0:0:0:
64,192,40470,1,0,0:0:0:0:
448,192,40535,1,0,0:0:0:0:
320,192,40535,1,0,0:0:0:0:
64,192,41806,1,0,0:0:0:0:
192,192,41806,1,0,0:0:0:0:
448,192,41806,1,0,0:0:0:0:
320,192,41936,1,0,0:0:0:0:
448,192,42066,1,0,0:0:0:0:
320,192,42066,1,0,0:0:0:0:
192,192,42066,1,0,0:0:0:0:
64,192,42197,1,0,0:0:0:0:
64,192,42327,1,0,0:0:0:0:
320,192,42327,1,0,0:0:0:0:
448,192,42327,1,0,0:0:0:0:
192,192,42458,1,0,0:0:0:0:
64,192,42588,1,0,0:0:0:0:
192,192,42588,1,0,0:0:0:0:
320,192,42588,1,0,0:0:0:0:
448,192,42719,1,0,0:0:0:0:
448,192,42849,1,0,0:0:0:0:
320,192,42849,1,0,0:0:0:0:
64,192,42849,1,0,0:0:0:0:
192,192,42979,1,0,0:0:0:0:
64,192,43110,1,0,0:0:0:0:
192,192,43110,1,0,0:0:0:0:
320,192,43110,1,0,0:0:0:0:
448,192,43240,1,0,0:0:0:0:
448,192,43371,1,0,0:0:0:0:
320,192,43371,1,0,0:0:0:0:
64,192,43371,1,0,0:0:0:0:
192,192,43501,1,0,0:0:0:0:
64,192,43632,1,0,0:0:0:0:
320,192,43632,1,0,0:0:0:0:
192,192,43632,1,0,0:0:0:0:
448,192,43762,1,0,0:0:0:0:
64,192,43892,1,0,0:0:0:0:
192,192,43892,1,0,0:0:0:0:
448,192,43892,1,0,0:0:0:0:
320,192,44023,1,0,0:0:0:0:
448,192,44153,1,0,0:0:0:0:
320,192,44153,1,0,0:0:0:0:
192,192,44153,1,0,0:0:0:0:
64,192,44284,1,0,0:0:0:0:
448,192,44414,1,0,0:0:0:0:
192,192,44414,1,0,0:0:0:0:
64,192,44414,1,0,0:0:0:0:
320,192,44545,1,0,0:0:0:0:
64,192,44675,1,0,0:0:0:0:
192,192,44675,1,0,0:0:0:0:
320,192,44675,1,0,0:0:0:0:
448,192,44806,1,0,0:0:0:0:
448,192,44936,1,0,0:0:0:0:
320,192,44936,1,0,0:0:0:0:
192,192,44936,1,0,0:0:0:0:
64,192,45066,1,0,0:0:0:0:
192,192,45066,1,0,0:0:0:0:
320,192,45066,1,0,0:0:0:0:
320,192,45197,1,0,0:0:0:0:
192,192,45197,1,0,0:0:0:0:
64,192,45197,1,0,0:0:0:0:
448,192,45327,1,0,0:0:0:0:
320,192,45327,1,0,0:0:0:0:
192,192,45327,1,0,0:0:0:0:
448,192,45458,1,0,0:0:0:0:
64,192,45458,1,0,0:0:0:0:
192,192,45458,1,0,0:0:0:0:
64,192,45588,1,0,0:0:0:0:
320,192,45588,1,0,0:0:0:0:
448,192,45588,1,0,0:0:0:0:
64,192,45719,1,0,0:0:0:0:
192,192,45719,1,0,0:0:0:0:
320,192,45719,1,0,0:0:0:0:
448,192,45849,1,0,0:0:0:0:
320,192,45849,1,0,0:0:0:0:
192,192,45849,1,0,0:0:0:0:
64,192,45979,1,0,0:0:0:0:
192,192,45979,1,0,0:0:0:0:
448,192,45979,1,0,0:0:0:0:
320,192,46110,1,0,0:0:0:0:
448,192,46240,1,0,0:0:0:0:
320,192,46240,1,0,0:0:0:0:
192,192,46240,1,0,0:0:0:0:
64,192,46371,1,0,0:0:0:0:
64,192,46501,1,0,0:0:0:0:
192,192,46501,1,0,0:0:0:0:
320,192,46501,1,0,0:0:0:0:
448,192,46632,1,0,0:0:0:0:
448,192,46762,1,0,0:0:0:0:
320,192,46762,1,0,0:0:0:0:
64,192,46762,1,0,0:0:0:0:
192,192,46892,1,0,0:0:0:0:
64,192,47023,1,0,0:0:0:0:
192,192,47023,1,0,0:0:0:0:
320,192,47023,1,0,0:0:0:0:
448,192,47153,1,0,0:0:0:0:
448,192,47284,1,0,0:0:0:0:
320,192,47284,1,0,0:0:0:0:
64,192,47284,1,0,0:0:0:0:
192,192,47414,1,0,0:0:0:0:
64,192,47545,1,0,0:0:0:0:
192,192,47545,1,0,0:0:0:0:
448,192,47545,1,0,0:0:0:0:
320,192,47675,1,0,0:0:0:0:
448,192,47805,1,0,0:0:0:0:
320,192,47805,1,0,0:0:0:0:
192,192,47805,1,0,0:0:0:0:
64,192,47936,1,0,0:0:0:0:
448,192,48066,1,0,0:0:0:0:
320,192,48066,1,0,0:0:0:0:
192,192,48066,1,0,0:0:0:0:
64,192,48197,1,0,0:0:0:0:
64,192,48327,1,0,0:0:0:0:
192,192,48327,1,0,0:0:0:0:
320,192,48327,1,0,0:0:0:0:
448,192,48458,1,0,0:0:0:0:
64,192,48588,1,0,0:0:0:0:
192,192,48588,1,0,0:0:0:0:
320,192,48588,1,0,0:0:0:0:
448,192,48719,1,0,0:0:0:0:
448,192,48849,1,0,0:0:0:0:
320,192,48849,1,0,0:0:0:0:
64,192,48849,1,0,0:0:0:0:
192,192,48979,1,0,0:0:0:0:
448,192,49110,1,0,0:0:0:0:
320,192,49110,1,0,0:0:0:0:
64,192,49110,1,0,0:0:0:0:
192,192,49240,1,0,0:0:0:0:
320,192,49240,1,0,0:0:0:0:
64,192,49240,1,0,0:0:0:0:
64,192,49371,1,0,0:0:0:0:
192,192,49371,1,0,0:0:0:0:
448,192,49371,1,0,0:0:0:0:
320,192,49501,1,0,0:0:0:0:
448,192,49501,1,0,0:0:0:0:
192,192,49501,1,0,0:0:0:0:
64,192,49632,1,0,0:0:0:0:
192,192,49632,1,0,0:0:0:0:
320,192,49632,1,0,0:0:0:0:
448,192,49762,1,0,0:0:0:0:
320,192,49762,1,0,0:0:0:0:
64,192,49762,1,0,0:0:0:0:
64,192,49892,1,0,0:0:0:0:
320,192,49892,1,0,0:0:0:0:
192,192,49892,1,0,0:0:0:0:
448,192,50023,1,0,0:0:0:0:
320,192,50023,1,0,0:0:0:0:
192,192,50023,1,0,0:0:0:0:
64,192,50153,1,0,0:0:0:0:
192,192,50153,1,0,0:0:0:0:
320,192,50153,1,0,0:0:0:0:
448,192,50284,1,0,0:0:0:0:
448,192,50414,1,0,0:0:0:0:
320,192,50414,1,0,0:0:0:0:
192,192,50414,1,0,0:0:0:0:
64,192,50545,1,0,0:0:0:0:
64,192,50675,1,0,0:0:0:0:
192,192,50675,1,0,0:0:0:0:
320,192,50675,1,0,0:0:0:0:
448,192,50805,1,0,0:0:0:0:
448,192,50936,1,0,0:0:0:0:
320,192,50936,1,0,0:0:0:0:
64,192,50936,1,0,0:0:0:0:
192,192,51066,1,0,0:0:0:0:
64,192,51197,1,0,0:0:0:0:
192,192,51197,1,0,0:0:0:0:
320,192,51197,1,0,0:0:0:0:
448,192,51327,1,0,0:0:0:0:
320,192,51458,1,0,0:0:0:0:
64,192,51458,1,0,0:0:0:0:
448,192,51458,1,0,0:0:0:0:
192,192,51588,1,0,0:0:0:0:
448,192,51719,1,0,0:0:0:0:
192,192,51719,1,0,0:0:0:0:
320,192,51719,1,0,0:0:0:0:
64,192,51849,1,0,0:0:0:0:
64,192,51979,1,0,0:0:0:0:
192,192,51979,1,0,0:0:0:0:
448,192,51979,1,0,0:0:0:0:
320,192,52110,1,0,0:0:0:0:
64,192,52240,1,0,0:0:0:0:
192,192,52240,1,0,0:0:0:0:
320,192,52240,1,0,0:0:0:0:
448,192,52371,1,0,0:0:0:0:
448,192,52501,1,0,0:0:0:0:
320,192,52501,1,0,0:0:0:0:
192,192,52501,1,0,0:0:0:0:
64,192,52632,1,0,0:0:0:0:
64,192,52762,1,0,0:0:0:0:
320,192,52762,1,0,0:0:0:0:
448,192,52762,1,0,0:0:0:0:
192,192,52892,1,0,0:0:0:0:
64,192,53023,1,0,0:0:0:0:
192,192,53023,1,0,0:0:0:0:
448,192,53023,1,0,0:0:0:0:
320,192,53153,1,0,0:0:0:0:
64,192,53284,1,0,0:0:0:0:
320,192,53284,1,0,0:0:0:0:
192,192,53284,1,0,0:0:0:0:
448,192,53414,1,0,0:0:0:0:
448,192,53545,1,0,0:0:0:0:
320,192,53545,1,0,0:0:0:0:
192,192,53545,1,0,0:0:0:0:
64,192,53675,1,0,0:0:0:0:
192,192,53675,1,0,0:0:0:0:
320,192,53675,1,0,0:0:0:0:
64,192,53805,1,0,0:0:0:0:
448,192,53936,1,0,0:0:0:0:
320,192,53936,1,0,0:0:0:0:
192,192,53936,1,0,0:0:0:0:
448,192,54066,1,0,0:0:0:0:
192,192,54066,1,0,0:0:0:0:
64,192,54066,1,0,0:0:0:0:
320,192,54197,1,0,0:0:0:0:
448,192,54327,1,0,0:0:0:0:
320,192,54327,1,0,0:0:0:0:
64,192,54327,1,0,0:0:0:0:
192,192,54458,1,0,0:0:0:0:
64,192,54588,1,0,0:0:0:0:
192,192,54588,1,0,0:0:0:0:
320,192,54588,1,0,0:0:0:0:
448,192,54719,1,0,0:0:0:0:
448,192,54849,1,0,0:0:0:0:
64,192,54849,1,0,0:0:0:0:
192,192,54849,1,0,0:0:0:0:
320,192,54979,1,0,0:0:0:0:
448,192,55110,1,0,0:0:0:0:
320,192,55110,1,0,0:0:0:0:
192,192,55110,1,0,0:0:0:0:
64,192,55240,1,0,0:0:0:0:
64,192,55371,1,0,0:0:0:0:
192,192,55371,1,0,0:0:0:0:
320,192,55371,1,0,0:0:0:0:
448,192,55501,1,0,0:0:0:0:
64,192,55632,1,0,0:0:0:0:
192,192,55632,1,0,0:0:0:0:
448,192,55632,1,0,0:0:0:0:
320,192,55762,1,0,0:0:0:0:
448,192,55892,1,0,0:0:0:0:
320,192,55892,1,0,0:0:0:0:
64,192,55892,1,0,0:0:0:0:
192,192,56023,1,0,0:0:0:0:
64,192,56153,1,0,0:0:0:0:
320,192,56153,1,0,0:0:0:0:
192,192,56153,1,0,0:0:0:0:
448,192,56284,1,0,0:0:0:0:
64,192,56414,1,0,0:0:0:0:
192,192,56414,1,0,0:0:0:0:
320,192,56414,1,0,0:0:0:0:
448,192,56545,1,0,0:0:0:0:
448,192,56675,1,0,0:0:0:0:
320,192,56675,1,0,0:0:0:0:
192,192,56675,1,0,0:0:0:0:
64,192,56805,1,0,0:0:0:0:
448,192,56936,1,0,0:0:0:0:
320,192,56936,1,0,0:0:0:0:
192,192,56936,1,0,0:0:0:0:
64,192,57066,1,0,0:0:0:0:
64,192,57197,1,0,0:0:0:0:
192,192,57197,1,0,0:0:0:0:
320,192,57197,1,0,0:0:0:0:
320,192,57327,1,0,0:0:0:0:
448,192,57327,1,0,0:0:0:0:
192,192,57327,1,0,0:0:0:0:
64,192,57458,1,0,0:0:0:0:
320,192,57458,1,0,0:0:0:0:
448,192,57458,1,0,0:0:0:0:
64,192,57588,1,0,0:0:0:0:
192,192,57588,1,0,0:0:0:0:
320,192,57588,1,0,0:0:0:0:
448,192,57719,1,0,0:0:0:0:
192,192,57719,1,0,0:0:0:0:
64,192,57719,1,0,0:0:0:0:
448,192,57849,1,0,0:0:0:0:
320,192,57849,1,0,0:0:0:0:
64,192,57849,1,0,0:0:0:0:
192,192,57979,1,0,0:0:0:0:
320,192,57979,1,0,0:0:0:0:
448,192,57979,1,0,0:0:0:0:
64,192,58110,1,0,0:0:0:0:
192,192,58110,1,0,0:0:0:0:
320,192,58110,1,0,0:0:0:0:
448,192,58240,1,0,0:0:0:0:
320,192,58240,1,0,0:0:0:0:
192,192,58240,1,0,0:0:0:0:
448,192,58371,1,0,0:0:0:0:
192,192,58371,1,0,0:0:0:0:
64,192,58371,1,0,0:0:0:0:
64,192,58501,1,0,0:0:0:0:
320,192,58501,1,0,0:0:0:0:
448,192,58501,1,0,0:0:0:0:
192,192,58632,1,0,0:0:0:0:
64,192,58762,1,0,0:0:0:0:
192,192,58762,1,0,0:0:0:0:
448,192,58762,1,0,0:0:0:0:
320,192,58892,1,0,0:0:0:0:
448,192,59023,1,0,0:0:0:0:
320,192,59023,1,0,0:0:0:0:
192,192,59023,1,0,0:0:0:0:
64,192,59153,1,0,0:0:0:0:
64,192,59284,1,0,0:0:0:0:
192,192,59284,1,0,0:0:0:0:
320,192,59284,1,0,0:0:0:0:
448,192,59414,1,0,0:0:0:0:
448,192,59545,1,0,0:0:0:0:
320,192,59545,1,0,0:0:0:0:
64,192,59545,1,0,0:0:0:0:
192,192,59675,1,0,0:0:0:0:
64,192,59805,1,0,0:0:0:0:
192,192,59805,1,0,0:0:0:0:
320,192,59805,1,0,0:0:0:0:
448,192,59936,1,0,0:0:0:0:
448,192,60066,1,0,0:0:0:0:
320,192,60066,1,0,0:0:0:0:
192,192,60066,1,0,0:0:0:0:
64,192,60197,1,0,0:0:0:0:
64,192,60327,1,0,0:0:0:0:
320,192,60327,1,0,0:0:0:0:
448,192,60327,1,0,0:0:0:0:
192,192,60458,1,0,0:0:0:0:
64,192,60458,1,0,0:0:0:0:
320,192,60458,1,0,0:0:0:0:
448,192,60588,1,0,0:0:0:0:
320,192,60588,1,0,0:0:0:0:
64,192,60588,1,0,0:0:0:0:
192,192,60719,1,0,0:0:0:0:
64,192,60849,1,0,0:0:0:0:
192,192,60849,1,0,0:0:0:0:
320,192,60849,1,0,0:0:0:0:
448,192,60979,1,0,0:0:0:0:
64,192,61110,1,0,0:0:0:0:
192,192,61110,1,0,0:0:0:0:
320,192,61110,1,0,0:0:0:0:
448,192,61240,1,0,0:0:0:0:
448,192,61371,1,0,0:0:0:0:
320,192,61371,1,0,0:0:0:0:
192,192,61371,1,0,0:0:0:0:
64,192,61501,1,0,0:0:0:0:
448,192,61632,1,0,0:0:0:0:
320,192,61632,1,0,0:0:0:0:
192,192,61632,1,0,0:0:0:0:
64,192,61762,1,0,0:0:0:0:
64,192,61892,1,0,0:0:0:0:
448,192,61892,1,0,0:0:0:0:
320,192,61892,1,0,0:0:0:0:
192,192,62023,1,0,0:0:0:0:
448,192,62153,1,0,0:0:0:0:
320,192,62153,1,0,0:0:0:0:
64,192,62153,1,0,0:0:0:0:
192,192,62284,1,0,0:0:0:0:
64,192,62414,1,0,0:0:0:0:
192,192,62414,1,0,0:0:0:0:
448,192,62414,1,0,0:0:0:0:
320,192,62545,1,0,0:0:0:0:
448,192,62545,1,0,0:0:0:0:
192,192,62545,1,0,0:0:0:0:
448,192,62675,1,0,0:0:0:0:
320,192,62675,1,0,0:0:0:0:
64,192,62675,1,0,0:0:0:0:
192,192,62805,1,0,0:0:0:0:
64,192,62936,1,0,0:0:0:0:
192,192,62936,1,0,0:0:0:0:
320,192,62936,1,0,0:0:0:0:
448,192,63066,1,0,0:0:0:0:
64,192,63197,1,0,0:0:0:0:
448,192,63197,1,0,0:0:0:0:
320,192,63197,1,0,0:0:0:0:
192,192,63327,1,0,0:0:0:0:
448,192,63458,1,0,0:0:0:0:
320,192,63458,1,0,0:0:0:0:
192,192,63458,1,0,0:0:0:0:
64,192,63588,1,0,0:0:0:0:
64,192,63719,1,0,0:0:0:0:
192,192,63719,1,0,0:0:0:0:
320,192,63719,1,0,0:0:0:0:
448,192,63849,1,0,0:0:0:0:
448,192,63979,1,0,0:0:0:0:
320,192,63979,1,0,0:0:0:0:
192,192,63979,1,0,0:0:0:0:
64,192,64110,1,0,0:0:0:0:
320,192,64240,1,0,0:0:0:0:
448,192,64240,1,0,0:0:0:0:
64,192,64240,1,0,0:0:0:0:
192,192,64371,1,0,0:0:0:0:
64,192,64501,1,0,0:0:0:0:
192,192,64501,1,0,0:0:0:0:
448,192,64501,1,0,0:0:0:0:
320,192,64632,1,0,0:0:0:0:
448,192,64632,1,0,0:0:0:0:
192,192,64632,1,0,0:0:0:0:
448,192,64762,1,0,0:0:0:0:
320,192,64762,1,0,0:0:0:0:
64,192,64762,1,0,0:0:0:0:
64,192,64892,1,0,0:0:0:0:
192,192,65023,1,0,0:0:0:0:
320,192,65023,1,0,0:0:0:0:
448,192,65023,1,0,0:0:0:0:
64,192,65153,1,0,0:0:0:0:
64,192,65284,1,0,0:0:0:0:
192,192,65284,1,0,0:0:0:0:
320,192,65284,1,0,0:0:0:0:
448,192,65414,1,0,0:0:0:0:
64,192,65545,1,0,0:0:0:0:
192,192,65545,1,0,0:0:0:0:
320,192,65545,1,0,0:0:0:0:
448,192,65675,1,0,0:0:0:0:
448,192,65805,1,0,0:0:0:0:
320,192,65805,1,0,0:0:0:0:
64,192,65805,1,0,0:0:0:0:
192,192,65936,1,0,0:0:0:0:
320,192,66066,1,0,0:0:0:0:
448,192,66066,1,0,0:0:0:0:
64,192,66066,1,0,0:0:0:0:
192,192,66197,1,0,0:0:0:0:
64,192,66327,1,0,0:0:0:0:
192,192,66327,1,0,0:0:0:0:
320,192,66327,1,0,0:0:0:0:
448,192,66458,1,0,0:0:0:0:
448,192,66588,1,0,0:0:0:0:
320,192,66588,1,0,0:0:0:0:
192,192,66588,1,0,0:0:0:0:
64,192,66719,1,0,0:0:0:0:
192,192,66719,1,0,0:0:0:0:
320,192,66719,1,0,0:0:0:0:
448,192,66849,1,0,0:0:0:0:
320,192,66849,1,0,0:0:0:0:
192,192,66849,1,0,0:0:0:0:
64,192,66979,1,0,0:0:0:0:
192,192,66979,1,0,0:0:0:0:
320,192,66979,1,0,0:0:0:0:
448,192,67110,1,0,0:0:0:0:
320,192,67110,1,0,0:0:0:0:
192,192,67110,1,0,0:0:0:0:
64,192,67175,1,0,0:0:0:0:
192,192,67240,1,0,0:0:0:0:
320,192,67305,1,0,0:0:0:0:
448,192,67371,1,0,0:0:0:0:
320,192,67436,1,0,0:0:0:0:
64,192,67501,1,0,0:0:0:0:
448,192,67501,1,0,0:0:0:0:
192,192,67566,1,0,0:0:0:0:
64,192,67632,1,0,0:0:0:0:
320,192,67632,1,0,0:0:0:0:
192,192,67697,1,0,0:0:0:0:
448,192,67762,1,0,0:0:0:0:
320,192,67827,1,0,0:0:0:0:
192,192,67892,1,0,0:0:0:0:
64,192,67958,1,0,0:0:0:0:
192,192,68023,1,0,0:0:0:0:
448,192,68023,1,0,0:0:0:0:
320,192,68088,1,0,0:0:0:0:
448,192,68153,1,0,0:0:0:0:
64,192,68153,1,0,0:0:0:0:
320,192,68219,1,0,0:0:0:0:
192,192,68284,1,0,0:0:0:0:
64,192,68349,1,0,0:0:0:0:
192,192,68414,1,0,0:0:0:0:
320,192,68479,1,0,0:0:0:0:
64,192,68545,1,0,0:0:0:0:
448,192,68545,1,0,0:0:0:0:
320,192,68610,1,0,0:0:0:0:
192,192,68675,1,0,0:0:0:0:
448,192,68740,1,0,0:0:0:0:
64,192,68805,1,0,0:0:0:0:
320,192,68805,1,0,0:0:0:0:
192,192,68871,1,0,0:0:0:0:
448,192,68936,1,0,0:0:0:0:
64,192,68936,1,0,0:0:0:0:
320,192,68936,128,0,69979:0:0:0:0:
448,192,69979,1,0,0:0:0:0:
64,192,69979,1,0,0:0:0:0:
192,192,69979,1,0,0:0:0:0:
320,192,70110,1,0,0:0:0:0:
192,192,70240,1,0,0:0:0:0:
320,192,70240,1,0,0:0:0:0:
448,192,70240,1,0,0:0:0:0:
64,192,70371,1,0,0:0:0:0:
64,192,70501,1,0,0:0:0:0:
192,192,70501,1,0,0:0:0:0:
448,192,70501,1,0,0:0:0:0:
320,192,70632,1,0,0:0:0:0:
448,192,70762,1,0,0:0:0:0:
320,192,70762,1,0,0:0:0:0:
192,192,70762,1,0,0:0:0:0:
64,192,70892,1,0,0:0:0:0:
64,192,71023,1,0,0:0:0:0:
192,192,71023,1,0,0:0:0:0:
448,192,71023,1,0,0:0:0:0:
320,192,71153,1,0,0:0:0:0:
448,192,71284,1,0,0:0:0:0:
320,192,71284,1,0,0:0:0:0:
192,192,71284,1,0,0:0:0:0:
64,192,71414,1,0,0:0:0:0:
64,192,71545,1,0,0:0:0:0:
192,192,71545,1,0,0:0:0:0:
320,192,71545,1,0,0:0:0:0:
448,192,71675,1,0,0:0:0:0:
448,192,71805,1,0,0:0:0:0:
320,192,71805,1,0,0:0:0:0:
192,192,71805,1,0,0:0:0:0:
64,192,71936,1,0,0:0:0:0:
448,192,72066,1,0,0:0:0:0:
192,192,72066,1,0,0:0:0:0:
64,192,72066,1,0,0:0:0:0:
320,192,72197,1,0,0:0:0:0:
320,192,72327,1,0,0:0:0:0:
448,192,72327,1,0,0:0:0:0:
64,192,72327,1,0,0:0:0:0:
192,192,72458,1,0,0:0:0:0:
448,192,72588,1,0,0:0:0:0:
192,192,72588,1,0,0:0:0:0:
320,192,72588,1,0,0:0:0:0:
64,192,72719,1,0,0:0:0:0:
64,192,72849,1,0,0:0:0:0:
192,192,72849,1,0,0:0:0:0:
320,192,72849,1,0,0:0:0:0:
448,192,72979,1,0,0:0:0:0:
448,192,73110,1,0,0:0:0:0:
320,192,73110,1,0,0:0:0:0:
192,192,73110,1,0,0:0:0:0:
64,192,73240,1,0,0:0:0:0:
64,192,73371,1,0,0:0:0:0:
192,192,73371,1,0,0:0:0:0:
448,192,73371,1,0,0:0:0:0:
320,192,73501,1,0,0:0:0:0:
448,192,73632,1,0,0:0:0:0:
320,192,73632,1,0,0:0:0:0:
192,192,73632,1,0,0:0:0:0:
64,192,73762,1,0,0:0:0:0:
448,192,73892,1,0,0:0:0:0:
320,192,73892,1,0,0:0:0:0:
64,192,73892,1,0,0:0:0:0:
192,192,74023,1,0,0:0:0:0:
64,192,74153,1,0,0:0:0:0:
192,192,74153,1,0,0:0:0:0:
320,192,74153,1,0,0:0:0:0:
448,192,74284,1,0,0:0:0:0:
448,192,74414,1,0,0:0:0:0:
64,192,74414,1,0,0:0:0:0:
192,192,74414,1,0,0:0:0:0:
320,192,74545,1,0,0:0:0:0:
448,192,74675,1,0,0:0:0:0:
320,192,74675,1,0,0:0:0:0:
64,192,74675,1,0,0:0:0:0:
192,192,74805,1,0,0:0:0:0:
64,192,74936,1,0,0:0:0:0:
192,192,74936,1,0,0:0:0:0:
448,192,74936,1,0,0:0:0:0:
320,192,75066,5,0,0:0:0:0:
448,192,75197,1,0,0:0:0:0:
320,192,75197,1,0,0:0:0:0:
192,192,75197,1,0,0:0:0:0:
64,192,75327,1,0,0:0:0:0:
64,192,75458,1,0,0:0:0:0:
192,192,75458,1,0,0:0:0:0:
320,192,75458,1,0,0:0:0:0:
448,192,75588,1,0,0:0:0:0:
448,192,75719,1,0,0:0:0:0:
320,192,75719,1,0,0:0:0:0:
64,192,75719,1,0,0:0:0:0:
192,192,75849,1,0,0:0:0:0:
64,192,75979,1,0,0:0:0:0:
320,192,75979,1,0,0:0:0:0:
192,192,75979,1,0,0:0:0:0:
448,192,76110,1,0,0:0:0:0:
448,192,76240,5,0,0:0:0:0:
192,192,76240,1,0,0:0:0:0:
64,192,76240,1,0,0:0:0:0:
320,192,76371,1,0,0:0:0:0:
192,192,76371,1,0,0:0:0:0:
448,192,76501,1,0,0:0:0:0:
64,192,76501,1,0,0:0:0:0:
320,192,76632,1,0,0:0:0:0:
192,192,76697,1,0,0:0:0:0:
64,192,76762,1,0,0:0:0:0:
192,192,76827,1,0,0:0:0:0:
320,192,76892,1,0,0:0:0:0:
448,192,76892,1,0,0:0:0:0:
192,192,77023,1,0,0:0:0:0:
64,192,77023,1,0,0:0:0:0:
448,192,77153,1,0,0:0:0:0:
320,192,77219,1,0,0:0:0:0:
192,192,77284,1,0,0:0:0:0:
448,192,77284,1,0,0:0:0:0:
64,192,77349,1,0,0:0:0:0:
320,192,77414,1,0,0:0:0:0:
192,192,77414,1,0,0:0:0:0:
448,192,77545,1,0,0:0:0:0:
192,192,77545,1,0,0:0:0:0:
64,192,77675,1,0,0:0:0:0:
192,192,77740,1,0,0:0:0:0:
320,192,77805,1,0,0:0:0:0:
448,192,77871,1,0,0:0:0:0:
320,192,77936,1,0,0:0:0:0:
192,192,77936,1,0,0:0:0:0:
64,192,78066,1,0,0:0:0:0:
448,192,78066,1,0,0:0:0:0:
192,192,78197,1,0,0:0:0:0:
320,192,78197,1,0,0:0:0:0:
448,192,78327,1,0,0:0:0:0:
64,192,78327,1,0,0:0:0:0:
64,192,78458,1,0,0:0:0:0:
192,192,78458,1,0,0:0:0:0:
448,192,78588,1,0,0:0:0:0:
320,192,78588,1,0,0:0:0:0:
64,192,78719,1,0,0:0:0:0:
192,192,78784,1,0,0:0:0:0:
320,192,78849,1,0,0:0:0:0:
448,192,78914,1,0,0:0:0:0:
320,192,78979,1,0,0:0:0:0:
64,192,78979,1,0,0:0:0:0:
448,192,79110,1,0,0:0:0:0:
192,192,79110,1,0,0:0:0:0:
64,192,79240,1,0,0:0:0:0:
192,192,79305,1,0,0:0:0:0:
320,192,79371,1,0,0:0:0:0:
448,192,79371,1,0,0:0:0:0:
192,192,79436,1,0,0:0:0:0:
64,192,79501,1,0,0:0:0:0:
320,192,79501,1,0,0:0:0:0:
448,192,79632,1,0,0:0:0:0:
192,192,79632,1,0,0:0:0:0:
448,192,79762,1,0,0:0:0:0:
192,192,79892,1,0,0:0:0:0:
448,192,80153,1,0,0:0:0:0:
64,192,80153,1,0,0:0:0:0:
320,192,80284,1,0,0:0:0:0:
192,192,80284,1,0,0:0:0:0:
448,192,80414,1,0,0:0:0:0:
64,192,80414,1,0,0:0:0:0:
448,192,81458,1,0,0:0:0:0:
64,192,81458,1,0,0:0:0:0:
320,192,82239,1,0,0:0:0:0:
192,192,82239,1,0,0:0:0:0:
64,192,82501,5,0,0:0:0:0:
192,192,82501,1,0,0:0:0:0:
448,192,83544,5,0,0:0:0:0:
320,192,83544,1,0,0:0:0:0:
192,192,83609,1,0,0:0:0:0:
64,192,83609,1,0,0:0:0:0:
320,192,83674,1,0,0:0:0:0:
448,192,83674,1,0,0:0:0:0:
192,192,83739,1,0,0:0:0:0:
64,192,83739,1,0,0:0:0:0:
448,192,83804,1,0,0:0:0:0:
320,192,83804,1,0,0:0:0:0:
192,192,83870,1,0,0:0:0:0:
64,192,83870,1,0,0:0:0:0:
320,192,83935,1,0,0:0:0:0:
448,192,83935,1,0,0:0:0:0:
192,192,84000,1,0,0:0:0:0:
64,192,84000,1,0,0:0:0:0:
448,192,84065,1,0,0:0:0:0:
320,192,84065,1,0,0:0:0:0:
192,192,84196,1,0,0:0:0:0:
64,192,84196,1,0,0:0:0:0:
448,192,84326,1,0,0:0:0:0:
320,192,84326,1,0,0:0:0:0:
192,192,84457,1,0,0:0:0:0:
64,192,84457,1,0,0:0:0:0:
448,192,84587,1,0,0:0:0:0:
320,192,84587,1,0,0:0:0:0:
192,192,84717,1,0,0:0:0:0:
64,192,84848,1,0,0:0:0:0:
192,192,84848,1,0,0:0:0:0:
448,192,84848,1,0,0:0:0:0:
320,192,84978,1,0,0:0:0:0:
448,192,85109,1,0,0:0:0:0:
320,192,85109,1,0,0:0:0:0:
192,192,85109,1,0,0:0:0:0:
64,192,85239,1,0,0:0:0:0:
64,192,85370,1,0,0:0:0:0:
192,192,85370,1,0,0:0:0:0:
320,192,85370,1,0,0:0:0:0:
448,192,85500,1,0,0:0:0:0:
320,192,85630,1,0,0:0:0:0:
64,192,85630,1,0,0:0:0:0:
192,192,85630,1,0,0:0:0:0:
448,192,85761,1,0,0:0:0:0:
448,192,85891,1,0,0:0:0:0:
320,192,85891,1,0,0:0:0:0:
192,192,85891,1,0,0:0:0:0:
64,192,86022,1,0,0:0:0:0:
448,192,86152,1,0,0:0:0:0:
320,192,86152,1,0,0:0:0:0:
192,192,86152,1,0,0:0:0:0:
64,192,86283,1,0,0:0:0:0:
64,192,86413,1,0,0:0:0:0:
192,192,86413,1,0,0:0:0:0:
448,192,86413,1,0,0:0:0:0:
320,192,86544,1,0,0:0:0:0:
448,192,86674,1,0,0:0:0:0:
320,192,86674,1,0,0:0:0:0:
192,192,86674,1,0,0:0:0:0:
64,192,86804,1,0,0:0:0:0:
448,192,86935,1,0,0:0:0:0:
320,192,86935,1,0,0:0:0:0:
64,192,86935,1,0,0:0:0:0:
192,192,87065,1,0,0:0:0:0:
64,192,87196,1,0,0:0:0:0:
192,192,87196,1,0,0:0:0:0:
448,192,87196,1,0,0:0:0:0:
320,192,87326,1,0,0:0:0:0:
64,192,87457,1,0,0:0:0:0:
192,192,87457,1,0,0:0:0:0:
320,192,87457,1,0,0:0:0:0:
448,192,87587,1,0,0:0:0:0:
448,192,87717,1,0,0:0:0:0:
320,192,87717,1,0,0:0:0:0:
64,192,87717,1,0,0:0:0:0:
192,192,87848,1,0,0:0:0:0:
64,192,87978,1,0,0:0:0:0:
192,192,87978,1,0,0:0:0:0:
448,192,87978,1,0,0:0:0:0:
320,192,88109,1,0,0:0:0:0:
64,192,88239,1,0,0:0:0:0:
192,192,88239,1,0,0:0:0:0:
320,192,88239,1,0,0:0:0:0:
448,192,88370,1,0,0:0:0:0:
320,192,88500,1,0,0:0:0:0:
192,192,88630,1,0,0:0:0:0:
64,192,88761,1,0,0:0:0:0:
320,192,88761,1,0,0:0:0:0:
448,192,88761,1,0,0:0:0:0:
192,192,88891,1,0,0:0:0:0:
64,192,89022,1,0,0:0:0:0:
192,192,89152,1,0,0:0:0:0:
320,192,89283,1,0,0:0:0:0:
448,192,89283,1,0,0:0:0:0:
64,192,89283,1,0,0:0:0:0:
192,192,89413,1,0,0:0:0:0:
320,192,89544,1,0,0:0:0:0:
448,192,89674,1,0,0:0:0:0:
320,192,89804,1,0,0:0:0:0:
192,192,89804,1,0,0:0:0:0:
64,192,89804,1,0,0:0:0:0:
448,192,89935,1,0,0:0:0:0:
320,192,90065,1,0,0:0:0:0:
192,192,90196,1,0,0:0:0:0:
64,192,90326,1,0,0:0:0:0:
448,192,90326,1,0,0:0:0:0:
320,192,90326,1,0,0:0:0:0:
192,192,90457,1,0,0:0:0:0:
320,192,90587,1,0,0:0:0:0:
448,192,90717,1,0,0:0:0:0:
320,192,90848,1,0,0:0:0:0:
192,192,90848,1,0,0:0:0:0:
64,192,90848,1,0,0:0:0:0:
448,192,90978,1,0,0:0:0:0:
320,192,91109,1,0,0:0:0:0:
192,192,91239,1,0,0:0:0:0:
448,192,91370,1,0,0:0:0:0:
64,192,91370,1,0,0:0:0:0:
320,192,91370,1,0,0:0:0:0:
192,192,91500,1,0,0:0:0:0:
64,192,91630,1,0,0:0:0:0:
192,192,91761,1,0,0:0:0:0:
448,192,91891,1,0,0:0:0:0:
320,192,91891,1,0,0:0:0:0:
192,192,92022,1,0,0:0:0:0:
64,192,92022,1,0,0:0:0:0:
448,192,92152,1,0,0:0:0:0:
320,192,92152,1,0,0:0:0:0:
192,192,92283,1,0,0:0:0:0:
64,192,92283,1,0,0:0:0:0:
448,192,92413,1,0,0:0:0:0:
320,192,92413,1,0,0:0:0:0:
192,192,92543,1,0,0:0:0:0:
64,192,92543,1,0,0:0:0:0:
320,192,92674,1,0,0:0:0:0:
448,192,92674,1,0,0:0:0:0:
192,192,92804,1,0,0:0:0:0:
64,192,92804,1,0,0:0:0:0:
448,192,92935,1,0,0:0:0:0:
320,192,93065,1,0,0:0:0:0:
192,192,93196,1,0,0:0:0:0:
64,192,93326,1,0,0:0:0:0:
192,192,93457,1,0,0:0:0:0:
320,192,93587,1,0,0:0:0:0:
448,192,93717,1,0,0:0:0:0:
320,192,93848,1,0,0:0:0:0:
448,192,93978,1,0,0:0:0:0:
64,192,93978,1,0,0:0:0:0:
192,192,93978,1,0,0:0:0:0:
448,192,98673,1,0,0:0:0:0:
64,192,98673,1,0,0:0:0:0:
192,192,98804,1,0,0:0:0:0:
320,192,98934,1,0,0:0:0:0:
64,192,98934,1,0,0:0:0:0:
448,192,99065,1,0,0:0:0:0:
448,192,99196,1,0,0:0:0:0:
64,192,99196,1,0,0:0:0:0:
192,192,99326,1,0,0:0:0:0:
320,192,99456,1,0,0:0:0:0:
448,192,99456,1,0,0:0:0:0:
192,192,99587,1,0,0:0:0:0:
64,192,99717,1,0,0:0:0:0:
448,192,99717,1,0,0:0:0:0:
192,192,99848,1,0,0:0:0:0:
320,192,99978,1,0,0:0:0:0:
64,192,99978,1,0,0:0:0:0:
192,192,100109,1,0,0:0:0:0:
320,192,100239,1,0,0:0:0:0:
448,192,100239,1,0,0:0:0:0:
192,192,100369,1,0,0:0:0:0:
64,192,100500,1,0,0:0:0:0:
448,192,100500,1,0,0:0:0:0:
320,192,100630,1,0,0:0:0:0:
192,192,100761,1,0,0:0:0:0:
64,192,100761,1,0,0:0:0:0:
320,192,100891,1,0,0:0:0:0:
448,192,101022,1,0,0:0:0:0:
192,192,101022,1,0,0:0:0:0:
64,192,101152,1,0,0:0:0:0:
192,192,101282,1,0,0:0:0:0:
320,192,101282,1,0,0:0:0:0:
448,192,101413,1,0,0:0:0:0:
320,192,101543,1,0,0:0:0:0:
64,192,101543,1,0,0:0:0:0:
192,192,101674,1,0,0:0:0:0:
64,192,101804,1,0,0:0:0:0:
448,192,101804,1,0,0:0:0:0:
320,192,101935,1,0,0:0:0:0:
192,192,102065,1,0,0:0:0:0:
64,192,102065,1,0,0:0:0:0:
320,192,102196,1,0,0:0:0:0:
448,192,102326,1,0,0:0:0:0:
192,192,102326,1,0,0:0:0:0:
64,192,102456,1,0,0:0:0:0:
320,192,102587,1,0,0:0:0:0:
448,192,102587,1,0,0:0:0:0:
192,192,102717,1,0,0:0:0:0:
64,192,102848,1,0,0:0:0:0:
320,192,102848,1,0,0:0:0:0:
448,192,102978,1,0,0:0:0:0:
320,192,103109,1,0,0:0:0:0:
192,192,103109,1,0,0:0:0:0:
64,192,103239,1,0,0:0:0:0:
192,192,103369,1,0,0:0:0:0:
448,192,103369,1,0,0:0:0:0:
320,192,103500,1,0,0:0:0:0:
64,192,103630,1,0,0:0:0:0:
192,192,103630,1,0,0:0:0:0:
320,192,103761,1,0,0:0:0:0:
448,192,103891,1,0,0:0:0:0:
64,192,103891,1,0,0:0:0:0:
192,192,104022,1,0,0:0:0:0:
448,192,104152,1,0,0:0:0:0:
320,192,104152,1,0,0:0:0:0:
64,192,104282,1,0,0:0:0:0:
192,192,104413,1,0,0:0:0:0:
320,192,104413,1,0,0:0:0:0:
64,192,104543,1,0,0:0:0:0:
192,192,104674,1,0,0:0:0:0:
448,192,104674,1,0,0:0:0:0:
320,192,104804,1,0,0:0:0:0:
192,192,104935,1,0,0:0:0:0:
64,192,104935,1,0,0:0:0:0:
320,192,105065,1,0,0:0:0:0:
192,192,105196,1,0,0:0:0:0:
448,192,105196,1,0,0:0:0:0:
64,192,105326,1,0,0:0:0:0:
448,192,105456,1,0,0:0:0:0:
320,192,105456,1,0,0:0:0:0:
448,192,105587,1,0,0:0:0:0:
64,192,105717,1,0,0:0:0:0:
320,192,105717,1,0,0:0:0:0:
448,192,105848,1,0,0:0:0:0:
64,192,105978,1,0,0:0:0:0:
320,192,105978,1,0,0:0:0:0:
192,192,106109,1,0,0:0:0:0:
448,192,106239,1,0,0:0:0:0:
64,192,106239,1,0,0:0:0:0:
192,192,106369,1,0,0:0:0:0:
448,192,106500,1,0,0:0:0:0:
320,192,106500,1,0,0:0:0:0:
320,192,106630,1,0,0:0:0:0:
64,192,106761,1,0,0:0:0:0:
192,192,106761,1,0,0:0:0:0:
192,192,106891,1,0,0:0:0:0:
448,192,107022,1,0,0:0:0:0:
320,192,107022,1,0,0:0:0:0:
192,192,107152,1,0,0:0:0:0:
192,192,107282,1,0,0:0:0:0:
64,192,107282,1,0,0:0:0:0:
320,192,107413,1,0,0:0:0:0:
192,192,107543,1,0,0:0:0:0:
64,192,107543,1,0,0:0:0:0:
448,192,107674,1,0,0:0:0:0:
448,192,107804,1,0,0:0:0:0:
320,192,107804,1,0,0:0:0:0:
192,192,107935,1,0,0:0:0:0:
64,192,108065,1,0,0:0:0:0:
320,192,108065,1,0,0:0:0:0:
192,192,108195,1,0,0:0:0:0:
448,192,108326,1,0,0:0:0:0:
64,192,108326,1,0,0:0:0:0:
192,192,108456,1,0,0:0:0:0:
320,192,108587,1,0,0:0:0:0:
448,192,108587,1,0,0:0:0:0:
192,192,108717,1,0,0:0:0:0:
64,192,108848,1,0,0:0:0:0:
320,192,108848,1,0,0:0:0:0:
192,192,108978,1,0,0:0:0:0:
448,192,109109,1,0,0:0:0:0:
320,192,109109,1,0,0:0:0:0:
192,192,109239,1,0,0:0:0:0:
320,192,109369,1,0,0:0:0:0:
64,192,109369,1,0,0:0:0:0:
448,192,109500,1,0,0:0:0:0:
64,192,109630,1,0,0:0:0:0:
192,192,109630,1,0,0:0:0:0:
320,192,109761,1,0,0:0:0:0:
448,192,109891,1,0,0:0:0:0:
192,192,109891,1,0,0:0:0:0:
64,192,110022,1,0,0:0:0:0:
192,192,110152,1,0,0:0:0:0:
320,192,110152,1,0,0:0:0:0:
448,192,110282,1,0,0:0:0:0:
64,192,110413,1,0,0:0:0:0:
192,192,110413,1,0,0:0:0:0:
448,192,110543,1,0,0:0:0:0:
320,192,110674,1,0,0:0:0:0:
64,192,110674,1,0,0:0:0:0:
192,192,110804,1,0,0:0:0:0:
448,192,110935,1,0,0:0:0:0:
64,192,110935,1,0,0:0:0:0:
320,192,111065,1,0,0:0:0:0:
64,192,111195,1,0,0:0:0:0:
192,192,111195,1,0,0:0:0:0:
448,192,111326,1,0,0:0:0:0:
320,192,111456,1,0,0:0:0:0:
64,192,111456,1,0,0:0:0:0:
192,192,111587,1,0,0:0:0:0:
64,192,111717,1,0,0:0:0:0:
448,192,111717,1,0,0:0:0:0:
192,192,111848,1,0,0:0:0:0:
448,192,111978,1,0,0:0:0:0:
320,192,111978,1,0,0:0:0:0:
192,192,112109,1,0,0:0:0:0:
64,192,112239,1,0,0:0:0:0:
320,192,112239,1,0,0:0:0:0:
192,192,112369,1,0,0:0:0:0:
448,192,112500,1,0,0:0:0:0:
64,192,112500,1,0,0:0:0:0:
320,192,112630,1,0,0:0:0:0:
448,192,112761,1,0,0:0:0:0:
192,192,112761,1,0,0:0:0:0:
64,192,112891,1,0,0:0:0:0:
192,192,113022,1,0,0:0:0:0:
320,192,113022,1,0,0:0:0:0:
448,192,113152,1,0,0:0:0:0:
320,192,113282,1,0,0:0:0:0:
64,192,113282,1,0,0:0:0:0:
192,192,113413,1,0,0:0:0:0:
448,192,113543,1,0,0:0:0:0:
320,192,113543,1,0,0:0:0:0:
192,192,113674,1,0,0:0:0:0:
64,192,113804,1,0,0:0:0:0:
320,192,113804,1,0,0:0:0:0:
448,192,113935,1,0,0:0:0:0:
320,192,114065,1,0,0:0:0:0:
192,192,114065,1,0,0:0:0:0:
448,192,114195,5,0,0:0:0:0:
192,192,114326,1,0,0:0:0:0:
64,192,114326,1,0,0:0:0:0:
448,192,114326,1,0,0:0:0:0:
320,192,114456,1,0,0:0:0:0:
448,192,114587,1,0,0:0:0:0:
192,192,114587,1,0,0:0:0:0:
64,192,114717,1,0,0:0:0:0:
192,192,114717,1,0,0:0:0:0:
320,192,114717,1,0,0:0:0:0:
448,192,114848,1,0,0:0:0:0:
64,192,114848,1,0,0:0:0:0:
192,192,114978,1,0,0:0:0:0:
448,192,115109,1,0,0:0:0:0:
64,192,115109,1,0,0:0:0:0:
320,192,115109,1,0,0:0:0:0:
320,192,115239,1,0,0:0:0:0:
448,192,115369,5,0,0:0:0:0:
192,192,115369,1,0,0:0:0:0:
64,192,115500,1,0,0:0:0:0:
320,192,115500,1,0,0:0:0:0:
448,192,115630,1,0,0:0:0:0:
192,192,115630,1,0,0:0:0:0:
448,192,115761,1,0,0:0:0:0:
320,192,115826,1,0,0:0:0:0:
192,192,115891,1,0,0:0:0:0:
64,192,115956,1,0,0:0:0:0:
192,192,116022,1,0,0:0:0:0:
320,192,116022,1,0,0:0:0:0:
64,192,116152,1,0,0:0:0:0:
448,192,116152,1,0,0:0:0:0:
448,192,116282,1,0,0:0:0:0:
320,192,116348,1,0,0:0:0:0:
192,192,116413,1,0,0:0:0:0:
64,192,116478,1,0,0:0:0:0:
192,192,116543,1,0,0:0:0:0:
320,192,116543,1,0,0:0:0:0:
64,192,116674,1,0,0:0:0:0:
448,192,116674,1,0,0:0:0:0:
64,192,116804,1,0,0:0:0:0:
192,192,116869,1,0,0:0:0:0:
320,192,116935,1,0,0:0:0:0:
448,192,117000,1,0,0:0:0:0:
320,192,117065,1,0,0:0:0:0:
64,192,117065,1,0,0:0:0:0:
448,192,117195,1,0,0:0:0:0:
192,192,117195,1,0,0:0:0:0:
64,192,117326,1,0,0:0:0:0:
192,192,117326,1,0,0:0:0:0:
448,192,117456,1,0,0:0:0:0:
320,192,117456,1,0,0:0:0:0:
192,192,117587,1,0,0:0:0:0:
64,192,117587,1,0,0:0:0:0:
448,192,117717,1,0,0:0:0:0:
320,192,117717,1,0,0:0:0:0:
64,192,117848,1,0,0:0:0:0:
192,192,117913,1,0,0:0:0:0:
320,192,117978,1,0,0:0:0:0:
448,192,118043,1,0,0:0:0:0:
320,192,118109,1,0,0:0:0:0:
64,192,118109,1,0,0:0:0:0:
448,192,118239,1,0,0:0:0:0:
192,192,118239,1,0,0:0:0:0:
448,192,118369,1,0,0:0:0:0:
320,192,118435,1,0,0:0:0:0:
192,192,118500,1,0,0:0:0:0:
64,192,118565,1,0,0:0:0:0:
192,192,118630,1,0,0:0:0:0:
320,192,118630,1,0,0:0:0:0:
448,192,118761,1,0,0:0:0:0:
64,192,118761,1,0,0:0:0:0:
320,192,118826,1,0,0:0:0:0:
448,192,118891,1,0,0:0:0:0:
320,192,118956,1,0,0:0:0:0:
192,192,119022,1,0,0:0:0:0:
448,192,119413,1,0,0:0:0:0:
64,192,119413,1,0,0:0:0:0:
192,192,119543,1,0,0:0:0:0:
320,192,119543,1,0,0:0:0:0:
448,192,119674,1,0,0:0:0:0:
320,192,119804,1,0,0:0:0:0:
192,192,119935,1,0,0:0:0:0:
64,192,120065,1,0,0:0:0:0:
192,192,120195,1,0,0:0:0:0:
320,192,120326,1,0,0:0:0:0:
192,192,120456,1,0,0:0:0:0:
64,192,120587,1,0,0:0:0:0:
192,192,120717,1,0,0:0:0:0:
64,192,120848,1,0,0:0:0:0:
192,192,120978,1,0,0:0:0:0:
320,192,121109,1,0,0:0:0:0:
192,192,121239,1,0,0:0:0:0:
320,192,121369,1,0,0:0:0:0:
448,192,121500,1,0,0:0:0:0:
320,192,121630,1,0,0:0:0:0:
448,192,121761,1,0,0:0:0:0:
320,192,121891,1,0,0:0:0:0:
192,192,122022,1,0,0:0:0:0:
64,192,122152,1,0,0:0:0:0:
192,192,122282,1,0,0:0:0:0:
64,192,122413,1,0,0:0:0:0:
192,192,122543,1,0,0:0:0:0:
320,192,122674,1,0,0:0:0:0:
192,192,122804,1,0,0:0:0:0:
320,192,122935,1,0,0:0:0:0:
192,192,123065,1,0,0:0:0:0:
320,192,123195,1,0,0:0:0:0:
448,192,123326,1,0,0:0:0:0:
320,192,123456,1,0,0:0:0:0:
448,192,123587,1,0,0:0:0:0:
320,192,123717,1,0,0:0:0:0:
64,192,123717,1,0,0:0:0:0:
192,192,123717,1,0,0:0:0:0:
448,192,123717,128,0,125804:0:0:0:0:
64,192,125804,128,0,127891:0:0:0:0:
320,192,126000,1,0,0:0:0:0:
448,192,126195,1,0,0:0:0:0:
320,192,126391,1,0,0:0:0:0:
192,192,126848,1,0,0:0:0:0:
320,192,127043,1,0,0:0:0:0:
448,192,127239,1,0,0:0:0:0:
320,192,127435,1,0,0:0:0:0:
448,192,127891,128,0,129522:0:0:0:0:
192,192,128087,1,0,0:0:0:0:
64,192,128282,1,0,0:0:0:0:
192,192,128478,1,0,0:0:0:0:
320,192,128935,5,0,0:0:0:0:
64,192,129130,1,0,0:0:0:0:
320,192,129326,1,0,0:0:0:0:
64,192,129522,128,0,129978:0:0:0:0:
448,192,129978,5,0,0:0:0:0:
320,192,129978,1,0,0:0:0:0:
192,192,130043,1,0,0:0:0:0:
64,192,130043,1,0,0:0:0:0:
448,192,130109,1,0,0:0:0:0:
320,192,130109,1,0,0:0:0:0:
192,192,130174,1,0,0:0:0:0:
64,192,130174,1,0,0:0:0:0:
448,192,130239,1,0,0:0:0:0:
320,192,130239,1,0,0:0:0:0:
192,192,130304,1,0,0:0:0:0:
64,192,130304,1,0,0:0:0:0:
448,192,130369,1,0,0:0:0:0:
320,192,130369,1,0,0:0:0:0:
192,192,130435,1,0,0:0:0:0:
64,192,130435,1,0,0:0:0:0:
448,192,130500,1,0,0:0:0:0:
320,192,130500,1,0,0:0:0:0:
192,192,130565,1,0,0:0:0:0:
64,192,130565,1,0,0:0:0:0:
320,192,130630,1,0,0:0:0:0:
448,192,130630,1,0,0:0:0:0:
192,192,130695,1,0,0:0:0:0:
64,192,130695,1,0,0:0:0:0:
448,192,130761,1,0,0:0:0:0:
320,192,130761,1,0,0:0:0:0:
192,192,130826,1,0,0:0:0:0:
64,192,130826,1,0,0:0:0:0:
320,192,130891,1,0,0:0:0:0:
448,192,130891,1,0,0:0:0:0:
192,192,130956,1,0,0:0:0:0:
64,192,130956,1,0,0:0:0:0:
320,192,131022,1,0,0:0:0:0:
448,192,131022,1,0,0:0:0:0:
192,192,131087,1,0,0:0:0:0:
64,192,131087,1,0,0:0:0:0:
448,192,131152,1,0,0:0:0:0:
320,192,131152,1,0,0:0:0:0:
192,192,131217,1,0,0:0:0:0:
64,192,131217,1,0,0:0:0:0:
448,192,131282,1,0,0:0:0:0:
320,192,131282,1,0,0:0:0:0:
192,192,131348,1,0,0:0:0:0:
64,192,131348,1,0,0:0:0:0:
448,192,131413,1,0,0:0:0:0:
320,192,131413,1,0,0:0:0:0:
192,192,131478,1,0,0:0:0:0:
64,192,131478,1,0,0:0:0:0:
320,192,131543,1,0,0:0:0:0:
448,192,131543,1,0,0:0:0:0:
448,192,131804,1,0,0:0:0:0:
64,192,131804,1,0,0:0:0:0:
192,192,131804,1,0,0:0:0:0:
192,192,131935,1,0,0:0:0:0:
320,192,131935,1,0,0:0:0:0:
448,192,131935,1,0,0:0:0:0:
448,192,132065,1,0,0:0:0:0:
64,192,132065,1,0,0:0:0:0:
192,192,132065,1,0,0:0:0:0:
448,192,133630,1,0,0:0:0:0:
320,192,133630,1,0,0:0:0:0:
64,192,133630,1,0,0:0:0:0:
192,192,133695,1,0,0:0:0:0:
320,192,133761,1,0,0:0:0:0:
448,192,133826,1,0,0:0:0:0:
192,192,133891,1,0,0:0:0:0:
320,192,133891,1,0,0:0:0:0:
64,192,133956,1,0,0:0:0:0:
192,192,134022,1,0,0:0:0:0:
320,192,134087,1,0,0:0:0:0:
448,192,134152,1,0,0:0:0:0:
64,192,134152,1,0,0:0:0:0:
320,192,134217,1,0,0:0:0:0:
192,192,134282,1,0,0:0:0:0:
448,192,134348,1,0,0:0:0:0:
64,192,134413,1,0,0:0:0:0:
320,192,134413,1,0,0:0:0:0:
192,192,134478,1,0,0:0:0:0:
64,192,134543,1,0,0:0:0:0:
192,192,134609,1,0,0:0:0:0:
448,192,134674,1,0,0:0:0:0:
320,192,134674,1,0,0:0:0:0:
64,192,134739,1,0,0:0:0:0:
192,192,134804,1,0,0:0:0:0:
320,192,134869,1,0,0:0:0:0:
192,192,134935,1,0,0:0:0:0:
64,192,134935,1,0,0:0:0:0:
320,192,135000,1,0,0:0:0:0:
448,192,135065,1,0,0:0:0:0:
192,192,135130,1,0,0:0:0:0:
64,192,135195,1,0,0:0:0:0:
320,192,135195,1,0,0:0:0:0:
448,192,135261,1,0,0:0:0:0:
320,192,135326,1,0,0:0:0:0:
192,192,135391,1,0,0:0:0:0:
64,192,135456,1,0,0:0:0:0:
448,192,135456,1,0,0:0:0:0:
192,192,135522,1,0,0:0:0:0:
320,192,135587,1,0,0:0:0:0:
448,192,135652,1,0,0:0:0:0:
192,192,135717,1,0,0:0:0:0:
64,192,135717,1,0,0:0:0:0:
448,192,135782,1,0,0:0:0:0:
64,192,135848,1,0,0:0:0:0:
448,192,135913,1,0,0:0:0:0:
64,192,135978,1,0,0:0:0:0:
192,192,135978,1,0,0:0:0:0:
448,192,136043,1,0,0:0:0:0:
64,192,136109,1,0,0:0:0:0:
448,192,136174,1,0,0:0:0:0:
192,192,136239,1,0,0:0:0:0:
64,192,136239,1,0,0:0:0:0:
448,192,136304,1,0,0:0:0:0:
64,192,136369,1,0,0:0:0:0:
448,192,136435,1,0,0:0:0:0:
192,192,136500,1,0,0:0:0:0:
64,192,136500,1,0,0:0:0:0:
448,192,136565,1,0,0:0:0:0:
64,192,136630,1,0,0:0:0:0:
448,192,136695,1,0,0:0:0:0:
192,192,136761,1,0,0:0:0:0:
64,192,136761,1,0,0:0:0:0:
448,192,136826,1,0,0:0:0:0:
192,192,136891,1,0,0:0:0:0:
64,192,136891,1,0,0:0:0:0:
448,192,136956,1,0,0:0:0:0:
192,192,137022,1,0,0:0:0:0:
64,192,137022,1,0,0:0:0:0:
448,192,137087,1,0,0:0:0:0:
192,192,137152,1,0,0:0:0:0:
64,192,137152,1,0,0:0:0:0:
448,192,137217,1,0,0:0:0:0:
64,192,137282,1,0,0:0:0:0:
192,192,137282,1,0,0:0:0:0:
448,192,137348,1,0,0:0:0:0:
192,192,137413,1,0,0:0:0:0:
64,192,137413,1,0,0:0:0:0:
448,192,137478,1,0,0:0:0:0:
64,192,137543,1,0,0:0:0:0:
192,192,137543,1,0,0:0:0:0:
448,192,137609,1,0,0:0:0:0:
192,192,137674,1,0,0:0:0:0:
64,192,137674,1,0,0:0:0:0:
448,192,137739,1,0,0:0:0:0:
64,192,137804,5,0,0:0:0:0:
192,192,137804,1,0,0:0:0:0:
320,192,139893,1,0,0:0:0:0:
448,192,139893,1,0,0:0:0:0:
64,192,139893,1,0,0:0:0:0:
64,192,140153,1,0,0:0:0:0:
192,192,140153,1,0,0:0:0:0:
448,192,140153,1,0,0:0:0:0:
448,192,140414,1,0,0:0:0:0:
320,192,140414,1,0,0:0:0:0:
192,192,140414,1,0,0:0:0:0:
64,192,140545,1,0,0:0:0:0:
64,192,140675,1,0,0:0:0:0:
192,192,140675,1,0,0:0:0:0:
320,192,140675,1,0,0:0:0:0:
448,192,140806,1,0,0:0:0:0:
448,192,140936,1,0,0:0:0:0:
192,192,140936,1,0,0:0:0:0:
320,192,140936,1,0,0:0:0:0:
64,192,141066,1,0,0:0:0:0:
64,192,141197,1,0,0:0:0:0:
192,192,141197,1,0,0:0:0:0:
448,192,141197,1,0,0:0:0:0:
320,192,141327,1,0,0:0:0:0:
448,192,141458,1,0,0:0:0:0:
320,192,141458,1,0,0:0:0:0:
64,192,141458,1,0,0:0:0:0:
192,192,141588,1,0,0:0:0:0:
64,192,141719,1,0,0:0:0:0:
192,192,141719,1,0,0:0:0:0:
448,192,141719,1,0,0:0:0:0:
320,192,141849,1,0,0:0:0:0:
448,192,141979,1,0,0:0:0:0:
320,192,141979,1,0,0:0:0:0:
192,192,141979,1,0,0:0:0:0:
64,192,142110,1,0,0:0:0:0:
64,192,142240,1,0,0:0:0:0:
192,192,142240,1,0,0:0:0:0:
320,192,142240,1,0,0:0:0:0:
448,192,142371,1,0,0:0:0:0:
448,192,142501,1,0,0:0:0:0:
320,192,142501,1,0,0:0:0:0:
192,192,142501,1,0,0:0:0:0:
64,192,142632,1,0,0:0:0:0:
64,192,142762,1,0,0:0:0:0:
320,192,142762,1,0,0:0:0:0:
192,192,142762,1,0,0:0:0:0:
448,192,142893,1,0,0:0:0:0:
448,192,143023,1,0,0:0:0:0:
320,192,143023,1,0,0:0:0:0:
64,192,143023,1,0,0:0:0:0:
192,192,143153,1,0,0:0:0:0:
64,192,143284,1,0,0:0:0:0:
192,192,143284,1,0,0:0:0:0:
320,192,143284,1,0,0:0:0:0:
448,192,143414,1,0,0:0:0:0:
448,192,143545,1,0,0:0:0:0:
320,192,143545,1,0,0:0:0:0:
64,192,143545,1,0,0:0:0:0:
192,192,143675,1,0,0:0:0:0:
448,192,143806,1,0,0:0:0:0:
320,192,143806,1,0,0:0:0:0:
192,192,143806,1,0,0:0:0:0:
64,192,143936,1,0,0:0:0:0:
64,192,144066,1,0,0:0:0:0:
192,192,144066,1,0,0:0:0:0:
448,192,144066,1,0,0:0:0:0:
320,192,144197,1,0,0:0:0:0:
448,192,144327,1,0,0:0:0:0:
320,192,144327,1,0,0:0:0:0:
192,192,144327,1,0,0:0:0:0:
64,192,144458,1,0,0:0:0:0:
64,192,144588,1,0,0:0:0:0:
192,192,144588,1,0,0:0:0:0:
448,192,144588,1,0,0:0:0:0:
320,192,144719,1,0,0:0:0:0:
448,192,144849,1,0,0:0:0:0:
320,192,144849,1,0,0:0:0:0:
192,192,144849,1,0,0:0:0:0:
64,192,144979,1,0,0:0:0:0:
448,192,145110,1,0,0:0:0:0:
320,192,145110,1,0,0:0:0:0:
192,192,145110,1,0,0:0:0:0:
64,192,145240,1,0,0:0:0:0:
64,192,145371,1,0,0:0:0:0:
192,192,145371,1,0,0:0:0:0:
320,192,145371,1,0,0:0:0:0:
448,192,145501,1,0,0:0:0:0:
64,192,145632,1,0,0:0:0:0:
192,192,145632,1,0,0:0:0:0:
320,192,145632,1,0,0:0:0:0:
448,192,145762,1,0,0:0:0:0:
448,192,145893,1,0,0:0:0:0:
320,192,145893,1,0,0:0:0:0:
64,192,145893,1,0,0:0:0:0:
192,192,146023,1,0,0:0:0:0:
448,192,146153,1,0,0:0:0:0:
320,192,146153,1,0,0:0:0:0:
64,192,146153,1,0,0:0:0:0:
192,192,146284,1,0,0:0:0:0:
64,192,146414,1,0,0:0:0:0:
192,192,146414,1,0,0:0:0:0:
448,192,146414,1,0,0:0:0:0:
320,192,146545,1,0,0:0:0:0:
64,192,146675,1,0,0:0:0:0:
192,192,146675,1,0,0:0:0:0:
448,192,146675,1,0,0:0:0:0:
320,192,146806,1,0,0:0:0:0:
64,192,146936,1,0,0:0:0:0:
192,192,146936,1,0,0:0:0:0:
320,192,146936,1,0,0:0:0:0:
448,192,147066,1,0,0:0:0:0:
448,192,147197,1,0,0:0:0:0:
320,192,147197,1,0,0:0:0:0:
192,192,147197,1,0,0:0:0:0:
64,192,147327,1,0,0:0:0:0:
64,192,147458,1,0,0:0:0:0:
192,192,147458,1,0,0:0:0:0:
448,192,147458,1,0,0:0:0:0:
320,192,147588,1,0,0:0:0:0:
448,192,147719,1,0,0:0:0:0:
320,192,147719,1,0,0:0:0:0:
64,192,147719,1,0,0:0:0:0:
192,192,147849,1,0,0:0:0:0:
448,192,147979,1,0,0:0:0:0:
320,192,147979,1,0,0:0:0:0:
192,192,147979,1,0,0:0:0:0:
64,192,148110,1,0,0:0:0:0:
64,192,148240,1,0,0:0:0:0:
192,192,148240,1,0,0:0:0:0:
448,192,148240,1,0,0:0:0:0:
320,192,148371,1,0,0:0:0:0:
320,192,148501,1,0,0:0:0:0:
192,192,148501,1,0,0:0:0:0:
64,192,148501,1,0,0:0:0:0:
448,192,148632,1,0,0:0:0:0:
448,192,148762,1,0,0:0:0:0:
320,192,148762,1,0,0:0:0:0:
64,192,148762,1,0,0:0:0:0:
192,192,148893,1,0,0:0:0:0:
448,192,149023,1,0,0:0:0:0:
320,192,149023,1,0,0:0:0:0:
192,192,149023,1,0,0:0:0:0:
64,192,149153,1,0,0:0:0:0:
64,192,149284,1,0,0:0:0:0:
192,192,149284,1,0,0:0:0:0:
320,192,149284,1,0,0:0:0:0:
448,192,149414,1,0,0:0:0:0:
192,192,149545,1,0,0:0:0:0:
448,192,149545,1,0,0:0:0:0:
64,192,149545,1,0,0:0:0:0:
320,192,149675,1,0,0:0:0:0:
448,192,149806,1,0,0:0:0:0:
320,192,149806,1,0,0:0:0:0:
64,192,149806,1,0,0:0:0:0:
192,192,149936,1,0,0:0:0:0:
320,192,150066,1,0,0:0:0:0:
192,192,150066,1,0,0:0:0:0:
448,192,150066,1,0,0:0:0:0:
64,192,150197,1,0,0:0:0:0:
64,192,150327,1,0,0:0:0:0:
192,192,150327,1,0,0:0:0:0:
448,192,150327,1,0,0:0:0:0:
320,192,150458,1,0,0:0:0:0:
64,192,150588,1,0,0:0:0:0:
192,192,150588,1,0,0:0:0:0:
320,192,150588,1,0,0:0:0:0:
448,192,150719,1,0,0:0:0:0:
448,192,150849,1,0,0:0:0:0:
320,192,150849,1,0,0:0:0:0:
64,192,150849,1,0,0:0:0:0:
192,192,150979,1,0,0:0:0:0:
448,192,151110,1,0,0:0:0:0:
192,192,151110,1,0,0:0:0:0:
64,192,151110,1,0,0:0:0:0:
320,192,151240,1,0,0:0:0:0:
64,192,151371,1,0,0:0:0:0:
192,192,151371,1,0,0:0:0:0:
320,192,151371,1,0,0:0:0:0:
448,192,151501,1,0,0:0:0:0:
448,192,151632,1,0,0:0:0:0:
320,192,151632,1,0,0:0:0:0:
64,192,151632,1,0,0:0:0:0:
192,192,151762,1,0,0:0:0:0:
320,192,151893,1,0,0:0:0:0:
448,192,151893,1,0,0:0:0:0:
192,192,151893,1,0,0:0:0:0:
64,192,152023,1,0,0:0:0:0:
64,192,152153,1,0,0:0:0:0:
192,192,152153,1,0,0:0:0:0:
448,192,152153,1,0,0:0:0:0:
320,192,152284,1,0,0:0:0:0:
64,192,152414,1,0,0:0:0:0:
192,192,152414,1,0,0:0:0:0:
320,192,152414,1,0,0:0:0:0:
448,192,152545,1,0,0:0:0:0:
448,192,152675,1,0,0:0:0:0:
320,192,152675,1,0,0:0:0:0:
64,192,152675,1,0,0:0:0:0:
192,192,152806,1,0,0:0:0:0:
64,192,152936,1,0,0:0:0:0:
192,192,152936,1,0,0:0:0:0:
320,192,152936,1,0,0:0:0:0:
448,192,153066,1,0,0:0:0:0:
64,192,153197,1,0,0:0:0:0:
192,192,153197,1,0,0:0:0:0:
448,192,153197,1,0,0:0:0:0:
320,192,153327,1,0,0:0:0:0:
448,192,153458,1,0,0:0:0:0:
320,192,153458,1,0,0:0:0:0:
192,192,153458,1,0,0:0:0:0:
64,192,153588,1,0,0:0:0:0:
320,192,153719,1,0,0:0:0:0:
448,192,153719,1,0,0:0:0:0:
64,192,153719,1,0,0:0:0:0:
192,192,153849,1,0,0:0:0:0:
64,192,153979,1,0,0:0:0:0:
192,192,153979,1,0,0:0:0:0:
448,192,153979,1,0,0:0:0:0:
320,192,154110,1,0,0:0:0:0:
448,192,154240,1,0,0:0:0:0:
320,192,154240,1,0,0:0:0:0:
192,192,154240,1,0,0:0:0:0:
64,192,154371,1,0,0:0:0:0:
320,192,154501,1,0,0:0:0:0:
64,192,154501,1,0,0:0:0:0:
448,192,154501,1,0,0:0:0:0:
192,192,154632,1,0,0:0:0:0:
64,192,154762,1,0,0:0:0:0:
192,192,154762,1,0,0:0:0:0:
320,192,154762,1,0,0:0:0:0:
448,192,154892,1,0,0:0:0:0:
448,192,155023,1,0,0:0:0:0:
320,192,155023,1,0,0:0:0:0:
64,192,155023,1,0,0:0:0:0:
192,192,155153,1,0,0:0:0:0:
64,192,155284,1,0,0:0:0:0:
192,192,155284,1,0,0:0:0:0:
448,192,155284,1,0,0:0:0:0:
320,192,155414,1,0,0:0:0:0:
448,192,155545,1,0,0:0:0:0:
320,192,155545,1,0,0:0:0:0:
192,192,155545,1,0,0:0:0:0:
64,192,155675,1,0,0:0:0:0:
64,192,155806,1,0,0:0:0:0:
448,192,155806,1,0,0:0:0:0:
192,192,155806,1,0,0:0:0:0:
320,192,155936,1,0,0:0:0:0:
448,192,156066,1,0,0:0:0:0:
320,192,156066,1,0,0:0:0:0:
64,192,156066,1,0,0:0:0:0:
448,192,156458,1,0,0:0:0:0:
320,192,156458,1,0,0:0:0:0:
64,192,156458,1,0,0:0:0:0:
64,192,156849,1,0,0:0:0:0:
448,192,156849,1,0,0:0:0:0:
192,192,156849,1,0,0:0:0:0:
320,192,157110,1,0,0:0:0:0:
192,192,157110,1,0,0:0:0:0:
448,192,157110,1,0,0:0:0:0:
64,192,157240,1,0,0:0:0:0:
64,192,157371,1,0,0:0:0:0:
192,192,157371,1,0,0:0:0:0:
320,192,157371,1,0,0:0:0:0:
448,192,157501,1,0,0:0:0:0:
448,192,157632,1,0,0:0:0:0:
320,192,157632,1,0,0:0:0:0:
64,192,157632,1,0,0:0:0:0:
192,192,157762,1,0,0:0:0:0:
64,192,157892,1,0,0:0:0:0:
192,192,157892,1,0,0:0:0:0:
448,192,157892,1,0,0:0:0:0:
320,192,158023,1,0,0:0:0:0:
192,192,158153,1,0,0:0:0:0:
64,192,158284,1,0,0:0:0:0:
192,192,158284,1,0,0:0:0:0:
448,192,158284,1,0,0:0:0:0:
448,192,158414,1,0,0:0:0:0:
320,192,158414,1,0,0:0:0:0:
192,192,158414,1,0,0:0:0:0:
64,192,158545,1,0,0:0:0:0:
192,192,158545,1,0,0:0:0:0:
320,192,158545,1,0,0:0:0:0:
448,192,158675,1,0,0:0:0:0:
192,192,158675,1,0,0:0:0:0:
64,192,158675,1,0,0:0:0:0:
320,192,158806,1,0,0:0:0:0:
448,192,158936,1,0,0:0:0:0:
320,192,158936,1,0,0:0:0:0:
192,192,158936,1,0,0:0:0:0:
64,192,159066,1,0,0:0:0:0:
64,192,159197,1,0,0:0:0:0:
192,192,159197,1,0,0:0:0:0:
320,192,159197,1,0,0:0:0:0:
448,192,159327,1,0,0:0:0:0:
448,192,159458,1,0,0:0:0:0:
192,192,159458,1,0,0:0:0:0:
64,192,159458,1,0,0:0:0:0:
320,192,159588,1,0,0:0:0:0:
64,192,159719,1,0,0:0:0:0:
320,192,159719,1,0,0:0:0:0:
448,192,159719,1,0,0:0:0:0:
192,192,159849,1,0,0:0:0:0:
64,192,159979,1,0,0:0:0:0:
192,192,159979,1,0,0:0:0:0:
320,192,159979,1,0,0:0:0:0:
448,192,160110,1,0,0:0:0:0:
192,192,160240,1,0,0:0:0:0:
320,192,160240,1,0,0:0:0:0:
448,192,160240,1,0,0:0:0:0:
64,192,160371,1,0,0:0:0:0:
64,192,160501,1,0,0:0:0:0:
192,192,160501,1,0,0:0:0:0:
448,192,160501,1,0,0:0:0:0:
320,192,160632,1,0,0:0:0:0:
448,192,160762,1,0,0:0:0:0:
320,192,160762,1,0,0:0:0:0:
192,192,160762,1,0,0:0:0:0:
64,192,160892,1,0,0:0:0:0:
64,192,161023,1,0,0:0:0:0:
192,192,161023,1,0,0:0:0:0:
448,192,161023,1,0,0:0:0:0:
320,192,161153,1,0,0:0:0:0:
448,192,161284,1,0,0:0:0:0:
320,192,161284,1,0,0:0:0:0:
192,192,161284,1,0,0:0:0:0:
64,192,161414,1,0,0:0:0:0:
64,192,161545,1,0,0:0:0:0:
192,192,161545,1,0,0:0:0:0:
448,192,161545,1,0,0:0:0:0:
320,192,161675,1,0,0:0:0:0:
448,192,161806,1,0,0:0:0:0:
320,192,161806,1,0,0:0:0:0:
64,192,161806,1,0,0:0:0:0:
192,192,161936,1,0,0:0:0:0:
448,192,162066,1,0,0:0:0:0:
320,192,162066,1,0,0:0:0:0:
192,192,162066,1,0,0:0:0:0:
64,192,162197,1,0,0:0:0:0:
64,192,162327,1,0,0:0:0:0:
192,192,162327,1,0,0:0:0:0:
448,192,162327,1,0,0:0:0:0:
320,192,162458,1,0,0:0:0:0:
64,192,162588,1,0,0:0:0:0:
192,192,162588,1,0,0:0:0:0:
320,192,162588,1,0,0:0:0:0:
448,192,162719,1,0,0:0:0:0:
448,192,162849,1,0,0:0:0:0:
320,192,162849,1,0,0:0:0:0:
64,192,162849,1,0,0:0:0:0:
192,192,162979,1,0,0:0:0:0:
192,192,163110,1,0,0:0:0:0:
320,192,163110,1,0,0:0:0:0:
64,192,163110,1,0,0:0:0:0:
448,192,163240,1,0,0:0:0:0:
448,192,163371,1,0,0:0:0:0:
192,192,163371,1,0,0:0:0:0:
320,192,163371,1,0,0:0:0:0:
64,192,163501,1,0,0:0:0:0:
64,192,163632,1,0,0:0:0:0:
192,192,163632,1,0,0:0:0:0:
320,192,163632,1,0,0:0:0:0:
448,192,163762,1,0,0:0:0:0:
448,192,163892,1,0,0:0:0:0:
320,192,163892,1,0,0:0:0:0:
192,192,163892,1,0,0:0:0:0:
64,192,164023,1,0,0:0:0:0:
64,192,164153,1,0,0:0:0:0:
192,192,164153,1,0,0:0:0:0:
448,192,164153,1,0,0:0:0:0:
320,192,164284,1,0,0:0:0:0:
448,192,164414,1,0,0:0:0:0:
192,192,164414,1,0,0:0:0:0:
320,192,164414,1,0,0:0:0:0:
64,192,164545,1,0,0:0:0:0:
64,192,164675,1,0,0:0:0:0:
192,192,164675,1,0,0:0:0:0:
448,192,164675,1,0,0:0:0:0:
320,192,164806,1,0,0:0:0:0:
448,192,164936,1,0,0:0:0:0:
64,192,164936,1,0,0:0:0:0:
320,192,164936,1,0,0:0:0:0:
192,192,165066,1,0,0:0:0:0:
448,192,165197,1,0,0:0:0:0:
192,192,165197,1,0,0:0:0:0:
320,192,165197,1,0,0:0:0:0:
64,192,165327,1,0,0:0:0:0:
320,192,165458,1,0,0:0:0:0:
448,192,165458,1,0,0:0:0:0:
64,192,165458,1,0,0:0:0:0:
320,192,165719,1,0,0:0:0:0:
448,192,165979,1,0,0:0:0:0:
64,192,165979,1,0,0:0:0:0:
192,192,165979,1,0,0:0:0:0:
448,192,166110,1,0,0:0:0:0:
320,192,166110,1,0,0:0:0:0:
64,192,166110,1,0,0:0:0:0:
64,192,166240,1,0,0:0:0:0:
192,192,166240,1,0,0:0:0:0:
320,192,166240,1,0,0:0:0:0:
448,192,166371,1,0,0:0:0:0:
320,192,166371,1,0,0:0:0:0:
192,192,166371,1,0,0:0:0:0:
64,192,166501,1,0,0:0:0:0:
192,192,166501,1,0,0:0:0:0:
448,192,166501,1,0,0:0:0:0:
192,192,166762,1,0,0:0:0:0:
320,192,166762,1,0,0:0:0:0:
448,192,166762,1,0,0:0:0:0:
448,192,167023,1,0,0:0:0:0:
64,192,167023,1,0,0:0:0:0:
192,192,167023,1,0,0:0:0:0:
320,192,167284,1,0,0:0:0:0:
448,192,167545,1,0,0:0:0:0:
64,192,167545,1,0,0:0:0:0:
320,192,167545,1,0,0:0:0:0:
192,192,167806,1,0,0:0:0:0:
448,192,168066,1,0,0:0:0:0:
320,192,168066,1,0,0:0:0:0:
192,192,168066,1,0,0:0:0:0:
64,192,168327,1,0,0:0:0:0:
64,192,168588,1,0,0:0:0:0:
192,192,168588,1,0,0:0:0:0:
320,192,168588,1,0,0:0:0:0:
448,192,168849,1,0,0:0:0:0:
448,192,169110,1,0,0:0:0:0:
320,192,169110,1,0,0:0:0:0:
192,192,169110,1,0,0:0:0:0:
64,192,169371,1,0,0:0:0:0:
320,192,169632,1,0,0:0:0:0:
64,192,169632,1,0,0:0:0:0:
448,192,169632,1,0,0:0:0:0:
192,192,169892,1,0,0:0:0:0:
192,192,170153,1,0,0:0:0:0:
320,192,170153,1,0,0:0:0:0:
448,192,170153,1,0,0:0:0:0:
64,192,170414,1,0,0:0:0:0:
192,192,170675,1,0,0:0:0:0:
64,192,170675,1,0,0:0:0:0:
320,192,170675,1,0,0:0:0:0:
448,192,170936,1,0,0:0:0:0:
64,192,171197,1,0,0:0:0:0:
192,192,171197,1,0,0:0:0:0:
448,192,171197,1,0,0:0:0:0:
320,192,171458,1,0,0:0:0:0:
448,192,171719,1,0,0:0:0:0:
320,192,171719,1,0,0:0:0:0:
64,192,171719,1,0,0:0:0:0:
192,192,171979,1,0,0:0:0:0:
64,192,172240,1,0,0:0:0:0:
192,192,172240,1,0,0:0:0:0:
320,192,172240,1,0,0:0:0:0:
448,192,172501,1,0,0:0:0:0:
448,192,172762,1,0,0:0:0:0:
320,192,172762,1,0,0:0:0:0:
192,192,172762,1,0,0:0:0:0:
64,192,173023,1,0,0:0:0:0:
192,192,173284,1,0,0:0:0:0:
64,192,173284,1,0,0:0:0:0:
448,192,173284,1,0,0:0:0:0:
448,192,173545,1,0,0:0:0:0:
320,192,173545,1,0,0:0:0:0:
192,192,173545,1,0,0:0:0:0:
64,192,173806,1,0,0:0:0:0:
192,192,173806,1,0,0:0:0:0:
320,192,173806,1,0,0:0:0:0:
448,192,174066,1,0,0:0:0:0:
320,192,174066,1,0,0:0:0:0:
192,192,174066,1,0,0:0:0:0:
64,192,174327,1,0,0:0:0:0:
192,192,174327,1,0,0:0:0:0:
448,192,174327,1,0,0:0:0:0:
448,192,175109,1,0,0:0:0:0:
64,192,175109,1,0,0:0:0:0:
320,192,175109,1,0,0:0:0:0:
64,192,175371,1,0,0:0:0:0:
192,192,175371,1,0,0:0:0:0:
448,192,175371,1,0,0:0:0:0:
320,192,175501,1,0,0:0:0:0:
448,192,175631,1,0,0:0:0:0:
320,192,175631,1,0,0:0:0:0:
192,192,175631,1,0,0:0:0:0:
64,192,175762,1,0,0:0:0:0:
64,192,175892,1,0,0:0:0:0:
192,192,175892,1,0,0:0:0:0:
448,192,175892,1,0,0:0:0:0:
320,192,176023,1,0,0:0:0:0:
448,192,176153,1,0,0:0:0:0:
320,192,176153,1,0,0:0:0:0:
192,192,176153,1,0,0:0:0:0:
64,192,176284,1,0,0:0:0:0:
64,192,176414,1,0,0:0:0:0:
192,192,176414,1,0,0:0:0:0:
448,192,176414,1,0,0:0:0:0:
320,192,176544,1,0,0:0:0:0:
448,192,176675,1,0,0:0:0:0:
320,192,176675,1,0,0:0:0:0:
64,192,176675,1,0,0:0:0:0:
192,192,176805,1,0,0:0:0:0:
64,192,176936,1,0,0:0:0:0:
192,192,176936,1,0,0:0:0:0:
320,192,176936,1,0,0:0:0:0:
448,192,177066,1,0,0:0:0:0:
448,192,177197,1,0,0:0:0:0:
64,192,177197,1,0,0:0:0:0:
320,192,177197,1,0,0:0:0:0:
192,192,177327,1,0,0:0:0:0:
64,192,177457,1,0,0:0:0:0:
192,192,177457,1,0,0:0:0:0:
320,192,177457,1,0,0:0:0:0:
448,192,177588,1,0,0:0:0:0:
448,192,177718,1,0,0:0:0:0:
320,192,177718,1,0,0:0:0:0:
64,192,177718,1,0,0:0:0:0:
192,192,177849,1,0,0:0:0:0:
448,192,177979,1,0,0:0:0:0:
320,192,177979,1,0,0:0:0:0:
192,192,177979,1,0,0:0:0:0:
64,192,178110,1,0,0:0:0:0:
64,192,178240,1,0,0:0:0:0:
192,192,178240,1,0,0:0:0:0:
448,192,178240,1,0,0:0:0:0:
320,192,178371,1,0,0:0:0:0:
64,192,178501,1,0,0:0:0:0:
192,192,178501,1,0,0:0:0:0:
448,192,178501,1,0,0:0:0:0:
320,192,178631,1,0,0:0:0:0:
448,192,178762,1,0,0:0:0:0:
320,192,178762,1,0,0:0:0:0:
192,192,178762,1,0,0:0:0:0:
64,192,178892,1,0,0:0:0:0:
64,192,179023,1,0,0:0:0:0:
192,192,179023,1,0,0:0:0:0:
320,192,179023,1,0,0:0:0:0:
448,192,179153,1,0,0:0:0:0:
448,192,179284,1,0,0:0:0:0:
320,192,179284,1,0,0:0:0:0:
64,192,179284,1,0,0:0:0:0:
192,192,179414,1,0,0:0:0:0:
64,192,179544,1,0,0:0:0:0:
192,192,179544,1,0,0:0:0:0:
448,192,179544,1,0,0:0:0:0:
320,192,179675,1,0,0:0:0:0:
64,192,179805,1,0,0:0:0:0:
192,192,179805,1,0,0:0:0:0:
320,192,179805,1,0,0:0:0:0:
448,192,179936,1,0,0:0:0:0:
448,192,180066,1,0,0:0:0:0:
192,192,180066,1,0,0:0:0:0:
320,192,180066,1,0,0:0:0:0:
64,192,180197,1,0,0:0:0:0:
64,192,180327,1,0,0:0:0:0:
192,192,180327,1,0,0:0:0:0:
448,192,180327,1,0,0:0:0:0:
320,192,180457,1,0,0:0:0:0:
448,192,180588,1,0,0:0:0:0:
320,192,180588,1,0,0:0:0:0:
192,192,180588,1,0,0:0:0:0:
64,192,180718,1,0,0:0:0:0:
64,192,180849,1,0,0:0:0:0:
192,192,180849,1,0,0:0:0:0:
448,192,180849,1,0,0:0:0:0:
320,192,180979,1,0,0:0:0:0:
64,192,181110,1,0,0:0:0:0:
192,192,181110,1,0,0:0:0:0:
320,192,181110,1,0,0:0:0:0:
448,192,181240,1,0,0:0:0:0:
448,192,181371,1,0,0:0:0:0:
320,192,181371,1,0,0:0:0:0:
64,192,181371,1,0,0:0:0:0:
192,192,181501,1,0,0:0:0:0:
64,192,181631,1,0,0:0:0:0:
192,192,181631,1,0,0:0:0:0:
320,192,181631,1,0,0:0:0:0:
448,192,181762,1,0,0:0:0:0:
448,192,181892,1,0,0:0:0:0:
320,192,181892,1,0,0:0:0:0:
64,192,181892,1,0,0:0:0:0:
192,192,182023,1,0,0:0:0:0:
448,192,182153,1,0,0:0:0:0:
320,192,182153,1,0,0:0:0:0:
192,192,182153,1,0,0:0:0:0:
64,192,182284,1,0,0:0:0:0:
64,192,182414,1,0,0:0:0:0:
192,192,182414,1,0,0:0:0:0:
448,192,182414,1,0,0:0:0:0:
320,192,182544,1,0,0:0:0:0:
64,192,182675,1,0,0:0:0:0:
192,192,182675,1,0,0:0:0:0:
320,192,182675,1,0,0:0:0:0:
448,192,182805,1,0,0:0:0:0:
448,192,182936,1,0,0:0:0:0:
320,192,182936,1,0,0:0:0:0:
64,192,182936,1,0,0:0:0:0:
192,192,183066,1,0,0:0:0:0:
64,192,183197,1,0,0:0:0:0:
192,192,183197,1,0,0:0:0:0:
320,192,183197,1,0,0:0:0:0:
448,192,183327,1,0,0:0:0:0:
448,192,183457,1,0,0:0:0:0:
320,192,183457,1,0,0:0:0:0:
64,192,183457,1,0,0:0:0:0:
192,192,183588,1,0,0:0:0:0:
64,192,183718,1,0,0:0:0:0:
192,192,183718,1,0,0:0:0:0:
320,192,183718,1,0,0:0:0:0:
448,192,183849,1,0,0:0:0:0:
448,192,183979,1,0,0:0:0:0:
320,192,183979,1,0,0:0:0:0:
64,192,183979,1,0,0:0:0:0:
192,192,184110,1,0,0:0:0:0:
64,192,184240,1,0,0:0:0:0:
192,192,184240,1,0,0:0:0:0:
448,192,184240,1,0,0:0:0:0:
320,192,184371,1,0,0:0:0:0:
64,192,184501,1,0,0:0:0:0:
192,192,184501,1,0,0:0:0:0:
320,192,184501,1,0,0:0:0:0:
448,192,184631,1,0,0:0:0:0:
448,192,184762,1,0,0:0:0:0:
320,192,184762,1,0,0:0:0:0:
64,192,184762,1,0,0:0:0:0:
192,192,184892,1,0,0:0:0:0:
192,192,185023,1,0,0:0:0:0:
64,192,185023,1,0,0:0:0:0:
320,192,185023,1,0,0:0:0:0:
448,192,185153,1,0,0:0:0:0:
448,192,185284,1,0,0:0:0:0:
320,192,185284,1,0,0:0:0:0:
192,192,185284,1,0,0:0:0:0:
64,192,185414,1,0,0:0:0:0:
64,192,185544,1,0,0:0:0:0:
192,192,185544,1,0,0:0:0:0:
448,192,185544,1,0,0:0:0:0:
320,192,185675,1,0,0:0:0:0:
448,192,185805,1,0,0:0:0:0:
320,192,185805,1,0,0:0:0:0:
192,192,185805,1,0,0:0:0:0:
64,192,185936,1,0,0:0:0:0:
64,192,186066,1,0,0:0:0:0:
192,192,186066,1,0,0:0:0:0:
448,192,186066,1,0,0:0:0:0:
320,192,186197,1,0,0:0:0:0:
448,192,186327,1,0,0:0:0:0:
320,192,186327,1,0,0:0:0:0:
192,192,186327,1,0,0:0:0:0:
64,192,186457,1,0,0:0:0:0:
64,192,186588,1,0,0:0:0:0:
192,192,186588,1,0,0:0:0:0:
448,192,186588,1,0,0:0:0:0:
320,192,186718,1,0,0:0:0:0:
448,192,186849,1,0,0:0:0:0:
320,192,186849,1,0,0:0:0:0:
192,192,186849,1,0,0:0:0:0:
64,192,186979,1,0,0:0:0:0:
320,192,186979,1,0,0:0:0:0:
448,192,187110,1,0,0:0:0:0:
320,192,187110,1,0,0:0:0:0:
64,192,187110,1,0,0:0:0:0:
320,192,187240,1,0,0:0:0:0:
192,192,187240,1,0,0:0:0:0:
64,192,187371,1,0,0:0:0:0:
448,192,187371,1,0,0:0:0:0:
192,192,187371,1,0,0:0:0:0:
320,192,187501,1,0,0:0:0:0:
448,192,187501,1,0,0:0:0:0:
448,192,187631,1,0,0:0:0:0:
320,192,187631,1,0,0:0:0:0:
64,192,187631,1,0,0:0:0:0:
64,192,187762,1,0,0:0:0:0:
192,192,187762,1,0,0:0:0:0:
448,192,187762,1,0,0:0:0:0:
448,192,187892,1,0,0:0:0:0:
320,192,187892,1,0,0:0:0:0:
64,192,187892,1,0,0:0:0:0:
192,192,188023,1,0,0:0:0:0:
448,192,188153,1,0,0:0:0:0:
320,192,188153,1,0,0:0:0:0:
64,192,188153,1,0,0:0:0:0:
192,192,188284,1,0,0:0:0:0:
64,192,188414,1,0,0:0:0:0:
192,192,188414,1,0,0:0:0:0:
448,192,188414,1,0,0:0:0:0:
320,192,188544,1,0,0:0:0:0:
448,192,188675,1,0,0:0:0:0:
320,192,188675,1,0,0:0:0:0:
192,192,188675,1,0,0:0:0:0:
64,192,188805,1,0,0:0:0:0:
192,192,188936,1,0,0:0:0:0:
320,192,189066,1,0,0:0:0:0:
448,192,189197,1,0,0:0:0:0:
320,192,189327,5,0,0:0:0:0:
192,192,189457,1,0,0:0:0:0:
64,192,189588,1,0,0:0:0:0:
192,192,189718,1,0,0:0:0:0:
320,192,189849,1,0,0:0:0:0:
448,192,189979,1,0,0:0:0:0:
320,192,190110,1,0,0:0:0:0:
192,192,190240,1,0,0:0:0:0:
64,192,190370,1,0,0:0:0:0:
192,192,190501,1,0,0:0:0:0:
192,192,191022,1,0,0:0:0:0:
448,192,191023,1,0,0:0:0:0:
320,192,191153,1,0,0:0:0:0:
320,192,191283,1,0,0:0:0:0:
192,192,191283,1,0,0:0:0:0:
64,192,191414,1,0,0:0:0:0:
320,192,191544,1,0,0:0:0:0:
448,192,191544,1,0,0:0:0:0:
64,192,191675,1,0,0:0:0:0:
64,192,191805,1,0,0:0:0:0:
192,192,191805,1,0,0:0:0:0:
448,192,191936,1,0,0:0:0:0:
448,192,192066,1,0,0:0:0:0:
192,192,192066,1,0,0:0:0:0:
320,192,192196,1,0,0:0:0:0:
64,192,192327,1,0,0:0:0:0:
448,192,192327,1,0,0:0:0:0:
320,192,192457,1,0,0:0:0:0:
448,192,192588,1,0,0:0:0:0:
64,192,192588,1,0,0:0:0:0:
192,192,192718,1,0,0:0:0:0:
64,192,192849,1,0,0:0:0:0:
192,192,192849,1,0,0:0:0:0:
320,192,192979,1,0,0:0:0:0:
448,192,193109,1,0,0:0:0:0:
64,192,193109,1,0,0:0:0:0:
192,192,193240,1,0,0:0:0:0:
448,192,193370,1,0,0:0:0:0:
320,192,193370,1,0,0:0:0:0:
64,192,193501,1,0,0:0:0:0:
64,192,193631,1,0,0:0:0:0:
320,192,193631,1,0,0:0:0:0:
192,192,193762,1,0,0:0:0:0:
448,192,193762,1,0,0:0:0:0:
192,192,193892,1,0,0:0:0:0:
64,192,193892,1,0,0:0:0:0:
448,192,193957,1,0,0:0:0:0:
320,192,193957,1,0,0:0:0:0:
64,192,194023,128,0,194153:0:0:0:0:
192,192,194023,128,0,194153:0:0:0:0:
448,192,194153,1,0,0:0:0:0:
320,192,194153,1,0,0:0:0:0:
64,192,194218,1,0,0:0:0:0:
192,192,194218,1,0,0:0:0:0:
448,192,194283,1,0,0:0:0:0:
320,192,194283,1,0,0:0:0:0:
192,192,194349,1,0,0:0:0:0:
64,192,194349,1,0,0:0:0:0:
448,192,194414,128,0,194675:0:0:0:0:
320,192,194414,128,0,194675:0:0:0:0:
64,192,194675,1,0,0:0:0:0:
192,192,194675,1,0,0:0:0:0:
448,192,194740,1,0,0:0:0:0:
320,192,194740,1,0,0:0:0:0:
64,192,194805,1,0,0:0:0:0:
192,192,194805,1,0,0:0:0:0:
448,192,194870,1,0,0:0:0:0:
320,192,194870,1,0,0:0:0:0:
64,192,194936,128,0,195196:0:0:0:0:
192,192,194936,128,0,195196:0:0:0:0:
320,192,195196,1,0,0:0:0:0:
448,192,195196,1,0,0:0:0:0:
192,192,195327,1,0,0:0:0:0:
64,192,195457,1,0,0:0:0:0:
448,192,195457,1,0,0:0:0:0:
192,192,195588,1,0,0:0:0:0:
448,192,195718,1,0,0:0:0:0:
320,192,195718,1,0,0:0:0:0:
64,192,195849,1,0,0:0:0:0:
64,192,195979,1,0,0:0:0:0:
320,192,195979,1,0,0:0:0:0:
192,192,196109,1,0,0:0:0:0:
448,192,196240,1,0,0:0:0:0:
64,192,196240,1,0,0:0:0:0:
192,192,196370,1,0,0:0:0:0:
64,192,196501,1,0,0:0:0:0:
192,192,196501,1,0,0:0:0:0:
448,192,196631,1,0,0:0:0:0:
448,192,196762,1,0,0:0:0:0:
192,192,196762,1,0,0:0:0:0:
320,192,196892,1,0,0:0:0:0:
64,192,197023,1,0,0:0:0:0:
192,192,197023,1,0,0:0:0:0:
320,192,197153,1,0,0:0:0:0:
448,192,197283,1,0,0:0:0:0:
192,192,197283,1,0,0:0:0:0:
64,192,197414,1,0,0:0:0:0:
64,192,197544,1,0,0:0:0:0:
320,192,197544,1,0,0:0:0:0:
192,192,197675,1,0,0:0:0:0:
448,192,197805,1,0,0:0:0:0:
192,192,197805,1,0,0:0:0:0:
320,192,197936,1,0,0:0:0:0:
64,192,198066,1,0,0:0:0:0:
192,192,198066,1,0,0:0:0:0:
320,192,198196,1,0,0:0:0:0:
448,192,198327,1,0,0:0:0:0:
64,192,198327,1,0,0:0:0:0:
192,192,198457,1,0,0:0:0:0:
448,192,198588,1,0,0:0:0:0:
64,192,198588,1,0,0:0:0:0:
192,192,198718,1,0,0:0:0:0:
448,192,198849,1,0,0:0:0:0:
192,192,198849,1,0,0:0:0:0:
320,192,198979,1,0,0:0:0:0:
320,192,199109,1,0,0:0:0:0:
64,192,199109,1,0,0:0:0:0:
192,192,199240,1,0,0:0:0:0:
448,192,200414,1,0,0:0:0:0:
64,192,200414,1,0,0:0:0:0:
448,192,204587,1,0,0:0:0:0:
64,192,204717,1,0,0:0:0:0:
448,192,204847,1,0,0:0:0:0:
64,192,204978,1,0,0:0:0:0:
448,192,205108,1,0,0:0:0:0:
64,192,205239,1,0,0:0:0:0:
448,192,205369,1,0,0:0:0:0:
64,192,205500,1,0,0:0:0:0:
448,192,205630,1,0,0:0:0:0:
192,192,205760,1,0,0:0:0:0:
320,192,205891,1,0,0:0:0:0:
64,192,205891,1,0,0:0:0:0:
192,192,206021,1,0,0:0:0:0:
320,192,206152,1,0,0:0:0:0:
448,192,206152,1,0,0:0:0:0:
64,192,206282,1,0,0:0:0:0:
192,192,206413,1,0,0:0:0:0:
320,192,206413,1,0,0:0:0:0:
448,192,206543,1,0,0:0:0:0:
64,192,206673,1,0,0:0:0:0:
192,192,206673,1,0,0:0:0:0:
320,192,206804,1,0,0:0:0:0:
448,192,206934,1,0,0:0:0:0:
192,192,206934,1,0,0:0:0:0:
320,192,207065,1,0,0:0:0:0:
64,192,207195,1,0,0:0:0:0:
192,192,207195,1,0,0:0:0:0:
448,192,207326,1,0,0:0:0:0:
448,192,207456,1,0,0:0:0:0:
192,192,207456,1,0,0:0:0:0:
320,192,207587,1,0,0:0:0:0:
64,192,207717,1,0,0:0:0:0:
192,192,207717,1,0,0:0:0:0:
320,192,207847,1,0,0:0:0:0:
448,192,207978,1,0,0:0:0:0:
192,192,207978,1,0,0:0:0:0:
320,192,208108,1,0,0:0:0:0:
64,192,208239,1,0,0:0:0:0:
192,192,208239,1,0,0:0:0:0:
320,192,208369,1,0,0:0:0:0:
448,192,208500,1,0,0:0:0:0:
64,192,208500,1,0,0:0:0:0:
320,192,208630,5,0,0:0:0:0:
448,192,208760,5,0,0:0:0:0:
192,192,208760,1,0,0:0:0:0:
320,192,208891,1,0,0:0:0:0:
192,192,209021,1,0,0:0:0:0:
320,192,209021,1,0,0:0:0:0:
64,192,209152,1,0,0:0:0:0:
64,192,209282,1,0,0:0:0:0:
320,192,209282,1,0,0:0:0:0:
192,192,209413,1,0,0:0:0:0:
448,192,209543,1,0,0:0:0:0:
320,192,209543,1,0,0:0:0:0:
64,192,209673,1,0,0:0:0:0:
448,192,209804,5,0,0:0:0:0:
192,192,209804,1,0,0:0:0:0:
320,192,209804,1,0,0:0:0:0:
64,192,209934,1,0,0:0:0:0:
64,192,210065,1,0,0:0:0:0:
192,192,210065,1,0,0:0:0:0:
448,192,210065,1,0,0:0:0:0:
320,192,210195,1,0,0:0:0:0:
320,192,210326,1,0,0:0:0:0:
448,192,210326,1,0,0:0:0:0:
192,192,210326,1,0,0:0:0:0:
64,192,210456,1,0,0:0:0:0:
192,192,210587,1,0,0:0:0:0:
448,192,210587,1,0,0:0:0:0:
64,192,210587,1,0,0:0:0:0:
320,192,210717,1,0,0:0:0:0:
64,192,210847,1,0,0:0:0:0:
192,192,210847,1,0,0:0:0:0:
320,192,210847,1,0,0:0:0:0:
448,192,210978,1,0,0:0:0:0:
448,192,211108,1,0,0:0:0:0:
320,192,211108,1,0,0:0:0:0:
64,192,211108,1,0,0:0:0:0:
192,192,211239,1,0,0:0:0:0:
192,192,211369,1,0,0:0:0:0:
448,192,211369,1,0,0:0:0:0:
64,192,211369,1,0,0:0:0:0:
320,192,211500,1,0,0:0:0:0:
64,192,211630,1,0,0:0:0:0:
320,192,211630,1,0,0:0:0:0:
448,192,211630,1,0,0:0:0:0:
192,192,211760,1,0,0:0:0:0:
64,192,211891,1,0,0:0:0:0:
192,192,211891,1,0,0:0:0:0:
448,192,211891,1,0,0:0:0:0:
320,192,212021,1,0,0:0:0:0:
448,192,212152,1,0,0:0:0:0:
64,192,212152,1,0,0:0:0:0:
320,192,212152,1,0,0:0:0:0:
192,192,212282,1,0,0:0:0:0:
192,192,212413,1,0,0:0:0:0:
320,192,212413,1,0,0:0:0:0:
448,192,212413,1,0,0:0:0:0:
64,192,212543,1,0,0:0:0:0:
64,192,212673,1,0,0:0:0:0:
192,192,212673,1,0,0:0:0:0:
320,192,212673,1,0,0:0:0:0:
448,192,212804,1,0,0:0:0:0:
448,192,212934,1,0,0:0:0:0:
320,192,212934,1,0,0:0:0:0:
64,192,212934,1,0,0:0:0:0:
192,192,213065,1,0,0:0:0:0:
64,192,213195,1,0,0:0:0:0:
320,192,213195,1,0,0:0:0:0:
192,192,213195,1,0,0:0:0:0:
448,192,213326,1,0,0:0:0:0:
448,192,213456,1,0,0:0:0:0:
320,192,213456,1,0,0:0:0:0:
192,192,213456,1,0,0:0:0:0:
64,192,213587,1,0,0:0:0:0:
64,192,213717,1,0,0:0:0:0:
448,192,213717,1,0,0:0:0:0:
192,192,213717,1,0,0:0:0:0:
320,192,213847,1,0,0:0:0:0:
448,192,213978,1,0,0:0:0:0:
320,192,213978,1,0,0:0:0:0:
64,192,213978,1,0,0:0:0:0:
192,192,214108,1,0,0:0:0:0:
320,192,214239,1,0,0:0:0:0:
192,192,214239,1,0,0:0:0:0:
448,192,214239,1,0,0:0:0:0:
64,192,214369,1,0,0:0:0:0:
64,192,214500,1,0,0:0:0:0:
192,192,214500,1,0,0:0:0:0:
320,192,214500,1,0,0:0:0:0:
448,192,214630,1,0,0:0:0:0:
448,192,214760,1,0,0:0:0:0:
320,192,214760,1,0,0:0:0:0:
64,192,214760,1,0,0:0:0:0:
192,192,214891,1,0,0:0:0:0:
64,192,215021,1,0,0:0:0:0:
192,192,215021,1,0,0:0:0:0:
320,192,215021,1,0,0:0:0:0:
448,192,215152,1,0,0:0:0:0:
448,192,215282,1,0,0:0:0:0:
320,192,215282,1,0,0:0:0:0:
64,192,215282,1,0,0:0:0:0:
192,192,215413,1,0,0:0:0:0:
64,192,215543,1,0,0:0:0:0:
192,192,215543,1,0,0:0:0:0:
448,192,215543,1,0,0:0:0:0:
320,192,215673,1,0,0:0:0:0:
448,192,215804,1,0,0:0:0:0:
320,192,215804,1,0,0:0:0:0:
192,192,215804,1,0,0:0:0:0:
64,192,215934,5,0,0:0:0:0:
192,192,216065,1,0,0:0:0:0:
64,192,216065,1,0,0:0:0:0:
448,192,216065,1,0,0:0:0:0:
448,192,216195,1,0,0:0:0:0:
320,192,216195,1,0,0:0:0:0:
64,192,216195,1,0,0:0:0:0:
192,192,216326,1,0,0:0:0:0:
64,192,216326,1,0,0:0:0:0:
448,192,216326,1,0,0:0:0:0:
448,192,216456,1,0,0:0:0:0:
320,192,216456,1,0,0:0:0:0:
64,192,216456,1,0,0:0:0:0:
192,192,216587,1,0,0:0:0:0:
64,192,216587,1,0,0:0:0:0:
448,192,216587,1,0,0:0:0:0:
320,192,216717,1,0,0:0:0:0:
448,192,216717,1,0,0:0:0:0:
64,192,216717,1,0,0:0:0:0:
192,192,216847,1,0,0:0:0:0:
64,192,216847,1,0,0:0:0:0:
448,192,216847,1,0,0:0:0:0:
320,192,216978,1,0,0:0:0:0:
448,192,216978,1,0,0:0:0:0:
64,192,216978,1,0,0:0:0:0:
448,192,217108,5,0,0:0:0:0:
192,192,217108,1,0,0:0:0:0:
64,192,217108,1,0,0:0:0:0:
320,192,217239,1,0,0:0:0:0:
448,192,217369,1,0,0:0:0:0:
320,192,217369,1,0,0:0:0:0:
192,192,217369,1,0,0:0:0:0:
64,192,217500,1,0,0:0:0:0:
64,192,217630,1,0,0:0:0:0:
192,192,217630,1,0,0:0:0:0:
320,192,217630,1,0,0:0:0:0:
448,192,217760,1,0,0:0:0:0:
448,192,217891,1,0,0:0:0:0:
320,192,217891,1,0,0:0:0:0:
192,192,217891,1,0,0:0:0:0:
64,192,218021,1,0,0:0:0:0:
448,192,218152,1,0,0:0:0:0:
192,192,218152,1,0,0:0:0:0:
64,192,218152,1,0,0:0:0:0:
320,192,218282,1,0,0:0:0:0:
448,192,218413,1,0,0:0:0:0:
320,192,218413,1,0,0:0:0:0:
64,192,218413,1,0,0:0:0:0:
192,192,218543,1,0,0:0:0:0:
448,192,218673,1,0,0:0:0:0:
320,192,218673,1,0,0:0:0:0:
64,192,218673,1,0,0:0:0:0:
192,192,218804,1,0,0:0:0:0:
192,192,218934,1,0,0:0:0:0:
64,192,218934,1,0,0:0:0:0:
320,192,218934,1,0,0:0:0:0:
448,192,219065,1,0,0:0:0:0:
448,192,219195,1,0,0:0:0:0:
320,192,219195,1,0,0:0:0:0:
64,192,219195,1,0,0:0:0:0:
192,192,219326,1,0,0:0:0:0:
448,192,219456,1,0,0:0:0:0:
320,192,219456,1,0,0:0:0:0:
192,192,219456,1,0,0:0:0:0:
64,192,219586,1,0,0:0:0:0:
64,192,219717,1,0,0:0:0:0:
192,192,219717,1,0,0:0:0:0:
320,192,219717,1,0,0:0:0:0:
448,192,219847,1,0,0:0:0:0:
448,192,219978,1,0,0:0:0:0:
320,192,219978,1,0,0:0:0:0:
64,192,219978,1,0,0:0:0:0:
192,192,220108,1,0,0:0:0:0:
64,192,220239,1,0,0:0:0:0:
192,192,220239,1,0,0:0:0:0:
320,192,220239,1,0,0:0:0:0:
448,192,220369,1,0,0:0:0:0:
448,192,220500,1,0,0:0:0:0:
320,192,220500,1,0,0:0:0:0:
64,192,220500,1,0,0:0:0:0:
192,192,220630,1,0,0:0:0:0:
64,192,220760,1,0,0:0:0:0:
192,192,220760,1,0,0:0:0:0:
320,192,220760,1,0,0:0:0:0:
448,192,220891,1,0,0:0:0:0:
448,192,221021,1,0,0:0:0:0:
320,192,221021,1,0,0:0:0:0:
64,192,221021,1,0,0:0:0:0:
192,192,221152,1,0,0:0:0:0:
64,192,221282,1,0,0:0:0:0:
192,192,221282,1,0,0:0:0:0:
320,192,221282,1,0,0:0:0:0:
448,192,221413,1,0,0:0:0:0:
192,192,221413,1,0,0:0:0:0:
448,192,221543,1,0,0:0:0:0:
320,192,221543,1,0,0:0:0:0:
64,192,221543,1,0,0:0:0:0:
448,192,221673,1,0,0:0:0:0:
64,192,221673,1,0,0:0:0:0:
448,192,221804,1,0,0:0:0:0:
192,192,221804,1,0,0:0:0:0:
64,192,221804,1,0,0:0:0:0:
320,192,221934,1,0,0:0:0:0:
192,192,221934,1,0,0:0:0:0:
448,192,222065,1,0,0:0:0:0:
320,192,222065,1,0,0:0:0:0:
64,192,222065,1,0,0:0:0:0:
448,192,222195,1,0,0:0:0:0:
64,192,222195,1,0,0:0:0:0:
448,192,222326,1,0,0:0:0:0:
320,192,222326,1,0,0:0:0:0:
64,192,222326,1,0,0:0:0:0:
192,192,222456,1,0,0:0:0:0:
64,192,222586,1,0,0:0:0:0:
448,192,222586,1,0,0:0:0:0:
192,192,222586,1,0,0:0:0:0:
320,192,222717,1,0,0:0:0:0:
448,192,222847,1,0,0:0:0:0:
320,192,222847,1,0,0:0:0:0:
192,192,222847,1,0,0:0:0:0:
64,192,222978,1,0,0:0:0:0:
192,192,223108,1,0,0:0:0:0:
64,192,223108,1,0,0:0:0:0:
320,192,223108,1,0,0:0:0:0:
448,192,223239,1,0,0:0:0:0:
448,192,223369,1,0,0:0:0:0:
320,192,223369,1,0,0:0:0:0:
64,192,223369,1,0,0:0:0:0:
192,192,223500,1,0,0:0:0:0:
64,192,223630,1,0,0:0:0:0:
192,192,223630,1,0,0:0:0:0:
320,192,223630,1,0,0:0:0:0:
448,192,223760,1,0,0:0:0:0:
448,192,223891,1,0,0:0:0:0:
320,192,223891,1,0,0:0:0:0:
64,192,223891,1,0,0:0:0:0:
192,192,224021,1,0,0:0:0:0:
64,192,224152,1,0,0:0:0:0:
320,192,224152,1,0,0:0:0:0:
448,192,224152,1,0,0:0:0:0:
192,192,224282,1,0,0:0:0:0:
320,192,224413,1,0,0:0:0:0:
448,192,224543,1,0,0:0:0:0:
320,192,224673,1,0,0:0:0:0:
192,192,224804,1,0,0:0:0:0:
64,192,224934,1,0,0:0:0:0:
192,192,225065,1,0,0:0:0:0:
320,192,225195,1,0,0:0:0:0:
448,192,225326,1,0,0:0:0:0:
320,192,225456,1,0,0:0:0:0:
64,192,225717,1,0,0:0:0:0:
320,192,225978,1,0,0:0:0:0:
448,192,226500,1,0,0:0:0:0:
320,192,226500,1,0,0:0:0:0:
64,192,226500,1,0,0:0:0:0:
192,192,226630,1,0,0:0:0:0:
64,192,226760,1,0,0:0:0:0:
192,192,226760,1,0,0:0:0:0:
320,192,226760,1,0,0:0:0:0:
448,192,226891,1,0,0:0:0:0:
448,192,227021,1,0,0:0:0:0:
320,192,227021,1,0,0:0:0:0:
64,192,227021,1,0,0:0:0:0:
192,192,227152,1,0,0:0:0:0:
64,192,227282,1,0,0:0:0:0:
192,192,227282,1,0,0:0:0:0:
320,192,227282,1,0,0:0:0:0:
448,192,227413,1,0,0:0:0:0:
448,192,227543,1,0,0:0:0:0:
320,192,227543,1,0,0:0:0:0:
64,192,227543,1,0,0:0:0:0:
192,192,227673,1,0,0:0:0:0:
64,192,227804,1,0,0:0:0:0:
192,192,227804,1,0,0:0:0:0:
320,192,227804,1,0,0:0:0:0:
448,192,227934,1,0,0:0:0:0:
448,192,228065,1,0,0:0:0:0:
320,192,228065,1,0,0:0:0:0:
64,192,228065,1,0,0:0:0:0:
192,192,228195,1,0,0:0:0:0:
64,192,228326,1,0,0:0:0:0:
192,192,228326,1,0,0:0:0:0:
320,192,228326,1,0,0:0:0:0:
448,192,228456,1,0,0:0:0:0:
448,192,228586,1,0,0:0:0:0:
320,192,228586,1,0,0:0:0:0:
64,192,228586,1,0,0:0:0:0:
192,192,228717,1,0,0:0:0:0:
64,192,228847,1,0,0:0:0:0:
192,192,228847,1,0,0:0:0:0:
320,192,228847,1,0,0:0:0:0:
448,192,228978,1,0,0:0:0:0:
448,192,229108,1,0,0:0:0:0:
320,192,229108,1,0,0:0:0:0:
64,192,229108,1,0,0:0:0:0:
192,192,229239,1,0,0:0:0:0:
64,192,229369,1,0,0:0:0:0:
192,192,229369,1,0,0:0:0:0:
320,192,229369,1,0,0:0:0:0:
448,192,229500,1,0,0:0:0:0:
448,192,229630,1,0,0:0:0:0:
320,192,229630,1,0,0:0:0:0:
64,192,229630,1,0,0:0:0:0:
192,192,229760,1,0,0:0:0:0:
64,192,229891,1,0,0:0:0:0:
192,192,229891,1,0,0:0:0:0:
320,192,229891,1,0,0:0:0:0:
448,192,230021,1,0,0:0:0:0:
320,192,230021,1,0,0:0:0:0:
64,192,230021,1,0,0:0:0:0:
192,192,230152,1,0,0:0:0:0:
320,192,230282,1,0,0:0:0:0:
448,192,230282,1,0,0:0:0:0:
64,192,230282,1,0,0:0:0:0:
448,192,230413,1,0,0:0:0:0:
192,192,230413,1,0,0:0:0:0:
320,192,230413,1,0,0:0:0:0:
64,192,230543,1,0,0:0:0:0:
64,192,230673,1,0,0:0:0:0:
192,192,230673,1,0,0:0:0:0:
448,192,230673,1,0,0:0:0:0:
320,192,230804,1,0,0:0:0:0:
448,192,230934,1,0,0:0:0:0:
64,192,230934,1,0,0:0:0:0:
192,192,230934,1,0,0:0:0:0:
320,192,231065,1,0,0:0:0:0:
448,192,231195,1,0,0:0:0:0:
320,192,231195,1,0,0:0:0:0:
64,192,231195,1,0,0:0:0:0:
192,192,231326,1,0,0:0:0:0:
64,192,231456,1,0,0:0:0:0:
192,192,231456,1,0,0:0:0:0:
320,192,231456,1,0,0:0:0:0:
448,192,231586,1,0,0:0:0:0:
448,192,231717,1,0,0:0:0:0:
320,192,231717,1,0,0:0:0:0:
64,192,231717,1,0,0:0:0:0:
192,192,231847,1,0,0:0:0:0:
64,192,231978,1,0,0:0:0:0:
192,192,231978,1,0,0:0:0:0:
320,192,231978,1,0,0:0:0:0:
448,192,232108,1,0,0:0:0:0:
448,192,232239,1,0,0:0:0:0:
320,192,232239,1,0,0:0:0:0:
192,192,232239,1,0,0:0:0:0:
64,192,232369,1,0,0:0:0:0:
64,192,232500,1,0,0:0:0:0:
192,192,232500,1,0,0:0:0:0:
320,192,232500,1,0,0:0:0:0:
448,192,232630,1,0,0:0:0:0:
448,192,232760,1,0,0:0:0:0:
320,192,232760,1,0,0:0:0:0:
64,192,232760,1,0,0:0:0:0:
192,192,232891,1,0,0:0:0:0:
192,192,233021,1,0,0:0:0:0:
64,192,233021,1,0,0:0:0:0:
320,192,233021,1,0,0:0:0:0:
448,192,233152,1,0,0:0:0:0:
448,192,233282,1,0,0:0:0:0:
320,192,233282,1,0,0:0:0:0:
64,192,233282,1,0,0:0:0:0:
192,192,233413,1,0,0:0:0:0:
64,192,233543,1,0,0:0:0:0:
192,192,233543,1,0,0:0:0:0:
448,192,233543,1,0,0:0:0:0:
320,192,233673,1,0,0:0:0:0:
448,192,233804,1,0,0:0:0:0:
320,192,233804,1,0,0:0:0:0:
192,192,233804,1,0,0:0:0:0:
64,192,233934,1,0,0:0:0:0:
64,192,234065,1,0,0:0:0:0:
192,192,234065,1,0,0:0:0:0:
448,192,234065,1,0,0:0:0:0:
320,192,234195,1,0,0:0:0:0:
64,192,234326,1,0,0:0:0:0:
192,192,234326,1,0,0:0:0:0:
448,192,234326,1,0,0:0:0:0:
320,192,234456,1,0,0:0:0:0:
448,192,234586,1,0,0:0:0:0:
320,192,234586,1,0,0:0:0:0:
64,192,234586,1,0,0:0:0:0:
192,192,234717,1,0,0:0:0:0:
64,192,234847,1,0,0:0:0:0:
192,192,234847,1,0,0:0:0:0:
320,192,234847,1,0,0:0:0:0:
448,192,234978,1,0,0:0:0:0:
448,192,235108,1,0,0:0:0:0:
320,192,235108,1,0,0:0:0:0:
64,192,235108,1,0,0:0:0:0:
192,192,235239,1,0,0:0:0:0:
64,192,235369,1,0,0:0:0:0:
192,192,235369,1,0,0:0:0:0:
320,192,235369,1,0,0:0:0:0:
448,192,235500,1,0,0:0:0:0:
448,192,235630,1,0,0:0:0:0:
320,192,235630,1,0,0:0:0:0:
64,192,235630,1,0,0:0:0:0:
192,192,235760,1,0,0:0:0:0:
64,192,235891,1,0,0:0:0:0:
192,192,235891,1,0,0:0:0:0:
320,192,235891,1,0,0:0:0:0:
448,192,236021,1,0,0:0:0:0:
448,192,236152,1,0,0:0:0:0:
320,192,236152,1,0,0:0:0:0:
64,192,236152,1,0,0:0:0:0:
192,192,236282,1,0,0:0:0:0:
64,192,236413,1,0,0:0:0:0:
192,192,236413,1,0,0:0:0:0:
320,192,236413,1,0,0:0:0:0:
448,192,236543,1,0,0:0:0:0:
448,192,236673,1,0,0:0:0:0:
320,192,236673,1,0,0:0:0:0:
192,192,236673,1,0,0:0:0:0:
64,192,236804,1,0,0:0:0:0:
64,192,236934,1,0,0:0:0:0:
192,192,236934,1,0,0:0:0:0:
448,192,236934,1,0,0:0:0:0:
320,192,237065,1,0,0:0:0:0:
448,192,237195,1,0,0:0:0:0:
320,192,237195,1,0,0:0:0:0:
64,192,237195,1,0,0:0:0:0:
192,192,237326,1,0,0:0:0:0:
64,192,237456,1,0,0:0:0:0:
192,192,237456,1,0,0:0:0:0:
320,192,237456,1,0,0:0:0:0:
448,192,237586,1,0,0:0:0:0:
64,192,237717,1,0,0:0:0:0:
192,192,237717,1,0,0:0:0:0:
320,192,237717,1,0,0:0:0:0:
448,192,237847,1,0,0:0:0:0:
448,192,237978,1,0,0:0:0:0:
320,192,237978,1,0,0:0:0:0:
192,192,237978,1,0,0:0:0:0:
64,192,238108,1,0,0:0:0:0:
448,192,238239,1,0,0:0:0:0:
320,192,238239,1,0,0:0:0:0:
192,192,238239,1,0,0:0:0:0:
64,192,238369,1,0,0:0:0:0:
64,192,238500,1,0,0:0:0:0:
192,192,238500,1,0,0:0:0:0:
448,192,238500,1,0,0:0:0:0:
320,192,238630,1,0,0:0:0:0:
64,192,238760,1,0,0:0:0:0:
192,192,238760,1,0,0:0:0:0:
448,192,238760,1,0,0:0:0:0:
320,192,238891,1,0,0:0:0:0:
448,192,239021,1,0,0:0:0:0:
320,192,239021,1,0,0:0:0:0:
64,192,239021,1,0,0:0:0:0:
192,192,239152,1,0,0:0:0:0:
448,192,239282,1,0,0:0:0:0:
320,192,239282,1,0,0:0:0:0:
64,192,239282,1,0,0:0:0:0:
192,192,239413,1,0,0:0:0:0:
64,192,239543,1,0,0:0:0:0:
192,192,239543,1,0,0:0:0:0:
320,192,239543,1,0,0:0:0:0:
448,192,239673,1,0,0:0:0:0:
448,192,239804,1,0,0:0:0:0:
320,192,239804,1,0,0:0:0:0:
192,192,239804,1,0,0:0:0:0:
64,192,239934,1,0,0:0:0:0:
64,192,240065,1,0,0:0:0:0:
192,192,240065,1,0,0:0:0:0:
448,192,240065,1,0,0:0:0:0:
320,192,240195,1,0,0:0:0:0:
448,192,240326,1,0,0:0:0:0:
320,192,240326,1,0,0:0:0:0:
192,192,240326,1,0,0:0:0:0:
64,192,240456,1,0,0:0:0:0:
64,192,240586,1,0,0:0:0:0:
192,192,240586,1,0,0:0:0:0:
320,192,240586,1,0,0:0:0:0:
448,192,240717,1,0,0:0:0:0:
448,192,240847,1,0,0:0:0:0:
320,192,240847,1,0,0:0:0:0:
64,192,240847,1,0,0:0:0:0:
192,192,240978,1,0,0:0:0:0:
320,192,241108,1,0,0:0:0:0:
448,192,241239,1,0,0:0:0:0:
320,192,241369,1,0,0:0:0:0:
192,192,241499,1,0,0:0:0:0:
64,192,241630,1,0,0:0:0:0:
192,192,241760,1,0,0:0:0:0:
320,192,241891,1,0,0:0:0:0:
448,192,242021,1,0,0:0:0:0:
320,192,242152,1,0,0:0:0:0:
192,192,242282,1,0,0:0:0:0:
64,192,242413,1,0,0:0:0:0:
192,192,242543,1,0,0:0:0:0:
320,192,242673,1,0,0:0:0:0:
448,192,242804,1,0,0:0:0:0:
320,192,242934,1,0,0:0:0:0:
192,192,243065,1,0,0:0:0:0:
64,192,243195,1,0,0:0:0:0:
192,192,243195,1,0,0:0:0:0:
448,192,243195,1,0,0:0:0:0:
320,192,243326,1,0,0:0:0:0:
448,192,243456,1,0,0:0:0:0:
320,192,243456,1,0,0:0:0:0:
192,192,243456,1,0,0:0:0:0:
64,192,243586,1,0,0:0:0:0:
64,192,243717,1,0,0:0:0:0:
192,192,243717,1,0,0:0:0:0:
448,192,243717,1,0,0:0:0:0:
320,192,243847,1,0,0:0:0:0:
448,192,243978,1,0,0:0:0:0:
320,192,243978,1,0,0:0:0:0:
64,192,243978,1,0,0:0:0:0:
192,192,244108,1,0,0:0:0:0:
64,192,244239,1,0,0:0:0:0:
320,192,244239,1,0,0:0:0:0:
448,192,244239,1,0,0:0:0:0:
192,192,244369,1,0,0:0:0:0:
64,192,244499,1,0,0:0:0:0:
192,192,244499,1,0,0:0:0:0:
320,192,244499,1,0,0:0:0:0:
448,192,244630,1,0,0:0:0:0:
448,192,244760,1,0,0:0:0:0:
320,192,244760,1,0,0:0:0:0:
64,192,244760,1,0,0:0:0:0:
192,192,244891,1,0,0:0:0:0:
64,192,245021,1,0,0:0:0:0:
192,192,245021,1,0,0:0:0:0:
320,192,245021,1,0,0:0:0:0:
448,192,245152,1,0,0:0:0:0:
448,192,245282,1,0,0:0:0:0:
320,192,245282,1,0,0:0:0:0:
64,192,245282,1,0,0:0:0:0:
192,192,245413,1,0,0:0:0:0:
64,192,245543,1,0,0:0:0:0:
192,192,245543,1,0,0:0:0:0:
448,192,245543,1,0,0:0:0:0:
320,192,245673,1,0,0:0:0:0:
448,192,245804,1,0,0:0:0:0:
320,192,245804,1,0,0:0:0:0:
192,192,245804,1,0,0:0:0:0:
64,192,245934,1,0,0:0:0:0:
64,192,246065,1,0,0:0:0:0:
192,192,246065,1,0,0:0:0:0:
448,192,246065,1,0,0:0:0:0:
320,192,246195,1,0,0:0:0:0:
64,192,246326,1,0,0:0:0:0:
192,192,246326,1,0,0:0:0:0:
320,192,246326,1,0,0:0:0:0:
448,192,246456,1,0,0:0:0:0:
448,192,246586,1,0,0:0:0:0:
320,192,246586,1,0,0:0:0:0:
64,192,246586,1,0,0:0:0:0:
192,192,246717,1,0,0:0:0:0:
320,192,246847,1,0,0:0:0:0:
192,192,246847,1,0,0:0:0:0:
64,192,246847,1,0,0:0:0:0:
448,192,246978,1,0,0:0:0:0:
448,192,247108,1,0,0:0:0:0:
320,192,247108,1,0,0:0:0:0:
64,192,247108,1,0,0:0:0:0:
192,192,247239,1,0,0:0:0:0:
64,192,247369,1,0,0:0:0:0:
192,192,247369,1,0,0:0:0:0:
320,192,247369,1,0,0:0:0:0:
448,192,247499,1,0,0:0:0:0:
448,192,247630,1,0,0:0:0:0:
320,192,247630,1,0,0:0:0:0:
192,192,247630,1,0,0:0:0:0:
64,192,247760,1,0,0:0:0:0:
64,192,247891,1,0,0:0:0:0:
192,192,247891,1,0,0:0:0:0:
448,192,247891,1,0,0:0:0:0:
320,192,248021,1,0,0:0:0:0:
448,192,248152,1,0,0:0:0:0:
320,192,248152,1,0,0:0:0:0:
64,192,248152,1,0,0:0:0:0:
192,192,248282,1,0,0:0:0:0:
64,192,248413,1,0,0:0:0:0:
192,192,248413,1,0,0:0:0:0:
320,192,248413,1,0,0:0:0:0:
448,192,248543,1,0,0:0:0:0:
448,192,248673,1,0,0:0:0:0:
320,192,248673,1,0,0:0:0:0:
64,192,248673,1,0,0:0:0:0:
192,192,248804,1,0,0:0:0:0:
64,192,248934,1,0,0:0:0:0:
192,192,248934,1,0,0:0:0:0:
448,192,248934,1,0,0:0:0:0:
320,192,249065,1,0,0:0:0:0:
448,192,249195,1,0,0:0:0:0:
320,192,249195,1,0,0:0:0:0:
192,192,249195,1,0,0:0:0:0:
64,192,249326,1,0,0:0:0:0:
64,192,249456,1,0,0:0:0:0:
192,192,249456,1,0,0:0:0:0:
448,192,249456,1,0,0:0:0:0:
320,192,249586,1,0,0:0:0:0:
448,192,249717,1,0,0:0:0:0:
320,192,249717,1,0,0:0:0:0:
64,192,249717,1,0,0:0:0:0:
192,192,249847,1,0,0:0:0:0:
64,192,249978,1,0,0:0:0:0:
192,192,249978,1,0,0:0:0:0:
320,192,249978,1,0,0:0:0:0:
448,192,250108,1,0,0:0:0:0:
448,192,250239,1,0,0:0:0:0:
320,192,250239,1,0,0:0:0:0:
192,192,250239,1,0,0:0:0:0:
64,192,250369,1,0,0:0:0:0:
64,192,250499,1,0,0:0:0:0:
192,192,250499,1,0,0:0:0:0:
448,192,250499,1,0,0:0:0:0:
320,192,250630,1,0,0:0:0:0:
448,192,250760,1,0,0:0:0:0:
320,192,250760,1,0,0:0:0:0:
64,192,250760,1,0,0:0:0:0:
192,192,250891,1,0,0:0:0:0:
64,192,251021,1,0,0:0:0:0:
192,192,251021,1,0,0:0:0:0:
320,192,251021,1,0,0:0:0:0:
448,192,251152,1,0,0:0:0:0:
448,192,251282,1,0,0:0:0:0:
64,192,251282,1,0,0:0:0:0:
192,192,251282,1,0,0:0:0:0:
320,192,251413,1,0,0:0:0:0:
64,192,251543,1,0,0:0:0:0:
192,192,251543,1,0,0:0:0:0:
320,192,251543,1,0,0:0:0:0:
448,192,251673,1,0,0:0:0:0:
448,192,251804,1,0,0:0:0:0:
320,192,251804,1,0,0:0:0:0:
64,192,251804,1,0,0:0:0:0:
192,192,251934,1,0,0:0:0:0:
64,192,252065,1,0,0:0:0:0:
192,192,252065,1,0,0:0:0:0:
448,192,252065,1,0,0:0:0:0:
320,192,252195,1,0,0:0:0:0:
448,192,252326,1,0,0:0:0:0:
320,192,252326,1,0,0:0:0:0:
192,192,252326,1,0,0:0:0:0:
64,192,252456,1,0,0:0:0:0:
64,192,252586,1,0,0:0:0:0:
192,192,252586,1,0,0:0:0:0:
448,192,252586,1,0,0:0:0:0:
320,192,252717,1,0,0:0:0:0:
64,192,252847,1,0,0:0:0:0:
192,192,252847,1,0,0:0:0:0:
320,192,252847,1,0,0:0:0:0:
448,192,252978,1,0,0:0:0:0:
448,192,253108,1,0,0:0:0:0:
320,192,253108,1,0,0:0:0:0:
64,192,253108,1,0,0:0:0:0:
192,192,253239,1,0,0:0:0:0:
64,192,253369,1,0,0:0:0:0:
192,192,253369,1,0,0:0:0:0:
320,192,253369,1,0,0:0:0:0:
448,192,253499,1,0,0:0:0:0:
448,192,253630,1,0,0:0:0:0:
320,192,253630,1,0,0:0:0:0:
192,192,253630,1,0,0:0:0:0:
64,192,253760,1,0,0:0:0:0:
64,192,253891,1,0,0:0:0:0:
192,192,253891,1,0,0:0:0:0:
448,192,253891,1,0,0:0:0:0:
320,192,254021,1,0,0:0:0:0:
448,192,254152,1,0,0:0:0:0:
320,192,254152,1,0,0:0:0:0:
192,192,254152,1,0,0:0:0:0:
64,192,254282,1,0,0:0:0:0:
64,192,254413,1,0,0:0:0:0:
192,192,254413,1,0,0:0:0:0:
448,192,254413,1,0,0:0:0:0:
320,192,254543,1,0,0:0:0:0:
64,192,254673,1,0,0:0:0:0:
192,192,254673,1,0,0:0:0:0:
448,192,254673,1,0,0:0:0:0:
320,192,254804,1,0,0:0:0:0:
448,192,254934,1,0,0:0:0:0:
320,192,254934,1,0,0:0:0:0:
192,192,254934,1,0,0:0:0:0:
64,192,255065,1,0,0:0:0:0:
64,192,255195,1,0,0:0:0:0:
192,192,255195,1,0,0:0:0:0:
448,192,255195,1,0,0:0:0:0:
320,192,255326,1,0,0:0:0:0:
64,192,255456,1,0,0:0:0:0:
192,192,255456,1,0,0:0:0:0:
320,192,255456,1,0,0:0:0:0:
448,192,255586,1,0,0:0:0:0:
448,192,255717,1,0,0:0:0:0:
320,192,255717,1,0,0:0:0:0:
64,192,255717,1,0,0:0:0:0:
192,192,255847,1,0,0:0:0:0:
64,192,255978,1,0,0:0:0:0:
192,192,255978,1,0,0:0:0:0:
320,192,255978,1,0,0:0:0:0:
448,192,256108,1,0,0:0:0:0:
448,192,256239,1,0,0:0:0:0:
320,192,256239,1,0,0:0:0:0:
64,192,256239,1,0,0:0:0:0:
192,192,256369,1,0,0:0:0:0:
192,192,256499,1,0,0:0:0:0:
64,192,256499,1,0,0:0:0:0:
320,192,256499,1,0,0:0:0:0:
448,192,256630,1,0,0:0:0:0:
448,192,256760,1,0,0:0:0:0:
320,192,256760,1,0,0:0:0:0:
64,192,256760,1,0,0:0:0:0:
192,192,256891,1,0,0:0:0:0:
64,192,257021,1,0,0:0:0:0:
192,192,257021,1,0,0:0:0:0:
448,192,257021,1,0,0:0:0:0:
320,192,257152,1,0,0:0:0:0:
448,192,257282,1,0,0:0:0:0:
320,192,257282,1,0,0:0:0:0:
64,192,257282,1,0,0:0:0:0:
192,192,257413,1,0,0:0:0:0:
64,192,257543,1,0,0:0:0:0:
192,192,257543,1,0,0:0:0:0:
448,192,257543,1,0,0:0:0:0:
320,192,257673,1,0,0:0:0:0:
448,192,257804,1,0,0:0:0:0:
320,192,257804,1,0,0:0:0:0:
192,192,257804,1,0,0:0:0:0:
64,192,257934,1,0,0:0:0:0:
64,192,258065,1,0,0:0:0:0:
192,192,258065,1,0,0:0:0:0:
448,192,258065,1,0,0:0:0:0:
320,192,258195,1,0,0:0:0:0:
448,192,258326,1,0,0:0:0:0:
320,192,258326,1,0,0:0:0:0:
192,192,258326,1,0,0:0:0:0:
64,192,258456,1,0,0:0:0:0:
64,192,258586,1,0,0:0:0:0:
192,192,258586,1,0,0:0:0:0:
320,192,258586,1,0,0:0:0:0:
448,192,258717,1,0,0:0:0:0:
448,192,258847,1,0,0:0:0:0:
320,192,258847,1,0,0:0:0:0:
192,192,258913,1,0,0:0:0:0:
64,192,258913,1,0,0:0:0:0:
320,192,258978,1,0,0:0:0:0:
448,192,258978,1,0,0:0:0:0:
192,192,259043,1,0,0:0:0:0:
64,192,259043,1,0,0:0:0:0:
448,192,259108,1,0,0:0:0:0:
320,192,259108,1,0,0:0:0:0:
192,192,259173,1,0,0:0:0:0:
64,192,259173,1,0,0:0:0:0:
320,192,259239,1,0,0:0:0:0:
448,192,259239,1,0,0:0:0:0:
192,192,259304,1,0,0:0:0:0:
64,192,259304,1,0,0:0:0:0:
448,192,259369,1,0,0:0:0:0:
320,192,259369,1,0,0:0:0:0:
192,192,259434,1,0,0:0:0:0:
64,192,259434,1,0,0:0:0:0:
320,192,259499,1,0,0:0:0:0:
448,192,259499,1,0,0:0:0:0:
64,192,259565,1,0,0:0:0:0:
192,192,259565,1,0,0:0:0:0:
320,192,259630,1,0,0:0:0:0:
448,192,259630,1,0,0:0:0:0:
192,192,259695,1,0,0:0:0:0:
64,192,259695,1,0,0:0:0:0:
320,192,259760,1,0,0:0:0:0:
448,192,259760,1,0,0:0:0:0:
192,192,259826,1,0,0:0:0:0:
64,192,259826,1,0,0:0:0:0:
320,192,259891,1,0,0:0:0:0:
448,192,259891,1,0,0:0:0:0:
64,192,260021,1,0,0:0:0:0:
448,192,260152,1,0,0:0:0:0:
64,192,260282,1,0,0:0:0:0:
448,192,260413,1,0,0:0:0:0:
64,192,260543,1,0,0:0:0:0:
320,192,260673,1,0,0:0:0:0:
192,192,260804,1,0,0:0:0:0:
320,192,260934,1,0,0:0:0:0:
64,192,261065,1,0,0:0:0:0:
320,192,261195,1,0,0:0:0:0:
64,192,261326,1,0,0:0:0:0:
320,192,261456,1,0,0:0:0:0:
192,192,261586,1,0,0:0:0:0:
448,192,261717,1,0,0:0:0:0:
192,192,261847,1,0,0:0:0:0:
448,192,261978,1,0,0:0:0:0:
192,192,262108,1,0,0:0:0:0:
448,192,262239,1,0,0:0:0:0:
64,192,262369,1,0,0:0:0:0:
448,192,262499,1,0,0:0:0:0:
64,192,262630,1,0,0:0:0:0:
320,192,262760,1,0,0:0:0:0:
64,192,262891,1,0,0:0:0:0:
192,192,263021,1,0,0:0:0:0:
64,192,263152,1,0,0:0:0:0:
320,192,263282,1,0,0:0:0:0:
64,192,263413,1,0,0:0:0:0:
448,192,263543,1,0,0:0:0:0:
64,192,263673,1,0,0:0:0:0:
320,192,263804,1,0,0:0:0:0:
64,192,263934,1,0,0:0:0:0:
192,192,264065,1,0,0:0:0:0:
64,192,264195,1,0,0:0:0:0:
320,192,264326,1,0,0:0:0:0:
64,192,264456,1,0,0:0:0:0:
448,192,264586,1,0,0:0:0:0:
64,192,264717,1,0,0:0:0:0:
320,192,264847,1,0,0:0:0:0:
64,192,264978,1,0,0:0:0:0:
192,192,265108,1,0,0:0:0:0:
64,192,265239,1,0,0:0:0:0:
320,192,265369,1,0,0:0:0:0:
64,192,265499,1,0,0:0:0:0:
448,192,265630,1,0,0:0:0:0:
64,192,265760,1,0,0:0:0:0:
320,192,265891,1,0,0:0:0:0:
64,192,266021,1,0,0:0:0:0:
192,192,266152,1,0,0:0:0:0:
64,192,266282,1,0,0:0:0:0:
320,192,266413,1,0,0:0:0:0:
64,192,266543,1,0,0:0:0:0:
448,192,266673,1,0,0:0:0:0:
64,192,266804,1,0,0:0:0:0:
320,192,266934,1,0,0:0:0:0:
64,192,267065,1,0,0:0:0:0:
192,192,267195,1,0,0:0:0:0:
448,192,268239,1,0,0:0:0:0:
320,192,268239,1,0,0:0:0:0:
64,192,268239,1,0,0:0:0:0:
192,192,268369,1,0,0:0:0:0:
64,192,268499,1,0,0:0:0:0:
192,192,268499,1,0,0:0:0:0:
320,192,268499,1,0,0:0:0:0:
448,192,268630,1,0,0:0:0:0:
448,192,268760,1,0,0:0:0:0:
320,192,268760,1,0,0:0:0:0:
64,192,268760,1,0,0:0:0:0:
192,192,268891,1,0,0:0:0:0:
64,192,269021,1,0,0:0:0:0:
192,192,269021,1,0,0:0:0:0:
448,192,269021,1,0,0:0:0:0:
320,192,269152,1,0,0:0:0:0:
448,192,269282,1,0,0:0:0:0:
320,192,269282,1,0,0:0:0:0:
64,192,269282,1,0,0:0:0:0:
192,192,269412,1,0,0:0:0:0:
64,192,269543,1,0,0:0:0:0:
192,192,269543,1,0,0:0:0:0:
320,192,269543,1,0,0:0:0:0:
448,192,269673,1,0,0:0:0:0:
448,192,269804,1,0,0:0:0:0:
320,192,269804,1,0,0:0:0:0:
64,192,269804,1,0,0:0:0:0:
192,192,269934,1,0,0:0:0:0:
64,192,270065,1,0,0:0:0:0:
192,192,270065,1,0,0:0:0:0:
320,192,270065,1,0,0:0:0:0:
448,192,270195,1,0,0:0:0:0:
448,192,270325,1,0,0:0:0:0:
320,192,270325,1,0,0:0:0:0:
64,192,270325,1,0,0:0:0:0:
192,192,270456,1,0,0:0:0:0:
64,192,270586,1,0,0:0:0:0:
192,192,270586,1,0,0:0:0:0:
448,192,270586,1,0,0:0:0:0:
320,192,270717,1,0,0:0:0:0:
448,192,270847,1,0,0:0:0:0:
320,192,270847,1,0,0:0:0:0:
192,192,270847,1,0,0:0:0:0:
64,192,270978,1,0,0:0:0:0:
64,192,271108,1,0,0:0:0:0:
192,192,271108,1,0,0:0:0:0:
448,192,271108,1,0,0:0:0:0:
320,192,271239,1,0,0:0:0:0:
448,192,271369,1,0,0:0:0:0:
320,192,271369,1,0,0:0:0:0:
192,192,271369,1,0,0:0:0:0:
64,192,271499,1,0,0:0:0:0:
64,192,271630,1,0,0:0:0:0:
192,192,271630,1,0,0:0:0:0:
448,192,271630,1,0,0:0:0:0:
320,192,271760,1,0,0:0:0:0:
448,192,271891,1,0,0:0:0:0:
320,192,271891,1,0,0:0:0:0:
192,192,271891,1,0,0:0:0:0:
64,192,272021,1,0,0:0:0:0:
64,192,272152,1,0,0:0:0:0:
192,192,272152,1,0,0:0:0:0:
448,192,272152,1,0,0:0:0:0:
320,192,272282,1,0,0:0:0:0:
448,192,272412,1,0,0:0:0:0:
320,192,272412,1,0,0:0:0:0:
64,192,272412,1,0,0:0:0:0:
192,192,272543,1,0,0:0:0:0:
64,192,272673,1,0,0:0:0:0:
192,192,272673,1,0,0:0:0:0:
448,192,272673,1,0,0:0:0:0:
320,192,272804,1,0,0:0:0:0:
64,192,272934,1,0,0:0:0:0:
192,192,272934,1,0,0:0:0:0:
320,192,272934,1,0,0:0:0:0:
448,192,273065,1,0,0:0:0:0:
448,192,273195,1,0,0:0:0:0:
320,192,273195,1,0,0:0:0:0:
64,192,273195,1,0,0:0:0:0:
192,192,273325,1,0,0:0:0:0:
448,192,273456,1,0,0:0:0:0:
320,192,273456,1,0,0:0:0:0:
192,192,273456,1,0,0:0:0:0:
64,192,273586,1,0,0:0:0:0:
64,192,273717,1,0,0:0:0:0:
320,192,273717,1,0,0:0:0:0:
448,192,273717,1,0,0:0:0:0:
192,192,273847,1,0,0:0:0:0:
64,192,273978,1,0,0:0:0:0:
192,192,273978,1,0,0:0:0:0:
320,192,273978,1,0,0:0:0:0:
448,192,274108,1,0,0:0:0:0:
448,192,274239,1,0,0:0:0:0:
320,192,274239,1,0,0:0:0:0:
192,192,274239,1,0,0:0:0:0:
64,192,274369,1,0,0:0:0:0:
64,192,274499,1,0,0:0:0:0:
192,192,274499,1,0,0:0:0:0:
448,192,274499,1,0,0:0:0:0:
320,192,274630,1,0,0:0:0:0:
448,192,274760,1,0,0:0:0:0:
320,192,274760,1,0,0:0:0:0:
192,192,274760,1,0,0:0:0:0:
64,192,274891,1,0,0:0:0:0:
64,192,275021,1,0,0:0:0:0:
192,192,275021,1,0,0:0:0:0:
448,192,275021,1,0,0:0:0:0:
320,192,275152,1,0,0:0:0:0:
448,192,275282,1,0,0:0:0:0:
320,192,275282,1,0,0:0:0:0:
192,192,275282,1,0,0:0:0:0:
64,192,275412,1,0,0:0:0:0:
64,192,275543,1,0,0:0:0:0:
192,192,275543,1,0,0:0:0:0:
448,192,275543,1,0,0:0:0:0:
320,192,275673,1,0,0:0:0:0:
448,192,275804,1,0,0:0:0:0:
320,192,275804,1,0,0:0:0:0:
192,192,275804,1,0,0:0:0:0:
64,192,275934,1,0,0:0:0:0:
64,192,276065,1,0,0:0:0:0:
192,192,276065,1,0,0:0:0:0:
448,192,276065,1,0,0:0:0:0:
320,192,276195,1,0,0:0:0:0:
448,192,276325,1,0,0:0:0:0:
320,192,276325,1,0,0:0:0:0:
64,192,276325,1,0,0:0:0:0:
192,192,276456,1,0,0:0:0:0:
64,192,276586,1,0,0:0:0:0:
192,192,276586,1,0,0:0:0:0:
320,192,276586,1,0,0:0:0:0:
448,192,276717,1,0,0:0:0:0:
64,192,276847,1,0,0:0:0:0:
192,192,276847,1,0,0:0:0:0:
448,192,276847,1,0,0:0:0:0:
320,192,276978,1,0,0:0:0:0:
448,192,277108,1,0,0:0:0:0:
320,192,277108,1,0,0:0:0:0:
192,192,277108,1,0,0:0:0:0:
64,192,277239,1,0,0:0:0:0:
64,192,277369,1,0,0:0:0:0:
192,192,277369,1,0,0:0:0:0:
448,192,277369,1,0,0:0:0:0:
320,192,277499,1,0,0:0:0:0:
64,192,277630,1,0,0:0:0:0:
192,192,277630,1,0,0:0:0:0:
320,192,277630,1,0,0:0:0:0:
448,192,277760,1,0,0:0:0:0:
64,192,277891,1,0,0:0:0:0:
192,192,277891,1,0,0:0:0:0:
448,192,277891,1,0,0:0:0:0:
320,192,278021,1,0,0:0:0:0:
448,192,278152,1,0,0:0:0:0:
320,192,278152,1,0,0:0:0:0:
192,192,278152,1,0,0:0:0:0:
64,192,278282,1,0,0:0:0:0:
64,192,278412,1,0,0:0:0:0:
192,192,278412,1,0,0:0:0:0:
448,192,278412,1,0,0:0:0:0:
320,192,278543,1,0,0:0:0:0:
448,192,278673,1,0,0:0:0:0:
320,192,278673,1,0,0:0:0:0:
192,192,278673,1,0,0:0:0:0:
64,192,278804,1,0,0:0:0:0:
64,192,278934,1,0,0:0:0:0:
192,192,278934,1,0,0:0:0:0:
448,192,278934,1,0,0:0:0:0:
320,192,279065,1,0,0:0:0:0:
64,192,279195,1,0,0:0:0:0:
192,192,279195,1,0,0:0:0:0:
448,192,279195,1,0,0:0:0:0:
320,192,279325,1,0,0:0:0:0:
448,192,279456,1,0,0:0:0:0:
320,192,279456,1,0,0:0:0:0:
192,192,279456,1,0,0:0:0:0:
64,192,279586,1,0,0:0:0:0:
64,192,279717,1,0,0:0:0:0:
192,192,279717,1,0,0:0:0:0:
320,192,279717,1,0,0:0:0:0:
448,192,279847,1,0,0:0:0:0:
192,192,279978,1,0,0:0:0:0:
320,192,279978,1,0,0:0:0:0:
448,192,279978,1,0,0:0:0:0:
64,192,280108,1,0,0:0:0:0:
64,192,280239,1,0,0:0:0:0:
192,192,280239,1,0,0:0:0:0:
448,192,280239,1,0,0:0:0:0:
320,192,280369,1,0,0:0:0:0:
448,192,280499,1,0,0:0:0:0:
320,192,280499,1,0,0:0:0:0:
192,192,280499,1,0,0:0:0:0:
64,192,280630,1,0,0:0:0:0:
448,192,280760,1,0,0:0:0:0:
320,192,280760,1,0,0:0:0:0:
192,192,280760,1,0,0:0:0:0:
64,192,280891,1,0,0:0:0:0:
64,192,281021,1,0,0:0:0:0:
192,192,281021,1,0,0:0:0:0:
320,192,281021,1,0,0:0:0:0:
448,192,281152,1,0,0:0:0:0:
64,192,281282,1,0,0:0:0:0:
192,192,281282,1,0,0:0:0:0:
320,192,281282,1,0,0:0:0:0:
448,192,281412,1,0,0:0:0:0:
448,192,281543,1,0,0:0:0:0:
320,192,281543,1,0,0:0:0:0:
64,192,281543,1,0,0:0:0:0:
192,192,281673,1,0,0:0:0:0:
448,192,281804,1,0,0:0:0:0:
320,192,281804,1,0,0:0:0:0:
64,192,281804,1,0,0:0:0:0:
192,192,281934,1,0,0:0:0:0:
64,192,282065,1,0,0:0:0:0:
192,192,282065,1,0,0:0:0:0:
448,192,282065,1,0,0:0:0:0:
320,192,282195,1,0,0:0:0:0:
64,192,282325,1,0,0:0:0:0:
192,192,282325,1,0,0:0:0:0:
448,192,282325,1,0,0:0:0:0:
320,192,282456,1,0,0:0:0:0:
448,192,282586,1,0,0:0:0:0:
64,192,282586,1,0,0:0:0:0:
192,192,282586,1,0,0:0:0:0:
320,192,282717,1,0,0:0:0:0:
448,192,282847,1,0,0:0:0:0:
192,192,282847,1,0,0:0:0:0:
320,192,282847,1,0,0:0:0:0:
64,192,282978,1,0,0:0:0:0:
64,192,283108,1,0,0:0:0:0:
192,192,283108,1,0,0:0:0:0:
320,192,283108,1,0,0:0:0:0:
448,192,283239,1,0,0:0:0:0:
448,192,283369,1,0,0:0:0:0:
320,192,283369,1,0,0:0:0:0:
64,192,283369,1,0,0:0:0:0:
192,192,283499,1,0,0:0:0:0:
64,192,283630,1,0,0:0:0:0:
192,192,283630,1,0,0:0:0:0:
320,192,283630,1,0,0:0:0:0:
448,192,283760,1,0,0:0:0:0:
448,192,283891,1,0,0:0:0:0:
320,192,283891,1,0,0:0:0:0:
64,192,283891,1,0,0:0:0:0:
192,192,284021,1,0,0:0:0:0:
64,192,284152,1,0,0:0:0:0:
192,192,284152,1,0,0:0:0:0:
320,192,284152,1,0,0:0:0:0:
448,192,284282,1,0,0:0:0:0:
192,192,284412,1,0,0:0:0:0:
448,192,284412,1,0,0:0:0:0:
64,192,284412,1,0,0:0:0:0:
320,192,284543,1,0,0:0:0:0:
192,192,284673,1,0,0:0:0:0:
448,192,284934,1,0,0:0:0:0:
320,192,284934,1,0,0:0:0:0:
64,192,284934,1,0,0:0:0:0:
64,192,285195,1,0,0:0:0:0:
192,192,285195,1,0,0:0:0:0:
320,192,285195,1,0,0:0:0:0:
64,192,285325,1,0,0:0:0:0:
192,192,285325,1,0,0:0:0:0:
448,192,285325,1,0,0:0:0:0:
192,192,285586,1,0,0:0:0:0:
64,192,285717,1,0,0:0:0:0:
192,192,285847,1,0,0:0:0:0:
320,192,285978,1,0,0:0:0:0:
448,192,285978,1,0,0:0:0:0:
64,192,285978,1,0,0:0:0:0:
448,192,286239,1,0,0:0:0:0:
320,192,286239,1,0,0:0:0:0:
192,192,286239,1,0,0:0:0:0:
64,192,286499,1,0,0:0:0:0:
192,192,286499,1,0,0:0:0:0:
448,192,286499,1,0,0:0:0:0:
448,192,286760,1,0,0:0:0:0:
320,192,286760,1,0,0:0:0:0:
64,192,286760,1,0,0:0:0:0:
64,192,287021,1,0,0:0:0:0:
192,192,287021,1,0,0:0:0:0:
448,192,287021,1,0,0:0:0:0:
448,192,287282,1,0,0:0:0:0:
320,192,287282,1,0,0:0:0:0:
192,192,287282,1,0,0:0:0:0:
64,192,287543,1,0,0:0:0:0:
192,192,287543,1,0,0:0:0:0:
448,192,287543,1,0,0:0:0:0:
448,192,287673,1,0,0:0:0:0:
320,192,287673,1,0,0:0:0:0:
192,192,287673,1,0,0:0:0:0:
64,192,287804,1,0,0:0:0:0:
192,192,287804,1,0,0:0:0:0:
320,192,287804,1,0,0:0:0:0:
448,192,287934,1,0,0:0:0:0:
320,192,287934,1,0,0:0:0:0:
64,192,287934,1,0,0:0:0:0:
64,192,288065,1,0,0:0:0:0:
192,192,288065,1,0,0:0:0:0:
448,192,288065,1,0,0:0:0:0:
448,192,288325,1,0,0:0:0:0:
320,192,288325,1,0,0:0:0:0:
64,192,288325,1,0,0:0:0:0:
64,192,288586,1,0,0:0:0:0:
192,192,288586,1,0,0:0:0:0:
320,192,288586,1,0,0:0:0:0:
448,192,288717,1,0,0:0:0:0:
320,192,288717,1,0,0:0:0:0:
64,192,288717,1,0,0:0:0:0:
64,192,288847,1,0,0:0:0:0:
192,192,288847,1,0,0:0:0:0:
448,192,288847,1,0,0:0:0:0:
448,192,288912,1,0,0:0:0:0:
320,192,288912,1,0,0:0:0:0:
64,192,288912,1,0,0:0:0:0:
64,192,289108,1,0,0:0:0:0:
192,192,289108,1,0,0:0:0:0:
448,192,289108,1,0,0:0:0:0:
448,192,289369,1,0,0:0:0:0:
320,192,289369,1,0,0:0:0:0:
192,192,289369,1,0,0:0:0:0:
64,192,289499,1,0,0:0:0:0:
192,192,289630,1,0,0:0:0:0:
320,192,289760,1,0,0:0:0:0:
448,192,289760,1,0,0:0:0:0:
64,192,289760,1,0,0:0:0:0:
64,192,289891,1,0,0:0:0:0:
192,192,289891,1,0,0:0:0:0:
320,192,289891,1,0,0:0:0:0:
448,192,290021,1,0,0:0:0:0:
320,192,290021,1,0,0:0:0:0:
192,192,290021,1,0,0:0:0:0:
64,192,290152,1,0,0:0:0:0:
192,192,290152,1,0,0:0:0:0:
448,192,290152,1,0,0:0:0:0:
448,192,290412,1,0,0:0:0:0:
320,192,290412,1,0,0:0:0:0:
64,192,290412,1,0,0:0:0:0:
64,192,290673,1,0,0:0:0:0:
192,192,290673,1,0,0:0:0:0:
320,192,290673,1,0,0:0:0:0:
448,192,290934,1,0,0:0:0:0:
320,192,290934,1,0,0:0:0:0:
192,192,290934,1,0,0:0:0:0:
64,192,291195,1,0,0:0:0:0:
320,192,291195,1,0,0:0:0:0:
448,192,291195,1,0,0:0:0:0:
448,192,291456,1,0,0:0:0:0:
320,192,291456,1,0,0:0:0:0:
192,192,291456,1,0,0:0:0:0:
448,192,291717,1,0,0:0:0:0:
320,192,291717,1,0,0:0:0:0:
64,192,291717,1,0,0:0:0:0:
64,192,291978,1,0,0:0:0:0:
192,192,291978,1,0,0:0:0:0:
448,192,291978,1,0,0:0:0:0:
448,192,292239,1,0,0:0:0:0:
320,192,292239,1,0,0:0:0:0:
192,192,292239,1,0,0:0:0:0:
448,192,292369,1,0,0:0:0:0:
320,192,292369,1,0,0:0:0:0:
64,192,292369,1,0,0:0:0:0:
192,192,292499,1,0,0:0:0:0:
320,192,292499,1,0,0:0:0:0:
448,192,292499,1,0,0:0:0:0:
320,192,292630,1,0,0:0:0:0:
64,192,292630,1,0,0:0:0:0:
192,192,292630,1,0,0:0:0:0:
192,192,292760,1,0,0:0:0:0:
448,192,292760,1,0,0:0:0:0:
64,192,292760,1,0,0:0:0:0:
448,192,292891,1,0,0:0:0:0:
320,192,292891,1,0,0:0:0:0:
64,192,292891,1,0,0:0:0:0:
192,192,293021,1,0,0:0:0:0:
320,192,293021,1,0,0:0:0:0:
64,192,293021,1,0,0:0:0:0:
448,192,293152,1,0,0:0:0:0:
320,192,293152,1,0,0:0:0:0:
192,192,293152,1,0,0:0:0:0:
64,192,293282,1,0,0:0:0:0:
192,192,293282,1,0,0:0:0:0:
448,192,293282,1,0,0:0:0:0:
448,192,293543,1,0,0:0:0:0:
320,192,293543,1,0,0:0:0:0:
64,192,293543,1,0,0:0:0:0:
192,192,293804,1,0,0:0:0:0:
64,192,293804,1,0,0:0:0:0:
448,192,293804,1,0,0:0:0:0:
448,192,294065,1,0,0:0:0:0:
320,192,294065,1,0,0:0:0:0:
192,192,294065,1,0,0:0:0:0:
64,192,294325,1,0,0:0:0:0:
192,192,294325,1,0,0:0:0:0:
448,192,294325,1,0,0:0:0:0:
448,192,294586,1,0,0:0:0:0:
320,192,294586,1,0,0:0:0:0:
64,192,294586,1,0,0:0:0:0:
64,192,294847,1,0,0:0:0:0:
192,192,294847,1,0,0:0:0:0:
320,192,294847,1,0,0:0:0:0:
448,192,295108,1,0,0:0:0:0:
320,192,295108,1,0,0:0:0:0:
64,192,295108,1,0,0:0:0:0:
64,192,295369,1,0,0:0:0:0:
192,192,295369,1,0,0:0:0:0:
320,192,295369,1,0,0:0:0:0:
448,192,295630,1,0,0:0:0:0:
320,192,295630,1,0,0:0:0:0:
192,192,295630,1,0,0:0:0:0:
64,192,295891,1,0,0:0:0:0:
192,192,295891,1,0,0:0:0:0:
320,192,295891,1,0,0:0:0:0:
448,192,296152,1,0,0:0:0:0:
320,192,296152,1,0,0:0:0:0:
192,192,296152,1,0,0:0:0:0:
64,192,296412,1,0,0:0:0:0:
192,192,296412,1,0,0:0:0:0:
448,192,296412,1,0,0:0:0:0:
448,192,296673,1,0,0:0:0:0:
320,192,296673,1,0,0:0:0:0:
64,192,296673,1,0,0:0:0:0:
64,192,296804,1,0,0:0:0:0:
192,192,296804,1,0,0:0:0:0:
320,192,296804,1,0,0:0:0:0:
64,192,297065,1,0,0:0:0:0:
192,192,297195,1,0,0:0:0:0:
320,192,297325,1,0,0:0:0:0:
192,192,297456,1,0,0:0:0:0:
64,192,297456,1,0,0:0:0:0:
448,192,297521,1,0,0:0:0:0:
320,192,297521,1,0,0:0:0:0:
192,192,297586,1,0,0:0:0:0:
64,192,297586,1,0,0:0:0:0:
320,192,297652,1,0,0:0:0:0:
448,192,297652,1,0,0:0:0:0:
64,192,297717,128,0,297978:0:0:0:0:
192,192,297717,128,0,297978:0:0:0:0:
320,192,297978,1,0,0:0:0:0:
448,192,297978,1,0,0:0:0:0:
192,192,298043,1,0,0:0:0:0:
64,192,298043,1,0,0:0:0:0:
320,192,298108,1,0,0:0:0:0:
448,192,298108,1,0,0:0:0:0:
192,192,298173,1,0,0:0:0:0:
64,192,298173,1,0,0:0:0:0:
320,192,298238,128,0,298499:0:0:0:0:
448,192,298238,128,0,298499:0:0:0:0:
192,192,298499,1,0,0:0:0:0:
64,192,298499,1,0,0:0:0:0:
448,192,298760,1,0,0:0:0:0:
320,192,298760,1,0,0:0:0:0:
64,192,298760,1,0,0:0:0:0:
64,192,298891,1,0,0:0:0:0:
192,192,298891,1,0,0:0:0:0:
320,192,298891,1,0,0:0:0:0:
448,192,299152,1,0,0:0:0:0:
320,192,299282,1,0,0:0:0:0:
192,192,299412,1,0,0:0:0:0:
64,192,299543,1,0,0:0:0:0:
192,192,299543,1,0,0:0:0:0:
320,192,299543,1,0,0:0:0:0:
448,192,299804,1,0,0:0:0:0:
320,192,299804,1,0,0:0:0:0:
192,192,299804,1,0,0:0:0:0:
64,192,300065,1,0,0:0:0:0:
192,192,300065,1,0,0:0:0:0:
448,192,300065,1,0,0:0:0:0:
448,192,300325,1,0,0:0:0:0:
320,192,300325,1,0,0:0:0:0:
192,192,300325,1,0,0:0:0:0:
64,192,300586,1,0,0:0:0:0:
192,192,300586,1,0,0:0:0:0:
448,192,300586,1,0,0:0:0:0:
320,192,300717,1,0,0:0:0:0:
448,192,300847,1,0,0:0:0:0:
320,192,300847,1,0,0:0:0:0:
64,192,300847,1,0,0:0:0:0:
192,192,300978,1,0,0:0:0:0:
64,192,301108,1,0,0:0:0:0:
192,192,301108,1,0,0:0:0:0:
320,192,301108,1,0,0:0:0:0:
448,192,301238,1,0,0:0:0:0:
320,192,301238,1,0,0:0:0:0:
192,192,301238,1,0,0:0:0:0:
448,192,301369,1,0,0:0:0:0:
64,192,301369,1,0,0:0:0:0:
192,192,301369,1,0,0:0:0:0:
320,192,301434,1,0,0:0:0:0:
192,192,301434,1,0,0:0:0:0:
448,192,301434,1,0,0:0:0:0:
64,192,301434,128,0,301630:0:0:0:0:
192,192,301630,1,0,0:0:0:0:
320,192,301630,1,0,0:0:0:0:
448,192,301630,1,0,0:0:0:0:
