osu file format v14

[General]
AudioFilename: audio.ogg
AudioLeadIn: 0
PreviewTime: 137547
Countdown: 0
SampleSet: Soft
StackLeniency: 0.7
Mode: 3
LetterboxInBreaks: 0
SpecialStyle: 0
WidescreenStoryboard: 0

[Editor]
DistanceSpacing: 1
BeatDivisor: 4
GridSize: 8
TimelineZoom: 2.1

[Metadata]
Title:DEAD END
TitleUnicode:DEAD END
Artist:Helblinde
ArtistUnicode:Helblinde
Creator:keksikosu
Version:Insane
Source:未来日記
Tags:Mirai Nikki gasai yuno 我妻 由乃 yandere electronic japanese anime kuusou mesorogiwi future diary remix techno hardcore 妖精帝國 Yousei Teikoku 空想メソロギヰ frenchcore j-core jcore female vocal chordjack chordjacks chord chords jack jacks cj Angki
BeatmapID:4410111
BeatmapSetID:2102159

[Difficulty]
HPDrainRate:8
CircleSize:4
OverallDifficulty:8
ApproachRate:5
SliderMultiplier:1.4
SliderTickRate:1

[Events]
//Background and Video events
0,0,"kuusou.jpg",0,0
//Break Periods
//Storyboard Layer 0 (Background)
//Storyboard Layer 1 (Fail)
//Storyboard Layer 2 (Pass)
//Storyboard Layer 3 (Foreground)
//Storyboard Layer 4 (Overlay)
//Storyboard Sound Samples

[TimingPoints]
15199,600,4,2,1,60,1,0
15199,-43.4782608695652,4,2,1,60,0,0
27199,260.869565217391,4,2,1,60,1,0
32970,260.869565217391,4,2,1,60,1,0
41546,260.869565217391,4,2,1,60,1,0
98415,260.869565217391,4,2,1,60,1,0
133371,260.869565217391,4,2,1,60,1,0
140156,260.869565217391,4,2,1,60,1,1
155808,-100,4,2,1,60,0,0
156851,-100,4,2,1,60,0,1
165199,-100,4,2,1,60,0,0
174068,260.869565217391,4,2,1,60,1,0
226241,-100,4,2,1,60,0,1
259633,-100,4,2,1,60,0,0

[HitObjects]
64,192,32970,1,8,0:0:0:0:
192,192,32970,1,0,0:0:0:0:
320,192,33100,1,0,0:0:0:0:
192,192,33230,1,8,0:0:0:0:
448,192,33230,1,0,0:0:0:0:
320,192,33361,1,0,0:0:0:0:
64,192,33491,1,8,0:0:0:0:
192,192,33491,1,0,0:0:0:0:
320,192,33622,1,0,0:0:0:0:
192,192,33752,1,8,0:0:0:0:
448,192,33752,1,0,0:0:0:0:
320,192,33883,1,0,0:0:0:0:
64,192,34013,1,8,0:0:0:0:
448,192,34013,1,0,0:0:0:0:
192,192,34143,1,0,0:0:0:0:
320,192,34274,1,8,0:0:0:0:
448,192,34274,1,0,0:0:0:0:
192,192,34404,1,0,0:0:0:0:
64,192,34535,1,8,0:0:0:0:
320,192,34535,1,0,0:0:0:0:
192,192,34665,1,0,0:0:0:0:
320,192,34796,1,8,0:0:0:0:
448,192,34796,1,0,0:0:0:0:
192,192,34926,1,0,0:0:0:0:
64,192,35056,1,8,0:0:0:0:
320,192,35056,1,0,0:0:0:0:
448,192,35187,1,0,0:0:0:0:
64,192,35317,1,8,0:0:0:0:
192,192,35317,1,0,0:0:0:0:
448,192,35448,1,0,0:0:0:0:
192,192,35578,1,8,0:0:0:0:
320,192,35578,1,0,0:0:0:0:
448,192,35709,1,0,0:0:0:0:
64,192,35839,1,8,0:0:0:0:
192,192,35839,1,0,0:0:0:0:
448,192,35970,1,0,0:0:0:0:
192,192,36100,1,8,0:0:0:0:
320,192,36100,1,0,0:0:0:0:
64,192,36230,1,0,0:0:0:0:
320,192,36361,1,8,0:0:0:0:
448,192,36361,1,0,0:0:0:0:
64,192,36491,1,0,0:0:0:0:
192,192,36622,1,8,0:0:0:0:
320,192,36622,1,0,0:0:0:0:
64,192,36752,1,0,0:0:0:0:
192,192,36883,1,8,0:0:0:0:
448,192,36883,1,0,0:0:0:0:
64,192,37013,1,0,0:0:0:0:
320,192,37143,1,8,0:0:0:0:
448,192,37143,1,0,0:0:0:0:
320,192,37274,1,8,0:0:0:0:
64,192,37404,1,8,0:0:0:0:
192,192,37404,1,0,0:0:0:0:
192,192,37535,1,8,0:0:0:0:
64,192,37665,1,8,0:0:0:0:
448,192,37665,1,0,0:0:0:0:
448,192,37796,1,8,0:0:0:0:
64,192,37926,1,8,0:0:0:0:
192,192,37926,1,0,0:0:0:0:
64,192,38056,1,8,0:0:0:0:
320,192,38187,1,8,0:0:0:0:
448,192,38187,1,0,0:0:0:0:
64,192,38317,1,8,0:0:0:0:
320,192,38317,1,0,0:0:0:0:
192,192,38448,1,8,0:0:0:0:
448,192,38448,1,0,0:0:0:0:
64,192,38578,1,8,0:0:0:0:
192,192,38578,1,0,0:0:0:0:
320,192,38709,1,8,0:0:0:0:
448,192,38709,1,0,0:0:0:0:
64,192,38839,1,8,0:0:0:0:
320,192,38839,1,0,0:0:0:0:
192,192,38969,1,8,0:0:0:0:
448,192,38969,1,0,0:0:0:0:
64,192,39100,1,8,0:0:0:0:
192,192,39100,1,0,0:0:0:0:
448,192,39230,1,8,0:0:0:0:
64,192,39296,1,8,0:0:0:0:
320,192,39361,1,8,0:0:0:0:
192,192,39426,1,8,0:0:0:0:
448,192,39491,1,8,0:0:0:0:
64,192,39556,1,8,0:0:0:0:
320,192,39622,1,8,0:0:0:0:
192,192,39687,1,8,0:0:0:0:
448,192,39752,1,8,0:0:0:0:
64,192,39817,1,8,0:0:0:0:
320,192,39883,1,8,0:0:0:0:
448,192,39883,1,0,0:0:0:0:
64,192,39948,1,8,0:0:0:0:
192,192,39948,1,0,0:0:0:0:
320,192,40013,1,8,0:0:0:0:
448,192,40013,1,0,0:0:0:0:
64,192,40078,1,8,0:0:0:0:
192,192,40078,1,0,0:0:0:0:
320,192,40143,1,8,0:0:0:0:
448,192,40143,1,0,0:0:0:0:
64,192,40209,1,8,0:0:0:0:
192,192,40209,1,0,0:0:0:0:
320,192,40274,1,8,0:0:0:0:
448,192,40274,1,0,0:0:0:0:
64,192,41546,128,2,41611:0:0:0:0:
192,192,41546,128,4,41611:0:1:0:0:
448,192,41546,128,0,41611:0:0:0:0:
320,192,41676,1,0,0:0:0:0:
64,192,41806,1,2,0:0:0:0:
448,192,41806,1,0,0:0:0:0:
192,192,41937,1,0,0:0:0:0:
320,192,42067,1,2,0:0:0:0:
448,192,42067,1,0,0:0:0:0:
64,192,42198,1,0,0:0:0:0:
192,192,42328,1,2,0:0:0:0:
448,192,42328,1,0,0:0:0:0:
320,192,42459,1,0,0:0:0:0:
64,192,42589,128,2,42654:0:0:0:0:
192,192,42589,128,0,42654:0:0:0:0:
448,192,42719,1,0,0:0:0:0:
192,192,42850,1,2,0:0:0:0:
320,192,42850,1,0,0:0:0:0:
64,192,42980,1,0,0:0:0:0:
320,192,43111,1,2,0:0:0:0:
448,192,43111,1,0,0:0:0:0:
192,192,43241,1,0,0:0:0:0:
64,192,43372,1,2,0:0:0:0:
448,192,43372,1,0,0:0:0:0:
320,192,43502,1,0,0:0:0:0:
192,192,43632,128,2,43698:0:0:0:0:
448,192,43632,128,0,43698:0:0:0:0:
320,192,43763,1,0,0:0:0:0:
64,192,43893,1,2,0:0:0:0:
192,192,43893,1,0,0:0:0:0:
448,192,44024,1,0,0:0:0:0:
64,192,44154,1,2,0:0:0:0:
320,192,44154,1,0,0:0:0:0:
192,192,44285,1,0,0:0:0:0:
320,192,44415,1,2,0:0:0:0:
448,192,44415,1,0,0:0:0:0:
64,192,44546,1,0,0:0:0:0:
320,192,44676,128,2,44741:0:1:0:0:
448,192,44676,128,0,44741:0:0:0:0:
64,192,44806,1,8,0:1:0:0:
192,192,44806,1,0,0:0:0:0:
320,192,44937,128,2,45002:0:1:0:0:
448,192,44937,128,0,45002:0:0:0:0:
64,192,45067,1,8,0:1:0:0:
192,192,45067,1,0,0:0:0:0:
64,192,45198,1,8,0:1:0:0:
192,192,45198,1,0,0:0:0:0:
192,192,45328,1,2,0:1:0:0:
448,192,45328,1,0,0:0:0:0:
64,192,45459,1,2,0:0:0:0:
320,192,45459,1,0,0:0:0:0:
64,192,45589,1,2,0:0:0:0:
320,192,45589,1,0,0:0:0:0:
320,192,45719,128,2,45785:0:0:0:0:
448,192,45719,128,0,45785:0:0:0:0:
192,192,45850,1,0,0:0:0:0:
64,192,45980,1,2,0:0:0:0:
448,192,45980,1,0,0:0:0:0:
320,192,46111,1,0,0:0:0:0:
64,192,46241,1,2,0:0:0:0:
192,192,46241,1,0,0:0:0:0:
320,192,46372,1,0,0:0:0:0:
64,192,46502,1,2,0:0:0:0:
448,192,46502,1,0,0:0:0:0:
192,192,46632,1,0,0:0:0:0:
64,192,46763,128,2,46828:0:0:0:0:
320,192,46763,128,0,46828:0:0:0:0:
192,192,46893,1,0,0:0:0:0:
320,192,47024,1,2,0:0:0:0:
448,192,47024,1,0,0:0:0:0:
64,192,47154,1,0,0:0:0:0:
192,192,47285,1,2,0:0:0:0:
320,192,47285,1,0,0:0:0:0:
448,192,47415,1,0,0:0:0:0:
64,192,47545,1,2,0:0:0:0:
192,192,47545,1,0,0:0:0:0:
320,192,47676,1,0,0:0:0:0:
64,192,47806,128,2,47872:0:0:0:0:
448,192,47806,128,0,47872:0:0:0:0:
64,192,47937,1,0,0:0:0:0:
192,192,48067,1,2,0:0:0:0:
320,192,48067,1,0,0:0:0:0:
320,192,48198,1,0,0:0:0:0:
64,192,48328,1,2,0:0:0:0:
192,192,48328,1,0,0:0:0:0:
192,192,48459,1,0,0:0:0:0:
320,192,48589,1,2,0:0:0:0:
448,192,48589,1,0,0:0:0:0:
448,192,48719,1,0,0:0:0:0:
64,192,48850,128,2,48915:0:0:0:0:
320,192,48850,128,8,48915:0:1:0:0:
64,192,48980,128,2,49045:0:0:0:0:
320,192,48980,128,8,49045:0:1:0:0:
192,192,49111,1,2,0:0:0:0:
448,192,49111,1,8,0:1:0:0:
192,192,49241,1,2,0:0:0:0:
448,192,49241,1,8,0:1:0:0:
64,192,49372,128,2,49453:0:0:0:0:
192,192,49372,128,8,49453:0:1:0:0:
64,192,49502,128,2,49584:0:0:0:0:
192,192,49502,128,8,49584:0:1:0:0:
320,192,49632,128,2,49714:0:0:0:0:
448,192,49632,128,8,49714:0:1:0:0:
320,192,49763,128,2,49844:0:0:0:0:
448,192,49763,128,8,49844:0:1:0:0:
64,192,49893,128,2,50024:0:0:0:0:
192,192,49893,128,0,50024:0:0:0:0:
448,192,49893,1,0,0:0:0:0:
320,192,50024,1,0,0:0:0:0:
64,192,50154,128,2,50285:0:0:0:0:
192,192,50154,128,0,50285:0:0:0:0:
448,192,50154,1,0,0:0:0:0:
320,192,50285,1,0,0:0:0:0:
64,192,50415,128,2,50545:0:0:0:0:
192,192,50415,128,0,50545:0:0:0:0:
448,192,50415,1,0,0:0:0:0:
320,192,50545,1,0,0:0:0:0:
64,192,50676,128,2,50806:0:0:0:0:
192,192,50676,128,0,50806:0:0:0:0:
448,192,50676,1,0,0:0:0:0:
320,192,50806,1,0,0:0:0:0:
64,192,50937,128,2,51002:0:0:0:0:
448,192,50937,128,0,51002:0:0:0:0:
192,192,51067,1,0,0:0:0:0:
64,192,51198,1,2,0:0:0:0:
320,192,51198,1,0,0:0:0:0:
448,192,51328,1,0,0:0:0:0:
64,192,51459,1,2,0:0:0:0:
192,192,51459,1,0,0:0:0:0:
320,192,51589,1,0,0:0:0:0:
192,192,51719,1,2,0:0:0:0:
448,192,51719,1,0,0:0:0:0:
64,192,51850,1,0,0:0:0:0:
320,192,51980,128,2,52045:0:0:0:0:
448,192,51980,128,0,52045:0:0:0:0:
192,192,52111,1,0,0:0:0:0:
64,192,52241,1,2,0:0:0:0:
448,192,52241,1,0,0:0:0:0:
320,192,52372,1,0,0:0:0:0:
64,192,52502,1,2,0:0:0:0:
192,192,52502,1,0,0:0:0:0:
448,192,52632,1,0,0:0:0:0:
64,192,52763,1,2,0:0:0:0:
320,192,52763,1,0,0:0:0:0:
192,192,52893,1,0,0:0:0:0:
64,192,53024,128,2,53089:0:0:0:0:
448,192,53024,128,0,53089:0:0:0:0:
320,192,53154,1,0,0:0:0:0:
64,192,53285,128,2,53350:0:0:0:0:
192,192,53285,128,0,53350:0:0:0:0:
64,192,53415,1,2,0:0:0:0:
192,192,53415,1,0,0:0:0:0:
448,192,53545,1,0,0:0:0:0:
192,192,53676,1,2,0:0:0:0:
320,192,53676,1,0,0:0:0:0:
192,192,53806,1,2,0:0:0:0:
320,192,53806,1,0,0:0:0:0:
64,192,53937,1,0,0:0:0:0:
320,192,54067,128,2,54132:0:0:0:0:
448,192,54067,128,0,54132:0:0:0:0:
192,192,54198,1,0,0:0:0:0:
64,192,54328,1,2,0:0:0:0:
448,192,54328,1,0,0:0:0:0:
320,192,54459,1,0,0:0:0:0:
64,192,54589,1,2,0:0:0:0:
192,192,54589,1,0,0:0:0:0:
320,192,54719,1,0,0:0:0:0:
64,192,54850,1,2,0:0:0:0:
448,192,54850,1,0,0:0:0:0:
192,192,54980,1,0,0:0:0:0:
64,192,55111,128,2,55176:0:0:0:0:
320,192,55111,128,0,55176:0:0:0:0:
192,192,55241,1,0,0:0:0:0:
320,192,55372,1,2,0:0:0:0:
448,192,55372,1,0,0:0:0:0:
64,192,55502,1,0,0:0:0:0:
192,192,55632,1,2,0:0:0:0:
320,192,55632,1,0,0:0:0:0:
448,192,55763,1,0,0:0:0:0:
64,192,55893,1,2,0:0:0:0:
192,192,55893,1,0,0:0:0:0:
320,192,56024,1,0,0:0:0:0:
64,192,56154,128,2,56219:0:0:0:0:
448,192,56154,128,0,56219:0:0:0:0:
192,192,56285,1,0,0:0:0:0:
320,192,56415,1,2,0:0:0:0:
448,192,56415,1,0,0:0:0:0:
192,192,56545,1,0,0:0:0:0:
64,192,56676,1,2,0:0:0:0:
448,192,56676,1,0,0:0:0:0:
320,192,56806,1,0,0:0:0:0:
448,192,56937,1,0,0:0:0:0:
64,192,57067,1,2,0:0:0:0:
192,192,57067,1,0,0:0:0:0:
64,192,57198,1,2,0:1:0:0:
320,192,57198,1,0,0:0:0:0:
448,192,57198,1,0,0:0:0:0:
320,192,57328,1,2,0:0:0:0:
64,192,57459,1,2,0:1:0:0:
192,192,57459,1,0,0:0:0:0:
448,192,57459,1,0,0:0:0:0:
192,192,57589,1,2,0:0:0:0:
64,192,57719,1,2,0:1:0:0:
320,192,57719,1,0,0:0:0:0:
448,192,57719,1,0,0:0:0:0:
192,192,57850,1,0,0:0:0:0:
64,192,57980,1,2,0:3:0:0:
320,192,57980,1,0,0:0:0:0:
192,192,58111,1,2,0:0:0:0:
448,192,58111,1,0,0:0:0:0:
192,192,58241,1,2,0:0:0:0:
448,192,58241,1,0,0:0:0:0:
64,192,58372,1,0,0:0:0:0:
320,192,58502,1,2,0:0:0:0:
448,192,58502,1,0,0:0:0:0:
192,192,58632,1,0,0:0:0:0:
64,192,58763,1,2,0:0:0:0:
320,192,58763,1,0,0:0:0:0:
448,192,58893,1,0,0:0:0:0:
64,192,59024,1,2,0:0:0:0:
192,192,59024,1,0,0:0:0:0:
320,192,59154,1,0,0:0:0:0:
192,192,59285,1,2,0:0:0:0:
448,192,59285,1,4,0:3:0:0:
64,192,59415,1,0,0:0:0:0:
192,192,59545,1,2,0:0:0:0:
448,192,59545,1,4,0:3:0:0:
320,192,59676,1,0,0:0:0:0:
64,192,59806,1,4,0:3:0:0:
192,192,59806,1,2,0:0:0:0:
448,192,59937,1,0,0:0:0:0:
64,192,60067,1,4,0:3:0:0:
320,192,60067,1,2,0:0:0:0:
64,192,60198,1,2,0:3:0:0:
320,192,60198,1,4,0:3:0:0:
192,192,60328,1,2,0:0:0:0:
448,192,60328,1,0,0:0:0:0:
320,192,60459,1,0,0:0:0:0:
64,192,60589,1,2,0:0:0:0:
192,192,60589,1,0,0:0:0:0:
448,192,60719,1,0,0:0:0:0:
192,192,60850,1,2,0:0:0:0:
320,192,60850,1,0,0:0:0:0:
64,192,60980,1,0,0:0:0:0:
320,192,61111,1,2,0:0:0:0:
448,192,61111,1,0,0:0:0:0:
192,192,61241,1,0,0:0:0:0:
64,192,61372,1,2,0:0:0:0:
448,192,61372,1,4,0:3:0:0:
320,192,61502,1,0,0:0:0:0:
64,192,61632,1,2,0:0:0:0:
448,192,61632,1,4,0:3:0:0:
192,192,61763,1,0,0:0:0:0:
64,192,61893,1,2,0:0:0:0:
320,192,61893,1,4,0:3:0:0:
448,192,62024,1,0,0:0:0:0:
64,192,62154,1,2,0:0:0:0:
192,192,62154,1,4,0:3:0:0:
64,192,62285,1,2,0:3:0:0:
192,192,62285,1,4,0:3:0:0:
320,192,62415,1,2,0:0:0:0:
448,192,62415,1,0,0:0:0:0:
64,192,62545,1,0,0:0:0:0:
192,192,62676,1,2,0:0:0:0:
320,192,62676,1,0,0:0:0:0:
448,192,62806,1,0,0:0:0:0:
64,192,62937,1,2,0:0:0:0:
192,192,62937,1,0,0:0:0:0:
320,192,63067,1,0,0:0:0:0:
64,192,63198,1,2,0:0:0:0:
448,192,63198,1,0,0:0:0:0:
192,192,63328,1,0,0:0:0:0:
64,192,63459,1,2,0:0:0:0:
320,192,63459,1,4,0:3:0:0:
192,192,63589,1,0,0:0:0:0:
64,192,63719,1,2,0:0:0:0:
320,192,63719,1,4,0:3:0:0:
448,192,63850,1,0,0:0:0:0:
64,192,63980,1,2,0:0:0:0:
192,192,63980,1,4,0:3:0:0:
320,192,64111,1,0,0:0:0:0:
192,192,64241,1,2,0:0:0:0:
448,192,64241,1,4,0:3:0:0:
192,192,64372,1,2,0:3:0:0:
448,192,64372,1,4,0:3:0:0:
64,192,64502,1,2,0:0:0:0:
320,192,64502,1,0,0:0:0:0:
448,192,64632,1,0,0:0:0:0:
64,192,64763,1,2,0:0:0:0:
192,192,64763,1,0,0:0:0:0:
320,192,64893,1,0,0:0:0:0:
64,192,65024,1,2,0:0:0:0:
448,192,65024,1,0,0:0:0:0:
192,192,65154,1,0,0:0:0:0:
320,192,65285,1,2,0:0:0:0:
448,192,65285,1,0,0:0:0:0:
64,192,65415,1,0,0:0:0:0:
192,192,65545,1,2,0:0:0:0:
448,192,65545,1,4,0:3:0:0:
192,192,65676,1,0,0:0:0:0:
64,192,65806,1,2,0:0:0:0:
320,192,65806,1,4,0:3:0:0:
448,192,65937,1,0,0:0:0:0:
64,192,66067,1,2,0:0:0:0:
192,192,66067,1,4,0:3:0:0:
64,192,66198,1,0,0:0:0:0:
320,192,66328,1,2,0:0:0:0:
448,192,66328,1,4,0:3:0:0:
320,192,66459,1,2,0:3:0:0:
448,192,66459,1,4,0:3:0:0:
64,192,66589,1,2,0:3:0:0:
192,192,66589,1,4,0:0:0:0:
448,192,66589,1,0,0:0:0:0:
192,192,66719,1,2,0:3:0:0:
320,192,66719,1,0,0:0:0:0:
64,192,66850,1,8,0:3:0:0:
448,192,66850,1,0,0:0:0:0:
320,192,66980,1,0,0:0:0:0:
192,192,67045,1,0,0:0:0:0:
448,192,67111,1,0,0:0:0:0:
320,192,67176,1,0,0:0:0:0:
64,192,67241,1,2,0:3:0:0:
192,192,67241,1,0,0:0:0:0:
320,192,67372,1,8,0:3:0:0:
448,192,67372,1,0,0:0:0:0:
192,192,67502,1,0,0:0:0:0:
320,192,67567,1,0,0:0:0:0:
64,192,67632,1,0,0:0:0:0:
192,192,67698,1,0,0:0:0:0:
320,192,67763,1,2,0:3:0:0:
448,192,67763,1,0,0:0:0:0:
64,192,67893,1,8,0:3:0:0:
192,192,67893,1,0,0:0:0:0:
448,192,67959,1,0,0:0:0:0:
320,192,68024,1,0,0:0:0:0:
192,192,68089,1,0,0:0:0:0:
64,192,68154,128,0,68545:0:0:0:0:
448,192,68219,128,0,68350:0:0:0:0:
320,192,68285,128,0,68415:0:0:0:0:
192,192,68350,128,0,68545:0:0:0:0:
320,192,68545,1,8,0:3:0:0:
448,192,68545,128,0,68806:0:0:0:0:
64,192,68676,128,0,68937:0:0:0:0:
192,192,68676,128,0,68806:0:0:0:0:
320,192,68806,128,0,68937:0:0:0:0:
192,192,68937,128,0,69198:0:0:0:0:
448,192,69067,128,0,69132:0:0:0:0:
320,192,69198,128,0,69328:0:0:0:0:
448,192,69198,128,0,69459:0:0:0:0:
64,192,69328,128,0,69459:0:0:0:0:
320,192,69459,1,0,0:0:0:0:
192,192,69524,1,0,0:0:0:0:
64,192,69589,1,0,0:0:0:0:
448,192,69589,1,0,0:0:0:0:
320,192,69654,1,0,0:0:0:0:
64,192,69719,1,2,0:0:0:0:
192,192,69719,1,4,0:0:0:0:
448,192,69719,1,0,0:0:0:0:
320,192,69850,1,0,0:0:0:0:
64,192,69980,1,2,0:0:0:0:
448,192,69980,1,0,0:0:0:0:
192,192,70111,1,0,0:0:0:0:
320,192,70241,1,2,0:0:0:0:
448,192,70241,1,0,0:0:0:0:
64,192,70372,1,0,0:0:0:0:
192,192,70502,1,2,0:0:0:0:
320,192,70502,1,0,0:0:0:0:
448,192,70632,1,0,0:0:0:0:
64,192,70763,1,2,0:0:0:0:
192,192,70763,1,0,0:0:0:0:
320,192,70893,1,0,0:0:0:0:
192,192,71024,1,2,0:0:0:0:
448,192,71024,1,0,0:0:0:0:
320,192,71154,1,0,0:0:0:0:
64,192,71285,1,2,0:0:0:0:
192,192,71285,1,0,0:0:0:0:
448,192,71415,1,0,0:0:0:0:
192,192,71545,1,2,0:0:0:0:
320,192,71545,1,0,0:0:0:0:
64,192,71676,1,0,0:0:0:0:
320,192,71806,1,2,0:0:0:0:
448,192,71806,1,0,0:0:0:0:
192,192,71937,1,0,0:0:0:0:
64,192,72067,1,2,0:0:0:0:
320,192,72067,1,0,0:0:0:0:
192,192,72198,1,0,0:0:0:0:
320,192,72328,1,2,0:0:0:0:
448,192,72328,1,0,0:0:0:0:
64,192,72459,1,0,0:0:0:0:
192,192,72589,1,2,0:0:0:0:
448,192,72589,1,0,0:0:0:0:
320,192,72719,1,0,0:0:0:0:
64,192,72850,1,2,0:0:0:0:
448,192,72850,1,0,0:0:0:0:
192,192,72980,1,0,0:0:0:0:
64,192,73111,1,2,0:0:0:0:
320,192,73111,1,0,0:0:0:0:
448,192,73241,1,0,0:0:0:0:
64,192,73372,1,2,0:0:0:0:
192,192,73372,1,0,0:0:0:0:
320,192,73502,1,0,0:0:0:0:
64,192,73632,1,2,0:0:0:0:
448,192,73632,1,0,0:0:0:0:
192,192,73763,1,0,0:0:0:0:
320,192,73893,1,2,0:0:0:0:
448,192,73893,1,0,0:0:0:0:
192,192,74024,1,0,0:0:0:0:
64,192,74154,1,2,0:0:0:0:
448,192,74154,1,0,0:0:0:0:
320,192,74285,1,0,0:0:0:0:
64,192,74415,1,2,0:0:0:0:
192,192,74415,1,0,0:0:0:0:
448,192,74545,1,0,0:0:0:0:
192,192,74676,1,2,0:0:0:0:
320,192,74676,1,0,0:0:0:0:
64,192,74806,1,0,0:0:0:0:
320,192,74937,1,2,0:0:0:0:
448,192,74937,1,0,0:0:0:0:
192,192,75067,1,0,0:0:0:0:
64,192,75198,1,2,0:0:0:0:
448,192,75198,1,0,0:0:0:0:
192,192,75328,1,0,0:0:0:0:
320,192,75459,1,2,0:0:0:0:
448,192,75459,1,0,0:0:0:0:
64,192,75589,1,0,0:0:0:0:
192,192,75719,1,2,0:0:0:0:
448,192,75719,1,0,0:0:0:0:
320,192,75850,1,0,0:0:0:0:
64,192,75980,1,2,0:3:0:0:
192,192,75980,1,0,0:0:0:0:
448,192,75980,1,0,0:0:0:0:
64,192,76111,1,2,0:3:0:0:
192,192,76111,1,0,0:0:0:0:
320,192,76241,1,8,0:3:0:0:
448,192,76241,1,0,0:0:0:0:
64,192,76372,1,0,0:0:0:0:
192,192,76437,1,0,0:0:0:0:
448,192,76502,1,0,0:0:0:0:
320,192,76567,1,0,0:0:0:0:
64,192,76632,1,2,0:3:0:0:
192,192,76632,1,0,0:0:0:0:
320,192,76763,1,8,0:3:0:0:
448,192,76763,1,0,0:0:0:0:
64,192,76893,1,0,0:0:0:0:
192,192,76959,1,0,0:0:0:0:
320,192,77024,1,2,0:0:0:0:
448,192,77024,1,0,0:0:0:0:
320,192,77154,1,2,0:3:0:0:
448,192,77154,1,0,0:0:0:0:
64,192,77285,1,8,0:3:0:0:
192,192,77285,1,0,0:0:0:0:
448,192,77415,1,0,0:0:0:0:
320,192,77480,1,0,0:0:0:0:
64,192,77545,1,0,0:0:0:0:
192,192,77611,1,0,0:0:0:0:
320,192,77676,1,2,0:3:0:0:
448,192,77676,1,0,0:0:0:0:
320,192,77806,1,2,0:0:0:0:
448,192,77806,1,0,0:0:0:0:
64,192,77937,1,8,0:3:0:0:
448,192,77937,1,0,0:0:0:0:
192,192,78067,1,2,0:3:0:0:
320,192,78067,1,0,0:0:0:0:
192,192,78198,1,2,0:3:0:0:
320,192,78198,1,0,0:0:0:0:
64,192,78328,1,8,0:3:0:0:
448,192,78328,1,0,0:0:0:0:
192,192,78459,1,0,0:0:0:0:
320,192,78524,1,0,0:0:0:0:
64,192,78589,1,0,0:0:0:0:
192,192,78654,1,0,0:0:0:0:
320,192,78719,1,2,0:3:0:0:
448,192,78719,1,0,0:0:0:0:
64,192,78850,1,8,0:3:0:0:
192,192,78850,1,0,0:0:0:0:
448,192,78980,1,0,0:0:0:0:
320,192,79045,1,0,0:0:0:0:
64,192,79111,1,2,0:0:0:0:
192,192,79111,1,4,0:0:0:0:
64,192,79241,1,2,0:3:0:0:
192,192,79241,1,0,0:0:0:0:
320,192,79372,1,8,0:3:0:0:
448,192,79372,1,0,0:0:0:0:
192,192,79502,128,0,79600:0:0:0:0:
64,192,79567,128,0,79665:0:0:0:0:
320,192,79632,128,0,79730:0:0:0:0:
448,192,79698,128,0,79795:0:0:0:0:
192,192,79763,128,0,79861:0:0:0:0:
64,192,79828,128,0,79926:0:0:0:0:
320,192,79893,1,2,0:0:0:0:
448,192,79893,1,0,0:0:0:0:
64,192,80024,1,8,0:0:0:0:
192,192,80024,1,0,0:0:0:0:
64,192,80154,1,2,0:0:0:0:
320,192,80154,1,4,0:0:0:0:
448,192,80154,1,0,0:0:0:0:
192,192,80285,1,0,0:0:0:0:
448,192,80415,1,0,0:0:0:0:
192,192,80545,1,0,0:0:0:0:
448,192,80676,1,0,0:0:0:0:
64,192,80806,1,0,0:0:0:0:
320,192,80937,1,0,0:0:0:0:
64,192,81067,1,0,0:0:0:0:
320,192,81198,1,2,0:0:0:0:
448,192,81198,1,0,0:0:0:0:
192,192,81328,1,0,0:0:0:0:
320,192,81459,1,0,0:0:0:0:
192,192,81589,1,0,0:0:0:0:
448,192,81719,1,0,0:0:0:0:
64,192,81850,1,0,0:0:0:0:
320,192,81980,1,2,0:0:0:0:
448,192,81980,1,0,0:0:0:0:
64,192,82111,1,0,0:0:0:0:
192,192,82241,1,2,0:0:0:0:
320,192,82241,1,4,0:0:0:0:
448,192,82241,1,0,0:0:0:0:
192,192,82372,1,0,0:0:0:0:
320,192,82502,1,0,0:0:0:0:
320,192,82632,1,0,0:0:0:0:
64,192,82763,1,0,0:0:0:0:
64,192,82893,1,0,0:0:0:0:
448,192,83024,1,0,0:0:0:0:
448,192,83154,1,0,0:0:0:0:
64,192,83285,1,2,0:3:0:0:
192,192,83285,1,0,0:0:0:0:
320,192,83350,1,2,0:3:0:0:
448,192,83350,1,0,0:0:0:0:
64,192,83415,1,2,0:3:0:0:
192,192,83415,1,0,0:0:0:0:
320,192,83480,1,2,0:3:0:0:
448,192,83480,1,0,0:0:0:0:
64,192,83545,1,2,0:3:0:0:
192,192,83545,1,0,0:0:0:0:
320,192,83611,1,2,0:3:0:0:
448,192,83611,1,0,0:0:0:0:
64,192,83676,1,2,0:3:0:0:
192,192,83676,1,0,0:0:0:0:
320,192,83741,1,2,0:3:0:0:
448,192,83741,1,0,0:0:0:0:
64,192,83806,1,2,0:3:0:0:
192,192,83806,1,0,0:0:0:0:
64,192,83937,1,2,0:3:0:0:
192,192,83937,1,0,0:0:0:0:
320,192,84067,1,2,0:3:0:0:
448,192,84067,1,0,0:0:0:0:
320,192,84198,1,2,0:3:0:0:
448,192,84198,1,0,0:0:0:0:
64,192,84328,1,4,0:0:0:0:
192,192,84328,1,0,0:0:0:0:
448,192,84328,1,0,0:0:0:0:
320,192,84459,1,0,0:0:0:0:
64,192,84589,1,2,0:0:0:0:
192,192,84589,1,0,0:0:0:0:
448,192,84719,1,0,0:0:0:0:
192,192,84850,1,2,0:0:0:0:
320,192,84850,1,0,0:0:0:0:
64,192,84980,1,0,0:0:0:0:
320,192,85111,1,2,0:0:0:0:
448,192,85111,1,0,0:0:0:0:
192,192,85241,1,0,0:0:0:0:
64,192,85372,1,2,0:0:0:0:
448,192,85372,1,0,0:0:0:0:
320,192,85502,1,0,0:0:0:0:
64,192,85632,1,2,0:0:0:0:
192,192,85632,1,0,0:0:0:0:
448,192,85763,1,0,0:0:0:0:
192,192,85893,1,2,0:0:0:0:
320,192,85893,1,0,0:0:0:0:
64,192,86024,1,0,0:0:0:0:
320,192,86154,1,2,0:0:0:0:
448,192,86154,1,0,0:0:0:0:
192,192,86285,1,0,0:0:0:0:
64,192,86415,1,2,0:0:0:0:
320,192,86415,1,0,0:0:0:0:
448,192,86545,1,0,0:0:0:0:
64,192,86676,1,2,0:0:0:0:
192,192,86676,1,0,0:0:0:0:
320,192,86806,1,0,0:0:0:0:
64,192,86937,1,2,0:0:0:0:
448,192,86937,1,0,0:0:0:0:
192,192,87067,1,0,0:0:0:0:
320,192,87198,1,2,0:0:0:0:
448,192,87198,1,0,0:0:0:0:
64,192,87328,1,0,0:0:0:0:
192,192,87459,1,2,0:0:0:0:
320,192,87459,1,0,0:0:0:0:
448,192,87589,1,0,0:0:0:0:
64,192,87719,1,2,0:0:0:0:
192,192,87719,1,0,0:0:0:0:
320,192,87850,1,0,0:0:0:0:
64,192,87980,1,2,0:0:0:0:
448,192,87980,1,0,0:0:0:0:
192,192,88111,1,0,0:0:0:0:
64,192,88241,1,0,0:0:0:0:
192,192,88372,1,0,0:0:0:0:
320,192,88502,1,2,0:0:0:0:
448,192,88502,1,0,0:0:0:0:
64,192,88632,1,0,0:0:0:0:
320,192,88763,1,0,0:0:0:0:
192,192,88893,1,0,0:0:0:0:
64,192,89024,1,2,0:0:0:0:
448,192,89024,1,0,0:0:0:0:
320,192,89154,1,0,0:0:0:0:
448,192,89285,1,0,0:0:0:0:
320,192,89415,1,0,0:0:0:0:
64,192,89545,1,2,0:0:0:0:
192,192,89545,1,0,0:0:0:0:
448,192,89676,1,0,0:0:0:0:
192,192,89806,1,0,0:0:0:0:
320,192,89937,1,0,0:0:0:0:
64,192,90067,1,2,0:0:0:0:
448,192,90067,1,0,0:0:0:0:
192,192,90198,1,0,0:0:0:0:
448,192,90328,1,0,0:0:0:0:
192,192,90459,1,0,0:0:0:0:
320,192,90589,1,2,0:0:0:0:
448,192,90589,1,0,0:0:0:0:
64,192,90719,1,0,0:0:0:0:
320,192,90850,1,0,0:0:0:0:
192,192,90980,1,0,0:0:0:0:
64,192,91111,1,2,0:0:0:0:
448,192,91111,1,0,0:0:0:0:
320,192,91241,1,0,0:0:0:0:
64,192,91372,1,0,0:0:0:0:
320,192,91502,1,0,0:0:0:0:
64,192,91632,128,2,91698:0:0:0:0:
192,192,91632,128,0,91698:0:0:0:0:
64,192,91763,128,2,91828:0:0:0:0:
192,192,91763,128,0,91828:0:0:0:0:
192,192,91893,128,2,91959:0:0:0:0:
448,192,91893,128,0,91959:0:0:0:0:
192,192,92024,128,2,92089:0:0:0:0:
448,192,92024,128,0,92089:0:0:0:0:
64,192,92154,128,2,92219:0:0:0:0:
320,192,92154,128,0,92219:0:0:0:0:
64,192,92285,128,2,92350:0:0:0:0:
320,192,92285,128,0,92350:0:0:0:0:
320,192,92415,128,2,92480:0:0:0:0:
448,192,92415,128,0,92480:0:0:0:0:
320,192,92545,128,2,92611:0:0:0:0:
448,192,92545,128,0,92611:0:0:0:0:
64,192,92676,1,0,0:0:0:0:
320,192,92806,1,0,0:0:0:0:
192,192,92937,1,0,0:0:0:0:
448,192,93067,1,0,0:0:0:0:
64,192,93198,128,0,93589:0:0:0:0:
192,192,93198,128,0,93328:0:0:0:0:
320,192,93328,128,0,93459:0:0:0:0:
448,192,93459,128,0,93589:0:0:0:0:
192,192,93589,128,0,93719:0:0:0:0:
64,192,93719,128,2,94372:0:0:0:0:
320,192,93719,128,0,95154:0:0:0:0:
448,192,93719,128,0,96589:0:0:0:0:
64,192,94502,128,0,94959:0:0:0:0:
192,192,94959,128,0,95154:0:0:0:0:
64,192,95154,128,0,95372:0:0:0:0:
320,192,95372,128,0,95545:0:0:0:0:
192,192,95545,128,0,96198:0:0:0:0:
64,192,95806,128,0,96198:0:0:0:0:
320,192,96198,128,0,96589:0:0:0:0:
192,192,96459,128,0,96589:0:0:0:0:
64,192,96589,1,0,0:0:0:0:
320,192,96719,1,0,0:0:0:0:
192,192,96850,1,0,0:0:0:0:
64,192,96980,128,0,97502:0:0:0:0:
192,192,97067,128,0,97589:0:0:0:0:
320,192,97154,128,0,97676:0:0:0:0:
448,192,97241,128,0,97763:0:0:0:0:
192,192,97676,1,0,0:0:0:0:
64,192,97763,1,0,0:0:0:0:
320,192,97893,1,0,0:0:0:0:
192,192,97998,1,0,0:0:0:0:
448,192,98102,1,0,0:0:0:0:
192,192,98206,1,0,0:0:0:0:
320,192,98311,1,0,0:0:0:0:
64,192,98415,128,2,98545:0:3:0:0:
192,192,98415,1,0,0:0:0:0:
320,192,98545,1,0,0:0:0:0:
448,192,98675,1,0,0:0:0:0:
192,192,98806,1,0,0:0:0:0:
64,192,98936,128,8,99067:0:1:0:0:
448,192,98936,1,0,0:0:0:0:
320,192,99067,1,0,0:0:0:0:
192,192,99197,1,0,0:0:0:0:
448,192,99328,1,0,0:0:0:0:
64,192,99458,128,0,99588:0:0:0:0:
192,192,99458,1,0,0:0:0:0:
320,192,99588,1,0,0:0:0:0:
448,192,99719,1,0,0:0:0:0:
192,192,99849,1,0,0:0:0:0:
64,192,99980,128,8,100110:0:1:0:0:
448,192,99980,1,0,0:0:0:0:
320,192,100110,1,0,0:0:0:0:
192,192,100241,1,0,0:0:0:0:
448,192,100371,1,0,0:0:0:0:
64,192,100501,1,2,0:3:0:0:
320,192,100501,128,0,100632:0:0:0:0:
192,192,100632,1,0,0:0:0:0:
448,192,100762,1,0,0:0:0:0:
192,192,100893,1,0,0:0:0:0:
320,192,101023,128,8,101154:0:1:0:0:
448,192,101023,1,0,0:0:0:0:
64,192,101154,1,0,0:0:0:0:
192,192,101284,1,0,0:0:0:0:
448,192,101415,1,0,0:0:0:0:
64,192,101545,1,2,0:3:0:0:
320,192,101545,128,0,101675:0:0:0:0:
192,192,101675,1,0,0:0:0:0:
448,192,101806,1,2,0:3:0:0:
192,192,101936,1,0,0:0:0:0:
320,192,102067,128,8,102197:0:1:0:0:
448,192,102067,1,0,0:0:0:0:
64,192,102197,1,0,0:0:0:0:
192,192,102328,1,2,0:3:0:0:
320,192,102328,1,0,0:0:0:0:
448,192,102458,1,0,0:0:0:0:
64,192,102588,1,2,0:3:0:0:
192,192,102588,128,0,102719:0:0:0:0:
320,192,102719,1,0,0:0:0:0:
64,192,102849,1,0,0:0:0:0:
320,192,102980,1,0,0:0:0:0:
192,192,103110,128,8,103241:0:1:0:0:
448,192,103110,1,0,0:0:0:0:
64,192,103241,1,0,0:0:0:0:
320,192,103371,1,0,0:0:0:0:
448,192,103501,1,0,0:0:0:0:
64,192,103632,1,0,0:0:0:0:
192,192,103632,128,0,103762:0:0:0:0:
320,192,103762,1,0,0:0:0:0:
64,192,103893,1,0,0:0:0:0:
320,192,104023,1,0,0:0:0:0:
192,192,104154,128,8,104284:0:1:0:0:
448,192,104154,1,0,0:0:0:0:
64,192,104284,1,0,0:0:0:0:
320,192,104415,1,0,0:0:0:0:
192,192,104545,1,0,0:0:0:0:
320,192,104675,1,2,0:3:0:0:
448,192,104675,128,0,104806:0:0:0:0:
64,192,104806,1,0,0:0:0:0:
320,192,104936,1,0,0:0:0:0:
192,192,105067,1,0,0:0:0:0:
64,192,105197,1,8,0:1:0:0:
448,192,105197,128,0,105328:0:0:0:0:
320,192,105328,1,0,0:0:0:0:
64,192,105458,1,0,0:0:0:0:
192,192,105588,1,0,0:0:0:0:
320,192,105719,1,2,0:3:0:0:
448,192,105719,128,0,105849:0:0:0:0:
64,192,105849,1,0,0:0:0:0:
320,192,105980,1,2,0:3:0:0:
192,192,106110,1,0,0:0:0:0:
64,192,106241,1,8,0:1:0:0:
448,192,106241,128,0,106371:0:0:0:0:
192,192,106371,1,0,0:0:0:0:
320,192,106501,1,2,0:3:0:0:
448,192,106501,1,0,0:0:0:0:
192,192,106632,1,0,0:0:0:0:
320,192,106762,128,2,107154:0:3:0:0:
448,192,106762,1,0,0:0:0:0:
64,192,106893,1,0,0:0:0:0:
192,192,107023,1,0,0:0:0:0:
448,192,107154,128,0,107284:0:0:0:0:
64,192,107284,1,8,0:1:0:0:
192,192,107284,128,0,107936:0:0:0:0:
320,192,107414,1,0,0:0:0:0:
448,192,107545,1,0,0:0:0:0:
64,192,107675,1,0,0:0:0:0:
448,192,107806,1,0,0:0:0:0:
320,192,107936,1,0,0:0:0:0:
64,192,108067,1,0,0:0:0:0:
320,192,108197,1,0,0:0:0:0:
64,192,108328,128,8,108588:0:1:0:0:
192,192,108328,1,0,0:0:0:0:
448,192,108458,1,0,0:0:0:0:
320,192,108588,128,0,108849:0:0:0:0:
64,192,108719,1,0,0:0:0:0:
192,192,108849,128,2,109241:0:3:0:0:
448,192,108849,1,0,0:0:0:0:
64,192,108980,1,0,0:0:0:0:
320,192,109110,1,0,0:0:0:0:
64,192,109241,128,0,109371:0:0:0:0:
320,192,109371,1,8,0:1:0:0:
448,192,109371,128,0,110284:0:0:0:0:
192,192,109501,1,0,0:0:0:0:
64,192,109632,1,0,0:0:0:0:
320,192,109762,1,0,0:0:0:0:
64,192,109893,1,2,0:3:0:0:
192,192,109893,1,0,0:0:0:0:
320,192,110023,1,0,0:0:0:0:
64,192,110154,1,2,0:3:0:0:
192,192,110284,1,0,0:0:0:0:
320,192,110414,1,8,0:1:0:0:
448,192,110414,128,0,110545:0:0:0:0:
192,192,110545,1,0,0:0:0:0:
64,192,110675,1,2,0:3:0:0:
448,192,110675,1,0,0:0:0:0:
320,192,110806,1,0,0:0:0:0:
64,192,110936,1,2,0:3:0:0:
192,192,110936,128,0,111067:0:0:0:0:
320,192,111067,128,0,111197:0:0:0:0:
448,192,111197,128,0,111328:0:0:0:0:
64,192,111328,128,0,111458:0:0:0:0:
320,192,111458,1,8,0:1:0:0:
448,192,111458,1,0,0:0:0:0:
192,192,111588,1,0,0:0:0:0:
320,192,111719,128,0,111849:0:0:0:0:
192,192,111849,128,0,111980:0:0:0:0:
64,192,111980,128,0,112241:0:0:0:0:
448,192,111980,1,0,0:0:0:0:
320,192,112110,1,0,0:0:0:0:
192,192,112241,1,0,0:0:0:0:
448,192,112371,1,0,0:0:0:0:
64,192,112501,1,8,0:1:0:0:
320,192,112501,128,0,112762:0:0:0:0:
192,192,112632,1,0,0:0:0:0:
64,192,112762,128,0,112893:0:0:0:0:
448,192,112893,1,0,0:0:0:0:
192,192,113023,128,2,113545:0:3:0:0:
320,192,113023,1,0,0:0:0:0:
64,192,113154,1,0,0:0:0:0:
448,192,113284,1,0,0:0:0:0:
320,192,113414,1,0,0:0:0:0:
64,192,113545,128,8,113675:0:1:0:0:
448,192,113545,1,0,0:0:0:0:
192,192,113675,1,0,0:0:0:0:
320,192,113806,1,0,0:0:0:0:
192,192,113936,1,0,0:0:0:0:
320,192,114067,128,2,114197:0:0:0:0:
448,192,114067,128,0,114197:0:0:0:0:
64,192,114197,1,0,0:0:0:0:
320,192,114328,1,0,0:0:0:0:
64,192,114458,128,2,114588:0:0:0:0:
192,192,114458,128,0,114588:0:0:0:0:
448,192,114588,1,0,0:0:0:0:
192,192,114719,1,0,0:0:0:0:
320,192,114849,128,2,114980:0:0:0:0:
448,192,114849,128,0,114980:0:0:0:0:
64,192,114980,1,0,0:0:0:0:
192,192,115110,1,2,0:3:0:0:
320,192,115110,1,0,0:0:0:0:
192,192,115241,1,2,0:3:0:0:
320,192,115241,1,0,0:0:0:0:
64,192,115371,1,8,0:3:0:0:
448,192,115371,1,0,0:0:0:0:
192,192,115501,1,0,0:0:0:0:
320,192,115567,1,0,0:0:0:0:
64,192,115632,1,0,0:0:0:0:
192,192,115697,1,0,0:0:0:0:
320,192,115762,1,2,0:3:0:0:
448,192,115762,1,0,0:0:0:0:
64,192,115893,1,8,0:3:0:0:
192,192,115893,1,0,0:0:0:0:
320,192,116023,1,0,0:0:0:0:
192,192,116088,1,0,0:0:0:0:
448,192,116154,1,0,0:0:0:0:
320,192,116219,1,0,0:0:0:0:
64,192,116284,1,2,0:3:0:0:
192,192,116284,1,0,0:0:0:0:
320,192,116414,1,8,0:3:0:0:
448,192,116414,1,0,0:0:0:0:
192,192,116545,1,0,0:0:0:0:
320,192,116610,1,0,0:0:0:0:
64,192,116675,1,0,0:0:0:0:
192,192,116741,1,0,0:0:0:0:
320,192,116806,1,2,0:3:0:0:
448,192,116806,1,0,0:0:0:0:
64,192,116936,1,0,0:0:0:0:
192,192,117067,1,8,0:3:0:0:
448,192,117067,1,0,0:0:0:0:
64,192,117197,1,2,0:3:0:0:
320,192,117197,1,0,0:0:0:0:
64,192,117328,1,2,0:3:0:0:
320,192,117328,1,0,0:0:0:0:
192,192,117458,1,8,0:3:0:0:
448,192,117458,1,0,0:0:0:0:
320,192,117588,1,0,0:0:0:0:
64,192,117654,1,0,0:0:0:0:
448,192,117719,1,0,0:0:0:0:
192,192,117784,1,0,0:0:0:0:
64,192,117849,1,2,0:3:0:0:
320,192,117849,1,0,0:0:0:0:
192,192,117980,1,8,0:3:0:0:
448,192,117980,1,0,0:0:0:0:
64,192,118110,1,0,0:0:0:0:
320,192,118175,1,0,0:0:0:0:
192,192,118241,1,0,0:0:0:0:
448,192,118306,1,0,0:0:0:0:
64,192,118371,1,2,0:3:0:0:
320,192,118371,1,0,0:0:0:0:
192,192,118501,1,8,0:3:0:0:
448,192,118501,1,0,0:0:0:0:
64,192,118567,1,0,0:0:0:0:
320,192,118632,1,0,0:0:0:0:
192,192,118697,1,0,0:0:0:0:
448,192,118762,128,0,118925:0:0:0:0:
64,192,118795,128,0,118925:0:0:0:0:
192,192,118828,128,0,118958:0:0:0:0:
320,192,118893,128,2,119056:0:3:0:0:
64,192,119023,128,0,119121:0:0:0:0:
192,192,119088,128,0,119284:0:0:0:0:
320,192,119154,1,8,0:3:0:0:
448,192,119154,1,0,0:0:0:0:
64,192,119284,1,4,0:1:0:0:
320,192,119284,1,2,0:0:0:0:
448,192,119284,1,0,0:0:0:0:
192,192,119414,1,0,0:0:0:0:
64,192,119545,1,0,0:0:0:0:
448,192,119545,1,0,0:0:0:0:
320,192,119675,1,0,0:0:0:0:
192,192,119806,1,0,0:0:0:0:
448,192,119806,1,0,0:0:0:0:
320,192,119936,1,0,0:0:0:0:
64,192,120067,1,0,0:0:0:0:
192,192,120067,1,0,0:0:0:0:
448,192,120197,1,0,0:0:0:0:
64,192,120328,1,0,0:0:0:0:
192,192,120328,1,0,0:0:0:0:
320,192,120458,1,0,0:0:0:0:
64,192,120588,1,0,0:0:0:0:
448,192,120588,1,0,0:0:0:0:
192,192,120719,1,0,0:0:0:0:
64,192,120849,1,0,0:0:0:0:
320,192,120849,1,0,0:0:0:0:
192,192,120980,1,0,0:0:0:0:
320,192,121110,1,0,0:0:0:0:
448,192,121110,1,0,0:0:0:0:
64,192,121241,1,0,0:0:0:0:
320,192,121371,1,0,0:0:0:0:
448,192,121371,1,0,0:0:0:0:
192,192,121501,1,0,0:0:0:0:
64,192,121632,1,0,0:0:0:0:
448,192,121632,1,0,0:0:0:0:
320,192,121762,1,0,0:0:0:0:
192,192,121893,1,0,0:0:0:0:
448,192,121893,1,0,0:0:0:0:
320,192,122023,1,0,0:0:0:0:
64,192,122154,1,0,0:0:0:0:
192,192,122154,1,0,0:0:0:0:
448,192,122284,1,0,0:0:0:0:
64,192,122414,1,0,0:0:0:0:
320,192,122414,1,0,0:0:0:0:
320,192,122588,1,0,0:0:0:0:
320,192,122762,1,0,0:0:0:0:
192,192,122936,1,0,0:0:0:0:
448,192,123110,1,0,0:0:0:0:
64,192,123284,1,0,0:0:0:0:
192,192,123458,128,2,124501:0:0:0:0:
320,192,123458,128,4,123849:0:1:0:0:
448,192,123458,128,0,123849:0:0:0:0:
320,192,123980,1,0,0:0:0:0:
448,192,123980,128,0,124501:0:0:0:0:
64,192,124501,1,0,0:0:0:0:
320,192,124501,128,0,125545:0:0:0:0:
192,192,124675,1,0,0:0:0:0:
448,192,124849,1,0,0:0:0:0:
64,192,125023,128,0,125545:0:0:0:0:
192,192,125023,1,0,0:0:0:0:
192,192,125545,128,0,126588:0:0:0:0:
448,192,125545,1,0,0:0:0:0:
320,192,125719,1,0,0:0:0:0:
64,192,125893,1,0,0:0:0:0:
320,192,126067,1,0,0:0:0:0:
448,192,126067,128,0,126588:0:0:0:0:
64,192,126588,128,0,127632:0:0:0:0:
320,192,126588,1,0,0:0:0:0:
448,192,126762,1,0,0:0:0:0:
192,192,126936,1,0,0:0:0:0:
320,192,127110,128,0,127632:0:0:0:0:
448,192,127110,1,0,0:0:0:0:
192,192,127632,128,0,127806:0:0:0:0:
448,192,127632,128,0,128154:0:0:0:0:
64,192,127806,128,0,127980:0:0:0:0:
320,192,127980,128,0,128154:0:0:0:0:
64,192,128154,128,0,128675:0:0:0:0:
192,192,128154,128,0,128328:0:0:0:0:
448,192,128328,128,0,128501:0:0:0:0:
320,192,128501,1,0,0:0:0:0:
192,192,128588,1,0,0:0:0:0:
448,192,128675,1,0,0:0:0:0:
320,192,128762,1,0,0:0:0:0:
192,192,128806,1,0,0:0:0:0:
64,192,128849,1,0,0:0:0:0:
320,192,128893,1,0,0:0:0:0:
448,192,128936,1,0,0:0:0:0:
192,192,128980,1,0,0:0:0:0:
320,192,129023,1,0,0:0:0:0:
64,192,129110,1,0,0:0:0:0:
448,192,129197,1,0,0:0:0:0:
192,192,129284,1,0,0:0:0:0:
64,192,129371,1,0,0:0:0:0:
320,192,129458,1,0,0:0:0:0:
448,192,129545,1,0,0:0:0:0:
192,192,129632,1,0,0:0:0:0:
64,192,129719,1,2,0:3:0:35:
320,192,129784,1,2,0:3:0:35:
192,192,129849,1,2,0:3:0:35:
64,192,129914,1,2,0:3:0:35:
448,192,129980,1,2,0:3:0:40:
192,192,130045,1,2,0:3:0:40:
320,192,130110,1,2,0:3:0:40:
448,192,130175,1,2,0:3:0:40:
64,192,130241,1,2,0:3:0:45:
320,192,130306,1,2,0:3:0:45:
192,192,130371,1,2,0:3:0:45:
64,192,130436,1,2,0:3:0:45:
448,192,130501,1,2,0:3:0:50:
192,192,130567,1,2,0:3:0:50:
448,192,130632,1,2,0:3:0:50:
192,192,130697,1,2,0:3:0:50:
320,192,130762,1,2,0:3:0:55:
64,192,130828,1,2,0:3:0:55:
320,192,130893,1,2,0:3:0:55:
64,192,130958,1,2,0:3:0:55:
320,192,131023,1,2,0:3:0:0:
448,192,131023,1,0,0:0:0:0:
64,192,131088,1,2,0:3:0:0:
192,192,131088,1,0,0:0:0:0:
320,192,131154,1,2,0:3:0:0:
448,192,131154,1,0,0:0:0:0:
64,192,131219,1,2,0:3:0:0:
192,192,131219,1,0,0:0:0:0:
320,192,131284,1,2,0:0:0:0:
448,192,131284,1,0,0:0:0:0:
64,192,131545,1,2,0:0:0:0:
320,192,131545,1,0,0:0:0:0:
64,192,131675,1,2,0:0:0:0:
320,192,131675,1,0,0:0:0:0:
64,192,131806,128,2,132197:0:0:0:0:
320,192,131806,1,4,0:0:0:0:
448,192,131806,128,0,132393:0:0:0:0:
192,192,132197,128,0,132393:0:0:0:0:
320,192,132393,128,0,132719:0:0:0:0:
64,192,132588,128,0,132719:0:0:0:0:
192,192,132719,128,0,133371:0:0:0:0:
448,192,132914,128,0,133371:0:0:0:0:
64,192,133371,1,2,0:0:0:0:
320,192,133371,1,8,0:0:0:0:
64,192,133631,1,8,0:0:0:0:
64,192,133892,1,8,0:0:0:0:
320,192,133892,1,0,0:0:0:0:
64,192,134153,1,8,0:0:0:0:
192,192,134414,1,2,0:0:0:0:
320,192,134414,1,8,0:0:0:0:
448,192,134414,1,0,0:0:0:0:
192,192,134675,1,8,0:0:0:0:
192,192,134936,1,8,0:0:0:0:
448,192,134936,1,0,0:0:0:0:
192,192,135197,1,8,0:0:0:0:
64,192,135457,1,2,0:0:0:0:
320,192,135457,1,8,0:0:0:0:
448,192,135457,1,0,0:0:0:0:
64,192,135588,1,0,0:0:0:0:
192,192,135718,1,8,0:0:0:0:
320,192,135718,1,2,0:0:0:0:
448,192,135718,1,0,0:0:0:0:
448,192,135849,1,0,0:0:0:0:
64,192,135979,1,8,0:0:0:0:
192,192,135979,1,2,0:0:0:0:
320,192,135979,1,0,0:0:0:0:
320,192,136110,1,0,0:0:0:0:
64,192,136240,1,8,0:0:0:0:
192,192,136240,1,2,0:0:0:0:
448,192,136240,1,0,0:0:0:0:
192,192,136371,1,0,0:0:0:0:
320,192,136501,1,8,0:0:0:0:
448,192,136501,1,2,0:0:0:0:
64,192,136566,1,8,0:0:0:0:
192,192,136631,1,8,0:0:0:0:
448,192,136631,1,2,0:0:0:0:
320,192,136697,1,8,0:0:0:0:
64,192,136762,1,8,0:0:0:0:
192,192,136762,1,2,0:0:0:0:
448,192,136827,1,8,0:0:0:0:
64,192,136892,1,8,0:0:0:0:
320,192,136892,1,2,0:0:0:0:
192,192,136957,1,8,0:0:0:0:
320,192,137023,1,8,0:0:0:0:
448,192,137023,1,2,0:0:0:0:
192,192,137088,1,8,0:0:0:0:
64,192,137153,1,8,0:0:0:0:
448,192,137153,1,2,0:0:0:0:
320,192,137218,1,8,0:0:0:0:
64,192,137284,1,8,0:0:0:0:
192,192,137284,1,2,0:0:0:0:
320,192,137349,1,8,0:0:0:0:
64,192,137414,1,8,0:0:0:0:
448,192,137414,1,2,0:0:0:0:
192,192,137479,1,8,0:0:0:0:
320,192,137544,1,8,0:0:0:0:
448,192,137544,1,2,0:0:0:0:
64,192,139631,128,2,139762:0:0:0:0:
448,192,139631,128,0,139762:0:0:0:0:
64,192,139892,128,2,140023:0:0:0:0:
448,192,139892,128,0,140023:0:0:0:0:
64,192,140153,128,2,140286:0:0:0:0:
320,192,140153,1,4,0:0:0:0:
448,192,140153,128,0,140286:0:0:0:0:
192,192,140286,1,0,0:0:0:0:
64,192,140416,1,2,0:0:0:0:
320,192,140416,1,0,0:0:0:0:
192,192,140547,1,0,0:0:0:0:
64,192,140677,1,2,0:0:0:0:
448,192,140677,1,0,0:0:0:0:
320,192,140808,1,0,0:0:0:0:
192,192,140938,1,2,0:0:0:0:
448,192,140938,1,0,0:0:0:0:
320,192,141069,1,0,0:0:0:0:
64,192,141199,1,2,0:0:0:0:
448,192,141199,1,0,0:0:0:0:
192,192,141329,1,0,0:0:0:0:
320,192,141460,1,2,0:0:0:0:
448,192,141460,1,0,0:0:0:0:
64,192,141590,1,0,0:0:0:0:
192,192,141721,1,2,0:0:0:0:
320,192,141721,1,0,0:0:0:0:
448,192,141851,1,0,0:0:0:0:
64,192,141982,1,2,0:0:0:0:
192,192,141982,1,0,0:0:0:0:
320,192,142112,1,0,0:0:0:0:
64,192,142242,1,2,0:0:0:0:
448,192,142242,128,0,142503:0:0:0:0:
192,192,142373,1,0,0:0:0:0:
64,192,142503,1,2,0:0:0:0:
320,192,142503,1,0,0:0:0:0:
192,192,142634,128,0,142895:0:0:0:0:
320,192,142764,1,2,0:0:0:0:
448,192,142764,1,0,0:0:0:0:
64,192,142895,1,0,0:0:0:0:
192,192,143025,1,2,0:0:0:0:
320,192,143025,128,0,143416:0:0:0:0:
448,192,143156,1,0,0:0:0:0:
64,192,143286,1,2,0:0:0:0:
192,192,143286,1,0,0:0:0:0:
448,192,143416,1,0,0:0:0:0:
64,192,143547,1,2,0:0:0:0:
320,192,143547,1,0,0:0:0:0:
192,192,143677,1,0,0:0:0:0:
64,192,143808,128,2,143938:0:0:0:0:
448,192,143808,128,0,143938:0:0:0:0:
320,192,143938,1,0,0:0:0:0:
64,192,144069,128,2,144199:0:0:0:0:
448,192,144069,128,0,144199:0:0:0:0:
192,192,144199,1,0,0:0:0:0:
64,192,144329,128,2,144460:0:0:0:0:
320,192,144329,1,0,0:0:0:0:
448,192,144329,128,0,144460:0:0:0:0:
192,192,144460,1,0,0:0:0:0:
320,192,144590,1,2,0:0:0:0:
448,192,144590,1,0,0:0:0:0:
64,192,144721,1,0,0:0:0:0:
192,192,144851,1,2,0:0:0:0:
320,192,144851,1,0,0:0:0:0:
448,192,144982,1,0,0:0:0:0:
64,192,145112,1,2,0:0:0:0:
192,192,145112,1,0,0:0:0:0:
320,192,145242,1,0,0:0:0:0:
192,192,145373,1,2,0:0:0:0:
448,192,145373,1,0,0:0:0:0:
64,192,145503,1,0,0:0:0:0:
320,192,145634,1,2,0:0:0:0:
448,192,145634,1,0,0:0:0:0:
192,192,145764,1,0,0:0:0:0:
64,192,145895,1,2,0:0:0:0:
448,192,145895,1,0,0:0:0:0:
320,192,146025,1,0,0:0:0:0:
64,192,146156,1,2,0:0:0:0:
192,192,146156,1,0,0:0:0:0:
448,192,146286,1,0,0:0:0:0:
192,192,146416,128,2,146677:0:0:0:0:
320,192,146416,1,0,0:0:0:0:
64,192,146547,1,0,0:0:0:0:
320,192,146677,1,2,0:0:0:0:
448,192,146677,1,0,0:0:0:0:
64,192,146808,128,0,147069:0:0:0:0:
192,192,146938,1,2,0:0:0:0:
448,192,146938,1,0,0:0:0:0:
320,192,147069,1,0,0:0:0:0:
64,192,147199,1,2,0:0:0:0:
448,192,147199,128,0,147460:0:0:0:0:
192,192,147329,1,0,0:0:0:0:
64,192,147460,1,2,0:0:0:0:
320,192,147460,1,0,0:0:0:0:
192,192,147590,1,0,0:0:0:0:
320,192,147721,1,2,0:0:0:0:
448,192,147721,1,0,0:0:0:0:
64,192,147851,1,0,0:0:0:0:
192,192,147982,1,2,0:0:0:0:
448,192,147982,1,0,0:0:0:0:
320,192,148112,1,0,0:0:0:0:
64,192,148242,1,2,0:0:0:0:
192,192,148242,1,0,0:0:0:0:
448,192,148373,1,0,0:0:0:0:
64,192,148503,1,2,0:0:0:0:
192,192,148503,1,0,0:0:0:0:
320,192,148503,1,0,0:0:0:0:
448,192,148634,1,0,0:0:0:0:
192,192,148764,1,2,0:0:0:0:
320,192,148764,1,0,0:0:0:0:
64,192,148895,1,0,0:0:0:0:
320,192,149025,1,2,0:0:0:0:
448,192,149025,1,0,0:0:0:0:
192,192,149156,1,0,0:0:0:0:
64,192,149286,1,2,0:0:0:0:
320,192,149286,1,0,0:0:0:0:
192,192,149416,1,0,0:0:0:0:
320,192,149547,1,2,0:0:0:0:
448,192,149547,1,0,0:0:0:0:
64,192,149677,1,0,0:0:0:0:
192,192,149808,1,2,0:0:0:0:
320,192,149808,1,0,0:0:0:0:
448,192,149938,1,0,0:0:0:0:
64,192,150069,1,2,0:0:0:0:
192,192,150069,1,0,0:0:0:0:
320,192,150199,1,0,0:0:0:0:
64,192,150329,1,2,0:0:0:0:
448,192,150329,1,0,0:0:0:0:
192,192,150460,1,0,0:0:0:0:
64,192,150590,1,2,0:0:0:0:
320,192,150590,1,0,0:0:0:0:
448,192,150590,1,0,0:0:0:0:
192,192,150721,1,0,0:0:0:0:
64,192,150851,1,2,0:0:0:0:
448,192,150851,1,0,0:0:0:0:
320,192,150982,1,0,0:0:0:0:
64,192,151112,1,2,0:0:0:0:
192,192,151112,1,0,0:0:0:0:
320,192,151242,1,0,0:0:0:0:
192,192,151373,1,2,0:0:0:0:
448,192,151373,1,0,0:0:0:0:
320,192,151503,1,0,0:0:0:0:
64,192,151634,1,2,0:0:0:0:
192,192,151634,1,0,0:0:0:0:
448,192,151764,1,0,0:0:0:0:
192,192,151895,1,2,0:0:0:0:
320,192,151895,1,0,0:0:0:0:
64,192,152025,1,0,0:0:0:0:
320,192,152156,1,2,0:0:0:0:
448,192,152156,1,0,0:0:0:0:
192,192,152286,1,0,0:0:0:0:
64,192,152416,1,2,0:0:0:0:
320,192,152416,1,0,0:0:0:0:
448,192,152547,1,0,0:0:0:0:
64,192,152677,1,2,0:0:0:0:
192,192,152677,1,0,0:0:0:0:
320,192,152677,1,0,0:0:0:0:
192,192,152808,1,0,0:0:0:0:
64,192,152938,1,2,0:0:0:0:
448,192,152938,1,0,0:0:0:0:
320,192,153069,1,0,0:0:0:0:
192,192,153199,1,2,0:0:0:0:
448,192,153199,1,0,0:0:0:0:
64,192,153329,1,0,0:0:0:0:
320,192,153460,1,2,0:0:0:0:
448,192,153460,1,0,0:0:0:0:
192,192,153590,1,0,0:0:0:0:
64,192,153721,1,2,0:0:0:0:
448,192,153721,1,0,0:0:0:0:
320,192,153851,1,0,0:0:0:0:
64,192,153982,1,2,0:0:0:0:
192,192,153982,1,0,0:0:0:0:
320,192,154112,1,0,0:0:0:0:
192,192,154242,1,2,0:0:0:0:
448,192,154242,1,0,0:0:0:0:
64,192,154373,1,0,0:0:0:0:
320,192,154503,1,2,0:0:0:0:
448,192,154503,1,0,0:0:0:0:
192,192,154634,1,0,0:0:0:0:
64,192,154764,1,2,0:0:0:0:
320,192,154764,1,0,0:0:0:0:
448,192,154764,1,0,0:0:0:0:
192,192,154895,1,0,0:0:0:0:
64,192,155025,1,2,0:0:0:0:
448,192,155025,1,0,0:0:0:0:
320,192,155155,1,0,0:0:0:0:
64,192,155286,1,2,0:0:0:0:
448,192,155286,1,0,0:0:0:0:
192,192,155416,1,0,0:0:0:0:
320,192,155547,1,2,0:0:0:0:
448,192,155547,1,0,0:0:0:0:
64,192,155677,1,0,0:0:0:0:
192,192,155808,128,2,156003:0:0:0:0:
320,192,155808,128,2,155905:0:1:0:0:
448,192,155808,1,0,0:0:0:0:
64,192,155938,128,0,156134:0:0:0:0:
448,192,155971,128,0,156101:0:0:0:0:
320,192,156069,128,0,156264:0:0:0:0:
64,192,156199,1,2,0:0:0:0:
192,192,156199,128,2,156395:0:1:0:0:
448,192,156199,1,0,0:0:0:0:
320,192,156329,128,0,156395:0:0:0:0:
64,192,156590,1,2,0:0:0:0:
192,192,156590,1,2,0:1:0:0:
320,192,156590,1,0,0:0:0:0:
64,192,156851,1,2,0:0:0:0:
320,192,156851,1,2,0:1:0:0:
448,192,156851,1,0,0:0:0:0:
192,192,156982,1,0,0:0:0:0:
64,192,157112,1,2,0:0:0:0:
448,192,157112,1,2,0:1:0:0:
320,192,157242,1,0,0:0:0:0:
64,192,157373,1,2,0:0:0:0:
192,192,157373,1,2,0:1:0:0:
448,192,157373,1,0,0:0:0:0:
320,192,157503,1,0,0:0:0:0:
64,192,157634,1,2,0:0:0:0:
192,192,157634,1,2,0:1:0:0:
448,192,157634,1,0,0:0:0:0:
320,192,157764,1,0,0:0:0:0:
320,192,157895,1,0,0:0:0:0:
64,192,158025,1,2,0:0:0:0:
192,192,158025,1,2,0:1:0:0:
448,192,158025,1,0,0:0:0:0:
64,192,158155,1,2,0:0:0:0:
192,192,158155,1,2,0:1:0:0:
448,192,158155,1,0,0:0:0:0:
64,192,158286,1,2,0:0:0:0:
320,192,158286,1,2,0:1:0:0:
448,192,158286,1,0,0:0:0:0:
64,192,158416,1,2,0:0:0:0:
320,192,158416,1,2,0:1:0:0:
448,192,158416,1,0,0:0:0:0:
192,192,158547,1,0,0:0:0:0:
320,192,158677,1,2,0:0:0:0:
448,192,158677,1,2,0:1:0:0:
64,192,158808,1,0,0:0:0:0:
192,192,158938,1,2,0:0:0:0:
320,192,158938,1,2,0:1:0:0:
448,192,158938,1,0,0:0:0:0:
64,192,159069,1,0,0:0:0:0:
192,192,159199,1,2,0:0:0:0:
448,192,159199,1,2,0:1:0:0:
320,192,159329,1,0,0:0:0:0:
64,192,159460,1,2,0:0:0:0:
192,192,159460,1,2,0:1:0:0:
448,192,159460,1,0,0:0:0:0:
320,192,159590,1,0,0:0:0:0:
64,192,159721,1,2,0:0:0:0:
192,192,159721,1,2,0:1:0:0:
448,192,159851,1,0,0:0:0:0:
64,192,159982,1,2,0:0:0:0:
192,192,159982,1,2,0:1:0:0:
320,192,159982,1,0,0:0:0:0:
448,192,160112,1,0,0:0:0:0:
192,192,160242,1,2,0:0:0:0:
320,192,160242,1,0,0:0:0:0:
64,192,160373,1,0,0:0:0:0:
192,192,160503,1,2,0:0:0:0:
320,192,160503,1,0,0:0:0:0:
448,192,160503,1,0,0:0:0:0:
64,192,160634,1,0,0:0:0:0:
320,192,160764,1,2,0:0:0:0:
448,192,160764,1,0,0:0:0:0:
192,192,160895,1,0,0:0:0:0:
64,192,161025,1,2,0:0:0:0:
320,192,161025,1,0,0:0:0:0:
448,192,161025,1,0,0:0:0:0:
192,192,161155,1,0,0:0:0:0:
64,192,161286,1,2,0:0:0:0:
448,192,161286,1,0,0:0:0:0:
320,192,161416,1,0,0:0:0:0:
64,192,161547,1,2,0:0:0:0:
192,192,161547,1,0,0:0:0:0:
448,192,161547,1,0,0:0:0:0:
320,192,161677,1,0,0:0:0:0:
64,192,161808,1,2,0:0:0:0:
448,192,161808,1,0,0:0:0:0:
192,192,161938,1,0,0:0:0:0:
64,192,162069,1,2,0:0:0:0:
320,192,162069,1,0,0:0:0:0:
448,192,162069,1,0,0:0:0:0:
192,192,162199,1,0,0:0:0:0:
320,192,162329,1,2,0:0:0:0:
448,192,162329,1,0,0:0:0:0:
64,192,162460,1,0,0:0:0:0:
192,192,162590,1,2,0:0:0:0:
320,192,162590,1,0,0:0:0:0:
448,192,162721,1,0,0:0:0:0:
64,192,162851,1,2,0:0:0:0:
192,192,162851,1,0,0:0:0:0:
320,192,162982,1,0,0:0:0:0:
192,192,163112,1,2,0:3:0:0:
448,192,163112,1,0,0:0:0:0:
64,192,163242,1,0,0:0:0:0:
320,192,163373,1,2,0:3:0:0:
448,192,163373,1,0,0:0:0:0:
192,192,163503,1,0,0:0:0:0:
64,192,163634,1,2,0:3:0:0:
320,192,163634,1,0,0:0:0:0:
448,192,163764,1,0,0:0:0:0:
64,192,163895,1,2,0:3:0:0:
192,192,163895,1,0,0:0:0:0:
320,192,164025,1,0,0:0:0:0:
64,192,164155,1,2,0:3:0:0:
448,192,164155,1,0,0:0:0:0:
192,192,164286,1,0,0:0:0:0:
64,192,164416,1,2,0:3:0:0:
320,192,164416,1,0,0:0:0:0:
448,192,164547,1,0,0:0:0:0:
64,192,164677,1,2,0:3:0:0:
192,192,164710,1,0,0:0:0:0:
320,192,164742,1,0,0:0:0:0:
448,192,164775,1,0,0:0:0:0:
64,192,164808,1,0,0:0:0:0:
192,192,164840,1,0,0:0:0:0:
320,192,164873,1,0,0:0:0:0:
448,192,164905,1,0,0:0:0:0:
192,192,164938,1,2,0:3:0:0:
64,192,164971,1,0,0:0:0:0:
448,192,165003,1,0,0:0:0:0:
320,192,165036,1,0,0:0:0:0:
192,192,165069,1,0,0:0:0:0:
64,192,165101,1,0,0:0:0:0:
448,192,165134,1,0,0:0:0:0:
320,192,165166,1,0,0:0:0:0:
64,192,165199,1,2,0:0:0:0:
192,192,165199,1,4,0:1:0:0:
192,192,165460,1,0,0:0:0:0:
320,192,165721,1,2,0:0:0:0:
448,192,165721,1,0,0:0:0:0:
320,192,165851,1,2,0:0:0:0:
448,192,165851,1,0,0:0:0:0:
64,192,165982,1,2,0:0:0:0:
192,192,165982,1,0,0:0:0:0:
64,192,166112,1,2,0:0:0:0:
192,192,166112,1,0,0:0:0:0:
64,192,166242,1,2,0:0:0:0:
448,192,166242,1,0,0:0:0:0:
192,192,166503,1,2,0:0:0:0:
320,192,166503,1,0,0:0:0:0:
64,192,166764,1,2,0:0:0:0:
448,192,166764,1,0,0:0:0:0:
448,192,166895,1,0,0:0:0:0:
192,192,167025,128,0,167286:0:0:0:0:
64,192,167286,1,2,0:0:0:0:
448,192,167286,1,0,0:0:0:0:
320,192,167416,1,0,0:0:0:0:
320,192,167547,128,0,167808:0:0:0:0:
64,192,167677,1,0,0:0:0:0:
192,192,167808,1,2,0:0:0:0:
448,192,167808,1,0,0:0:0:0:
448,192,168069,128,0,168329:0:0:0:0:
192,192,168199,1,0,0:0:0:0:
64,192,168329,1,2,0:0:0:0:
320,192,168329,1,0,0:0:0:0:
64,192,168460,1,0,0:0:0:0:
192,192,168590,128,0,168851:0:0:0:0:
64,192,168851,1,2,0:0:0:0:
448,192,168851,1,0,0:0:0:0:
320,192,169112,128,0,169373:0:0:0:0:
64,192,169373,1,2,0:0:0:0:
192,192,169373,1,0,0:0:0:0:
448,192,169373,1,0,0:0:0:0:
64,192,169634,128,0,169895:0:0:0:0:
320,192,169764,1,0,0:0:0:0:
192,192,169895,1,2,0:0:0:0:
320,192,169895,1,0,0:0:0:0:
320,192,170155,128,0,170416:0:0:0:0:
64,192,170416,1,2,0:0:0:0:
448,192,170416,1,0,0:0:0:0:
64,192,170547,1,0,0:0:0:0:
192,192,170677,128,0,170938:0:0:0:0:
448,192,170808,1,0,0:0:0:0:
64,192,170938,1,2,0:0:0:0:
448,192,170938,1,0,0:0:0:0:
448,192,171199,128,0,171460:0:0:0:0:
64,192,171460,1,2,0:0:0:0:
192,192,171460,1,0,0:0:0:0:
192,192,171590,1,0,0:0:0:0:
64,192,171721,128,0,171982:0:0:0:0:
320,192,171851,1,0,0:0:0:0:
320,192,171982,1,2,0:0:0:0:
448,192,171982,1,0,0:0:0:0:
192,192,172242,128,0,172503:0:0:0:0:
448,192,172373,1,0,0:0:0:0:
64,192,172503,1,2,0:0:0:0:
320,192,172503,1,0,0:0:0:0:
64,192,172634,1,0,0:0:0:0:
448,192,172764,128,0,173025:0:0:0:0:
64,192,173025,128,2,173155:0:0:0:0:
192,192,173025,128,0,173155:0:0:0:0:
320,192,173025,128,0,173938:0:0:0:0:
64,192,173286,128,2,173416:0:0:0:0:
192,192,173286,128,0,173416:0:0:0:0:
64,192,173547,128,2,173677:0:0:0:0:
192,192,173547,128,0,173677:0:0:0:0:
448,192,173547,128,0,173938:0:0:0:0:
64,192,173808,128,2,173938:0:0:0:0:
192,192,173808,128,0,173938:0:0:0:0:
64,192,174068,1,4,0:0:0:0:
192,192,174068,1,2,0:0:0:0:
448,192,174068,1,0,0:0:0:0:
448,192,174328,1,0,0:0:0:0:
192,192,174589,1,0,0:0:0:0:
64,192,174850,1,2,0:0:0:0:
192,192,174850,1,0,0:0:0:0:
320,192,175111,1,2,0:0:0:0:
448,192,175111,1,0,0:0:0:0:
64,192,175241,1,0,0:0:0:0:
192,192,175372,1,2,0:0:0:0:
448,192,175372,1,0,0:0:0:0:
320,192,175502,1,0,0:0:0:0:
64,192,175633,1,2,0:0:0:0:
192,192,175633,1,0,0:0:0:0:
64,192,175763,1,0,0:0:0:0:
320,192,175894,1,2,0:0:0:0:
448,192,175894,1,0,0:0:0:0:
192,192,176024,1,0,0:0:0:0:
64,192,176154,1,2,0:0:0:0:
320,192,176154,1,0,0:0:0:0:
320,192,176285,1,0,0:0:0:0:
64,192,176415,1,2,0:0:0:0:
192,192,176415,1,0,0:0:0:0:
448,192,176546,1,0,0:0:0:0:
192,192,176676,1,2,0:0:0:0:
448,192,176676,1,0,0:0:0:0:
320,192,176807,1,0,0:0:0:0:
64,192,176937,1,2,0:0:0:0:
192,192,176937,1,0,0:0:0:0:
448,192,177068,1,0,0:0:0:0:
192,192,177198,1,2,0:0:0:0:
320,192,177198,1,0,0:0:0:0:
192,192,177328,1,0,0:0:0:0:
64,192,177459,1,2,0:0:0:0:
448,192,177459,1,0,0:0:0:0:
320,192,177589,1,0,0:0:0:0:
64,192,177720,1,2,0:0:0:0:
192,192,177720,1,0,0:0:0:0:
448,192,177850,1,0,0:0:0:0:
192,192,177981,1,2,0:0:0:0:
320,192,177981,1,0,0:0:0:0:
64,192,178111,1,0,0:0:0:0:
192,192,178241,1,2,0:0:0:0:
320,192,178241,1,4,0:0:0:0:
448,192,178241,1,0,0:0:0:0:
64,192,178372,1,0,0:0:0:0:
192,192,178502,1,2,0:0:0:0:
448,192,178502,1,0,0:0:0:0:
320,192,178633,1,0,0:0:0:0:
64,192,178763,1,2,0:0:0:0:
320,192,178763,1,0,0:0:0:0:
192,192,178894,1,0,0:0:0:0:
320,192,179024,1,2,0:0:0:0:
448,192,179024,1,0,0:0:0:0:
64,192,179154,1,0,0:0:0:0:
192,192,179285,1,2,0:0:0:0:
448,192,179285,1,0,0:0:0:0:
192,192,179415,1,0,0:0:0:0:
64,192,179546,1,2,0:0:0:0:
320,192,179546,1,0,0:0:0:0:
448,192,179676,1,0,0:0:0:0:
192,192,179807,1,2,0:0:0:0:
448,192,179807,1,0,0:0:0:0:
64,192,179937,1,0,0:0:0:0:
320,192,180068,1,2,0:0:0:0:
448,192,180068,1,0,0:0:0:0:
192,192,180198,1,0,0:0:0:0:
64,192,180328,1,2,0:0:0:0:
320,192,180328,1,0,0:0:0:0:
64,192,180459,1,0,0:0:0:0:
320,192,180589,1,2,0:0:0:0:
448,192,180589,1,0,0:0:0:0:
192,192,180720,1,0,0:0:0:0:
192,192,180850,1,2,0:0:0:0:
448,192,180850,1,0,0:0:0:0:
320,192,180981,1,0,0:0:0:0:
64,192,181111,1,2,0:0:0:0:
448,192,181111,1,0,0:0:0:0:
192,192,181241,1,0,0:0:0:0:
64,192,181372,1,2,0:0:0:0:
320,192,181372,1,0,0:0:0:0:
320,192,181502,1,0,0:0:0:0:
64,192,181633,1,2,0:0:0:0:
448,192,181633,1,0,0:0:0:0:
192,192,181763,1,0,0:0:0:0:
320,192,181894,1,2,0:0:0:0:
448,192,181894,1,0,0:0:0:0:
64,192,182024,1,0,0:0:0:0:
320,192,182154,1,2,0:0:0:0:
448,192,182154,1,0,0:0:0:0:
192,192,182285,1,0,0:0:0:0:
64,192,182415,1,2,0:0:0:0:
320,192,182415,1,4,0:0:0:0:
448,192,182415,1,0,0:0:0:0:
192,192,182546,1,0,0:0:0:0:
64,192,182676,1,2,0:0:0:0:
448,192,182676,1,0,0:0:0:0:
320,192,182807,1,0,0:0:0:0:
64,192,182937,1,2,0:0:0:0:
192,192,182937,1,0,0:0:0:0:
448,192,183068,1,0,0:0:0:0:
192,192,183198,1,2,0:0:0:0:
320,192,183198,1,0,0:0:0:0:
64,192,183328,1,0,0:0:0:0:
320,192,183459,1,2,0:0:0:0:
448,192,183459,1,0,0:0:0:0:
192,192,183589,1,0,0:0:0:0:
64,192,183720,1,2,0:0:0:0:
448,192,183720,1,0,0:0:0:0:
320,192,183850,1,0,0:0:0:0:
64,192,183981,1,2,0:0:0:0:
192,192,183981,1,0,0:0:0:0:
320,192,184111,1,0,0:0:0:0:
448,192,184111,1,0,0:0:0:0:
64,192,184241,1,2,0:0:0:0:
192,192,184241,1,0,0:0:0:0:
320,192,184372,1,0,0:0:0:0:
64,192,184502,1,2,0:0:0:0:
448,192,184502,1,0,0:0:0:0:
192,192,184633,1,0,0:0:0:0:
320,192,184633,1,0,0:0:0:0:
64,192,184763,1,2,0:0:0:0:
448,192,184763,1,0,0:0:0:0:
192,192,184894,1,0,0:0:0:0:
320,192,184894,1,0,0:0:0:0:
64,192,185024,1,2,0:0:0:0:
448,192,185024,1,0,0:0:0:0:
192,192,185154,1,0,0:0:0:0:
320,192,185285,1,2,0:0:0:0:
448,192,185285,1,0,0:0:0:0:
64,192,185415,1,0,0:0:0:0:
192,192,185415,1,0,0:0:0:0:
320,192,185546,1,2,0:0:0:0:
448,192,185546,1,0,0:0:0:0:
64,192,185676,1,0,0:0:0:0:
192,192,185676,1,0,0:0:0:0:
320,192,185807,1,2,0:0:0:0:
448,192,185807,1,0,0:0:0:0:
64,192,185937,1,0,0:0:0:0:
192,192,186068,1,2,0:0:0:0:
320,192,186068,1,0,0:0:0:0:
448,192,186198,1,0,0:0:0:0:
64,192,186328,1,2,0:0:0:0:
192,192,186328,1,0,0:0:0:0:
320,192,186459,1,0,0:0:0:0:
192,192,186589,1,2,0:1:0:0:
448,192,186589,1,0,0:0:0:0:
64,192,186720,1,2,0:3:0:0:
192,192,186720,1,0,0:0:0:0:
320,192,186850,1,2,0:1:0:0:
448,192,186850,1,0,0:0:0:0:
64,192,186981,1,2,0:3:0:0:
320,192,186981,1,0,0:0:0:0:
192,192,187111,1,2,0:1:0:0:
448,192,187111,1,0,0:0:0:0:
64,192,187241,1,0,0:0:0:0:
192,192,187241,1,0,0:0:0:0:
320,192,187372,1,2,0:0:0:0:
448,192,187372,1,0,0:0:0:0:
64,192,187502,1,2,0:0:0:0:
320,192,187502,1,0,0:0:0:0:
192,192,187633,1,2,0:0:0:0:
448,192,187633,1,0,0:0:0:0:
64,192,187763,1,0,0:0:0:0:
320,192,187763,1,0,0:0:0:0:
192,192,187894,1,2,0:0:0:0:
448,192,187894,1,0,0:0:0:0:
64,192,188024,1,0,0:0:0:0:
320,192,188024,1,0,0:0:0:0:
192,192,188154,1,2,0:0:0:0:
448,192,188154,1,0,0:0:0:0:
320,192,188285,1,0,0:0:0:0:
64,192,188415,1,2,0:0:0:0:
192,192,188415,1,0,0:0:0:0:
448,192,188546,1,0,0:0:0:0:
320,192,188676,1,2,0:3:0:0:
448,192,188807,1,0,0:0:0:0:
192,192,188937,1,2,0:3:0:0:
320,192,189067,1,0,0:0:0:0:
320,192,189198,1,2,0:3:0:0:
64,192,189328,1,0,0:0:0:0:
320,192,189459,1,0,0:0:0:0:
192,192,189589,1,0,0:0:0:0:
448,192,189720,1,0,0:0:0:0:
448,192,189850,1,0,0:0:0:0:
192,192,189981,1,0,0:0:0:0:
192,192,190241,1,0,0:0:0:0:
64,192,190763,1,2,0:3:0:0:
320,192,190763,1,0,0:0:0:0:
448,192,190763,1,0,0:0:0:0:
192,192,190894,1,0,0:0:0:0:
320,192,191024,1,8,0:1:0:0:
64,192,191154,1,2,0:3:0:0:
320,192,191154,1,0,0:0:0:0:
192,192,191285,1,8,0:1:0:0:
448,192,191285,1,0,0:0:0:0:
320,192,191415,1,0,0:0:0:0:
64,192,191546,1,8,0:1:0:0:
320,192,191546,1,0,0:0:0:0:
192,192,191676,1,0,0:0:0:0:
64,192,191807,1,2,0:3:0:0:
448,192,191807,1,0,0:0:0:0:
64,192,191937,1,0,0:0:0:0:
448,192,191937,1,0,0:0:0:0:
192,192,192067,1,8,0:1:0:0:
320,192,192067,1,0,0:0:0:0:
64,192,192198,1,0,0:0:0:0:
320,192,192328,1,2,0:3:0:0:
448,192,192328,1,8,0:1:0:0:
192,192,192459,1,0,0:0:0:0:
64,192,192589,1,8,0:1:0:0:
448,192,192589,1,0,0:0:0:0:
320,192,192720,1,0,0:0:0:0:
64,192,192850,1,2,0:3:0:0:
192,192,192850,1,0,0:0:0:0:
448,192,192981,1,0,0:0:0:0:
192,192,193111,1,2,0:3:0:0:
448,192,193111,1,8,0:1:0:0:
320,192,193241,1,0,0:0:0:0:
64,192,193372,1,8,0:1:0:0:
192,192,193372,1,0,0:0:0:0:
64,192,193502,1,8,0:1:0:0:
192,192,193502,1,0,0:0:0:0:
448,192,193633,1,8,0:1:0:0:
320,192,193698,1,8,0:1:0:0:
64,192,193763,1,0,0:0:0:0:
192,192,193796,1,0,0:0:0:0:
320,192,193828,1,0,0:0:0:0:
448,192,193861,1,0,0:0:0:0:
64,192,193894,1,2,0:3:0:0:
192,192,193959,1,2,0:3:0:0:
320,192,194024,1,2,0:3:0:0:
448,192,194089,1,2,0:3:0:0:
64,192,194154,1,0,0:0:0:0:
192,192,194187,1,0,0:0:0:0:
320,192,194220,1,0,0:0:0:0:
448,192,194252,1,0,0:0:0:0:
64,192,194285,1,0,0:0:0:0:
192,192,194317,1,0,0:0:0:0:
320,192,194350,1,0,0:0:0:0:
448,192,194383,1,0,0:0:0:0:
64,192,194415,1,8,0:1:0:0:
192,192,194481,1,8,0:1:0:0:
448,192,194546,1,8,0:1:0:0:
320,192,194611,1,8,0:1:0:0:
192,192,194676,1,0,0:0:0:0:
64,192,194709,1,0,0:0:0:0:
448,192,194741,1,0,0:0:0:0:
320,192,194774,1,0,0:0:0:0:
192,192,194807,1,0,0:0:0:0:
64,192,194839,1,0,0:0:0:0:
448,192,194872,1,0,0:0:0:0:
320,192,194904,1,0,0:0:0:0:
64,192,194937,1,2,0:0:0:0:
192,192,194937,1,4,0:0:0:0:
448,192,195067,1,0,0:0:0:0:
192,192,195198,1,0,0:0:0:0:
64,192,195328,1,2,0:3:0:0:
192,192,195328,1,0,0:0:0:0:
320,192,195459,1,8,0:1:0:0:
448,192,195459,1,0,0:0:0:0:
192,192,195589,1,0,0:0:0:0:
64,192,195720,1,8,0:1:0:0:
192,192,195720,1,0,0:0:0:0:
448,192,195850,1,0,0:0:0:0:
64,192,195981,1,0,0:0:0:0:
320,192,195981,1,0,0:0:0:0:
64,192,196111,1,2,0:3:0:0:
320,192,196111,1,0,0:0:0:0:
192,192,196241,1,8,0:1:0:0:
448,192,196241,1,0,0:0:0:0:
320,192,196372,1,0,0:0:0:0:
64,192,196502,1,8,0:1:0:0:
320,192,196502,1,0,0:0:0:0:
192,192,196633,1,0,0:0:0:0:
64,192,196763,1,8,0:1:0:0:
448,192,196763,1,0,0:0:0:0:
320,192,196894,1,0,0:0:0:0:
64,192,197024,1,2,0:3:0:0:
192,192,197024,1,0,0:0:0:0:
448,192,197154,1,0,0:0:0:0:
192,192,197285,1,2,0:3:0:0:
448,192,197285,1,0,0:0:0:0:
64,192,197415,1,0,0:0:0:0:
320,192,197546,1,8,0:1:0:0:
448,192,197546,1,0,0:0:0:0:
192,192,197676,1,0,0:0:0:0:
448,192,197676,1,0,0:0:0:0:
64,192,197807,1,8,0:1:0:0:
320,192,197807,1,0,0:0:0:0:
320,192,197937,1,0,0:0:0:0:
448,192,197937,1,0,0:0:0:0:
64,192,198067,128,2,198720:0:3:0:0:
192,192,198067,128,0,198198:0:0:0:0:
448,192,198198,128,0,198459:0:0:0:0:
192,192,198328,128,2,198720:0:3:0:0:
320,192,198328,128,0,198459:0:0:0:0:
320,192,198589,128,8,199111:0:1:0:0:
448,192,198589,128,0,199111:0:0:0:0:
64,192,198850,128,2,199111:0:3:0:0:
192,192,198850,128,0,199111:0:0:0:0:
64,192,200154,1,2,0:0:0:0:
192,192,200154,128,4,200285:0:1:0:0:
448,192,200154,1,0,0:0:0:0:
320,192,200285,128,0,200415:0:0:0:0:
192,192,200415,128,0,200546:0:0:0:0:
320,192,200546,128,0,200676:0:0:0:0:
64,192,200676,128,0,200807:0:0:0:0:
448,192,200807,128,0,200937:0:0:0:0:
64,192,200937,128,0,201067:0:0:0:0:
448,192,201067,128,0,201198:0:0:0:0:
192,192,201198,128,0,201981:0:0:0:0:
320,192,201633,128,0,201981:0:0:0:0:
192,192,202241,128,0,204328:0:0:0:0:
320,192,204328,128,0,204459:0:0:0:0:
64,192,204459,128,0,204589:0:0:0:0:
320,192,204589,128,0,204720:0:0:0:0:
64,192,204720,128,0,204850:0:0:0:0:
448,192,204850,128,0,204981:0:0:0:0:
192,192,204981,128,0,205111:0:0:0:0:
448,192,205111,128,0,205241:0:0:0:0:
192,192,205241,128,0,205372:0:0:0:0:
320,192,205372,128,0,205894:0:0:0:0:
448,192,205633,128,0,205894:0:0:0:0:
64,192,205894,1,0,0:0:0:0:
64,192,206154,1,0,0:0:0:0:
64,192,206415,1,0,0:0:0:0:
64,192,206676,1,0,0:0:0:0:
320,192,206807,1,0,0:0:0:0:
192,192,206937,1,0,0:0:0:0:
320,192,207067,1,0,0:0:0:0:
64,192,207198,1,0,0:0:0:0:
192,192,207328,1,0,0:0:0:0:
448,192,207459,1,0,0:0:0:0:
448,192,207720,1,0,0:0:0:0:
448,192,207981,1,0,0:0:0:0:
448,192,208241,1,0,0:0:0:0:
64,192,208502,1,0,0:0:0:0:
192,192,208502,128,0,208633:0:0:0:0:
320,192,208633,128,0,208763:0:0:0:0:
64,192,208763,128,0,208894:0:0:0:0:
448,192,208763,1,0,0:0:0:0:
192,192,208894,128,0,209024:0:0:0:0:
320,192,209024,128,0,209154:0:0:0:0:
448,192,209024,1,0,0:0:0:0:
192,192,209154,128,0,209285:0:0:0:0:
64,192,209285,1,0,0:0:0:0:
448,192,209285,128,0,209415:0:0:0:0:
320,192,209415,128,0,209546:0:0:0:0:
64,192,209546,1,8,0:0:0:0:
192,192,209546,1,0,0:0:0:0:
448,192,209676,1,0,0:0:0:0:
64,192,209807,1,8,0:0:0:0:
192,192,209807,1,0,0:0:0:0:
448,192,209937,1,0,0:0:0:0:
64,192,210067,1,8,0:0:0:0:
192,192,210067,1,0,0:0:0:0:
448,192,210198,1,0,0:0:0:0:
64,192,210328,1,8,0:0:0:0:
192,192,210328,1,0,0:0:0:0:
448,192,210459,1,0,0:0:0:0:
64,192,210589,1,8,0:0:0:0:
192,192,210589,1,0,0:0:0:0:
448,192,210720,1,0,0:0:0:0:
64,192,210850,1,8,0:0:0:0:
192,192,210850,1,0,0:0:0:0:
320,192,210981,1,0,0:0:0:0:
192,192,211111,1,8,0:0:0:0:
448,192,211111,1,0,0:0:0:0:
320,192,211241,1,0,0:0:0:0:
64,192,211372,1,8,0:0:0:0:
448,192,211372,1,0,0:0:0:0:
192,192,211502,1,0,0:0:0:0:
320,192,211633,1,8,0:0:0:0:
448,192,211633,1,0,0:0:0:0:
64,192,211763,1,0,0:0:0:0:
320,192,211894,1,8,0:0:0:0:
448,192,211894,1,0,0:0:0:0:
64,192,212024,1,0,0:0:0:0:
320,192,212154,1,8,0:0:0:0:
448,192,212154,1,0,0:0:0:0:
64,192,212285,1,0,0:0:0:0:
320,192,212415,1,8,0:0:0:0:
448,192,212415,1,0,0:0:0:0:
64,192,212546,1,0,0:0:0:0:
192,192,212676,128,8,212807:0:0:0:0:
448,192,212676,1,0,0:0:0:0:
320,192,212807,128,0,212937:0:0:0:0:
64,192,212937,1,8,0:0:0:0:
192,192,212937,128,0,213067:0:0:0:0:
320,192,213067,128,0,213198:0:0:0:0:
64,192,213198,1,8,0:0:0:0:
448,192,213198,128,0,213328:0:0:0:0:
192,192,213328,128,0,213459:0:0:0:0:
64,192,213459,1,8,0:0:0:0:
320,192,213459,128,0,213589:0:0:0:0:
192,192,213589,128,0,213720:0:0:0:0:
64,192,213720,1,8,0:0:0:0:
448,192,213720,1,0,0:0:0:0:
320,192,213850,1,0,0:0:0:0:
64,192,213981,1,8,0:0:0:0:
448,192,213981,1,0,0:0:0:0:
192,192,214111,1,0,0:0:0:0:
64,192,214241,1,8,0:0:0:0:
448,192,214241,1,0,0:0:0:0:
320,192,214372,1,0,0:0:0:0:
64,192,214502,1,8,0:0:0:0:
448,192,214502,1,0,0:0:0:0:
192,192,214633,1,0,0:0:0:0:
64,192,214763,1,8,0:0:0:0:
448,192,214763,1,0,0:0:0:0:
320,192,214894,1,0,0:0:0:0:
64,192,215024,1,8,0:0:0:0:
448,192,215024,1,0,0:0:0:0:
192,192,215154,1,0,0:0:0:0:
320,192,215285,1,8,0:0:0:0:
448,192,215285,1,0,0:0:0:0:
192,192,215415,1,0,0:0:0:0:
64,192,215546,1,8,0:0:0:0:
448,192,215546,1,0,0:0:0:0:
320,192,215676,1,0,0:0:0:0:
192,192,215807,1,8,0:0:0:0:
448,192,215807,1,0,0:0:0:0:
192,192,215937,1,8,0:0:0:0:
448,192,215937,1,0,0:0:0:0:
64,192,216067,1,8,0:0:0:0:
320,192,216067,1,0,0:0:0:0:
64,192,216198,1,8,0:0:0:0:
320,192,216198,1,0,0:0:0:0:
192,192,216328,1,8,0:0:0:0:
448,192,216328,1,0,0:0:0:0:
192,192,216459,1,8,0:0:0:0:
448,192,216459,1,0,0:0:0:0:
64,192,216589,1,8,0:0:0:0:
320,192,216589,1,0,0:0:0:0:
64,192,216720,1,8,0:0:0:0:
320,192,216720,1,0,0:0:0:0:
448,192,216850,1,0,0:0:0:0:
64,192,216981,1,0,0:0:0:0:
320,192,217111,1,0,0:0:0:0:
64,192,217241,1,0,0:0:0:0:
192,192,217372,1,0,0:0:0:0:
64,192,217502,1,0,0:0:0:0:
448,192,217633,1,0,0:0:0:0:
64,192,217763,1,0,0:0:0:0:
320,192,217894,1,2,0:0:0:0:
448,192,217894,1,8,0:0:0:0:
192,192,218024,1,0,0:0:0:0:
64,192,218154,1,8,0:0:0:0:
320,192,218154,1,2,0:0:0:0:
448,192,218285,1,0,0:0:0:0:
64,192,218415,1,2,0:0:0:0:
192,192,218415,1,8,0:0:0:0:
320,192,218546,1,0,0:0:0:0:
64,192,218676,1,8,0:0:0:0:
448,192,218676,1,2,0:0:0:0:
192,192,218807,1,0,0:0:0:0:
320,192,218937,1,2,0:0:0:0:
448,192,218937,1,8,0:0:0:0:
64,192,219067,1,0,0:0:0:0:
192,192,219198,128,8,219328:0:0:0:0:
448,192,219198,128,2,219328:0:0:0:0:
320,192,219328,128,0,219459:0:0:0:0:
64,192,219459,128,2,219589:0:0:0:0:
192,192,219459,128,8,219589:0:0:0:0:
320,192,219589,128,0,219720:0:0:0:0:
64,192,219720,128,8,219850:0:0:0:0:
448,192,219720,128,2,219850:0:0:0:0:
192,192,219850,128,0,219981:0:0:0:0:
320,192,219981,128,2,220111:0:0:0:0:
448,192,219981,128,8,220111:0:0:0:0:
64,192,220111,1,0,0:0:0:0:
192,192,220241,1,8,0:0:0:0:
448,192,220241,1,2,0:0:0:0:
320,192,220372,1,0,0:0:0:0:
64,192,220502,1,2,0:0:0:0:
192,192,220502,1,8,0:0:0:0:
448,192,220633,1,0,0:0:0:0:
192,192,220763,1,8,0:0:0:0:
320,192,220763,1,2,0:0:0:0:
64,192,220894,1,0,0:0:0:0:
320,192,221024,1,8,0:0:0:0:
448,192,221024,1,2,0:1:0:0:
64,192,221154,1,2,0:3:0:0:
192,192,221154,1,0,0:0:0:0:
320,192,221285,1,2,0:1:0:0:
448,192,221285,1,8,0:0:0:0:
64,192,221415,1,2,0:3:0:0:
192,192,221415,1,0,0:0:0:0:
320,192,221546,1,8,0:0:0:0:
448,192,221546,1,2,0:1:0:0:
64,192,221676,1,0,0:0:0:0:
448,192,221676,1,0,0:0:0:0:
192,192,221807,1,2,0:0:0:0:
320,192,221807,1,8,0:0:0:0:
192,192,221937,1,2,0:0:0:0:
320,192,221937,1,0,0:0:0:0:
64,192,222067,1,8,0:0:0:0:
192,192,222067,1,2,0:0:0:0:
448,192,222198,1,0,0:0:0:0:
64,192,222328,1,2,0:0:0:0:
320,192,222328,1,8,0:0:0:0:
192,192,222459,1,0,0:0:0:0:
64,192,222589,1,2,0:0:0:0:
448,192,222589,1,8,0:0:0:0:
320,192,222720,1,0,0:0:0:0:
192,192,222850,1,8,0:0:0:0:
448,192,222850,1,2,0:0:0:0:
64,192,222981,1,0,0:0:0:0:
320,192,223111,1,2,0:0:0:0:
448,192,223111,1,8,0:0:0:0:
192,192,223241,1,0,0:0:0:0:
64,192,223372,128,8,223502:0:0:0:0:
448,192,223372,128,2,223502:0:0:0:0:
320,192,223502,128,0,223633:0:0:0:0:
64,192,223633,128,2,223763:0:0:0:0:
192,192,223633,128,8,223763:0:0:0:0:
320,192,223763,128,0,223894:0:0:0:0:
192,192,223894,128,8,224024:0:0:0:0:
448,192,223894,128,2,224024:0:0:0:0:
64,192,224024,128,0,224154:0:0:0:0:
320,192,224154,1,0,0:0:0:0:
448,192,224285,1,0,0:0:0:0:
192,192,224415,1,0,0:0:0:0:
320,192,224546,1,0,0:0:0:0:
64,192,224676,1,0,0:0:0:0:
192,192,224807,1,0,0:0:0:0:
448,192,224937,1,0,0:0:0:0:
64,192,225067,1,0,0:0:0:0:
320,192,225198,1,0,0:0:0:0:
192,192,225328,1,0,0:0:0:0:
448,192,225459,1,0,0:0:0:0:
320,192,225589,1,0,0:0:0:0:
64,192,225720,128,0,226111:0:0:0:0:
192,192,225850,128,0,226111:0:0:0:0:
320,192,225981,128,0,226111:0:0:0:0:
64,192,226241,1,8,0:0:0:0:
192,192,226241,1,2,0:0:0:0:
320,192,226241,1,4,0:0:0:0:
448,192,226372,1,0,0:0:0:0:
64,192,226502,1,2,0:0:0:0:
192,192,226502,1,8,0:0:0:0:
320,192,226633,1,0,0:0:0:0:
64,192,226763,1,8,0:0:0:0:
448,192,226763,1,2,0:0:0:0:
192,192,226894,1,0,0:0:0:0:
320,192,227024,1,2,0:0:0:0:
448,192,227024,1,8,0:0:0:0:
192,192,227154,1,0,0:0:0:0:
64,192,227285,1,8,0:0:0:0:
448,192,227285,1,2,0:0:0:0:
320,192,227415,1,0,0:0:0:0:
64,192,227546,1,2,0:0:0:0:
192,192,227546,1,8,0:0:0:0:
320,192,227676,1,0,0:0:0:0:
448,192,227676,1,0,0:0:0:0:
64,192,227807,1,8,0:0:0:0:
192,192,227807,1,2,0:0:0:0:
320,192,227937,1,0,0:0:0:0:
448,192,227937,1,0,0:0:0:0:
64,192,228067,1,2,0:0:0:0:
320,192,228067,1,8,0:0:0:0:
192,192,228198,1,0,0:0:0:0:
448,192,228198,1,0,0:0:0:0:
64,192,228328,1,8,0:0:0:0:
320,192,228328,1,2,0:0:0:0:
192,192,228459,1,0,0:0:0:0:
320,192,228589,1,2,0:0:0:0:
448,192,228589,1,8,0:0:0:0:
64,192,228720,1,0,0:0:0:0:
192,192,228850,1,8,0:0:0:0:
448,192,228850,1,2,0:0:0:0:
320,192,228981,1,0,0:0:0:0:
64,192,229111,1,2,0:0:0:0:
448,192,229111,1,8,0:0:0:0:
192,192,229241,1,0,0:0:0:0:
64,192,229372,1,8,0:0:0:0:
320,192,229372,1,2,0:3:0:0:
192,192,229502,1,0,0:0:0:0:
320,192,229633,1,8,0:0:0:0:
448,192,229633,1,2,0:3:0:0:
64,192,229763,1,2,0:3:0:0:
192,192,229763,1,0,0:0:0:0:
448,192,229894,1,8,0:0:0:0:
64,192,230024,1,2,0:3:0:0:
192,192,230024,1,0,0:0:0:0:
320,192,230154,1,2,0:0:0:0:
448,192,230154,1,8,0:0:0:0:
64,192,230285,1,0,0:0:0:0:
192,192,230415,1,8,0:0:0:0:
448,192,230415,1,2,0:0:0:0:
320,192,230546,1,0,0:0:0:0:
64,192,230676,1,2,0:0:0:0:
192,192,230676,1,8,0:0:0:0:
448,192,230807,1,0,0:0:0:0:
192,192,230937,1,8,0:0:0:0:
320,192,230937,1,2,0:0:0:0:
64,192,231067,1,0,0:0:0:0:
320,192,231198,1,2,0:0:0:0:
448,192,231198,1,8,0:0:0:0:
192,192,231328,1,0,0:0:0:0:
64,192,231459,1,8,0:0:0:0:
448,192,231459,1,2,0:0:0:0:
320,192,231589,1,0,0:0:0:0:
64,192,231720,1,2,0:0:0:0:
192,192,231720,1,8,0:0:0:0:
320,192,231850,1,0,0:0:0:0:
448,192,231850,1,0,0:0:0:0:
64,192,231981,1,8,0:0:0:0:
192,192,231981,1,2,0:0:0:0:
320,192,232111,1,0,0:0:0:0:
448,192,232111,1,0,0:0:0:0:
64,192,232241,1,2,0:0:0:0:
448,192,232241,1,8,0:0:0:0:
192,192,232372,1,0,0:0:0:0:
320,192,232372,1,0,0:0:0:0:
64,192,232502,1,8,0:0:0:0:
448,192,232502,1,2,0:0:0:0:
192,192,232633,1,0,0:0:0:0:
64,192,232763,1,2,0:0:0:0:
320,192,232763,1,8,0:0:0:0:
448,192,232894,1,0,0:0:0:0:
192,192,233024,1,8,0:0:0:0:
320,192,233024,1,2,0:0:0:0:
64,192,233154,1,0,0:0:0:0:
192,192,233285,1,2,0:0:0:0:
448,192,233285,1,8,0:0:0:0:
320,192,233415,1,0,0:0:0:0:
64,192,233546,128,8,233676:0:0:0:0:
448,192,233546,128,2,233676:0:0:0:0:
192,192,233676,1,0,0:0:0:0:
320,192,233807,128,2,233937:0:0:0:0:
448,192,233807,128,8,233937:0:0:0:0:
64,192,233937,1,0,0:0:0:0:
192,192,234067,128,8,234198:0:0:0:0:
320,192,234067,128,2,234198:0:0:0:0:
448,192,234198,1,0,0:0:0:0:
64,192,234328,128,2,234459:0:0:0:0:
192,192,234328,128,8,234459:0:0:0:0:
320,192,234459,1,0,0:0:0:0:
64,192,234589,128,8,234720:0:0:0:0:
448,192,234589,128,2,234720:0:0:0:0:
192,192,234720,1,0,0:0:0:0:
320,192,234850,1,2,0:0:0:0:
448,192,234850,1,8,0:0:0:0:
192,192,234981,1,0,0:0:0:0:
64,192,235111,1,8,0:0:0:0:
448,192,235111,1,2,0:0:0:0:
320,192,235241,1,0,0:0:0:0:
64,192,235372,1,2,0:0:0:0:
192,192,235372,1,8,0:0:0:0:
320,192,235502,1,0,0:0:0:0:
192,192,235633,1,8,0:0:0:0:
448,192,235633,1,2,0:0:0:0:
64,192,235763,1,0,0:0:0:0:
320,192,235894,1,2,0:0:0:0:
448,192,235894,1,8,0:0:0:0:
64,192,236024,1,0,0:0:0:0:
192,192,236024,1,0,0:0:0:0:
320,192,236154,1,8,0:0:0:0:
448,192,236154,1,2,0:0:0:0:
64,192,236285,1,0,0:0:0:0:
192,192,236285,1,0,0:0:0:0:
192,192,236415,1,2,0:0:0:0:
320,192,236415,1,8,0:0:0:0:
64,192,236546,1,0,0:0:0:0:
448,192,236546,1,0,0:0:0:0:
192,192,236676,1,8,0:0:0:0:
320,192,236676,1,2,0:0:0:0:
448,192,236807,1,0,0:0:0:0:
64,192,236937,1,2,0:0:0:0:
320,192,236937,1,8,0:0:0:0:
192,192,237067,1,0,0:0:0:0:
64,192,237198,1,8,0:0:0:0:
448,192,237198,1,2,0:0:0:0:
320,192,237328,1,0,0:0:0:0:
192,192,237459,1,2,0:0:0:0:
448,192,237459,1,8,0:0:0:0:
320,192,237589,1,0,0:0:0:0:
64,192,237720,1,8,0:0:0:0:
192,192,237720,1,2,0:0:0:0:
320,192,237850,1,0,0:0:0:0:
64,192,237981,1,2,0:0:0:0:
448,192,237981,1,8,0:0:0:0:
192,192,238111,1,0,0:0:0:0:
320,192,238241,1,8,0:0:0:0:
448,192,238241,1,2,0:0:0:0:
64,192,238372,1,0,0:0:0:0:
192,192,238372,1,0,0:0:0:0:
320,192,238502,1,2,0:0:0:0:
448,192,238502,1,8,0:0:0:0:
64,192,238633,1,0,0:0:0:0:
192,192,238633,1,0,0:0:0:0:
320,192,238763,1,8,0:0:0:0:
448,192,238763,1,2,0:0:0:0:
64,192,238894,1,0,0:0:0:0:
192,192,239024,1,2,0:0:0:0:
320,192,239024,1,8,0:0:0:0:
448,192,239154,1,0,0:0:0:0:
64,192,239285,1,8,0:0:0:0:
192,192,239285,1,2,0:0:0:0:
320,192,239415,1,0,0:0:0:0:
192,192,239546,1,2,0:0:0:0:
448,192,239546,1,8,0:0:0:0:
64,192,239676,1,0,0:0:0:0:
320,192,239807,1,8,0:0:0:0:
448,192,239807,1,2,0:0:0:0:
192,192,239937,1,0,0:0:0:0:
64,192,240067,1,2,0:0:0:0:
448,192,240067,1,8,0:0:0:0:
320,192,240198,1,0,0:0:0:0:
192,192,240328,1,8,0:0:0:0:
448,192,240328,1,2,0:0:0:0:
320,192,240459,1,0,0:0:0:0:
64,192,240589,1,2,0:0:0:0:
192,192,240589,1,8,0:0:0:0:
448,192,240720,1,0,0:0:0:0:
64,192,240850,128,8,240981:0:0:0:0:
192,192,240850,1,0,0:0:0:0:
320,192,240981,1,0,0:0:0:0:
448,192,241111,1,8,0:0:0:0:
192,192,241241,1,0,0:0:0:0:
320,192,241372,1,8,0:0:0:0:
448,192,241372,128,0,241502:0:0:0:0:
192,192,241502,1,0,0:0:0:0:
64,192,241633,1,8,0:0:0:0:
320,192,241763,1,0,0:0:0:0:
64,192,241894,1,8,0:0:0:0:
192,192,241894,128,0,242154:0:0:0:0:
448,192,242024,1,0,0:0:0:0:
64,192,242154,128,8,242415:0:0:0:0:
320,192,242154,1,0,0:0:0:0:
192,192,242285,1,0,0:0:0:0:
320,192,242415,128,8,242676:0:0:0:0:
448,192,242415,1,0,0:0:0:0:
64,192,242546,1,0,0:0:0:0:
192,192,242676,128,8,242937:0:0:0:0:
448,192,242676,1,0,0:0:0:0:
320,192,242807,1,0,0:0:0:0:
64,192,242937,1,8,0:0:0:0:
448,192,242937,1,2,0:0:0:0:
320,192,243067,1,0,0:0:0:0:
64,192,243198,128,2,243720:0:0:0:0:
192,192,243198,1,8,0:0:0:0:
448,192,243328,1,0,0:0:0:0:
192,192,243459,1,8,0:0:0:0:
320,192,243459,1,2,0:0:0:0:
448,192,243589,1,0,0:0:0:0:
192,192,243720,1,2,0:0:0:0:
320,192,243720,1,8,0:0:0:0:
64,192,243850,1,0,0:0:0:0:
320,192,243981,1,8,0:0:0:0:
448,192,243981,1,2,0:0:0:0:
192,192,244111,1,0,0:0:0:0:
64,192,244241,1,2,0:0:0:0:
448,192,244241,1,8,0:0:0:0:
320,192,244372,1,0,0:0:0:0:
64,192,244502,1,8,0:0:0:0:
192,192,244502,1,2,0:0:0:0:
320,192,244633,128,0,245024:0:0:0:0:
64,192,244763,1,2,0:0:0:0:
448,192,244763,1,8,0:0:0:0:
192,192,244894,1,0,0:0:0:0:
64,192,245024,1,8,0:0:0:0:
448,192,245024,1,2,0:0:0:0:
320,192,245154,1,0,0:0:0:0:
64,192,245285,1,2,0:0:0:0:
192,192,245285,128,8,245807:0:0:0:0:
448,192,245415,1,0,0:0:0:0:
64,192,245546,1,8,0:0:0:0:
320,192,245546,1,2,0:0:0:0:
448,192,245676,1,0,0:0:0:0:
64,192,245807,1,2,0:0:0:0:
320,192,245807,1,8,0:0:0:0:
192,192,245937,1,0,0:0:0:0:
320,192,246067,1,8,0:0:0:0:
448,192,246067,1,2,0:0:0:0:
64,192,246198,1,0,0:0:0:0:
192,192,246328,1,2,0:0:0:0:
448,192,246328,128,8,246589:0:0:0:0:
320,192,246459,1,0,0:0:0:0:
64,192,246589,1,8,0:0:0:0:
192,192,246589,1,2,0:0:0:0:
448,192,246720,1,0,0:0:0:0:
64,192,246850,128,2,247111:0:0:0:0:
320,192,246850,1,8,0:0:0:0:
448,192,246981,1,0,0:0:0:0:
192,192,247111,1,8,0:0:0:0:
320,192,247111,1,2,0:0:0:0:
64,192,247241,1,0,0:0:0:0:
320,192,247372,128,2,247894:0:0:0:0:
448,192,247372,1,8,0:0:0:0:
192,192,247502,1,0,0:0:0:0:
64,192,247633,1,8,0:0:0:0:
448,192,247633,1,2,0:0:0:0:
192,192,247763,1,0,0:0:0:0:
64,192,247894,1,2,0:0:0:0:
448,192,247894,1,8,0:0:0:0:
320,192,248024,1,0,0:0:0:0:
64,192,248154,1,8,0:0:0:0:
192,192,248154,1,2,0:0:0:0:
448,192,248285,1,0,0:0:0:0:
64,192,248415,1,2,0:0:0:0:
320,192,248415,1,8,0:0:0:0:
192,192,248546,1,0,0:0:0:0:
320,192,248676,1,8,0:0:0:0:
448,192,248676,1,2,0:0:0:0:
192,192,248807,128,0,249067:0:0:0:0:
64,192,248937,1,2,0:0:0:0:
448,192,248937,1,8,0:0:0:0:
320,192,249067,1,0,0:0:0:0:
64,192,249198,1,8,0:0:0:0:
192,192,249198,1,2,0:0:0:0:
320,192,249328,1,0,0:0:0:0:
64,192,249459,1,2,0:0:0:0:
448,192,249459,128,8,249981:0:0:0:0:
192,192,249589,1,0,0:0:0:0:
64,192,249720,1,8,0:0:0:0:
320,192,249720,1,2,0:0:0:0:
192,192,249850,1,0,0:0:0:0:
64,192,249981,1,2,0:0:0:0:
320,192,249981,1,8,0:0:0:0:
448,192,250111,1,0,0:0:0:0:
64,192,250241,128,8,250372:0:0:0:0:
192,192,250241,128,2,250372:0:0:0:0:
320,192,250372,1,0,0:0:0:0:
64,192,250502,128,2,250633:0:0:0:0:
448,192,250502,128,8,250633:0:0:0:0:
192,192,250633,1,0,0:0:0:0:
320,192,250763,128,8,250894:0:0:0:0:
448,192,250763,128,2,250894:0:0:0:0:
64,192,250894,1,0,0:0:0:0:
192,192,251024,128,2,251154:0:0:0:0:
320,192,251024,128,8,251154:0:0:0:0:
448,192,251154,1,0,0:0:0:0:
64,192,251285,128,8,251415:0:0:0:0:
192,192,251285,128,2,251415:0:0:0:0:
448,192,251415,1,0,0:0:0:0:
64,192,251546,1,2,0:0:0:0:
320,192,251546,128,8,252067:0:0:0:0:
192,192,251676,1,0,0:0:0:0:
64,192,251807,1,8,0:0:0:0:
448,192,251807,1,2,0:0:0:0:
192,192,251937,1,0,0:0:0:0:
64,192,252067,1,2,0:0:0:0:
448,192,252067,1,8,0:0:0:0:
320,192,252198,1,0,0:0:0:0:
192,192,252328,1,8,0:0:0:0:
448,192,252328,1,2,0:0:0:0:
64,192,252459,1,0,0:0:0:0:
320,192,252589,1,2,0:0:0:0:
448,192,252589,128,8,252850:0:0:0:0:
192,192,252720,1,0,0:0:0:0:
64,192,252850,1,8,0:0:0:0:
320,192,252850,1,2,0:0:0:0:
192,192,252981,128,0,253372:0:0:0:0:
64,192,253111,1,2,0:0:0:0:
448,192,253111,1,8,0:0:0:0:
320,192,253241,1,0,0:0:0:0:
64,192,253372,1,8,0:0:0:0:
448,192,253372,1,2,0:0:0:0:
192,192,253502,1,0,0:0:0:0:
320,192,253633,128,2,254154:0:0:0:0:
448,192,253633,1,8,0:0:0:0:
64,192,253763,1,0,0:0:0:0:
192,192,253894,1,8,0:0:0:0:
448,192,253894,1,2,0:0:0:0:
64,192,254024,1,0,0:0:0:0:
192,192,254154,1,2,0:0:0:0:
448,192,254154,1,8,0:0:0:0:
320,192,254285,1,0,0:0:0:0:
64,192,254415,1,8,0:0:0:0:
192,192,254415,1,2,0:0:0:0:
448,192,254546,1,0,0:0:0:0:
64,192,254676,128,2,254937:0:0:0:0:
320,192,254676,1,8,0:0:0:0:
192,192,254807,1,0,0:0:0:0:
320,192,254937,1,8,0:0:0:0:
448,192,254937,1,2,0:0:0:0:
64,192,255067,1,0,0:0:0:0:
192,192,255198,1,2,0:0:0:0:
448,192,255198,128,8,255459:0:0:0:0:
320,192,255328,1,0,0:0:0:0:
64,192,255459,1,8,0:0:0:0:
192,192,255459,1,2,0:0:0:0:
448,192,255589,1,0,0:0:0:0:
192,192,255720,128,2,256241:0:0:0:0:
320,192,255720,1,8,0:0:0:0:
64,192,255850,1,0,0:0:0:0:
320,192,255981,1,8,0:0:0:0:
448,192,255981,1,2,0:0:0:0:
64,192,256111,1,0,0:0:0:0:
320,192,256241,1,2,0:0:0:0:
448,192,256241,1,8,0:0:0:0:
192,192,256372,1,0,0:0:0:0:
64,192,256502,1,8,0:0:0:0:
448,192,256502,1,2,0:0:0:0:
320,192,256633,1,0,0:0:0:0:
64,192,256763,128,2,257024:0:0:0:0:
192,192,256763,1,8,0:0:0:0:
448,192,256894,1,0,0:0:0:0:
192,192,257024,1,8,0:0:0:0:
320,192,257024,1,2,0:0:0:0:
448,192,257154,128,0,257415:0:0:0:0:
64,192,257285,1,2,0:0:0:0:
192,192,257285,1,8,0:0:0:0:
320,192,257415,1,0,0:0:0:0:
64,192,257546,1,8,0:0:0:0:
448,192,257546,1,2,0:0:0:0:
64,192,257676,1,8,0:0:0:0:
192,192,257807,1,2,0:0:0:0:
320,192,257807,1,8,0:0:0:0:
320,192,257937,1,8,0:0:0:0:
192,192,258067,1,8,0:0:0:0:
448,192,258067,1,2,0:0:0:0:
192,192,258198,1,8,0:0:0:0:
64,192,258328,1,2,0:0:0:0:
448,192,258328,1,8,0:0:0:0:
448,192,258459,1,8,0:0:0:0:
64,192,258589,1,8,0:0:0:0:
192,192,258589,1,2,0:0:0:0:
320,192,258654,1,8,0:0:0:0:
448,192,258654,1,0,0:0:0:0:
64,192,258720,1,8,0:0:0:0:
192,192,258720,1,0,0:0:0:0:
320,192,258785,1,8,0:0:0:0:
448,192,258785,1,0,0:0:0:0:
64,192,258850,1,2,0:0:0:0:
192,192,258850,1,8,0:0:0:0:
320,192,258915,1,8,0:0:0:0:
448,192,258915,1,0,0:0:0:0:
64,192,258981,1,8,0:0:0:0:
192,192,258981,1,0,0:0:0:0:
320,192,259046,1,8,0:0:0:0:
448,192,259046,1,0,0:0:0:0:
64,192,259111,1,8,0:0:0:0:
192,192,259111,1,2,0:0:0:0:
320,192,259176,1,8,0:0:0:0:
448,192,259176,1,0,0:0:0:0:
64,192,259241,1,8,0:0:0:0:
192,192,259241,1,0,0:0:0:0:
320,192,259307,1,8,0:0:0:0:
448,192,259307,1,0,0:0:0:0:
64,192,259372,1,2,0:0:0:0:
192,192,259372,1,8,0:0:0:0:
320,192,259437,1,8,0:0:0:0:
448,192,259437,1,0,0:0:0:0:
64,192,259502,1,8,0:0:0:0:
192,192,259502,1,0,0:0:0:0:
320,192,259567,1,8,0:0:0:0:
448,192,259567,1,0,0:0:0:0:
64,192,259633,1,10,0:0:0:0:
192,192,259633,1,4,0:1:0:0:
448,192,259763,1,0,0:0:0:0:
64,192,259894,1,0,0:0:0:0:
448,192,260024,1,0,0:0:0:0:
192,192,260154,1,0,0:0:0:0:
320,192,260285,1,0,0:0:0:0:
192,192,260415,1,0,0:0:0:0:
320,192,260546,1,0,0:0:0:0:
64,192,260676,1,0,0:0:0:0:
448,192,260807,1,0,0:0:0:0:
64,192,260937,1,0,0:0:0:0:
448,192,261067,1,0,0:0:0:0:
192,192,261198,1,0,0:0:0:0:
320,192,261328,1,0,0:0:0:0:
192,192,261459,1,0,0:0:0:0:
320,192,261589,1,0,0:0:0:0:
64,192,261720,1,0,0:0:0:0:
448,192,261850,1,0,0:0:0:0:
192,192,261981,1,0,0:0:0:0:
320,192,262111,1,0,0:0:0:0:
64,192,262241,1,0,0:0:0:0:
320,192,262372,1,0,0:0:0:0:
192,192,262502,1,0,0:0:0:0:
448,192,262633,1,0,0:0:0:0:
64,192,262763,1,0,0:0:0:0:
320,192,262894,1,0,0:0:0:0:
192,192,263024,1,0,0:0:0:0:
448,192,263154,1,0,0:0:0:0:
192,192,263285,1,0,0:0:0:0:
320,192,263415,1,0,0:0:0:0:
64,192,263546,1,0,0:0:0:0:
448,192,263676,1,0,0:0:0:0:
192,192,263807,1,0,0:0:0:0:
64,192,263937,1,0,0:0:0:0:
320,192,264067,1,0,0:0:0:0:
192,192,264198,1,0,0:0:0:0:
448,192,264328,1,0,0:0:0:0:
64,192,264459,1,0,0:0:0:0:
320,192,264589,1,0,0:0:0:0:
192,192,264720,1,0,0:0:0:0:
64,192,264850,1,0,0:0:0:0:
320,192,264981,1,0,0:0:0:0:
448,192,265111,1,0,0:0:0:0:
192,192,265241,1,0,0:0:0:0:
320,192,265372,1,0,0:0:0:0:
64,192,265502,1,0,0:0:0:0:
192,192,265633,1,0,0:0:0:0:
448,192,265763,1,0,0:0:0:0:
320,192,265894,1,0,0:0:0:0:
64,192,266024,1,0,0:0:0:0:
448,192,266154,1,0,0:0:0:0:
192,192,266285,1,0,0:0:0:0:
320,192,266415,1,0,0:0:0:0:
64,192,266546,1,0,0:0:0:0:
448,192,266676,1,0,0:0:0:0:
192,192,266807,1,0,0:0:0:0:
320,192,266937,128,0,267415:0:0:0:0:
64,192,267067,128,0,267328:0:0:0:0:
448,192,267198,128,0,267328:0:0:0:0:
192,192,267328,128,0,267459:0:0:0:0:
448,192,267415,128,0,267915:0:0:0:0:
64,192,267459,128,0,267915:0:0:0:0:
320,192,267546,128,0,267915:0:0:0:0:
192,192,267720,128,0,267915:0:0:0:0:
64,192,267981,128,2,268046:0:0:0:0:
192,192,267981,128,4,268046:0:0:0:0:
448,192,267981,128,0,268046:0:0:0:0:
320,192,268111,1,0,0:0:0:0:
192,192,268241,1,2,0:0:0:0:
448,192,268241,1,0,0:0:0:0:
64,192,268372,1,0,0:0:0:0:
320,192,268502,1,2,0:0:0:0:
448,192,268502,1,0,0:0:0:0:
192,192,268633,1,0,0:0:0:0:
64,192,268763,1,2,0:0:0:0:
320,192,268763,1,0,0:0:0:0:
448,192,268894,1,0,0:0:0:0:
64,192,269024,1,2,0:0:0:0:
192,192,269024,1,0,0:0:0:0:
320,192,269154,1,0,0:0:0:0:
64,192,269285,1,2,0:0:0:0:
448,192,269285,1,0,0:0:0:0:
192,192,269415,1,0,0:0:0:0:
320,192,269546,1,2,0:0:0:0:
448,192,269546,1,0,0:0:0:0:
64,192,269676,1,0,0:0:0:0:
192,192,269807,1,2,0:0:0:0:
448,192,269807,1,0,0:0:0:0:
320,192,269937,1,0,0:0:0:0:
64,192,270067,128,2,270133:0:0:0:0:
192,192,270067,128,0,270133:0:0:0:0:
448,192,270198,1,0,0:0:0:0:
192,192,270328,1,2,0:0:0:0:
320,192,270328,1,0,0:0:0:0:
64,192,270459,1,0,0:0:0:0:
320,192,270589,1,2,0:0:0:0:
448,192,270589,1,0,0:0:0:0:
192,192,270720,1,0,0:0:0:0:
64,192,270850,1,2,0:0:0:0:
320,192,270850,1,0,0:0:0:0:
448,192,270981,1,0,0:0:0:0:
192,192,271111,1,2,0:0:0:0:
320,192,271111,1,0,0:0:0:0:
64,192,271241,1,0,0:0:0:0:
192,192,271372,1,2,0:0:0:0:
448,192,271372,1,0,0:0:0:0:
320,192,271502,1,0,0:0:0:0:
64,192,271633,1,2,0:0:0:0:
192,192,271633,1,0,0:0:0:0:
448,192,271763,1,0,0:0:0:0:
64,192,271894,1,2,0:0:0:0:
320,192,271894,1,0,0:0:0:0:
192,192,272024,1,0,0:0:0:0:
320,192,272154,128,2,272220:0:0:0:0:
448,192,272154,128,0,272220:0:0:0:0:
64,192,272285,1,0,0:0:0:0:
192,192,272415,1,2,0:0:0:0:
320,192,272415,1,0,0:0:0:0:
448,192,272546,1,0,0:0:0:0:
64,192,272676,1,2,0:0:0:0:
192,192,272676,1,0,0:0:0:0:
320,192,272807,1,0,0:0:0:0:
64,192,272937,1,2,0:0:0:0:
448,192,272937,1,0,0:0:0:0:
192,192,273067,1,0,0:0:0:0:
64,192,273198,1,2,0:0:0:0:
320,192,273198,1,0,0:0:0:0:
192,192,273328,1,0,0:0:0:0:
320,192,273459,1,2,0:0:0:0:
448,192,273459,1,0,0:0:0:0:
64,192,273589,1,0,0:0:0:0:
192,192,273720,1,2,0:0:0:0:
448,192,273720,1,0,0:0:0:0:
320,192,273850,1,0,0:0:0:0:
64,192,273981,1,2,0:0:0:0:
448,192,273981,1,0,0:0:0:0:
192,192,274111,1,0,0:0:0:0:
64,192,274241,128,2,274307:0:0:0:0:
320,192,274241,128,0,274307:0:0:0:0:
448,192,274372,1,0,0:0:0:0:
64,192,274502,1,2,0:0:0:0:
192,192,274502,1,0,0:0:0:0:
320,192,274633,1,0,0:0:0:0:
192,192,274763,1,2,0:0:0:0:
448,192,274763,1,0,0:0:0:0:
64,192,274894,1,0,0:0:0:0:
320,192,275024,1,2,0:0:0:0:
448,192,275024,1,0,0:0:0:0:
192,192,275154,1,0,0:0:0:0:
64,192,275285,1,2,0:0:0:0:
320,192,275285,1,0,0:0:0:0:
192,192,275415,1,0,0:0:0:0:
320,192,275546,1,2,0:0:0:0:
448,192,275546,1,0,0:0:0:0:
64,192,275676,1,0,0:0:0:0:
192,192,275807,1,2,0:0:0:0:
448,192,275807,1,0,0:0:0:0:
320,192,275937,1,0,0:0:0:0:
64,192,276067,1,2,0:0:0:0:
192,192,276067,1,0,0:0:0:0:
448,192,276198,1,0,0:0:0:0:
64,192,276328,128,2,276394:0:0:0:0:
192,192,276328,128,4,276394:0:0:0:0:
320,192,276328,128,0,276394:0:0:0:0:
448,192,276459,1,0,0:0:0:0:
192,192,276589,1,2,0:0:0:0:
320,192,276589,1,0,0:0:0:0:
64,192,276720,1,0,0:0:0:0:
320,192,276850,1,2,0:0:0:0:
448,192,276850,1,0,0:0:0:0:
192,192,276981,1,0,0:0:0:0:
64,192,277111,1,2,0:0:0:0:
448,192,277111,1,0,0:0:0:0:
320,192,277241,1,0,0:0:0:0:
64,192,277372,1,2,0:0:0:0:
192,192,277372,1,0,0:0:0:0:
320,192,277502,1,0,0:0:0:0:
64,192,277633,1,2,0:0:0:0:
448,192,277633,1,0,0:0:0:0:
192,192,277763,1,0,0:0:0:0:
64,192,277894,1,2,0:0:0:0:
320,192,277894,1,0,0:0:0:0:
192,192,278024,1,0,0:0:0:0:
320,192,278154,1,2,0:0:0:0:
448,192,278154,1,0,0:0:0:0:
64,192,278285,1,0,0:0:0:0:
192,192,278415,128,2,278481:0:0:0:0:
448,192,278415,128,0,278481:0:0:0:0:
320,192,278546,1,0,0:0:0:0:
64,192,278676,1,2,0:0:0:0:
192,192,278676,1,0,0:0:0:0:
320,192,278807,1,0,0:0:0:0:
64,192,278937,1,2,0:0:0:0:
448,192,278937,1,0,0:0:0:0:
192,192,279067,1,0,0:0:0:0:
320,192,279198,1,2,0:0:0:0:
448,192,279198,1,0,0:0:0:0:
64,192,279328,1,0,0:0:0:0:
192,192,279459,1,2,0:0:0:0:
320,192,279459,1,0,0:0:0:0:
448,192,279589,1,0,0:0:0:0:
64,192,279720,1,2,0:0:0:0:
192,192,279720,1,0,0:0:0:0:
320,192,279850,1,0,0:0:0:0:
192,192,279981,1,2,0:0:0:0:
448,192,279981,1,0,0:0:0:0:
320,192,280111,1,0,0:0:0:0:
64,192,280241,1,2,0:0:0:0:
192,192,280241,1,0,0:0:0:0:
448,192,280372,1,0,0:0:0:0:
64,192,280502,128,2,280567:0:0:0:0:
320,192,280502,128,0,280567:0:0:0:0:
192,192,280633,1,0,0:0:0:0:
320,192,280763,1,2,0:0:0:0:
448,192,280763,1,0,0:0:0:0:
64,192,280894,1,0,0:0:0:0:
192,192,281024,1,2,0:0:0:0:
320,192,281024,1,0,0:0:0:0:
448,192,281154,1,0,0:0:0:0:
64,192,281285,1,2,0:0:0:0:
192,192,281285,1,0,0:0:0:0:
320,192,281415,1,0,0:0:0:0:
64,192,281546,1,2,0:0:0:0:
448,192,281546,1,0,0:0:0:0:
192,192,281676,1,0,0:0:0:0:
320,192,281807,1,2,0:0:0:0:
448,192,281807,1,0,0:0:0:0:
192,192,281937,1,0,0:0:0:0:
64,192,282067,1,2,0:0:0:0:
320,192,282067,1,0,0:0:0:0:
448,192,282198,1,0,0:0:0:0:
64,192,282328,1,2,0:0:0:0:
192,192,282328,1,0,0:0:0:0:
320,192,282459,1,0,0:0:0:0:
64,192,282589,128,2,282654:0:0:0:0:
448,192,282589,128,0,282654:0:0:0:0:
192,192,282720,1,0,0:0:0:0:
320,192,282850,1,2,0:0:0:0:
448,192,282850,1,0,0:0:0:0:
64,192,282981,1,0,0:0:0:0:
192,192,283111,1,2,0:0:0:0:
448,192,283111,1,0,0:0:0:0:
320,192,283241,1,0,0:0:0:0:
64,192,283372,1,2,0:0:0:0:
448,192,283372,1,0,0:0:0:0:
192,192,283502,1,0,0:0:0:0:
64,192,283633,1,2,0:0:0:0:
320,192,283633,1,0,0:0:0:0:
192,192,283763,1,0,0:0:0:0:
320,192,283894,1,2,0:0:0:0:
448,192,283894,1,0,0:0:0:0:
64,192,284024,1,0,0:0:0:0:
192,192,284154,1,2,0:0:0:0:
448,192,284154,1,0,0:0:0:0:
320,192,284285,1,0,0:0:0:0:
320,192,284415,1,0,0:0:0:0:
64,192,284676,1,2,0:0:0:0:
192,192,284676,1,4,0:0:0:0:
448,192,284676,1,0,0:0:0:0:
192,192,284937,1,2,0:0:0:0:
320,192,284937,1,0,0:0:0:0:
192,192,285067,1,2,0:0:0:0:
320,192,285067,1,0,0:0:0:0:
448,192,285198,1,0,0:0:0:0:
64,192,285328,1,0,0:0:0:0:
64,192,285459,1,0,0:0:0:0:
64,192,285589,1,0,0:0:0:0:
320,192,285720,1,2,0:0:0:0:
448,192,285720,1,0,0:0:0:0:
192,192,285850,1,0,0:0:0:0:
64,192,285981,1,2,0:0:0:0:
448,192,285981,1,0,0:0:0:0:
192,192,286111,1,0,0:0:0:0:
320,192,286241,1,2,0:0:0:0:
448,192,286241,1,0,0:0:0:0:
64,192,286372,1,0,0:0:0:0:
192,192,286502,1,2,0:0:0:0:
448,192,286502,1,0,0:0:0:0:
320,192,286633,1,0,0:0:0:0:
64,192,286763,1,2,0:0:0:0:
192,192,286763,1,0,0:0:0:0:
320,192,286894,1,0,0:0:0:0:
64,192,287024,1,2,0:0:0:0:
448,192,287024,1,0,0:0:0:0:
192,192,287089,1,0,0:0:0:0:
320,192,287154,1,0,0:0:0:0:
64,192,287198,1,0,0:0:0:0:
192,192,287241,1,0,0:0:0:0:
320,192,287285,1,2,0:0:0:0:
448,192,287285,1,0,0:0:0:0:
320,192,287415,1,2,0:0:0:0:
448,192,287415,1,0,0:0:0:0:
64,192,287546,1,2,0:0:0:0:
192,192,287546,1,0,0:0:0:0:
64,192,287676,1,2,0:0:0:0:
192,192,287676,1,0,0:0:0:0:
320,192,287807,1,2,0:0:0:0:
448,192,287807,1,0,0:0:0:0:
64,192,287937,1,0,0:0:0:0:
192,192,288067,1,2,0:0:0:0:
448,192,288067,1,0,0:0:0:0:
320,192,288198,1,0,0:0:0:0:
64,192,288328,1,2,0:0:0:0:
192,192,288328,1,0,0:0:0:0:
64,192,288459,1,2,0:0:0:0:
192,192,288459,1,0,0:0:0:0:
320,192,288589,1,2,0:0:0:0:
448,192,288589,1,0,0:0:0:0:
64,192,288654,1,2,0:0:0:0:
192,192,288654,1,0,0:0:0:0:
448,192,288720,1,0,0:0:0:0:
320,192,288752,1,0,0:0:0:0:
192,192,288785,1,0,0:0:0:0:
64,192,288817,1,0,0:0:0:0:
320,192,288850,1,2,0:0:0:0:
448,192,288850,1,0,0:0:0:0:
192,192,288981,1,0,0:0:0:0:
64,192,289111,1,2,0:0:0:0:
448,192,289111,1,0,0:0:0:0:
320,192,289241,1,0,0:0:0:0:
320,192,289372,1,0,0:0:0:0:
64,192,289502,1,2,0:0:0:0:
192,192,289502,1,0,0:0:0:0:
320,192,289633,1,2,0:0:0:0:
448,192,289633,1,0,0:0:0:0:
320,192,289763,1,2,0:0:0:0:
448,192,289763,1,0,0:0:0:0:
64,192,289894,1,2,0:0:0:0:
192,192,289894,1,0,0:0:0:0:
448,192,290024,1,0,0:0:0:0:
192,192,290154,1,2,0:0:0:0:
320,192,290154,1,0,0:0:0:0:
64,192,290285,1,0,0:0:0:0:
320,192,290415,1,2,0:0:0:0:
448,192,290415,1,0,0:0:0:0:
192,192,290546,1,0,0:0:0:0:
64,192,290676,1,2,0:0:0:0:
320,192,290676,1,0,0:0:0:0:
448,192,290807,1,0,0:0:0:0:
64,192,290937,1,2,0:0:0:0:
192,192,290937,1,0,0:0:0:0:
320,192,291067,1,0,0:0:0:0:
192,192,291198,1,2,0:0:0:0:
448,192,291198,1,0,0:0:0:0:
320,192,291328,1,0,0:0:0:0:
64,192,291459,1,2,0:0:0:0:
192,192,291459,1,0,0:0:0:0:
320,192,291589,1,0,0:0:0:0:
192,192,291720,1,2,0:0:0:0:
448,192,291720,1,0,0:0:0:0:
64,192,291850,1,0,0:0:0:0:
320,192,291981,1,2,0:0:0:0:
448,192,291981,1,0,0:0:0:0:
320,192,292111,1,2,0:0:0:0:
448,192,292111,1,0,0:0:0:0:
64,192,292241,1,2,0:0:0:0:
192,192,292241,1,0,0:0:0:0:
64,192,292372,1,2,0:0:0:0:
192,192,292372,1,0,0:0:0:0:
320,192,292502,1,2,0:0:0:0:
448,192,292502,1,0,0:0:0:0:
320,192,292633,1,2,0:0:0:0:
448,192,292633,1,0,0:0:0:0:
64,192,292763,1,2,0:0:0:0:
192,192,292763,1,0,0:0:0:0:
64,192,292894,1,2,0:0:0:0:
192,192,292894,1,0,0:0:0:0:
320,192,293024,1,2,0:0:0:0:
448,192,293024,1,0,0:0:0:0:
64,192,293154,1,0,0:0:0:0:
192,192,293285,1,2,0:0:0:0:
320,192,293285,1,0,0:0:0:0:
64,192,293415,1,0,0:0:0:0:
320,192,293546,1,2,0:0:0:0:
448,192,293546,1,0,0:0:0:0:
192,192,293676,1,0,0:0:0:0:
64,192,293807,1,2,0:0:0:0:
448,192,293807,1,0,0:0:0:0:
320,192,293937,1,0,0:0:0:0:
64,192,294067,1,2,0:0:0:0:
192,192,294067,1,0,0:0:0:0:
448,192,294198,1,0,0:0:0:0:
192,192,294328,1,2,0:0:0:0:
320,192,294328,1,0,0:0:0:0:
448,192,294459,1,0,0:0:0:0:
64,192,294589,1,2,0:0:0:0:
192,192,294589,1,0,0:0:0:0:
320,192,294720,1,0,0:0:0:0:
64,192,294850,1,2,0:0:0:0:
448,192,294850,1,0,0:0:0:0:
192,192,294981,1,0,0:0:0:0:
320,192,295111,1,2,0:0:0:0:
448,192,295111,1,0,0:0:0:0:
192,192,295241,1,0,0:0:0:0:
64,192,295372,1,2,0:0:0:0:
320,192,295372,1,0,0:0:0:0:
192,192,295502,1,0,0:0:0:0:
320,192,295633,1,2,0:0:0:0:
448,192,295633,1,0,0:0:0:0:
64,192,295763,1,0,0:0:0:0:
192,192,295894,1,2,0:0:0:0:
448,192,295894,1,0,0:0:0:0:
320,192,296024,1,0,0:0:0:0:
64,192,296154,1,2,0:0:0:0:
192,192,296154,1,0,0:0:0:0:
448,192,296285,1,0,0:0:0:0:
64,192,296415,1,2,0:0:0:0:
320,192,296415,1,0,0:0:0:0:
64,192,296546,1,2,0:0:0:0:
320,192,296546,1,0,0:0:0:0:
192,192,296676,1,0,0:0:0:0:
448,192,296807,1,0,0:0:0:0:
448,192,296937,1,0,0:0:0:0:
448,192,297067,1,0,0:0:0:0:
64,192,297198,1,2,0:3:0:0:
192,192,297198,1,0,0:0:0:0:
320,192,297263,1,2,0:3:0:0:
448,192,297263,1,0,0:0:0:0:
64,192,297328,1,2,0:3:0:0:
192,192,297328,1,0,0:0:0:0:
320,192,297394,1,2,0:3:0:0:
448,192,297394,1,0,0:0:0:0:
64,192,297459,1,2,0:3:0:0:
192,192,297502,1,0,0:0:0:0:
320,192,297546,1,0,0:0:0:0:
448,192,297589,1,0,0:0:0:0:
64,192,297633,1,0,0:0:0:0:
192,192,297676,1,0,0:0:0:0:
320,192,297720,1,2,0:3:0:0:
448,192,297720,1,0,0:0:0:0:
64,192,297785,1,2,0:3:0:0:
192,192,297785,1,0,0:0:0:0:
320,192,297850,1,2,0:3:0:0:
448,192,297850,1,0,0:0:0:0:
64,192,297915,1,2,0:3:0:0:
192,192,297915,1,0,0:0:0:0:
448,192,297981,1,2,0:3:0:0:
320,192,298013,1,0,0:0:0:0:
192,192,298046,1,0,0:0:0:0:
64,192,298078,1,0,0:0:0:0:
448,192,298111,1,0,0:0:0:0:
320,192,298144,1,0,0:0:0:0:
192,192,298176,1,0,0:0:0:0:
64,192,298209,1,0,0:0:0:0:
320,192,298241,1,2,0:0:0:0:
448,192,298241,1,0,0:0:0:0:
64,192,298502,1,2,0:0:0:0:
320,192,298502,1,0,0:0:0:0:
64,192,298633,1,2,0:0:0:0:
320,192,298633,1,0,0:0:0:0:
448,192,298763,1,0,0:0:0:0:
192,192,298894,1,0,0:0:0:0:
192,192,299024,1,0,0:0:0:0:
192,192,299154,1,0,0:0:0:0:
320,192,299285,1,2,0:0:0:0:
448,192,299285,1,0,0:0:0:0:
64,192,299415,1,0,0:0:0:0:
192,192,299546,1,2,0:0:0:0:
448,192,299546,1,0,0:0:0:0:
64,192,299676,1,0,0:0:0:0:
320,192,299807,1,2,0:0:0:0:
448,192,299807,1,0,0:0:0:0:
64,192,299937,1,0,0:0:0:0:
192,192,300067,1,2,0:0:0:0:
448,192,300067,1,0,0:0:0:0:
320,192,300198,1,0,0:0:0:0:
64,192,300328,1,2,0:0:0:0:
192,192,300328,1,0,0:0:0:0:
448,192,300459,1,0,0:0:0:0:
192,192,300589,1,2,0:0:0:0:
320,192,300589,1,0,0:0:0:0:
64,192,300720,1,0,0:0:0:0:
320,192,300850,1,2,0:0:0:0:
448,192,300850,1,0,0:0:0:0:
320,192,300981,1,2,0:0:0:0:
448,192,300981,1,0,0:0:0:0:
64,192,301111,1,2,0:0:0:0:
192,192,301111,1,0,0:0:0:0:
320,192,301176,1,2,0:0:0:0:
448,192,301176,1,0,0:0:0:0:
64,192,301241,1,0,0:0:0:0:
192,192,301274,1,0,0:0:0:0:
320,192,301307,1,0,0:0:0:0:
448,192,301339,1,0,0:0:0:0:
64,192,301372,1,6,0:0:0:0:
192,192,301372,1,4,0:1:0:0:
