osu file format v14

[General]
AudioFilename: Helblinde - DEAD END.mp3
AudioLeadIn: 0
PreviewTime: 137563
Countdown: 0
SampleSet: Soft
StackLeniency: 0.7
Mode: 3
LetterboxInBreaks: 0
SpecialStyle: 0
WidescreenStoryboard: 1

[Editor]
DistanceSpacing: 1
BeatDivisor: 4
GridSize: 8
TimelineZoom: 2.199999

[Metadata]
Title:DEAD END
TitleUnicode:DEAD END
Artist:Helblinde
ArtistUnicode:Helblinde
Creator:arcwinolivirus
Version:5K 'Fantasy Program' Arc
Source:
Tags:mirai nikki kuusou mesorogiwi future diary fantasy mythology
BeatmapID:1123230
BeatmapSetID:171946

[Difficulty]
HPDrainRate:8
CircleSize:5
OverallDifficulty:8
ApproachRate:5
SliderMultiplier:1.4
SliderTickRate:1

[Events]
//Background and Video events
0,0,"bghell.jpg",0,0
//Break Periods
//Storyboard Layer 0 (Background)
//Storyboard Layer 1 (Fail)
//Storyboard Layer 2 (Pass)
//Storyboard Layer 3 (Foreground)
//Storyboard Sound Samples
Sample,119156,0,"LR3_Snare RSH.wav",70
Sample,259634,0,"LR_Drum Finish.wav",70

[TimingPoints]
330,260.869565217391,4,2,1,50,1,0
330,-133.333333333333,4,2,1,50,0,0
32938,-125,4,2,1,50,0,0
35025,-117.647058823529,4,2,1,50,0,0
37112,-111.111111111111,4,2,1,50,0,0
39199,-100,4,2,1,50,0,0
40243,-20,4,2,1,50,0,0
41025,-200,4,2,1,50,0,0
41547,-100,4,2,1,50,0,0
68677,-111.111111111111,4,2,1,50,0,0
69199,-125,4,2,1,50,0,0
69721,-100,4,2,1,50,0,0
93737,-125,4,2,1,50,0,0
98416,-117.647058823529,4,2,1,50,0,0
106764,-116.279069767442,4,2,1,50,0,0
108851,-114.942528735632,4,2,1,50,0,0
110938,-113.636363636364,4,2,1,50,0,0
113025,-112.359550561798,4,2,1,50,0,0
114069,-111.111111111111,4,2,1,50,0,0
114590,-105.263157894737,4,2,1,50,0,0
115112,-100,4,2,1,50,0,0
119286,-125,4,2,1,50,0,0
131808,-125,4,2,1,50,0,0
133373,-117.647058823529,4,2,1,50,0,0
134416,-111.111111111111,4,2,1,50,0,0
135395,-105.263157894737,4,2,1,50,0,0
136503,-100,4,2,1,50,0,0
137547,-200,4,2,1,50,0,0
140156,-100,4,2,1,50,0,1
165199,-117.647058823529,4,2,1,50,0,0
173025,-66.6666666666667,4,2,1,50,0,0
173090,-200,4,2,1,50,0,0
173286,-66.6666666666667,4,2,1,50,0,0
173351,-200,4,2,1,50,0,0
173547,-66.6666666666667,4,2,1,50,0,0
173612,-200,4,2,1,50,0,0
173808,-66.6666666666667,4,2,1,50,0,0
173873,-200,4,2,1,50,0,0
174069,-133.333333333333,4,2,1,50,0,0
175112,-100,4,2,1,50,0,1
188677,-105.263157894737,4,2,1,50,0,1
189721,-111.111111111111,4,2,1,50,0,1
190243,-66.6666666666667,4,2,1,50,0,0
190373,-200,4,2,1,50,0,0
190764,-100,4,2,1,50,0,0
199112,-200,4,2,1,50,0,0
200156,-125,4,2,1,50,0,0
209547,-117.647058823529,4,2,1,50,0,0
213721,-111.111111111111,4,2,1,50,0,0
217895,-100,4,2,1,50,0,0
224156,-100,4,2,1,50,0,0
224677,-111.111111111111,4,2,1,50,0,0
225199,-125,4,2,1,50,0,0
225721,-142.857142857143,4,2,1,50,0,0
226243,-100,4,2,1,50,0,0
259634,-105.263157894737,4,2,1,50,0,0
260677,-111.111111111111,4,2,1,50,0,0
261721,-117.647058823529,4,2,1,50,0,0
262764,-125,4,2,1,50,0,0
263808,-133.333333333333,4,2,1,50,0,0
264851,-142.857142857143,4,2,1,50,0,0
265895,-153.846153846154,4,2,1,50,0,0
266938,-166.666666666667,4,2,1,50,0,0
267460,-66.6666666666667,4,2,1,50,0,0
267590,-200,4,2,1,50,0,0
267982,-100,4,2,1,50,0,0

[HitObjects]
460,192,330,128,0,7895:0:0:0:0:
51,192,2677,128,0,7895:0:0:0:0:
358,192,7895,128,0,9329:0:0:0:0:
153,192,8938,128,0,9329:0:0:0:0:
51,192,9329,1,0,0:0:0:0:
460,192,9329,1,0,0:0:0:0:
256,192,9329,128,0,15199:0:0:0:0:
460,192,10047,1,0,0:0:0:0:
51,192,10047,1,0,0:0:0:0:
358,192,10047,1,0,0:0:0:0:
153,192,10047,1,0,0:0:0:0:
460,192,11547,128,0,12721:0:0:0:0:
51,192,12721,128,0,15199:0:0:0:0:
460,192,14351,128,0,15199:0:0:0:0:
153,192,15199,1,0,0:0:0:0:
358,192,15199,1,0,0:0:0:0:
256,192,15851,1,0,0:0:0:0:
460,192,15851,1,0,0:0:0:0:
51,192,15851,1,0,0:0:0:0:
358,192,16373,1,0,0:0:0:0:
153,192,16373,1,0,0:0:0:0:
358,192,17612,1,0,0:0:0:0:
153,192,17612,1,0,0:0:0:0:
358,192,18786,1,0,0:0:0:0:
153,192,18786,1,0,0:0:0:0:
358,192,19960,1,0,0:0:0:0:
153,192,19960,1,0,0:0:0:0:
460,192,20156,128,0,21982:0:0:0:0:
358,192,21199,1,0,0:0:0:0:
153,192,21199,1,0,0:0:0:0:
51,192,21982,128,0,24786:0:0:0:0:
153,192,22373,1,0,0:0:0:0:
358,192,22373,1,0,0:0:0:0:
358,192,23612,1,0,0:0:0:0:
153,192,23612,1,0,0:0:0:0:
358,192,24786,1,0,0:0:0:0:
153,192,24786,1,0,0:0:0:0:
256,192,24786,128,0,30395:0:0:0:0:
358,192,25993,1,0,0:0:0:0:
153,192,25993,1,0,0:0:0:0:
358,192,27199,1,0,0:0:0:0:
153,192,27199,1,0,0:0:0:0:
460,192,27460,128,0,30395:0:0:0:0:
358,192,30395,128,0,30851:0:0:0:0:
153,192,30395,128,0,30851:0:0:0:0:
256,192,30851,128,0,31308:0:0:0:0:
51,192,30851,128,0,31308:0:0:0:0:
153,192,31308,1,0,0:0:0:0:
358,192,31308,1,0,0:0:0:0:
460,192,31308,128,0,31895:0:0:0:0:
51,192,31764,1,0,0:0:0:0:
153,192,31895,1,0,0:0:0:0:
358,192,31895,128,0,32938:0:0:0:0:
51,192,32938,1,0,0:0:0:70:LR3_Snare DSB.wav
460,192,32938,1,0,0:0:0:0:
256,192,33069,1,0,0:0:0:0:
153,192,33199,1,0,0:0:0:70:LR3_Snare DSB.wav
358,192,33199,1,0,0:0:0:0:
460,192,33329,1,0,0:0:0:0:
256,192,33460,1,0,0:0:0:70:LR3_Snare DSB.wav
51,192,33460,1,0,0:0:0:0:
358,192,33590,1,0,0:0:0:0:
460,192,33721,1,0,0:0:0:70:LR3_Snare DSB.wav
153,192,33721,1,0,0:0:0:0:
256,192,33851,1,0,0:0:0:0:
51,192,33982,1,0,0:0:0:70:LR3_Snare DSB.wav
358,192,33982,1,0,0:0:0:0:
256,192,34112,1,0,0:0:0:0:
153,192,34243,1,0,0:0:0:70:LR3_Snare DSB.wav
358,192,34243,1,0,0:0:0:0:
51,192,34373,1,0,0:0:0:0:
256,192,34503,1,0,0:0:0:70:LR3_Snare DSB.wav
460,192,34503,1,0,0:0:0:0:
153,192,34634,1,0,0:0:0:0:
358,192,34764,1,0,0:0:0:70:LR3_Snare DSB.wav
51,192,34764,1,0,0:0:0:0:
256,192,34895,1,0,0:0:0:0:
153,192,35025,1,0,0:0:0:70:LR3_Snare DSB.wav
460,192,35025,1,0,0:0:0:0:
256,192,35156,1,0,0:0:0:0:
358,192,35286,1,0,0:0:0:70:LR3_Snare DSB.wav
153,192,35286,1,0,0:0:0:0:
51,192,35416,1,0,0:0:0:0:
460,192,35547,1,0,0:0:0:70:LR3_Snare DSB.wav
256,192,35547,1,0,0:0:0:0:
153,192,35677,1,0,0:0:0:0:
51,192,35808,1,0,0:0:0:70:LR3_Snare DSB.wav
358,192,35808,1,0,0:0:0:0:
256,192,35938,1,0,0:0:0:0:
460,192,36069,1,0,0:0:0:70:LR3_Snare DSB.wav
153,192,36069,1,0,0:0:0:0:
256,192,36199,1,0,0:0:0:0:
153,192,36329,1,0,0:0:0:70:LR3_Snare DSB.wav
358,192,36329,1,0,0:0:0:0:
51,192,36460,1,0,0:0:0:0:
256,192,36590,1,0,0:0:0:70:LR3_Snare DSB.wav
460,192,36590,1,0,0:0:0:0:
153,192,36721,1,0,0:0:0:0:
358,192,36851,1,0,0:0:0:70:LR3_Snare DSB.wav
51,192,36851,1,0,0:0:0:0:
256,192,36982,1,0,0:0:0:0:
358,192,37112,1,0,0:0:0:70:LR3_Snare DSB.wav
460,192,37112,1,0,0:0:0:0:
153,192,37243,1,0,0:0:0:70:LR3_Snare DSB.wav
51,192,37243,1,0,0:0:0:0:
358,192,37373,1,0,0:0:0:70:LR3_Snare DSB.wav
460,192,37373,1,0,0:0:0:0:
153,192,37503,1,0,0:0:0:70:LR3_Snare DSB.wav
51,192,37503,1,0,0:0:0:0:
358,192,37634,1,0,0:0:0:70:LR3_Snare DSB.wav
460,192,37634,1,0,0:0:0:0:
153,192,37764,1,0,0:0:0:70:LR3_Snare DSB.wav
51,192,37764,1,0,0:0:0:0:
358,192,37895,1,0,0:0:0:70:LR3_Snare DSB.wav
460,192,37895,1,0,0:0:0:0:
153,192,38025,1,0,0:0:0:70:LR3_Snare DSB.wav
51,192,38025,1,0,0:0:0:0:
358,192,38156,1,0,0:0:0:70:LR3_Snare DSB.wav
460,192,38156,1,0,0:0:0:0:
153,192,38286,1,0,0:0:0:70:LR3_Snare DSB.wav
51,192,38286,1,0,0:0:0:0:
358,192,38416,1,0,0:0:0:70:LR3_Snare DSB.wav
460,192,38416,1,0,0:0:0:0:
153,192,38547,1,0,0:0:0:70:LR3_Snare DSB.wav
51,192,38547,1,0,0:0:0:0:
358,192,38677,1,0,0:0:0:70:LR3_Snare DSB.wav
460,192,38677,1,0,0:0:0:0:
153,192,38808,1,0,0:0:0:70:LR3_Snare DSB.wav
51,192,38808,1,0,0:0:0:0:
358,192,38938,1,0,0:0:0:70:LR3_Snare DSB.wav
460,192,38938,1,0,0:0:0:0:
153,192,39069,1,0,0:0:0:70:LR3_Snare DSB.wav
51,192,39069,1,0,0:0:0:0:
358,192,39199,1,0,0:0:0:70:LR3_Snare DSB.wav
460,192,39199,1,0,0:0:0:0:
256,192,39264,1,0,0:0:0:70:LR3_Snare DSB.wav
153,192,39329,1,0,0:0:0:70:LR3_Snare DSB.wav
51,192,39329,1,0,0:0:0:0:
460,192,39395,1,0,0:0:0:70:LR3_Snare DSB.wav
358,192,39460,1,0,0:0:0:70:LR3_Snare DSB.wav
256,192,39460,1,0,0:0:0:0:
153,192,39525,1,0,0:0:0:70:LR3_Snare DSB.wav
51,192,39590,1,0,0:0:0:70:LR3_Snare DSB.wav
460,192,39590,1,0,0:0:0:0:
358,192,39656,1,0,0:0:0:70:LR3_Snare DSB.wav
256,192,39721,1,0,0:0:0:70:LR3_Snare DSB.wav
153,192,39721,1,0,0:0:0:0:
51,192,39786,1,0,0:0:0:70:LR3_Snare DSB.wav
460,192,39851,1,0,0:0:0:70:LR3_Snare DSB.wav
358,192,39851,1,0,0:0:0:0:
256,192,39916,1,0,0:0:0:70:LR3_Snare DSB.wav
153,192,39982,1,0,0:0:0:70:LR3_Snare DSB.wav
51,192,39982,1,0,0:0:0:0:
460,192,40047,1,0,0:0:0:70:LR3_Snare DSB.wav
358,192,40112,1,0,0:0:0:70:LR3_Snare DSB.wav
256,192,40112,1,0,0:0:0:0:
153,192,40177,1,0,0:0:0:70:LR3_Snare DSB.wav
51,192,40243,1,0,0:0:0:70:LR3_Snare DSB.wav
460,192,40243,1,0,0:0:0:0:
256,192,41547,1,0,0:0:0:70:LR3_Kick BDrS.wav
460,192,41547,1,0,0:0:0:0:
51,192,41547,1,0,0:0:0:0:
358,192,41677,1,0,0:0:0:0:
153,192,41808,1,0,0:0:0:70:LR3_Kick BDrS.wav
51,192,41808,1,0,0:0:0:0:
256,192,41938,1,0,0:0:0:0:
51,192,42069,1,0,0:0:0:70:LR3_Kick BDrS.wav
460,192,42069,1,0,0:0:0:0:
358,192,42199,1,0,0:0:0:0:
51,192,42329,1,0,0:0:0:70:LR3_Kick BDrS.wav
256,192,42329,1,0,0:0:0:0:
153,192,42460,1,0,0:0:0:0:
51,192,42590,1,0,0:0:0:70:LR3_Kick BDrS.wav
460,192,42590,1,0,0:0:0:0:
256,192,42721,1,0,0:0:0:0:
460,192,42851,1,0,0:0:0:70:LR3_Kick BDrS.wav
358,192,42851,1,0,0:0:0:0:
256,192,42982,1,0,0:0:0:0:
460,192,43112,1,0,0:0:0:70:LR3_Kick BDrS.wav
51,192,43112,1,0,0:0:0:0:
153,192,43243,1,0,0:0:0:0:
460,192,43373,1,0,0:0:0:70:LR3_Kick BDrS.wav
256,192,43373,1,0,0:0:0:0:
358,192,43503,1,0,0:0:0:0:
460,192,43634,1,0,0:0:0:70:LR3_Kick BDrS.wav
51,192,43634,1,0,0:0:0:0:
358,192,43764,1,0,0:0:0:0:
153,192,43895,1,0,0:0:0:70:LR3_Kick BDrS.wav
51,192,43895,1,0,0:0:0:0:
256,192,44025,1,0,0:0:0:0:
460,192,44156,1,0,0:0:0:70:LR3_Kick BDrS.wav
51,192,44156,1,0,0:0:0:0:
358,192,44286,1,0,0:0:0:0:
256,192,44416,1,0,0:0:0:70:LR3_Kick BDrS.wav
51,192,44416,1,0,0:0:0:0:
153,192,44547,1,0,0:0:0:0:
460,192,44677,1,0,0:0:0:70:LR3_Kick CleanL.wav
256,192,44677,1,0,0:0:0:0:
460,192,44808,1,0,0:0:0:70:LR3_Snare RSH.wav
51,192,44808,1,0,0:0:0:0:
358,192,44938,1,0,0:0:0:70:LR3_Kick CleanL.wav
256,192,44938,1,0,0:0:0:0:
358,192,45069,1,0,0:0:0:70:LR3_Snare RSH.wav
153,192,45069,1,0,0:0:0:0:
256,192,45199,1,0,0:0:0:70:LR3_Snare RSH.wav
51,192,45199,1,0,0:0:0:0:
460,192,45329,1,0,0:0:0:70:LR3_Kick CleanL.wav
51,192,45329,1,0,0:0:0:0:
358,192,45460,1,0,0:0:0:70:LR3_Kick BDrS.wav
153,192,45460,1,0,0:0:0:0:
153,192,45590,1,0,0:0:0:70:LR3_Kick BDrS.wav
358,192,45590,1,0,0:0:0:0:
51,192,45721,1,0,0:0:0:70:LR3_Kick BDrS.wav
460,192,45721,1,0,0:0:0:0:
256,192,45851,1,0,0:0:0:0:
460,192,45982,1,0,0:0:0:70:LR3_Kick BDrS.wav
51,192,45982,1,0,0:0:0:0:
256,192,46112,1,0,0:0:0:0:
460,192,46243,1,0,0:0:0:70:LR3_Kick BDrS.wav
51,192,46243,1,0,0:0:0:0:
358,192,46373,1,0,0:0:0:0:
256,192,46503,1,0,0:0:0:70:LR3_Kick BDrS.wav
51,192,46503,1,0,0:0:0:0:
460,192,46634,1,0,0:0:0:0:
358,192,46764,1,0,0:0:0:70:LR3_Kick BDrS.wav
153,192,46764,1,0,0:0:0:0:
51,192,46895,1,0,0:0:0:0:
460,192,47025,1,0,0:0:0:70:LR3_Kick BDrS.wav
256,192,47025,1,0,0:0:0:0:
153,192,47156,1,0,0:0:0:0:
358,192,47286,1,0,0:0:0:70:LR3_Kick BDrS.wav
256,192,47416,1,0,0:0:0:0:
51,192,47416,1,0,0:0:0:0:
460,192,47547,1,0,0:0:0:70:LR3_Kick BDrS.wav
358,192,47677,1,0,0:0:0:0:
153,192,47677,1,0,0:0:0:0:
51,192,47808,128,0,48329:0:0:0:70:LR3_Kick BDrS.wav
256,192,47808,1,0,0:0:0:0:
460,192,47938,1,0,0:0:0:0:
358,192,48069,1,0,0:0:0:70:LR3_Kick BDrS.wav
153,192,48069,1,0,0:0:0:0:
256,192,48199,1,0,0:0:0:0:
460,192,48329,128,0,48851:0:0:0:70:LR3_Kick BDrS.wav
358,192,48329,1,0,0:0:0:0:
153,192,48460,1,0,0:0:0:0:
256,192,48590,1,0,0:0:0:70:LR3_Kick BDrS.wav
51,192,48590,1,0,0:0:0:0:
358,192,48721,1,0,0:0:0:0:
51,192,48851,1,0,0:0:0:70:LR3_Snare RSH.wav
153,192,48851,1,0,0:0:0:0:
153,192,48982,1,0,0:0:0:70:LR3_Snare RSH.wav
51,192,48982,1,0,0:0:0:0:
358,192,49112,1,0,0:0:0:70:LR3_Snare RSH.wav
460,192,49112,1,0,0:0:0:0:
460,192,49243,1,0,0:0:0:70:LR3_Snare RSH.wav
358,192,49243,1,0,0:0:0:0:
256,192,49373,1,0,0:0:0:70:LR3_Snare RSH.wav
51,192,49373,1,0,0:0:0:0:
51,192,49503,1,0,0:0:0:70:LR3_Snare RSH.wav
256,192,49503,1,0,0:0:0:0:
256,192,49634,1,0,0:0:0:70:LR3_Snare RSH.wav
460,192,49634,1,0,0:0:0:0:
460,192,49764,1,0,0:0:0:70:LR3_Snare RSH.wav
256,192,49764,1,0,0:0:0:0:
358,192,49895,1,0,0:0:0:70:LR3_Kick BDrS.wav
153,192,49895,1,0,0:0:0:0:
51,192,49895,128,0,50025:0:0:0:0:
256,192,50025,1,0,0:0:0:0:
358,192,50156,1,0,0:0:0:70:LR3_Kick BDrS.wav
153,192,50156,1,0,0:0:0:0:
460,192,50156,128,0,50286:0:0:0:0:
256,192,50286,1,0,0:0:0:0:
153,192,50416,1,0,0:0:0:70:LR3_Kick BDrS.wav
358,192,50416,1,0,0:0:0:0:
51,192,50416,128,0,50547:0:0:0:0:
256,192,50547,1,0,0:0:0:0:
358,192,50677,1,0,0:0:0:70:LR3_Kick BDrS.wav
153,192,50677,1,0,0:0:0:0:
460,192,50677,128,0,50808:0:0:0:0:
256,192,50808,1,0,0:0:0:0:
51,192,50938,1,0,0:0:0:70:LR3_Kick BDrS.wav
358,192,50938,1,0,0:0:0:0:
256,192,51069,1,0,0:0:0:0:
153,192,51199,1,0,0:0:0:70:LR3_Kick BDrS.wav
460,192,51199,1,0,0:0:0:0:
358,192,51329,1,0,0:0:0:0:
256,192,51460,1,0,0:0:0:70:LR3_Kick BDrS.wav
51,192,51460,1,0,0:0:0:0:
460,192,51590,1,0,0:0:0:0:
358,192,51721,1,0,0:0:0:70:LR3_Kick BDrS.wav
153,192,51721,1,0,0:0:0:0:
51,192,51851,1,0,0:0:0:0:
256,192,51982,1,0,0:0:0:70:LR3_Kick BDrS.wav
460,192,51982,1,0,0:0:0:0:
153,192,52112,1,0,0:0:0:0:
358,192,52243,1,0,0:0:0:70:LR3_Kick BDrS.wav
51,192,52243,1,0,0:0:0:0:
256,192,52373,1,0,0:0:0:0:
153,192,52503,1,0,0:0:0:70:LR3_Kick BDrS.wav
460,192,52503,1,0,0:0:0:0:
358,192,52634,1,0,0:0:0:0:
256,192,52764,1,0,0:0:0:70:LR3_Kick BDrS.wav
51,192,52764,1,0,0:0:0:0:
460,192,52895,1,0,0:0:0:0:
153,192,53025,1,0,0:0:0:70:LR3_Kick BDrS.wav
358,192,53025,1,0,0:0:0:0:
256,192,53156,1,0,0:0:0:0:
460,192,53286,1,0,0:0:0:70:LR3_Kick BDrS.wav
51,192,53286,1,0,0:0:0:0:
51,192,53416,1,0,0:0:0:70:LR3_Kick BDrS.wav
460,192,53416,1,0,0:0:0:0:
256,192,53547,1,0,0:0:0:0:
358,192,53677,1,0,0:0:0:70:LR3_Kick BDrS.wav
153,192,53677,1,0,0:0:0:0:
153,192,53808,1,0,0:0:0:70:LR3_Kick BDrS.wav
358,192,53808,1,0,0:0:0:0:
256,192,53938,1,0,0:0:0:0:
51,192,54069,1,0,0:0:0:70:LR3_Kick BDrS.wav
460,192,54069,1,0,0:0:0:0:
153,192,54199,1,0,0:0:0:0:
256,192,54329,1,0,0:0:0:70:LR3_Kick BDrS.wav
460,192,54329,1,0,0:0:0:0:
51,192,54460,1,0,0:0:0:0:
153,192,54590,1,0,0:0:0:70:LR3_Kick BDrS.wav
358,192,54590,1,0,0:0:0:0:
460,192,54721,1,0,0:0:0:0:
51,192,54851,1,0,0:0:0:70:LR3_Kick BDrS.wav
256,192,54851,1,0,0:0:0:0:
358,192,54982,1,0,0:0:0:0:
460,192,55112,1,0,0:0:0:70:LR3_Kick BDrS.wav
153,192,55112,1,0,0:0:0:0:
256,192,55243,1,0,0:0:0:0:
358,192,55373,1,0,0:0:0:70:LR3_Kick BDrS.wav
51,192,55373,1,0,0:0:0:0:
153,192,55503,1,0,0:0:0:0:
460,192,55634,1,0,0:0:0:70:LR3_Kick BDrS.wav
256,192,55634,1,0,0:0:0:0:
51,192,55764,1,0,0:0:0:0:
153,192,55895,1,0,0:0:0:70:LR3_Kick BDrS.wav
358,192,55895,1,0,0:0:0:0:
460,192,56025,1,0,0:0:0:0:
51,192,56156,1,0,0:0:0:70:LR3_Kick BDrS.wav
256,192,56156,1,0,0:0:0:0:
358,192,56286,1,0,0:0:0:0:
153,192,56416,1,0,0:0:0:70:LR3_Kick BDrS.wav
460,192,56416,1,0,0:0:0:0:
256,192,56547,1,0,0:0:0:0:
51,192,56677,1,0,0:0:0:70:LR3_Kick BDrS.wav
358,192,56677,1,0,0:0:0:0:
153,192,56808,1,0,0:0:0:0:
358,192,56938,1,0,0:0:0:0:
256,192,57069,1,0,0:0:0:0:
153,192,57199,1,0,0:0:0:70:LR3_Kick CleanL.wav
51,192,57199,1,0,0:0:0:0:
460,192,57199,1,0,0:0:0:0:
256,192,57329,1,0,0:0:0:70:LR3_Kick CleanL.wav
358,192,57460,1,0,0:0:0:70:LR3_Kick CleanL.wav
460,192,57460,1,0,0:0:0:0:
51,192,57460,1,0,0:0:0:0:
256,192,57590,1,0,0:0:0:70:LR3_Kick CleanL.wav
51,192,57721,1,0,0:0:0:70:LR3_Kick CleanL.wav
153,192,57721,1,0,0:0:0:0:
460,192,57721,1,0,0:0:0:0:
358,192,57851,1,0,0:0:0:0:
256,192,57982,1,0,0:0:0:70:LR3_Snare RSH.wav
153,192,57982,1,0,0:0:0:0:
358,192,58112,1,0,0:0:0:70:LR3_Snare RSH.wav
460,192,58112,1,0,0:0:0:0:
256,192,58243,1,0,0:0:0:70:LR3_Kick BDrS.wav
153,192,58243,1,0,0:0:0:0:
51,192,58243,1,0,0:0:0:0:
460,192,58373,1,0,0:0:0:0:
256,192,58503,1,0,0:0:0:70:LR3_Kick BDrS.wav
153,192,58503,1,0,0:0:0:0:
51,192,58634,1,0,0:0:0:0:
256,192,58764,1,0,0:0:0:70:LR3_Kick BDrS.wav
358,192,58764,1,0,0:0:0:0:
153,192,58895,1,0,0:0:0:0:
358,192,59025,1,0,0:0:0:70:LR3_Kick BDrS.wav
460,192,59025,1,0,0:0:0:0:
256,192,59156,1,0,0:0:0:0:
460,192,59286,1,0,0:0:0:70:LR3_Snare RSH.wav
51,192,59286,1,0,0:0:0:0:
256,192,59416,1,0,0:0:0:0:
460,192,59547,1,0,0:0:0:70:LR3_Snare RSH.wav
51,192,59547,1,0,0:0:0:0:
256,192,59677,1,0,0:0:0:0:
460,192,59808,1,0,0:0:0:70:LR3_Snare RSH.wav
51,192,59808,1,0,0:0:0:0:
256,192,59938,1,0,0:0:0:0:
460,192,60069,1,0,0:0:0:70:LR3_Snare RSH.wav
51,192,60069,1,0,0:0:0:0:
153,192,60199,1,0,0:0:0:70:LR3_Snare RSH.wav
256,192,60199,1,0,0:0:0:0:
460,192,60329,1,0,0:0:0:70:LR3_Kick BDrS.wav
358,192,60329,1,0,0:0:0:0:
51,192,60460,1,0,0:0:0:0:
358,192,60590,1,0,0:0:0:70:LR3_Kick BDrS.wav
256,192,60590,1,0,0:0:0:0:
460,192,60721,1,0,0:0:0:0:
256,192,60851,1,0,0:0:0:70:LR3_Kick BDrS.wav
153,192,60851,1,0,0:0:0:0:
358,192,60982,1,0,0:0:0:0:
51,192,61112,1,0,0:0:0:70:LR3_Kick BDrS.wav
153,192,61112,1,0,0:0:0:0:
256,192,61243,1,0,0:0:0:0:
51,192,61373,1,0,0:0:0:70:LR3_Snare RSH.wav
460,192,61373,1,0,0:0:0:0:
256,192,61503,1,0,0:0:0:0:
460,192,61634,1,0,0:0:0:70:LR3_Snare RSH.wav
51,192,61634,1,0,0:0:0:0:
256,192,61764,1,0,0:0:0:0:
51,192,61895,1,0,0:0:0:70:LR3_Snare RSH.wav
460,192,61895,1,0,0:0:0:0:
256,192,62025,1,0,0:0:0:0:
51,192,62156,1,0,0:0:0:70:LR3_Snare RSH.wav
460,192,62156,1,0,0:0:0:0:
256,192,62286,1,0,0:0:0:70:LR3_Snare RSH.wav
358,192,62286,1,0,0:0:0:0:
153,192,62416,1,0,0:0:0:70:LR3_Kick BDrS.wav
51,192,62416,1,0,0:0:0:0:
460,192,62547,1,0,0:0:0:0:
256,192,62677,1,0,0:0:0:70:LR3_Kick BDrS.wav
358,192,62677,1,0,0:0:0:0:
153,192,62808,1,0,0:0:0:0:
358,192,62938,1,0,0:0:0:70:LR3_Kick BDrS.wav
460,192,62938,1,0,0:0:0:0:
51,192,63069,1,0,0:0:0:0:
153,192,63199,1,0,0:0:0:70:LR3_Kick BDrS.wav
256,192,63199,1,0,0:0:0:0:
358,192,63329,1,0,0:0:0:0:
51,192,63460,1,0,0:0:0:70:LR3_Snare RSH.wav
460,192,63460,1,0,0:0:0:0:
256,192,63590,1,0,0:0:0:0:
460,192,63721,1,0,0:0:0:70:LR3_Snare RSH.wav
51,192,63721,1,0,0:0:0:0:
256,192,63851,1,0,0:0:0:0:
51,192,63982,1,0,0:0:0:70:LR3_Snare RSH.wav
460,192,63982,1,0,0:0:0:0:
256,192,64112,1,0,0:0:0:0:
358,192,64243,1,0,0:0:0:70:LR3_Snare RSH.wav
153,192,64243,1,0,0:0:0:0:
256,192,64373,1,0,0:0:0:70:LR3_Snare RSH.wav
51,192,64373,1,0,0:0:0:0:
358,192,64503,1,0,0:0:0:70:LR3_Kick BDrS.wav
460,192,64503,1,0,0:0:0:0:
51,192,64634,1,0,0:0:0:0:
256,192,64764,1,0,0:0:0:70:LR3_Kick BDrS.wav
153,192,64764,1,0,0:0:0:0:
358,192,64895,1,0,0:0:0:0:
153,192,65025,1,0,0:0:0:70:LR3_Kick BDrS.wav
51,192,65025,1,0,0:0:0:0:
460,192,65156,1,0,0:0:0:0:
358,192,65286,1,0,0:0:0:70:LR3_Kick BDrS.wav
256,192,65286,1,0,0:0:0:0:
153,192,65416,1,0,0:0:0:0:
51,192,65547,1,0,0:0:0:70:LR3_Snare RSH.wav
460,192,65547,1,0,0:0:0:0:
256,192,65677,1,0,0:0:0:0:
460,192,65808,1,0,0:0:0:70:LR3_Snare RSH.wav
51,192,65808,1,0,0:0:0:0:
256,192,65938,1,0,0:0:0:0:
51,192,66069,1,0,0:0:0:70:LR3_Snare RSH.wav
460,192,66069,1,0,0:0:0:0:
256,192,66199,1,0,0:0:0:0:
358,192,66329,1,0,0:0:0:70:LR3_Snare RSH.wav
153,192,66329,1,0,0:0:0:0:
256,192,66460,1,0,0:0:0:70:LR3_Snare RSH.wav
460,192,66460,1,0,0:0:0:0:
358,192,66590,1,0,0:0:0:70:LR3_Kick BDrS.wav
153,192,66590,1,0,0:0:0:0:
51,192,66590,1,0,0:0:0:0:
153,192,66721,1,0,0:0:0:70:LR3_Kick BDrS.wav
51,192,66721,1,0,0:0:0:0:
256,192,66851,1,0,0:0:0:70:LR3_Snare DSB.wav
460,192,66851,1,0,0:0:0:0:
153,192,66982,1,0,0:0:0:0:
256,192,67047,1,0,0:0:0:0:
358,192,67112,1,0,0:0:0:0:
51,192,67177,1,0,0:0:0:0:
153,192,67243,1,0,0:0:0:70:LR3_Kick BDrS.wav
256,192,67243,1,0,0:0:0:0:
460,192,67373,1,0,0:0:0:70:LR3_Snare DSB.wav
358,192,67373,1,0,0:0:0:0:
153,192,67503,1,0,0:0:0:0:
256,192,67569,1,0,0:0:0:0:
358,192,67634,1,0,0:0:0:0:
51,192,67699,1,0,0:0:0:0:
153,192,67764,1,0,0:0:0:70:LR3_Kick BDrS.wav
256,192,67764,1,0,0:0:0:0:
460,192,67895,1,0,0:0:0:70:LR3_Snare DSB.wav
358,192,67895,1,0,0:0:0:0:
153,192,67960,1,0,0:0:0:0:
256,192,68025,1,0,0:0:0:0:
51,192,68090,1,0,0:0:0:0:
460,192,68156,1,0,0:0:0:0:
358,192,68156,128,0,68286:0:0:0:0:
153,192,68286,128,0,68547:0:0:0:0:
256,192,68416,128,0,68547:0:0:0:0:
460,192,68547,1,0,0:0:0:0:
358,192,68547,1,0,0:0:0:0:
153,192,68677,1,0,0:0:0:70:LR3_Snare DSB.wav
51,192,68677,128,0,68938:0:0:0:0:
358,192,68938,1,0,0:0:0:0:
256,192,68938,128,0,69199:0:0:0:0:
153,192,69069,1,0,0:0:0:0:
460,192,69199,128,0,69721:0:0:0:0:
358,192,69199,1,0,0:0:0:0:
51,192,69329,1,0,0:0:0:0:
256,192,69460,1,0,0:0:0:0:
358,192,69525,1,0,0:0:0:0:
153,192,69590,1,0,0:0:0:0:
256,192,69656,1,0,0:0:0:0:
153,192,69721,1,0,0:0:0:70:LR3_Kick BDrS.wav
358,192,69721,1,0,0:0:0:0:
51,192,69721,128,0,69982:0:0:0:0:
460,192,69851,1,0,0:0:0:0:
153,192,69982,128,0,70243:0:0:0:70:LR3_Kick BDrS.wav
358,192,69982,1,0,0:0:0:0:
256,192,70112,1,0,0:0:0:0:
460,192,70243,128,0,70503:0:0:0:70:LR3_Kick BDrS.wav
51,192,70243,1,0,0:0:0:0:
256,192,70373,1,0,0:0:0:0:
358,192,70503,128,0,72329:0:0:0:70:LR3_Kick BDrS.wav
153,192,70503,1,0,0:0:0:0:
51,192,70634,1,0,0:0:0:0:
256,192,70764,1,0,0:0:0:70:LR3_Kick BDrS.wav
460,192,70764,1,0,0:0:0:0:
153,192,70895,1,0,0:0:0:0:
51,192,71025,1,0,0:0:0:70:LR3_Kick BDrS.wav
460,192,71025,1,0,0:0:0:0:
256,192,71156,1,0,0:0:0:0:
153,192,71286,1,0,0:0:0:70:LR3_Kick BDrS.wav
51,192,71286,1,0,0:0:0:0:
460,192,71416,1,0,0:0:0:0:
256,192,71547,1,0,0:0:0:70:LR3_Kick BDrS.wav
153,192,71547,1,0,0:0:0:0:
460,192,71677,1,0,0:0:0:0:
51,192,71808,1,0,0:0:0:70:LR3_Kick BDrS.wav
256,192,71808,1,0,0:0:0:0:
153,192,71938,1,0,0:0:0:0:
460,192,72069,1,0,0:0:0:70:LR3_Kick BDrS.wav
51,192,72069,1,0,0:0:0:0:
256,192,72199,1,0,0:0:0:0:
153,192,72329,1,0,0:0:0:70:LR3_Kick BDrS.wav
460,192,72329,1,0,0:0:0:0:
256,192,72460,1,0,0:0:0:0:
51,192,72590,1,0,0:0:0:70:LR3_Kick BDrS.wav
358,192,72590,1,0,0:0:0:0:
153,192,72721,1,0,0:0:0:0:
460,192,72851,1,0,0:0:0:70:LR3_Kick BDrS.wav
256,192,72851,128,0,73112:0:0:0:0:
51,192,72982,1,0,0:0:0:0:
153,192,73112,1,0,0:0:0:70:LR3_Kick BDrS.wav
358,192,73112,128,0,73373:0:0:0:0:
460,192,73243,1,0,0:0:0:0:
51,192,73373,1,0,0:0:0:70:LR3_Kick BDrS.wav
256,192,73373,128,0,73634:0:0:0:0:
460,192,73503,1,0,0:0:0:0:
358,192,73634,1,0,0:0:0:70:LR3_Kick BDrS.wav
153,192,73634,128,0,73895:0:0:0:0:
51,192,73764,1,0,0:0:0:0:
460,192,73895,128,0,74156:0:0:0:70:LR3_Kick BDrS.wav
256,192,73895,1,0,0:0:0:0:
51,192,74025,1,0,0:0:0:0:
358,192,74156,128,0,74416:0:0:0:70:LR3_Kick BDrS.wav
153,192,74156,1,0,0:0:0:0:
256,192,74286,1,0,0:0:0:0:
51,192,74416,128,0,74677:0:0:0:70:LR3_Kick BDrS.wav
460,192,74416,1,0,0:0:0:0:
256,192,74547,1,0,0:0:0:0:
153,192,74677,128,0,75460:0:0:0:70:LR3_Kick BDrS.wav
460,192,74677,1,0,0:0:0:0:
358,192,74808,1,0,0:0:0:0:
256,192,74938,1,0,0:0:0:70:LR3_Kick BDrS.wav
51,192,74938,1,0,0:0:0:0:
460,192,75069,1,0,0:0:0:0:
358,192,75199,1,0,0:0:0:70:LR3_Kick BDrS.wav
256,192,75199,1,0,0:0:0:0:
51,192,75329,1,0,0:0:0:0:
358,192,75460,1,0,0:0:0:70:LR3_Kick BDrS.wav
460,192,75460,128,0,75721:0:0:0:0:
256,192,75590,1,0,0:0:0:0:
51,192,75721,128,0,75982:0:0:0:70:LR3_Kick BDrS.wav
153,192,75721,1,0,0:0:0:70:LR3_Snare DSB.wav
358,192,75851,1,0,0:0:0:0:
256,192,75982,1,0,0:0:0:70:LR_Drum Finish.wav
460,192,75982,1,0,0:0:0:70:LR3_Kick BDrS.wav
153,192,75982,1,0,0:0:0:0:
256,192,76112,1,0,0:0:0:70:LR3_Kick BDrS.wav
460,192,76112,1,0,0:0:0:0:
153,192,76243,1,0,0:0:0:70:LR3_Snare DSB.wav
51,192,76243,1,0,0:0:0:0:
358,192,76373,1,0,0:0:0:0:
256,192,76438,1,0,0:0:0:0:
153,192,76503,1,0,0:0:0:0:
460,192,76569,1,0,0:0:0:0:
358,192,76634,1,0,0:0:0:70:LR3_Kick BDrS.wav
256,192,76634,1,0,0:0:0:0:
153,192,76764,1,0,0:0:0:70:LR3_Snare DSB.wav
51,192,76764,1,0,0:0:0:0:
460,192,76895,1,0,0:0:0:0:
358,192,76960,1,0,0:0:0:0:
51,192,77025,1,0,0:0:0:70:LR3_Kick BDrS.wav
153,192,77025,1,0,0:0:0:0:
256,192,77090,1,0,0:0:0:0:
460,192,77156,1,0,0:0:0:70:LR3_Kick BDrS.wav
358,192,77156,1,0,0:0:0:0:
153,192,77286,1,0,0:0:0:70:LR3_Snare DSB.wav
51,192,77286,1,0,0:0:0:0:
358,192,77416,1,0,0:0:0:0:
256,192,77482,1,0,0:0:0:0:
153,192,77547,1,0,0:0:0:0:
460,192,77612,1,0,0:0:0:0:
51,192,77677,1,0,0:0:0:70:LR3_Kick BDrS.wav
358,192,77677,1,0,0:0:0:0:
153,192,77808,1,0,0:0:0:70:LR3_Kick BDrS.wav
256,192,77808,1,0,0:0:0:0:
460,192,77938,1,0,0:0:0:0:
51,192,77938,1,0,0:0:0:0:
358,192,78069,1,0,0:0:0:70:LR3_Kick BDrS.wav
153,192,78069,1,0,0:0:0:0:
153,192,78199,1,0,0:0:0:70:LR3_Kick BDrS.wav
358,192,78199,1,0,0:0:0:0:
460,192,78329,1,0,0:0:0:70:LR3_Snare DSB.wav
51,192,78329,1,0,0:0:0:0:
153,192,78460,1,0,0:0:0:0:
256,192,78525,1,0,0:0:0:0:
358,192,78590,1,0,0:0:0:0:
51,192,78656,1,0,0:0:0:0:
153,192,78721,1,0,0:0:0:70:LR3_Kick BDrS.wav
256,192,78721,1,0,0:0:0:0:
358,192,78851,1,0,0:0:0:70:LR3_Snare DSB.wav
460,192,78851,1,0,0:0:0:0:
153,192,78982,1,0,0:0:0:0:
256,192,79047,1,0,0:0:0:0:
358,192,79112,1,0,0:0:0:70:LR3_Kick BDrS.wav
460,192,79112,1,0,0:0:0:0:
51,192,79177,1,0,0:0:0:0:
153,192,79243,1,0,0:0:0:70:LR3_Kick BDrS.wav
256,192,79243,1,0,0:0:0:0:
51,192,79373,1,0,0:0:0:70:LR3_Snare DSB.wav
460,192,79373,128,0,79634:0:0:0:0:
256,192,79503,128,0,79634:0:0:0:0:
358,192,79634,128,0,79895:0:0:0:0:
153,192,79764,128,0,79895:0:0:0:0:
51,192,79895,1,0,0:0:0:70:LR3_Kick BDrS.wav
460,192,79895,1,0,0:0:0:0:
256,192,79895,1,0,0:0:0:0:
256,192,80156,1,0,0:0:0:70:LR3_Kick BDrS.wav
460,192,80156,1,0,0:0:0:70:LR_Drum Finish.wav
153,192,80156,1,0,0:0:0:0:
358,192,80286,1,0,0:0:0:0:
153,192,80416,1,0,0:0:0:0:
358,192,80547,1,0,0:0:0:0:
153,192,80677,1,0,0:0:0:0:
358,192,80808,1,0,0:0:0:0:
153,192,80938,1,0,0:0:0:0:
358,192,81069,1,0,0:0:0:0:
256,192,81199,1,0,0:0:0:70:LR3_Kick BDrS.wav
51,192,81199,1,0,0:0:0:0:
153,192,81199,1,0,0:0:0:0:
460,192,81329,1,0,0:0:0:0:
51,192,81460,1,0,0:0:0:0:
460,192,81590,1,0,0:0:0:0:
51,192,81721,1,0,0:0:0:0:
460,192,81851,1,0,0:0:0:0:
51,192,81982,1,0,0:0:0:70:LR3_Kick BDrS.wav
256,192,81982,1,0,0:0:0:0:
153,192,81982,1,0,0:0:0:0:
460,192,82112,1,0,0:0:0:0:
51,192,82243,1,0,0:0:0:70:LR3_Kick BDrS.wav
153,192,82243,1,0,0:0:0:70:LR_Drum Finish.wav
358,192,82243,1,0,0:0:0:0:
256,192,82373,1,0,0:0:0:0:
460,192,82503,1,0,0:0:0:0:
153,192,82634,1,0,0:0:0:0:
358,192,82764,1,0,0:0:0:0:
51,192,82895,1,0,0:0:0:0:
256,192,83025,1,0,0:0:0:0:
153,192,83156,1,0,0:0:0:0:
358,192,83286,1,0,0:0:0:70:LR3_Snare RSH.wav
460,192,83286,1,0,0:0:0:0:
153,192,83351,1,0,0:0:0:70:LR3_Snare RSH.wav
51,192,83351,1,0,0:0:0:0:
358,192,83416,1,0,0:0:0:70:LR3_Snare RSH.wav
460,192,83416,1,0,0:0:0:0:
153,192,83482,1,0,0:0:0:70:LR3_Snare RSH.wav
51,192,83482,1,0,0:0:0:0:
358,192,83547,1,0,0:0:0:70:LR3_Snare RSH.wav
460,192,83547,1,0,0:0:0:0:
153,192,83612,1,0,0:0:0:70:LR3_Snare RSH.wav
51,192,83612,1,0,0:0:0:0:
358,192,83677,1,0,0:0:0:70:LR3_Snare RSH.wav
460,192,83677,1,0,0:0:0:0:
153,192,83743,1,0,0:0:0:70:LR3_Snare RSH.wav
51,192,83743,1,0,0:0:0:0:
358,192,83808,1,0,0:0:0:70:LR3_Snare RSH.wav
460,192,83808,1,0,0:0:0:0:
256,192,83938,1,0,0:0:0:70:LR3_Snare RSH.wav
153,192,83938,1,0,0:0:0:0:
358,192,84069,1,0,0:0:0:70:LR3_Snare RSH.wav
460,192,84069,1,0,0:0:0:0:
153,192,84199,1,0,0:0:0:70:LR3_Snare RSH.wav
51,192,84199,1,0,0:0:0:0:
256,192,84329,1,0,0:0:0:70:LR_Drum Finish.wav
358,192,84329,1,0,0:0:0:0:
460,192,84329,1,0,0:0:0:0:
51,192,84460,1,0,0:0:0:0:
153,192,84590,1,0,0:0:0:70:LR3_Kick BDrS.wav
358,192,84590,1,0,0:0:0:0:
460,192,84721,1,0,0:0:0:0:
256,192,84851,1,0,0:0:0:70:LR3_Kick BDrS.wav
51,192,84851,1,0,0:0:0:0:
358,192,84982,1,0,0:0:0:0:
153,192,85112,1,0,0:0:0:70:LR3_Kick BDrS.wav
51,192,85112,128,0,85634:0:0:0:0:
460,192,85243,1,0,0:0:0:0:
358,192,85373,1,0,0:0:0:70:LR3_Kick BDrS.wav
256,192,85373,1,0,0:0:0:0:
460,192,85503,1,0,0:0:0:0:
153,192,85634,128,0,85895:0:0:0:70:LR3_Kick BDrS.wav
256,192,85634,1,0,0:0:0:0:
358,192,85764,1,0,0:0:0:0:
256,192,85895,128,0,86416:0:0:0:70:LR3_Kick BDrS.wav
460,192,85895,1,0,0:0:0:0:
51,192,86025,1,0,0:0:0:0:
153,192,86156,1,0,0:0:0:70:LR3_Kick BDrS.wav
358,192,86156,1,0,0:0:0:0:
51,192,86286,1,0,0:0:0:0:
460,192,86416,128,0,86808:0:0:0:70:LR3_Kick BDrS.wav
358,192,86416,1,0,0:0:0:0:
153,192,86547,1,0,0:0:0:0:
256,192,86677,1,0,0:0:0:70:LR3_Kick BDrS.wav
51,192,86677,1,0,0:0:0:0:
358,192,86808,128,0,87199:0:0:0:0:
153,192,86938,1,0,0:0:0:70:LR3_Kick BDrS.wav
256,192,86938,1,0,0:0:0:0:
51,192,87069,1,0,0:0:0:0:
256,192,87199,128,0,87721:0:0:0:70:LR3_Kick BDrS.wav
460,192,87199,1,0,0:0:0:0:
153,192,87329,1,0,0:0:0:0:
358,192,87460,1,0,0:0:0:70:LR3_Kick BDrS.wav
51,192,87460,1,0,0:0:0:0:
460,192,87590,1,0,0:0:0:0:
358,192,87721,1,0,0:0:0:70:LR3_Kick BDrS.wav
153,192,87721,1,0,0:0:0:0:
51,192,87851,1,0,0:0:0:0:
460,192,87982,1,0,0:0:0:70:LR3_Kick BDrS.wav
358,192,87982,128,0,88112:0:0:0:0:
256,192,88112,1,0,0:0:0:0:
153,192,88112,128,0,88243:0:0:0:0:
51,192,88243,1,0,0:0:0:0:
460,192,88243,128,0,88373:0:0:0:0:
358,192,88373,1,0,0:0:0:0:
256,192,88373,128,0,88503:0:0:0:0:
153,192,88503,1,0,0:0:0:70:LR3_Kick BDrS.wav
51,192,88503,1,0,0:0:0:0:
460,192,88634,1,0,0:0:0:0:
256,192,88764,1,0,0:0:0:0:
153,192,88764,1,0,0:0:0:0:
358,192,88895,1,0,0:0:0:0:
51,192,89025,1,0,0:0:0:70:LR3_Kick BDrS.wav
153,192,89025,128,0,89156:0:0:0:0:
256,192,89156,1,0,0:0:0:0:
358,192,89156,128,0,89286:0:0:0:0:
460,192,89286,1,0,0:0:0:0:
51,192,89286,128,0,89416:0:0:0:0:
153,192,89416,1,0,0:0:0:0:
256,192,89416,128,0,89547:0:0:0:0:
358,192,89547,1,0,0:0:0:70:LR3_Kick BDrS.wav
460,192,89547,1,0,0:0:0:0:
153,192,89677,1,0,0:0:0:0:
51,192,89808,1,0,0:0:0:0:
460,192,89808,1,0,0:0:0:0:
358,192,89938,1,0,0:0:0:0:
256,192,90069,128,0,90199:0:0:0:70:LR3_Kick BDrS.wav
153,192,90069,1,0,0:0:0:0:
460,192,90199,128,0,90329:0:0:0:0:
358,192,90199,1,0,0:0:0:0:
51,192,90329,128,0,90460:0:0:0:0:
153,192,90329,1,0,0:0:0:0:
358,192,90460,128,0,90590:0:0:0:0:
256,192,90460,1,0,0:0:0:0:
460,192,90590,1,0,0:0:0:70:LR3_Kick BDrS.wav
153,192,90590,1,0,0:0:0:0:
51,192,90721,1,0,0:0:0:0:
358,192,90851,1,0,0:0:0:0:
256,192,90851,1,0,0:0:0:0:
153,192,90982,1,0,0:0:0:0:
358,192,91112,1,0,0:0:0:70:LR3_Kick BDrS.wav
256,192,91112,128,0,91243:0:0:0:0:
153,192,91243,1,0,0:0:0:0:
51,192,91243,128,0,91373:0:0:0:0:
460,192,91373,128,0,91503:0:0:0:0:
358,192,91373,1,0,0:0:0:0:
153,192,91503,128,0,91634:0:0:0:0:
256,192,91503,1,0,0:0:0:0:
358,192,91634,1,0,0:0:0:70:LR3_Kick BDrS.wav
51,192,91634,1,0,0:0:0:0:
358,192,91764,1,0,0:0:0:70:LR3_Kick BDrS.wav
51,192,91764,1,0,0:0:0:0:
51,192,91895,1,0,0:0:0:70:LR3_Kick BDrS.wav
358,192,91895,1,0,0:0:0:0:
256,192,92025,1,0,0:0:0:70:LR3_Kick BDrS.wav
460,192,92025,1,0,0:0:0:0:
153,192,92156,1,0,0:0:0:70:LR3_Kick BDrS.wav
358,192,92156,1,0,0:0:0:0:
153,192,92286,1,0,0:0:0:70:LR3_Kick BDrS.wav
358,192,92286,1,0,0:0:0:0:
358,192,92416,1,0,0:0:0:70:LR3_Kick BDrS.wav
153,192,92416,1,0,0:0:0:0:
153,192,92547,1,0,0:0:0:70:LR3_Kick BDrS.wav
358,192,92547,1,0,0:0:0:0:
256,192,92677,1,0,0:0:0:0:
460,192,92808,1,0,0:0:0:0:
153,192,92938,1,0,0:0:0:0:
358,192,93069,1,0,0:0:0:0:
256,192,93199,1,0,0:0:0:0:
51,192,93199,128,0,93721:0:0:0:0:
460,192,93329,1,0,0:0:0:0:
153,192,93460,1,0,0:0:0:0:
358,192,93590,1,0,0:0:0:0:
256,192,93721,128,0,98416:0:0:0:70:LR3_Kick BDrS.wav
460,192,93721,128,0,95547:0:0:0:0:
51,192,95547,128,0,96590:0:0:0:0:
460,192,96264,1,0,0:0:0:0:
358,192,96590,128,0,96982:0:0:0:0:
153,192,96982,128,0,98416:0:0:0:0:
51,192,98416,1,0,0:0:0:70:LR3_Kick CleanL.wav
460,192,98416,128,0,98677:0:0:0:0:
358,192,98547,1,0,0:0:0:0:
256,192,98677,1,0,0:0:0:0:
153,192,98677,1,0,0:0:0:0:
51,192,98808,1,0,0:0:0:70:LR3_Kick CleanL.wav
358,192,98808,1,0,0:0:0:0:
153,192,98938,1,0,0:0:0:70:LR3_Snare RSH.wav
460,192,98938,128,0,99199:0:0:0:0:
256,192,99069,1,0,0:0:0:0:
358,192,99199,1,0,0:0:0:70:LR3_Kick CleanL.wav
51,192,99199,1,0,0:0:0:0:
153,192,99329,1,0,0:0:0:70:LR3_Kick CleanL.wav
460,192,99460,128,0,99721:0:0:0:0:
256,192,99460,1,0,0:0:0:0:
153,192,99590,1,0,0:0:0:70:LR3_Kick CleanL.wav
51,192,99590,1,0,0:0:0:0:
358,192,99721,1,0,0:0:0:70:LR3_Kick CleanL.wav
256,192,99721,1,0,0:0:0:0:
51,192,99851,1,0,0:0:0:0:
460,192,99982,128,0,100243:0:0:0:70:LR3_Snare RSH.wav
358,192,99982,1,0,0:0:0:0:
153,192,100112,1,0,0:0:0:0:
256,192,100243,1,0,0:0:0:0:
358,192,100373,1,0,0:0:0:0:
51,192,100503,128,0,100764:0:0:0:70:LR3_Kick CleanL.wav
460,192,100503,1,0,0:0:0:0:
153,192,100634,1,0,0:0:0:0:
358,192,100764,1,0,0:0:0:70:LR3_Kick CleanL.wav
256,192,100764,1,0,0:0:0:0:
460,192,100895,1,0,0:0:0:0:
358,192,101025,1,0,0:0:0:70:LR3_Snare RSH.wav
51,192,101025,128,0,101286:0:0:0:0:
256,192,101156,1,0,0:0:0:70:LR3_Kick CleanL.wav
153,192,101156,1,0,0:0:0:0:
460,192,101286,1,0,0:0:0:0:
358,192,101286,1,0,0:0:0:0:
153,192,101416,1,0,0:0:0:70:LR3_Kick CleanL.wav
256,192,101416,1,0,0:0:0:0:
460,192,101547,1,0,0:0:0:70:LR3_Kick CleanL.wav
51,192,101547,128,0,101808:0:0:0:0:
358,192,101677,1,0,0:0:0:0:
153,192,101808,1,0,0:0:0:70:LR3_Kick CleanL.wav
256,192,101808,1,0,0:0:0:0:
460,192,101938,1,0,0:0:0:0:
256,192,102069,1,0,0:0:0:70:LR3_Snare RSH.wav
51,192,102069,128,0,102329:0:0:0:0:
358,192,102199,1,0,0:0:0:0:
153,192,102329,1,0,0:0:0:70:LR3_Kick CleanL.wav
460,192,102329,1,0,0:0:0:0:
256,192,102460,1,0,0:0:0:0:
51,192,102590,1,0,0:0:0:70:LR3_Kick CleanL.wav
358,192,102590,128,0,102851:0:0:0:0:
460,192,102721,1,0,0:0:0:0:
153,192,102851,1,0,0:0:0:0:
256,192,102851,1,0,0:0:0:0:
51,192,102982,1,0,0:0:0:70:LR3_Kick CleanL.wav
460,192,102982,1,0,0:0:0:0:
358,192,103112,128,0,103373:0:0:0:70:LR3_Snare RSH.wav
153,192,103112,1,0,0:0:0:0:
256,192,103243,1,0,0:0:0:0:
460,192,103373,1,0,0:0:0:0:
51,192,103373,1,0,0:0:0:0:
153,192,103503,1,0,0:0:0:0:
256,192,103634,1,0,0:0:0:70:LR3_Kick CleanL.wav
358,192,103634,128,0,103895:0:0:0:0:
51,192,103764,1,0,0:0:0:70:LR3_Kick CleanL.wav
153,192,103764,1,0,0:0:0:0:
256,192,103895,1,0,0:0:0:70:LR3_Kick CleanL.wav
460,192,103895,1,0,0:0:0:0:
51,192,104025,1,0,0:0:0:0:
460,192,104156,1,0,0:0:0:70:LR3_Snare RSH.wav
358,192,104156,128,0,104416:0:0:0:0:
153,192,104286,1,0,0:0:0:0:
256,192,104416,1,0,0:0:0:0:
51,192,104547,1,0,0:0:0:0:
153,192,104677,128,0,104938:0:0:0:70:LR3_Kick CleanL.wav
460,192,104677,1,0,0:0:0:0:
51,192,104808,1,0,0:0:0:0:
358,192,104938,1,0,0:0:0:70:LR3_Kick CleanL.wav
256,192,104938,1,0,0:0:0:0:
460,192,105069,1,0,0:0:0:0:
153,192,105199,128,0,105460:0:0:0:70:LR3_Snare RSH.wav
51,192,105199,1,0,0:0:0:0:
460,192,105329,1,0,0:0:0:70:LR3_Kick CleanL.wav
358,192,105329,1,0,0:0:0:0:
51,192,105460,1,0,0:0:0:0:
256,192,105460,1,0,0:0:0:0:
460,192,105590,1,0,0:0:0:0:
358,192,105590,1,0,0:0:0:0:
256,192,105721,1,0,0:0:0:70:LR3_Kick CleanL.wav
153,192,105721,128,0,105982:0:0:0:0:
51,192,105851,1,0,0:0:0:0:
460,192,105982,1,0,0:0:0:70:LR3_Kick CleanL.wav
358,192,105982,1,0,0:0:0:0:
256,192,106112,1,0,0:0:0:0:
153,192,106243,128,0,106503:0:0:0:70:LR3_Snare RSH.wav
51,192,106243,1,0,0:0:0:0:
358,192,106373,1,0,0:0:0:0:
256,192,106503,1,0,0:0:0:70:LR3_Kick CleanL.wav
460,192,106503,1,0,0:0:0:0:
51,192,106634,1,0,0:0:0:0:
358,192,106764,1,0,0:0:0:70:LR3_Kick CleanL.wav
460,192,106764,128,0,107025:0:0:0:0:
153,192,106895,1,0,0:0:0:0:
358,192,107025,1,0,0:0:0:0:
256,192,107025,1,0,0:0:0:0:
51,192,107156,1,0,0:0:0:70:LR3_Kick CleanL.wav
153,192,107156,1,0,0:0:0:0:
460,192,107286,128,0,107547:0:0:0:70:LR3_Snare RSH.wav
256,192,107286,1,0,0:0:0:0:
358,192,107286,1,0,0:0:0:0:
51,192,107416,1,0,0:0:0:0:
153,192,107547,1,0,0:0:0:0:
256,192,107547,1,0,0:0:0:0:
51,192,107677,1,0,0:0:0:0:
460,192,107808,128,0,108069:0:0:0:70:LR3_Kick CleanL.wav
358,192,107808,1,0,0:0:0:0:
51,192,107938,1,0,0:0:0:70:LR3_Kick CleanL.wav
153,192,107938,1,0,0:0:0:0:
256,192,108069,1,0,0:0:0:70:LR3_Kick CleanL.wav
358,192,108069,1,0,0:0:0:0:
153,192,108199,1,0,0:0:0:0:
358,192,108329,1,0,0:0:0:70:LR3_Snare RSH.wav
460,192,108329,128,0,108590:0:0:0:0:
51,192,108460,1,0,0:0:0:0:
256,192,108590,1,0,0:0:0:0:
358,192,108721,1,0,0:0:0:0:
153,192,108851,1,0,0:0:0:70:LR3_Kick CleanL.wav
51,192,108851,128,0,109112:0:0:0:0:
460,192,108982,1,0,0:0:0:0:
256,192,109112,1,0,0:0:0:70:LR3_Kick CleanL.wav
358,192,109112,1,0,0:0:0:0:
460,192,109243,1,0,0:0:0:0:
153,192,109373,1,0,0:0:0:70:LR3_Snare RSH.wav
51,192,109373,128,0,109634:0:0:0:0:
460,192,109503,1,0,0:0:0:70:LR3_Kick CleanL.wav
358,192,109503,1,0,0:0:0:0:
153,192,109634,1,0,0:0:0:0:
256,192,109634,1,0,0:0:0:0:
358,192,109764,1,0,0:0:0:0:
51,192,109895,128,0,110156:0:0:0:70:LR3_Kick CleanL.wav
153,192,109895,1,0,0:0:0:0:
460,192,110025,1,0,0:0:0:0:
358,192,110156,1,0,0:0:0:70:LR3_Kick CleanL.wav
256,192,110156,1,0,0:0:0:0:
460,192,110286,1,0,0:0:0:0:
51,192,110416,128,0,110677:0:0:0:70:LR3_Snare RSH.wav
153,192,110416,1,0,0:0:0:0:
358,192,110547,1,0,0:0:0:0:
460,192,110677,1,0,0:0:0:70:LR3_Kick CleanL.wav
153,192,110677,1,0,0:0:0:0:
256,192,110808,1,0,0:0:0:0:
460,192,110938,1,0,0:0:0:70:LR3_Kick CleanL.wav
358,192,110938,128,0,111199:0:0:0:0:
51,192,111069,1,0,0:0:0:0:
256,192,111199,1,0,0:0:0:0:
460,192,111199,1,0,0:0:0:0:
51,192,111329,1,0,0:0:0:70:LR3_Kick CleanL.wav
153,192,111329,1,0,0:0:0:0:
460,192,111460,1,0,0:0:0:70:LR3_Snare RSH.wav
358,192,111460,128,0,111721:0:0:0:0:
256,192,111590,1,0,0:0:0:0:
153,192,111721,1,0,0:0:0:0:
51,192,111721,1,0,0:0:0:0:
256,192,111851,1,0,0:0:0:0:
358,192,111982,128,0,112243:0:0:0:70:LR3_Kick CleanL.wav
460,192,111982,1,0,0:0:0:0:
51,192,112112,1,0,0:0:0:70:LR3_Kick CleanL.wav
153,192,112112,1,0,0:0:0:0:
256,192,112243,1,0,0:0:0:70:LR3_Kick CleanL.wav
460,192,112243,1,0,0:0:0:0:
51,192,112373,1,0,0:0:0:0:
460,192,112503,1,0,0:0:0:70:LR3_Snare RSH.wav
358,192,112503,128,0,112764:0:0:0:0:
153,192,112634,1,0,0:0:0:0:
256,192,112764,1,0,0:0:0:0:
460,192,112895,1,0,0:0:0:0:
153,192,113025,128,0,113286:0:0:0:70:LR3_Kick CleanL.wav
51,192,113025,1,0,0:0:0:0:
460,192,113156,1,0,0:0:0:0:
256,192,113286,1,0,0:0:0:70:LR3_Kick CleanL.wav
358,192,113286,1,0,0:0:0:0:
460,192,113416,1,0,0:0:0:0:
51,192,113547,1,0,0:0:0:70:LR3_Snare RSH.wav
153,192,113547,128,0,113808:0:0:0:0:
358,192,113677,1,0,0:0:0:70:LR3_Kick CleanL.wav
460,192,113677,1,0,0:0:0:0:
51,192,113808,1,0,0:0:0:0:
256,192,113808,1,0,0:0:0:0:
460,192,113938,1,0,0:0:0:0:
358,192,113938,1,0,0:0:0:0:
51,192,114069,1,0,0:0:0:70:LR3_Kick BDrS.wav
153,192,114069,128,0,114329:0:0:0:0:
256,192,114199,1,0,0:0:0:0:
358,192,114329,1,0,0:0:0:0:
51,192,114460,1,0,0:0:0:70:LR3_Kick BDrS.wav
460,192,114460,128,0,114656:0:0:0:0:
153,192,114590,1,0,0:0:0:0:
256,192,114721,1,0,0:0:0:0:
460,192,114851,1,0,0:0:0:70:LR3_Kick BDrS.wav
358,192,114851,128,0,115112:0:0:0:0:
153,192,115112,1,0,0:0:0:70:LR3_Kick BDrS.wav
51,192,115112,1,0,0:0:0:0:
256,192,115112,1,0,0:0:0:0:
153,192,115243,1,0,0:0:0:70:LR3_Kick BDrS.wav
51,192,115243,1,0,0:0:0:0:
460,192,115373,1,0,0:0:0:70:LR3_Snare DSB.wav
358,192,115373,1,0,0:0:0:0:
51,192,115503,1,0,0:0:0:0:
153,192,115569,1,0,0:0:0:0:
460,192,115634,1,0,0:0:0:0:
358,192,115699,1,0,0:0:0:0:
51,192,115764,1,0,0:0:0:70:LR3_Kick BDrS.wav
256,192,115764,1,0,0:0:0:0:
460,192,115895,1,0,0:0:0:70:LR3_Snare DSB.wav
358,192,115895,1,0,0:0:0:0:
51,192,116025,1,0,0:0:0:0:
153,192,116090,1,0,0:0:0:0:
460,192,116156,1,0,0:0:0:0:
358,192,116221,1,0,0:0:0:0:
51,192,116286,1,0,0:0:0:70:LR3_Kick BDrS.wav
256,192,116286,1,0,0:0:0:0:
358,192,116416,1,0,0:0:0:70:LR3_Snare DSB.wav
460,192,116416,1,0,0:0:0:0:
51,192,116547,1,0,0:0:0:0:
153,192,116612,1,0,0:0:0:0:
460,192,116677,1,0,0:0:0:0:
358,192,116743,1,0,0:0:0:0:
256,192,116808,1,0,0:0:0:70:LR3_Kick BDrS.wav
153,192,116808,1,0,0:0:0:0:
51,192,116938,1,0,0:0:0:0:
460,192,117069,1,0,0:0:0:0:
256,192,117069,1,0,0:0:0:0:
358,192,117199,1,0,0:0:0:70:LR3_Kick BDrS.wav
153,192,117199,1,0,0:0:0:0:
153,192,117329,1,0,0:0:0:70:LR3_Kick BDrS.wav
358,192,117329,1,0,0:0:0:0:
460,192,117460,1,0,0:0:0:70:LR3_Snare DSB.wav
51,192,117460,1,0,0:0:0:0:
358,192,117590,1,0,0:0:0:0:
256,192,117656,1,0,0:0:0:0:
153,192,117721,1,0,0:0:0:0:
460,192,117786,1,0,0:0:0:0:
256,192,117851,1,0,0:0:0:70:LR3_Kick BDrS.wav
358,192,117851,1,0,0:0:0:0:
460,192,117982,1,0,0:0:0:70:LR3_Snare DSB.wav
51,192,117982,1,0,0:0:0:0:
153,192,118112,1,0,0:0:0:0:
256,192,118177,1,0,0:0:0:0:
358,192,118243,1,0,0:0:0:0:
51,192,118308,1,0,0:0:0:0:
256,192,118373,1,0,0:0:0:70:LR3_Kick BDrS.wav
153,192,118373,1,0,0:0:0:0:
460,192,118503,1,0,0:0:0:70:LR3_Snare DSB.wav
51,192,118503,1,0,0:0:0:0:
358,192,118569,1,0,0:0:0:0:
256,192,118634,1,0,0:0:0:0:
153,192,118699,1,0,0:0:0:0:
51,192,118764,128,0,119025:0:0:0:0:
460,192,118895,128,0,119025:0:0:0:0:
256,192,119025,128,0,119286:0:0:0:0:
51,192,119286,1,0,0:0:0:70:LR_Drum Finish.wav
358,192,119286,1,0,0:0:0:70:LR3_Kick BDrS.wav
460,192,119286,128,0,121112:0:0:0:0:
153,192,119416,1,0,0:0:0:0:
358,192,119547,1,0,0:0:0:0:
51,192,119677,1,0,0:0:0:0:
256,192,119808,1,0,0:0:0:0:
153,192,119938,1,0,0:0:0:0:
358,192,120069,1,0,0:0:0:0:
51,192,120199,1,0,0:0:0:0:
256,192,120329,1,0,0:0:0:0:
153,192,120460,1,0,0:0:0:0:
358,192,120590,1,0,0:0:0:0:
51,192,120721,1,0,0:0:0:0:
256,192,120851,1,0,0:0:0:0:
153,192,120982,1,0,0:0:0:0:
256,192,121112,128,0,121373:0:0:0:0:
358,192,121112,1,0,0:0:0:0:
153,192,121243,1,0,0:0:0:0:
51,192,121373,128,0,123460:0:0:0:0:
460,192,121373,1,0,0:0:0:0:
358,192,121503,1,0,0:0:0:0:
153,192,121634,1,0,0:0:0:0:
256,192,121764,1,0,0:0:0:0:
460,192,121895,1,0,0:0:0:0:
358,192,122025,1,0,0:0:0:0:
153,192,122156,1,0,0:0:0:0:
256,192,122286,1,0,0:0:0:0:
460,192,122416,1,0,0:0:0:0:
358,192,122547,1,0,0:0:0:0:
153,192,122677,1,0,0:0:0:0:
256,192,122808,1,0,0:0:0:0:
460,192,122938,1,0,0:0:0:0:
358,192,123069,1,0,0:0:0:0:
153,192,123199,1,0,0:0:0:0:
256,192,123329,1,0,0:0:0:0:
358,192,123460,1,0,0:0:0:70:LR3_Kick BDrS.wav
153,192,123460,1,0,0:0:0:0:
460,192,123460,128,0,124503:0:0:0:0:
358,192,123982,128,0,124503:0:0:0:0:
256,192,123982,1,0,0:0:0:0:
51,192,124503,128,0,125547:0:0:0:0:
153,192,124503,1,0,0:0:0:0:
153,192,125025,128,0,125547:0:0:0:0:
256,192,125025,1,0,0:0:0:0:
460,192,125547,128,0,126590:0:0:0:0:
358,192,125547,1,0,0:0:0:0:
256,192,125721,1,0,0:0:0:0:
153,192,125721,1,0,0:0:0:0:
51,192,125895,1,0,0:0:0:0:
358,192,125895,1,0,0:0:0:0:
256,192,126069,128,0,126590:0:0:0:0:
153,192,126069,1,0,0:0:0:0:
51,192,126590,128,0,127634:0:0:0:0:
153,192,126590,1,0,0:0:0:0:
256,192,126764,1,0,0:0:0:0:
358,192,126764,1,0,0:0:0:0:
460,192,126938,1,0,0:0:0:0:
153,192,126938,1,0,0:0:0:0:
256,192,127112,128,0,127634:0:0:0:0:
358,192,127112,1,0,0:0:0:0:
358,192,127634,1,0,0:0:0:0:
460,192,127634,128,0,128677:0:0:0:0:
256,192,127808,1,0,0:0:0:0:
153,192,127808,1,0,0:0:0:0:
51,192,127982,1,0,0:0:0:0:
358,192,127982,1,0,0:0:0:0:
153,192,128156,128,0,128677:0:0:0:0:
256,192,128156,1,0,0:0:0:0:
51,192,128677,128,0,129721:0:0:0:0:
358,192,128677,1,0,0:0:0:0:
256,192,128808,128,0,129329:0:0:0:0:
153,192,129329,128,0,129721:0:0:0:0:
460,192,129721,1,0,0:0:0:70:LR3_Kick BDrS.wav
358,192,129786,1,0,0:0:0:70:LR3_Kick BDrS.wav
51,192,129851,1,0,0:0:0:70:LR3_Kick BDrS.wav
153,192,129916,1,0,0:0:0:70:LR3_Kick BDrS.wav
460,192,129982,1,0,0:0:0:70:LR3_Kick BDrS.wav
358,192,130047,1,0,0:0:0:70:LR3_Kick BDrS.wav
51,192,130112,1,0,0:0:0:70:LR3_Kick BDrS.wav
153,192,130177,1,0,0:0:0:70:LR3_Kick BDrS.wav
460,192,130243,1,0,0:0:0:70:LR3_Kick BDrS.wav
358,192,130308,1,0,0:0:0:70:LR3_Kick BDrS.wav
51,192,130373,1,0,0:0:0:70:LR3_Kick BDrS.wav
153,192,130438,1,0,0:0:0:70:LR3_Kick BDrS.wav
460,192,130503,1,0,0:0:0:70:LR3_Kick BDrS.wav
358,192,130569,1,0,0:0:0:70:LR3_Kick BDrS.wav
51,192,130634,1,0,0:0:0:70:LR3_Kick BDrS.wav
153,192,130699,1,0,0:0:0:70:LR3_Kick BDrS.wav
460,192,130764,1,0,0:0:0:70:LR3_Kick BDrS.wav
358,192,130829,1,0,0:0:0:70:LR3_Kick BDrS.wav
51,192,130895,1,0,0:0:0:70:LR3_Kick BDrS.wav
153,192,130960,1,0,0:0:0:70:LR3_Kick BDrS.wav
256,192,131025,1,0,0:0:0:70:LR3_Kick BDrS.wav
460,192,131025,1,0,0:0:0:0:
358,192,131090,1,0,0:0:0:70:LR3_Kick BDrS.wav
153,192,131156,1,0,0:0:0:70:LR3_Kick BDrS.wav
51,192,131156,1,0,0:0:0:0:
460,192,131221,1,0,0:0:0:70:LR3_Kick BDrS.wav
256,192,131286,1,0,0:0:0:70:LR3_Kick BDrS.wav
358,192,131286,1,0,0:0:0:0:
460,192,131547,1,0,0:0:0:70:LR3_Kick BDrS.wav
256,192,131547,1,0,0:0:0:0:
358,192,131677,1,0,0:0:0:70:LR3_Kick BDrS.wav
153,192,131677,1,0,0:0:0:0:
256,192,131808,1,0,0:0:0:70:LR3_Kick BDrS.wav
51,192,131808,128,0,132721:0:0:0:0:
153,192,132199,128,0,132721:0:0:0:0:
256,192,132395,128,0,132721:0:0:0:0:
460,192,132721,128,0,133373:0:0:0:0:
358,192,132916,128,0,133373:0:0:0:0:
51,192,133373,1,0,0:0:0:70:LR3_Kick BDrS.wav
153,192,133373,1,0,0:0:0:70:LR3_Snare DSB.wav
256,192,133503,1,0,0:0:0:0:
358,192,133634,1,0,0:0:0:70:LR3_Snare DSB.wav
51,192,133634,1,0,0:0:0:0:
256,192,133764,1,0,0:0:0:0:
153,192,133895,1,0,0:0:0:70:LR3_Snare DSB.wav
460,192,133895,1,0,0:0:0:0:
256,192,134025,1,0,0:0:0:0:
358,192,134156,1,0,0:0:0:70:LR3_Snare DSB.wav
51,192,134156,1,0,0:0:0:0:
153,192,134286,1,0,0:0:0:0:
358,192,134416,1,0,0:0:0:70:LR3_Kick BDrS.wav
256,192,134416,1,0,0:0:0:70:LR3_Snare DSB.wav
153,192,134547,1,0,0:0:0:0:
256,192,134677,1,0,0:0:0:70:LR3_Snare DSB.wav
460,192,134677,1,0,0:0:0:0:
51,192,134808,1,0,0:0:0:0:
153,192,134938,1,0,0:0:0:70:LR3_Snare DSB.wav
358,192,134938,1,0,0:0:0:0:
460,192,135069,1,0,0:0:0:0:
256,192,135199,1,0,0:0:0:70:LR3_Snare DSB.wav
51,192,135199,1,0,0:0:0:0:
358,192,135329,1,0,0:0:0:0:
51,192,135460,1,0,0:0:0:70:LR3_Snare DSB.wav
153,192,135460,1,0,0:0:0:70:LR3_Kick BDrS.wav
460,192,135590,1,0,0:0:0:70:LR3_Snare DSB.wav
256,192,135721,1,0,0:0:0:70:LR3_Snare DSB.wav
153,192,135721,1,0,0:0:0:70:LR3_Kick BDrS.wav
51,192,135851,1,0,0:0:0:70:LR3_Snare DSB.wav
358,192,135982,1,0,0:0:0:70:LR3_Snare DSB.wav
256,192,135982,1,0,0:0:0:70:LR3_Kick BDrS.wav
153,192,136112,1,0,0:0:0:70:LR3_Snare DSB.wav
358,192,136243,1,0,0:0:0:70:LR3_Snare DSB.wav
460,192,136243,1,0,0:0:0:70:LR3_Kick BDrS.wav
256,192,136373,1,0,0:0:0:70:LR3_Snare DSB.wav
51,192,136503,1,0,0:0:0:70:LR3_Kick BDrS.wav
153,192,136503,1,0,0:0:0:70:LR3_Snare DSB.wav
460,192,136569,1,0,0:0:0:70:LR3_Snare DSB.wav
358,192,136634,1,0,0:0:0:70:LR3_Kick BDrS.wav
256,192,136634,1,0,0:0:0:70:LR3_Snare DSB.wav
51,192,136699,1,0,0:0:0:70:LR3_Snare DSB.wav
153,192,136764,1,0,0:0:0:70:LR3_Kick BDrS.wav
460,192,136764,1,0,0:0:0:70:LR3_Snare DSB.wav
358,192,136829,1,0,0:0:0:70:LR3_Snare DSB.wav
256,192,136895,1,0,0:0:0:70:LR3_Kick BDrS.wav
51,192,136895,1,0,0:0:0:70:LR3_Snare DSB.wav
153,192,136960,1,0,0:0:0:70:LR3_Snare DSB.wav
460,192,137025,1,0,0:0:0:70:LR3_Kick BDrS.wav
358,192,137025,1,0,0:0:0:70:LR3_Snare DSB.wav
256,192,137090,1,0,0:0:0:70:LR3_Snare DSB.wav
153,192,137156,1,0,0:0:0:70:LR3_Kick BDrS.wav
51,192,137156,1,0,0:0:0:70:LR3_Snare DSB.wav
460,192,137221,1,0,0:0:0:70:LR3_Snare DSB.wav
358,192,137286,1,0,0:0:0:70:LR3_Kick BDrS.wav
256,192,137286,1,0,0:0:0:70:LR3_Snare DSB.wav
51,192,137351,1,0,0:0:0:70:LR3_Snare DSB.wav
153,192,137416,1,0,0:0:0:70:LR3_Kick BDrS.wav
460,192,137416,1,0,0:0:0:70:LR3_Snare DSB.wav
358,192,137482,1,0,0:0:0:70:LR3_Snare DSB.wav
256,192,137547,1,0,0:0:0:70:LR3_Kick BDrS.wav
460,192,137547,1,0,0:0:0:70:LR3_Snare DSB.wav
51,192,137547,1,0,0:0:0:0:
460,192,139634,1,0,0:0:0:70:LR3_Kick BDrS.wav
256,192,139634,1,0,0:0:0:0:
256,192,139895,1,0,0:0:0:70:LR3_Kick BDrS.wav
51,192,139895,1,0,0:0:0:0:
256,192,140156,1,0,0:0:0:70:LR3_Kick BDrS.wav
153,192,140156,1,0,0:0:0:70:LR_Drum Finish.wav
460,192,140156,128,0,140416:0:0:0:0:
358,192,140286,1,0,0:0:0:0:
153,192,140416,1,0,0:0:0:70:LR3_Kick BDrS.wav
51,192,140416,1,0,0:0:0:0:
358,192,140547,128,0,140808:0:0:0:0:
256,192,140547,1,0,0:0:0:0:
51,192,140677,1,0,0:0:0:70:LR3_Kick BDrS.wav
460,192,140677,1,0,0:0:0:0:
153,192,140808,1,0,0:0:0:0:
256,192,140938,128,0,141199:0:0:0:70:LR3_Kick BDrS.wav
460,192,140938,1,0,0:0:0:0:
51,192,141069,1,0,0:0:0:0:
153,192,141199,1,0,0:0:0:70:LR3_Kick BDrS.wav
358,192,141199,1,0,0:0:0:0:
460,192,141329,1,0,0:0:0:0:
51,192,141460,128,0,141721:0:0:0:70:LR3_Kick BDrS.wav
256,192,141460,1,0,0:0:0:0:
358,192,141590,1,0,0:0:0:0:
460,192,141721,128,0,141982:0:0:0:70:LR3_Kick BDrS.wav
153,192,141721,1,0,0:0:0:0:
256,192,141851,1,0,0:0:0:0:
153,192,141982,128,0,142243:0:0:0:70:LR3_Kick BDrS.wav
358,192,141982,1,0,0:0:0:0:
51,192,142112,1,0,0:0:0:0:
358,192,142243,128,0,142634:0:0:0:70:LR3_Kick BDrS.wav
460,192,142243,1,0,0:0:0:0:
256,192,142373,1,0,0:0:0:0:
460,192,142503,1,0,0:0:0:70:LR3_Kick BDrS.wav
153,192,142503,1,0,0:0:0:0:
51,192,142634,128,0,143025:0:0:0:0:
256,192,142634,1,0,0:0:0:0:
358,192,142764,1,0,0:0:0:70:LR3_Kick BDrS.wav
460,192,142764,1,0,0:0:0:0:
153,192,142895,1,0,0:0:0:0:
256,192,143025,128,0,143416:0:0:0:70:LR3_Kick BDrS.wav
358,192,143025,1,0,0:0:0:0:
460,192,143156,1,0,0:0:0:0:
358,192,143286,1,0,0:0:0:70:LR3_Kick BDrS.wav
51,192,143286,1,0,0:0:0:0:
153,192,143416,1,0,0:0:0:0:
358,192,143547,1,0,0:0:0:70:LR3_Kick BDrS.wav
460,192,143547,1,0,0:0:0:0:
153,192,143677,1,0,0:0:0:0:
460,192,143808,128,0,144069:0:0:0:70:LR3_Kick BDrS.wav
256,192,143808,1,0,0:0:0:0:
51,192,143938,1,0,0:0:0:0:
256,192,144069,128,0,144329:0:0:0:70:LR3_Kick BDrS.wav
358,192,144069,1,0,0:0:0:0:
153,192,144199,1,0,0:0:0:0:
460,192,144329,1,0,0:0:0:70:LR3_Kick BDrS.wav
358,192,144329,1,0,0:0:0:0:
51,192,144329,128,0,144590:0:0:0:0:
153,192,144460,1,0,0:0:0:0:
460,192,144590,1,0,0:0:0:70:LR3_Kick BDrS.wav
256,192,144590,1,0,0:0:0:0:
153,192,144721,128,0,144982:0:0:0:0:
358,192,144721,1,0,0:0:0:0:
256,192,144851,1,0,0:0:0:70:LR3_Kick BDrS.wav
460,192,144851,1,0,0:0:0:0:
51,192,144982,1,0,0:0:0:0:
256,192,145112,128,0,145373:0:0:0:70:LR3_Kick BDrS.wav
358,192,145112,1,0,0:0:0:0:
153,192,145243,1,0,0:0:0:0:
460,192,145373,1,0,0:0:0:70:LR3_Kick BDrS.wav
51,192,145373,1,0,0:0:0:0:
358,192,145503,1,0,0:0:0:0:
153,192,145634,1,0,0:0:0:70:LR3_Kick BDrS.wav
460,192,145634,128,0,145895:0:0:0:0:
256,192,145764,1,0,0:0:0:0:
51,192,145895,128,0,146156:0:0:0:70:LR3_Kick BDrS.wav
358,192,145895,1,0,0:0:0:0:
153,192,146025,1,0,0:0:0:0:
358,192,146156,128,0,146416:0:0:0:70:LR3_Kick BDrS.wav
460,192,146156,1,0,0:0:0:0:
256,192,146286,1,0,0:0:0:0:
153,192,146416,128,0,146808:0:0:0:70:LR3_Kick BDrS.wav
51,192,146416,1,0,0:0:0:0:
460,192,146547,1,0,0:0:0:0:
256,192,146677,1,0,0:0:0:70:LR3_Kick BDrS.wav
51,192,146677,1,0,0:0:0:0:
358,192,146808,128,0,147199:0:0:0:0:
460,192,146808,1,0,0:0:0:0:
51,192,146938,1,0,0:0:0:70:LR3_Kick BDrS.wav
256,192,146938,1,0,0:0:0:0:
153,192,147069,1,0,0:0:0:0:
256,192,147199,128,0,147460:0:0:0:70:LR3_Kick BDrS.wav
460,192,147199,1,0,0:0:0:0:
51,192,147329,1,0,0:0:0:0:
460,192,147460,1,0,0:0:0:70:LR3_Kick BDrS.wav
153,192,147460,1,0,0:0:0:0:
358,192,147590,1,0,0:0:0:0:
51,192,147721,128,0,147982:0:0:0:70:LR3_Kick BDrS.wav
153,192,147721,1,0,0:0:0:0:
358,192,147851,1,0,0:0:0:0:
153,192,147982,128,0,148243:0:0:0:70:LR3_Kick BDrS.wav
256,192,147982,1,0,0:0:0:0:
460,192,148112,1,0,0:0:0:0:
256,192,148243,128,0,148503:0:0:0:70:LR3_Kick BDrS.wav
358,192,148243,1,0,0:0:0:0:
51,192,148373,1,0,0:0:0:0:
358,192,148503,128,0,148895:0:0:0:70:LR3_Kick BDrS.wav
460,192,148503,1,0,0:0:0:0:
153,192,148634,1,0,0:0:0:0:
256,192,148764,1,0,0:0:0:70:LR3_Kick BDrS.wav
51,192,148764,1,0,0:0:0:0:
460,192,148895,128,0,149677:0:0:0:0:
153,192,148895,1,0,0:0:0:0:
256,192,149025,1,0,0:0:0:70:LR3_Kick BDrS.wav
358,192,149025,1,0,0:0:0:0:
51,192,149156,1,0,0:0:0:0:
153,192,149286,1,0,0:0:0:70:LR3_Kick BDrS.wav
256,192,149286,1,0,0:0:0:0:
358,192,149416,1,0,0:0:0:0:
153,192,149547,1,0,0:0:0:70:LR3_Kick BDrS.wav
51,192,149547,1,0,0:0:0:0:
256,192,149677,1,0,0:0:0:0:
358,192,149808,1,0,0:0:0:70:LR3_Kick BDrS.wav
51,192,149808,1,0,0:0:0:0:
153,192,149938,1,0,0:0:0:0:
460,192,150069,1,0,0:0:0:70:LR3_Kick BDrS.wav
256,192,150069,128,0,150329:0:0:0:0:
51,192,150199,1,0,0:0:0:0:
153,192,150329,1,0,0:0:0:70:LR3_Kick BDrS.wav
358,192,150329,128,0,150590:0:0:0:0:
460,192,150460,1,0,0:0:0:0:
256,192,150590,1,0,0:0:0:70:LR3_Kick BDrS.wav
51,192,150590,128,0,150982:0:0:0:0:
460,192,150721,1,0,0:0:0:0:
358,192,150851,1,0,0:0:0:70:LR3_Kick BDrS.wav
153,192,150851,1,0,0:0:0:0:
460,192,150982,1,0,0:0:0:0:
256,192,150982,128,0,152025:0:0:0:0:
358,192,151112,1,0,0:0:0:70:LR3_Kick BDrS.wav
153,192,151112,1,0,0:0:0:0:
51,192,151243,1,0,0:0:0:0:
460,192,151373,1,0,0:0:0:70:LR3_Kick BDrS.wav
358,192,151373,1,0,0:0:0:0:
153,192,151503,1,0,0:0:0:0:
460,192,151634,1,0,0:0:0:70:LR3_Kick BDrS.wav
51,192,151634,1,0,0:0:0:0:
358,192,151764,1,0,0:0:0:0:
153,192,151895,1,0,0:0:0:70:LR3_Kick BDrS.wav
51,192,151895,1,0,0:0:0:0:
460,192,152025,1,0,0:0:0:0:
358,192,152156,1,0,0:0:0:70:LR3_Kick BDrS.wav
153,192,152156,1,0,0:0:0:0:
51,192,152286,1,0,0:0:0:0:
256,192,152416,1,0,0:0:0:70:LR3_Kick BDrS.wav
460,192,152416,1,0,0:0:0:0:
153,192,152547,1,0,0:0:0:0:
358,192,152677,1,0,0:0:0:70:LR3_Kick BDrS.wav
460,192,152677,1,0,0:0:0:0:
256,192,152808,1,0,0:0:0:0:
153,192,152938,1,0,0:0:0:70:LR3_Kick BDrS.wav
51,192,152938,1,0,0:0:0:0:
256,192,153069,1,0,0:0:0:0:
358,192,153199,1,0,0:0:0:70:LR3_Kick BDrS.wav
460,192,153199,1,0,0:0:0:0:
51,192,153329,1,0,0:0:0:0:
153,192,153460,1,0,0:0:0:70:LR3_Kick BDrS.wav
256,192,153460,1,0,0:0:0:0:
460,192,153590,1,0,0:0:0:0:
358,192,153721,1,0,0:0:0:70:LR3_Kick BDrS.wav
51,192,153721,128,0,153982:0:0:0:0:
256,192,153851,1,0,0:0:0:0:
153,192,153982,1,0,0:0:0:70:LR3_Kick BDrS.wav
358,192,153982,1,0,0:0:0:0:
460,192,154112,128,0,154373:0:0:0:0:
51,192,154112,1,0,0:0:0:0:
256,192,154243,1,0,0:0:0:70:LR3_Kick BDrS.wav
358,192,154243,1,0,0:0:0:0:
51,192,154373,1,0,0:0:0:0:
153,192,154503,128,0,154764:0:0:0:70:LR3_Kick BDrS.wav
256,192,154503,1,0,0:0:0:0:
358,192,154634,1,0,0:0:0:0:
256,192,154764,128,0,155416:0:0:0:70:LR3_Kick BDrS.wav
460,192,154764,1,0,0:0:0:0:
51,192,154895,1,0,0:0:0:0:
153,192,155025,1,0,0:0:0:70:LR3_Kick BDrS.wav
358,192,155025,1,0,0:0:0:0:
460,192,155156,1,0,0:0:0:0:
153,192,155286,1,0,0:0:0:70:LR3_Kick BDrS.wav
51,192,155286,1,0,0:0:0:0:
358,192,155416,1,0,0:0:0:0:
460,192,155547,1,0,0:0:0:70:LR3_Kick BDrS.wav
51,192,155547,1,0,0:0:0:0:
153,192,155677,1,0,0:0:0:0:
460,192,155808,128,0,155938:0:0:0:70:LR3_Kick BDrS.wav
256,192,155808,1,0,0:0:0:0:
358,192,155808,1,0,0:0:0:0:
51,192,155938,128,0,156069:0:0:0:0:
358,192,156069,128,0,156199:0:0:0:0:
153,192,156199,128,0,156329:0:0:0:70:LR3_Kick BDrS.wav
256,192,156199,1,0,0:0:0:0:
51,192,156199,1,0,0:0:0:0:
153,192,156590,1,0,0:0:0:70:LR3_Kick BDrS.wav
358,192,156590,1,0,0:0:0:0:
256,192,156590,1,0,0:0:0:0:
51,192,156851,1,0,0:0:0:70:LR3_Kick BDrS.wav
460,192,156851,1,0,0:0:0:0:
256,192,156982,1,0,0:0:0:0:
358,192,157112,1,0,0:0:0:70:LR3_Kick BDrS.wav
153,192,157112,1,0,0:0:0:0:
256,192,157243,1,0,0:0:0:0:
460,192,157373,1,0,0:0:0:70:LR3_Kick BDrS.wav
51,192,157373,1,0,0:0:0:0:
256,192,157503,1,0,0:0:0:0:
460,192,157634,1,0,0:0:0:70:LR3_Kick BDrS.wav
51,192,157634,1,0,0:0:0:0:
358,192,157764,1,0,0:0:0:0:
256,192,157895,1,0,0:0:0:0:
153,192,158025,1,0,0:0:0:70:LR3_Kick BDrS.wav
51,192,158025,1,0,0:0:0:0:
358,192,158156,1,0,0:0:0:70:LR3_Kick BDrS.wav
460,192,158156,1,0,0:0:0:0:
153,192,158286,1,0,0:0:0:70:LR3_Kick BDrS.wav
51,192,158286,1,0,0:0:0:0:
358,192,158416,1,0,0:0:0:70:LR3_Kick BDrS.wav
460,192,158416,1,0,0:0:0:0:
256,192,158547,1,0,0:0:0:0:
51,192,158677,1,0,0:0:0:70:LR3_Kick BDrS.wav
358,192,158677,1,0,0:0:0:0:
256,192,158808,1,0,0:0:0:0:
460,192,158938,1,0,0:0:0:70:LR3_Kick BDrS.wav
153,192,158938,1,0,0:0:0:0:
358,192,159069,1,0,0:0:0:0:
256,192,159199,1,0,0:0:0:70:LR3_Kick BDrS.wav
51,192,159199,1,0,0:0:0:0:
460,192,159329,1,0,0:0:0:0:
358,192,159460,1,0,0:0:0:70:LR3_Kick BDrS.wav
153,192,159460,1,0,0:0:0:0:
51,192,159590,1,0,0:0:0:0:
256,192,159721,1,0,0:0:0:70:LR3_Kick BDrS.wav
460,192,159721,1,0,0:0:0:0:
153,192,159851,1,0,0:0:0:0:
51,192,159982,1,0,0:0:0:70:LR3_Kick BDrS.wav
358,192,159982,1,0,0:0:0:0:
256,192,160112,1,0,0:0:0:0:
153,192,160243,1,0,0:0:0:70:LR3_Kick BDrS.wav
460,192,160243,128,0,160503:0:0:0:0:
358,192,160373,1,0,0:0:0:0:
153,192,160503,128,0,160764:0:0:0:70:LR3_Kick BDrS.wav
51,192,160503,1,0,0:0:0:0:
256,192,160634,1,0,0:0:0:0:
358,192,160764,128,0,161025:0:0:0:70:LR3_Kick BDrS.wav
460,192,160764,1,0,0:0:0:0:
256,192,160895,1,0,0:0:0:0:
51,192,161025,128,0,162590:0:0:0:70:LR3_Kick BDrS.wav
153,192,161025,1,0,0:0:0:0:
460,192,161156,1,0,0:0:0:0:
256,192,161286,1,0,0:0:0:70:LR3_Kick BDrS.wav
153,192,161286,1,0,0:0:0:0:
358,192,161416,1,0,0:0:0:0:
460,192,161547,1,0,0:0:0:70:LR3_Kick BDrS.wav
256,192,161547,1,0,0:0:0:0:
153,192,161677,1,0,0:0:0:0:
358,192,161808,1,0,0:0:0:70:LR3_Kick BDrS.wav
460,192,161808,1,0,0:0:0:0:
256,192,161938,1,0,0:0:0:0:
358,192,162069,1,0,0:0:0:70:LR3_Kick BDrS.wav
153,192,162069,1,0,0:0:0:0:
460,192,162199,1,0,0:0:0:0:
153,192,162329,1,0,0:0:0:70:LR3_Kick BDrS.wav
256,192,162329,1,0,0:0:0:0:
358,192,162460,1,0,0:0:0:0:
460,192,162590,128,0,162851:0:0:0:70:LR3_Kick BDrS.wav
256,192,162590,1,0,0:0:0:0:
51,192,162721,1,0,0:0:0:0:
358,192,162851,128,0,163112:0:0:0:70:LR3_Kick BDrS.wav
153,192,162851,1,0,0:0:0:0:
51,192,162982,1,0,0:0:0:0:
256,192,163112,128,0,164677:0:0:0:70:LR3_Kick BDrS.wav
460,192,163112,1,0,0:0:0:0:
153,192,163243,1,0,0:0:0:0:
460,192,163373,1,0,0:0:0:70:LR3_Kick BDrS.wav
51,192,163373,1,0,0:0:0:0:
358,192,163503,1,0,0:0:0:0:
153,192,163634,1,0,0:0:0:70:LR3_Kick BDrS.wav
51,192,163634,1,0,0:0:0:0:
460,192,163764,1,0,0:0:0:0:
153,192,163895,1,0,0:0:0:70:LR3_Kick BDrS.wav
358,192,163895,1,0,0:0:0:0:
51,192,164025,1,0,0:0:0:0:
460,192,164156,1,0,0:0:0:70:LR3_Kick BDrS.wav
358,192,164156,1,0,0:0:0:0:
153,192,164286,1,0,0:0:0:0:
460,192,164416,1,0,0:0:0:70:LR3_Kick BDrS.wav
51,192,164416,1,0,0:0:0:0:
358,192,164547,1,0,0:0:0:0:
153,192,164677,1,0,0:0:0:70:LR3_Kick BDrS.wav
51,192,164677,128,0,165199:0:0:0:0:
460,192,164808,1,0,0:0:0:0:
358,192,164938,1,0,0:0:0:70:LR3_Kick BDrS.wav
256,192,164938,1,0,0:0:0:0:
153,192,165069,1,0,0:0:0:0:
256,192,165199,1,0,0:0:0:70:LR_Drum Finish.wav
460,192,165199,1,0,0:0:0:70:LR3_Kick BDrS.wav
358,192,165199,1,0,0:0:0:0:
153,192,165460,1,0,0:0:0:0:
460,192,165721,1,0,0:0:0:70:LR3_Kick BDrS.wav
51,192,165721,1,0,0:0:0:0:
460,192,165851,1,0,0:0:0:70:LR3_Kick BDrS.wav
51,192,165851,1,0,0:0:0:0:
358,192,165982,1,0,0:0:0:70:LR3_Kick BDrS.wav
153,192,165982,1,0,0:0:0:0:
153,192,166112,1,0,0:0:0:70:LR3_Kick BDrS.wav
358,192,166112,1,0,0:0:0:0:
256,192,166243,1,0,0:0:0:70:LR3_Kick BDrS.wav
460,192,166243,128,0,166503:0:0:0:0:
153,192,166503,1,0,0:0:0:70:LR3_Kick BDrS.wav
358,192,166503,128,0,166764:0:0:0:0:
51,192,166764,1,0,0:0:0:70:LR3_Kick BDrS.wav
256,192,166764,128,0,167025:0:0:0:0:
460,192,167025,128,0,167286:0:0:0:0:
51,192,167286,1,0,0:0:0:70:LR3_Kick BDrS.wav
153,192,167286,1,0,0:0:0:0:
358,192,167416,1,0,0:0:0:0:
256,192,167547,128,0,167808:0:0:0:0:
51,192,167547,1,0,0:0:0:0:
460,192,167677,1,0,0:0:0:0:
153,192,167808,1,0,0:0:0:70:LR3_Kick BDrS.wav
358,192,167808,1,0,0:0:0:0:
51,192,168069,128,0,168329:0:0:0:0:
153,192,168069,1,0,0:0:0:0:
460,192,168199,1,0,0:0:0:0:
358,192,168329,1,0,0:0:0:70:LR3_Kick BDrS.wav
256,192,168329,1,0,0:0:0:0:
153,192,168460,1,0,0:0:0:0:
358,192,168590,128,0,168851:0:0:0:0:
460,192,168590,1,0,0:0:0:0:
51,192,168851,1,0,0:0:0:70:LR3_Kick BDrS.wav
256,192,168851,1,0,0:0:0:0:
153,192,169112,128,0,169373:0:0:0:0:
460,192,169112,1,0,0:0:0:0:
358,192,169373,1,0,0:0:0:70:LR3_Kick BDrS.wav
51,192,169373,1,0,0:0:0:70:LR_Drum Finish.wav
256,192,169373,1,0,0:0:0:0:
460,192,169634,128,0,169895:0:0:0:0:
358,192,169634,1,0,0:0:0:0:
51,192,169764,1,0,0:0:0:0:
153,192,169895,1,0,0:0:0:70:LR3_Kick BDrS.wav
256,192,169895,1,0,0:0:0:0:
358,192,170156,1,0,0:0:0:0:
51,192,170156,128,0,170416:0:0:0:0:
460,192,170416,1,0,0:0:0:70:LR3_Kick BDrS.wav
358,192,170416,1,0,0:0:0:0:
153,192,170547,1,0,0:0:0:0:
256,192,170677,128,0,170938:0:0:0:0:
460,192,170677,1,0,0:0:0:0:
51,192,170808,1,0,0:0:0:0:
358,192,170938,1,0,0:0:0:70:LR3_Kick BDrS.wav
153,192,170938,1,0,0:0:0:0:
51,192,171199,1,0,0:0:0:0:
460,192,171199,128,0,171460:0:0:0:0:
358,192,171460,1,0,0:0:0:70:LR3_Kick BDrS.wav
256,192,171460,1,0,0:0:0:0:
51,192,171590,1,0,0:0:0:0:
358,192,171721,1,0,0:0:0:0:
153,192,171721,128,0,171982:0:0:0:0:
460,192,171851,1,0,0:0:0:0:
256,192,171982,1,0,0:0:0:70:LR3_Kick BDrS.wav
51,192,171982,1,0,0:0:0:0:
358,192,172243,128,0,172503:0:0:0:0:
256,192,172243,1,0,0:0:0:0:
153,192,172373,1,0,0:0:0:0:
51,192,172503,1,0,0:0:0:70:LR3_Kick BDrS.wav
460,192,172503,1,0,0:0:0:0:
256,192,172634,1,0,0:0:0:0:
153,192,172764,128,0,173025:0:0:0:0:
460,192,172764,1,0,0:0:0:0:
358,192,172895,1,0,0:0:0:0:
256,192,173025,1,0,0:0:0:70:LR3_Kick BDrS.wav
460,192,173025,1,0,0:0:0:0:
51,192,173025,1,0,0:0:0:0:
51,192,173286,1,0,0:0:0:70:LR3_Kick BDrS.wav
256,192,173286,1,0,0:0:0:0:
460,192,173286,1,0,0:0:0:0:
460,192,173547,1,0,0:0:0:70:LR3_Kick BDrS.wav
256,192,173547,1,0,0:0:0:0:
51,192,173547,1,0,0:0:0:0:
51,192,173808,1,0,0:0:0:70:LR3_Kick BDrS.wav
256,192,173808,1,0,0:0:0:0:
460,192,173808,1,0,0:0:0:0:
358,192,174069,1,0,0:0:0:70:LR_Drum Finish.wav
153,192,174069,1,0,0:0:0:70:LR3_Kick BDrS.wav
51,192,174069,1,0,0:0:0:0:
460,192,174069,1,0,0:0:0:0:
256,192,174329,1,0,0:0:0:0:
153,192,174590,1,0,0:0:0:0:
256,192,174851,1,0,0:0:0:70:LR3_Kick BDrS.wav
460,192,174851,1,0,0:0:0:0:
358,192,175112,1,0,0:0:0:70:LR3_Kick BDrS.wav
153,192,175112,1,0,0:0:0:0:
460,192,175243,1,0,0:0:0:0:
51,192,175373,1,0,0:0:0:70:LR3_Kick BDrS.wav
256,192,175373,1,0,0:0:0:0:
358,192,175503,1,0,0:0:0:0:
153,192,175634,1,0,0:0:0:70:LR3_Kick BDrS.wav
51,192,175634,1,0,0:0:0:0:
460,192,175764,1,0,0:0:0:0:
358,192,175895,1,0,0:0:0:70:LR3_Kick BDrS.wav
256,192,175895,1,0,0:0:0:0:
51,192,176025,1,0,0:0:0:0:
460,192,176156,1,0,0:0:0:70:LR3_Kick BDrS.wav
153,192,176156,1,0,0:0:0:0:
256,192,176286,1,0,0:0:0:0:
358,192,176416,1,0,0:0:0:70:LR3_Kick BDrS.wav
51,192,176416,1,0,0:0:0:0:
153,192,176547,1,0,0:0:0:0:
460,192,176677,1,0,0:0:0:70:LR3_Kick BDrS.wav
256,192,176677,1,0,0:0:0:0:
51,192,176808,1,0,0:0:0:0:
153,192,176938,1,0,0:0:0:70:LR3_Kick BDrS.wav
358,192,176938,1,0,0:0:0:0:
256,192,177069,1,0,0:0:0:0:
153,192,177199,1,0,0:0:0:70:LR3_Kick BDrS.wav
460,192,177199,1,0,0:0:0:0:
358,192,177329,1,0,0:0:0:0:
256,192,177460,1,0,0:0:0:70:LR3_Kick BDrS.wav
51,192,177460,1,0,0:0:0:0:
460,192,177590,1,0,0:0:0:0:
358,192,177721,1,0,0:0:0:70:LR3_Kick BDrS.wav
153,192,177721,1,0,0:0:0:0:
51,192,177851,1,0,0:0:0:0:
256,192,177982,1,0,0:0:0:70:LR3_Kick BDrS.wav
460,192,177982,1,0,0:0:0:0:
153,192,178112,1,0,0:0:0:0:
460,192,178243,1,0,0:0:0:70:LR3_Kick BDrS.wav
358,192,178243,1,0,0:0:0:70:LR_Drum Finish.wav
51,192,178243,1,0,0:0:0:0:
256,192,178373,1,0,0:0:0:0:
153,192,178503,1,0,0:0:0:70:LR3_Kick BDrS.wav
358,192,178503,1,0,0:0:0:0:
256,192,178634,1,0,0:0:0:0:
460,192,178764,1,0,0:0:0:70:LR3_Kick BDrS.wav
51,192,178764,1,0,0:0:0:0:
358,192,178895,1,0,0:0:0:0:
256,192,179025,1,0,0:0:0:70:LR3_Kick BDrS.wav
153,192,179025,1,0,0:0:0:0:
460,192,179156,1,0,0:0:0:0:
358,192,179286,1,0,0:0:0:70:LR3_Kick BDrS.wav
51,192,179286,1,0,0:0:0:0:
256,192,179416,1,0,0:0:0:0:
153,192,179547,1,0,0:0:0:70:LR3_Kick BDrS.wav
460,192,179547,1,0,0:0:0:0:
358,192,179677,1,0,0:0:0:0:
256,192,179808,1,0,0:0:0:70:LR3_Kick BDrS.wav
51,192,179808,1,0,0:0:0:0:
460,192,179938,1,0,0:0:0:0:
358,192,180069,1,0,0:0:0:70:LR3_Kick BDrS.wav
153,192,180069,1,0,0:0:0:0:
51,192,180199,1,0,0:0:0:0:
256,192,180329,1,0,0:0:0:70:LR3_Kick BDrS.wav
460,192,180329,1,0,0:0:0:0:
51,192,180460,1,0,0:0:0:0:
153,192,180590,1,0,0:0:0:70:LR3_Kick BDrS.wav
358,192,180590,1,0,0:0:0:0:
460,192,180721,1,0,0:0:0:0:
256,192,180851,1,0,0:0:0:70:LR3_Kick BDrS.wav
51,192,180851,1,0,0:0:0:0:
358,192,180982,1,0,0:0:0:0:
460,192,181112,1,0,0:0:0:70:LR3_Kick BDrS.wav
153,192,181112,1,0,0:0:0:0:
256,192,181243,1,0,0:0:0:0:
358,192,181373,1,0,0:0:0:70:LR3_Kick BDrS.wav
51,192,181373,1,0,0:0:0:0:
256,192,181503,1,0,0:0:0:0:
460,192,181634,1,0,0:0:0:70:LR3_Kick BDrS.wav
153,192,181634,1,0,0:0:0:0:
358,192,181764,1,0,0:0:0:0:
256,192,181895,1,0,0:0:0:70:LR3_Kick BDrS.wav
51,192,181895,1,0,0:0:0:0:
460,192,182025,1,0,0:0:0:0:
358,192,182156,1,0,0:0:0:70:LR3_Kick BDrS.wav
153,192,182156,1,0,0:0:0:0:
51,192,182286,1,0,0:0:0:0:
256,192,182416,1,0,0:0:0:70:LR3_Kick BDrS.wav
460,192,182416,1,0,0:0:0:70:LR_Drum Finish.wav
358,192,182416,1,0,0:0:0:0:
153,192,182547,1,0,0:0:0:0:
51,192,182677,1,0,0:0:0:70:LR3_Kick BDrS.wav
460,192,182677,1,0,0:0:0:0:
256,192,182808,1,0,0:0:0:0:
460,192,182938,1,0,0:0:0:70:LR3_Kick BDrS.wav
153,192,182938,1,0,0:0:0:0:
358,192,183069,1,0,0:0:0:0:
256,192,183199,1,0,0:0:0:70:LR3_Kick BDrS.wav
460,192,183199,1,0,0:0:0:0:
153,192,183329,1,0,0:0:0:0:
256,192,183460,1,0,0:0:0:70:LR3_Kick BDrS.wav
51,192,183460,1,0,0:0:0:0:
153,192,183590,1,0,0:0:0:0:
358,192,183721,1,0,0:0:0:70:LR3_Kick BDrS.wav
51,192,183721,1,0,0:0:0:0:
256,192,183851,1,0,0:0:0:0:
51,192,183982,1,0,0:0:0:70:LR3_Kick BDrS.wav
460,192,183982,1,0,0:0:0:0:
358,192,184112,1,0,0:0:0:0:
153,192,184243,1,0,0:0:0:70:LR3_Kick BDrS.wav
460,192,184243,1,0,0:0:0:0:
256,192,184373,1,0,0:0:0:0:
358,192,184503,1,0,0:0:0:70:LR3_Kick BDrS.wav
51,192,184503,1,0,0:0:0:0:
153,192,184634,1,0,0:0:0:0:
256,192,184764,1,0,0:0:0:70:LR3_Kick BDrS.wav
358,192,184764,1,0,0:0:0:0:
51,192,184895,1,0,0:0:0:0:
153,192,185025,1,0,0:0:0:70:LR3_Kick BDrS.wav
358,192,185025,1,0,0:0:0:0:
460,192,185156,1,0,0:0:0:0:
256,192,185286,1,0,0:0:0:70:LR3_Kick BDrS.wav
153,192,185286,1,0,0:0:0:0:
460,192,185416,1,0,0:0:0:0:
358,192,185547,1,0,0:0:0:70:LR3_Kick BDrS.wav
153,192,185547,1,0,0:0:0:0:
256,192,185677,1,0,0:0:0:0:
358,192,185808,1,0,0:0:0:70:LR3_Kick BDrS.wav
51,192,185808,1,0,0:0:0:0:
256,192,185938,1,0,0:0:0:0:
153,192,186069,1,0,0:0:0:70:LR3_Kick BDrS.wav
460,192,186069,1,0,0:0:0:0:
358,192,186199,1,0,0:0:0:0:
256,192,186329,1,0,0:0:0:70:LR3_Kick BDrS.wav
51,192,186329,1,0,0:0:0:0:
358,192,186460,1,0,0:0:0:0:
460,192,186590,1,0,0:0:0:70:LR3_Snare RSH.wav
153,192,186590,1,0,0:0:0:0:
153,192,186721,1,0,0:0:0:70:LR3_Snare RSH.wav
460,192,186721,1,0,0:0:0:0:
358,192,186851,1,0,0:0:0:70:LR3_Snare RSH.wav
51,192,186851,1,0,0:0:0:0:
51,192,186982,1,0,0:0:0:70:LR3_Snare RSH.wav
358,192,186982,1,0,0:0:0:0:
256,192,187112,1,0,0:0:0:70:LR3_Snare RSH.wav
460,192,187112,1,0,0:0:0:0:
358,192,187243,1,0,0:0:0:0:
153,192,187243,1,0,0:0:0:0:
256,192,187373,1,0,0:0:0:70:LR3_Kick BDrS.wav
51,192,187373,1,0,0:0:0:0:
256,192,187503,1,0,0:0:0:70:LR3_Kick BDrS.wav
51,192,187503,1,0,0:0:0:0:
460,192,187634,1,0,0:0:0:70:LR3_Kick BDrS.wav
358,192,187634,1,0,0:0:0:0:
153,192,187764,1,0,0:0:0:0:
256,192,187895,1,0,0:0:0:70:LR3_Kick BDrS.wav
358,192,187895,1,0,0:0:0:0:
51,192,188025,1,0,0:0:0:0:
153,192,188156,1,0,0:0:0:70:LR3_Kick BDrS.wav
256,192,188156,1,0,0:0:0:0:
460,192,188286,1,0,0:0:0:0:
153,192,188416,1,0,0:0:0:70:LR3_Kick BDrS.wav
51,192,188416,1,0,0:0:0:0:
256,192,188547,1,0,0:0:0:0:
51,192,188677,1,0,0:0:0:0:
460,192,188677,128,0,190243:0:0:0:0:
256,192,188808,1,0,0:0:0:0:
153,192,188938,1,0,0:0:0:0:
358,192,189069,1,0,0:0:0:0:
51,192,189199,1,0,0:0:0:0:
256,192,189329,1,0,0:0:0:0:
153,192,189460,1,0,0:0:0:0:
358,192,189590,1,0,0:0:0:0:
51,192,189721,1,0,0:0:0:0:
256,192,189851,1,0,0:0:0:0:
153,192,189982,128,0,190243:0:0:0:0:
358,192,190112,128,0,190243:0:0:0:0:
256,192,190243,1,0,0:0:0:0:
460,192,190764,1,0,0:0:0:70:LR_Drum Finish.wav
256,192,190764,1,0,0:0:0:70:LR3_Kick CleanL.wav
51,192,190764,1,0,0:0:0:0:
358,192,190895,1,0,0:0:0:0:
256,192,191025,1,0,0:0:0:0:
153,192,191025,1,0,0:0:0:0:
358,192,191156,1,0,0:0:0:70:LR3_Kick CleanL.wav
460,192,191156,1,0,0:0:0:0:
256,192,191286,1,0,0:0:0:70:LR3_Snare RSH.wav
51,192,191286,1,0,0:0:0:0:
153,192,191416,1,0,0:0:0:0:
256,192,191547,1,0,0:0:0:70:LR3_Snare RSH.wav
460,192,191547,1,0,0:0:0:0:
153,192,191677,1,0,0:0:0:0:
51,192,191808,1,0,0:0:0:70:LR3_Kick CleanL.wav
358,192,191808,1,0,0:0:0:0:
153,192,191938,1,0,0:0:0:70:LR3_Kick CleanL.wav
460,192,191938,1,0,0:0:0:0:
256,192,192069,1,0,0:0:0:70:LR3_Kick CleanL.wav
358,192,192069,1,0,0:0:0:0:
153,192,192199,1,0,0:0:0:0:
256,192,192329,1,0,0:0:0:70:LR3_Snare RSH.wav
460,192,192329,1,0,0:0:0:0:
358,192,192460,1,0,0:0:0:0:
256,192,192590,1,0,0:0:0:0:
51,192,192590,1,0,0:0:0:0:
358,192,192721,1,0,0:0:0:0:
460,192,192851,1,0,0:0:0:70:LR3_Kick CleanL.wav
153,192,192851,1,0,0:0:0:0:
256,192,192982,1,0,0:0:0:0:
358,192,193112,1,0,0:0:0:70:LR3_Kick CleanL.wav
51,192,193112,1,0,0:0:0:0:
256,192,193243,1,0,0:0:0:0:
153,192,193373,1,0,0:0:0:70:LR3_Snare RSH.wav
460,192,193373,1,0,0:0:0:0:
460,192,193503,1,0,0:0:0:70:LR3_Snare RSH.wav
153,192,193503,1,0,0:0:0:0:
358,192,193634,1,0,0:0:0:0:
256,192,193699,1,0,0:0:0:0:
51,192,193764,1,0,0:0:0:0:
153,192,193797,1,0,0:0:0:0:
256,192,193862,1,0,0:0:0:0:
358,192,193895,1,0,0:0:0:70:LR3_Kick CleanL.wav
460,192,193895,1,0,0:0:0:0:
51,192,193960,1,0,0:0:0:70:LR3_Kick CleanL.wav
153,192,194025,1,0,0:0:0:70:LR3_Kick CleanL.wav
460,192,194090,1,0,0:0:0:70:LR3_Kick CleanL.wav
358,192,194156,1,0,0:0:0:0:
256,192,194188,1,0,0:0:0:0:
51,192,194253,1,0,0:0:0:0:
153,192,194286,1,0,0:0:0:0:
460,192,194319,1,0,0:0:0:0:
358,192,194351,1,0,0:0:0:0:
256,192,194384,1,0,0:0:0:0:
153,192,194416,1,0,0:0:0:70:LR3_Snare RSH.wav
51,192,194416,1,0,0:0:0:0:
358,192,194482,1,0,0:0:0:70:LR3_Snare RSH.wav
460,192,194482,1,0,0:0:0:0:
153,192,194547,1,0,0:0:0:70:LR3_Snare RSH.wav
51,192,194547,1,0,0:0:0:0:
358,192,194612,1,0,0:0:0:70:LR3_Snare RSH.wav
460,192,194612,1,0,0:0:0:0:
256,192,194677,1,0,0:0:0:0:
153,192,194710,1,0,0:0:0:0:
51,192,194743,1,0,0:0:0:0:
460,192,194775,1,0,0:0:0:0:
358,192,194808,1,0,0:0:0:0:
256,192,194840,1,0,0:0:0:0:
153,192,194873,1,0,0:0:0:0:
51,192,194906,1,0,0:0:0:0:
358,192,194938,1,0,0:0:0:70:LR_Drum Finish.wav
460,192,194938,1,0,0:0:0:70:LR3_Kick CleanL.wav
256,192,195069,1,0,0:0:0:0:
153,192,195199,1,0,0:0:0:0:
51,192,195199,1,0,0:0:0:0:
460,192,195329,1,0,0:0:0:70:LR3_Kick CleanL.wav
358,192,195329,1,0,0:0:0:0:
256,192,195460,1,0,0:0:0:70:LR3_Snare RSH.wav
153,192,195460,1,0,0:0:0:0:
51,192,195590,1,0,0:0:0:0:
460,192,195721,1,0,0:0:0:70:LR3_Kick CleanL.wav
358,192,195721,1,0,0:0:0:0:
256,192,195851,1,0,0:0:0:0:
153,192,195982,1,0,0:0:0:70:LR3_Kick CleanL.wav
460,192,195982,1,0,0:0:0:0:
358,192,196112,1,0,0:0:0:70:LR3_Kick CleanL.wav
256,192,196243,1,0,0:0:0:70:LR3_Kick CleanL.wav
51,192,196243,1,0,0:0:0:0:
460,192,196373,1,0,0:0:0:0:
358,192,196503,1,0,0:0:0:70:LR3_Snare RSH.wav
153,192,196503,1,0,0:0:0:0:
256,192,196634,1,0,0:0:0:0:
358,192,196764,1,0,0:0:0:0:
51,192,196764,1,0,0:0:0:0:
256,192,196895,1,0,0:0:0:0:
460,192,196895,1,0,0:0:0:0:
51,192,197025,1,0,0:0:0:70:LR3_Kick CleanL.wav
358,192,197025,1,0,0:0:0:0:
153,192,197156,1,0,0:0:0:0:
256,192,197286,1,0,0:0:0:70:LR3_Kick CleanL.wav
460,192,197286,1,0,0:0:0:0:
51,192,197416,1,0,0:0:0:0:
153,192,197547,1,0,0:0:0:70:LR3_Snare RSH.wav
358,192,197547,1,0,0:0:0:0:
256,192,197677,1,0,0:0:0:70:LR3_Kick CleanL.wav
460,192,197677,1,0,0:0:0:0:
51,192,197808,1,0,0:0:0:70:LR3_Kick CleanL.wav
153,192,197808,1,0,0:0:0:0:
256,192,197938,1,0,0:0:0:70:LR3_Kick CleanL.wav
358,192,197938,1,0,0:0:0:0:
51,192,198069,1,0,0:0:0:70:LR3_Kick CleanL.wav
460,192,198069,128,0,198329:0:0:0:0:
358,192,198329,128,0,198590:0:0:0:70:LR3_Kick CleanL.wav
153,192,198329,1,0,0:0:0:0:
256,192,198590,128,0,199112:0:0:0:70:LR3_Snare RSH.wav
51,192,198590,1,0,0:0:0:0:
460,192,198851,1,0,0:0:0:70:LR3_Kick CleanL.wav
358,192,198851,1,0,0:0:0:0:
153,192,199112,128,0,200156:0:0:0:0:
358,192,200156,1,0,0:0:0:70:LR_Drum Finish.wav
460,192,200156,1,0,0:0:0:70:LR3_Kick CleanL.wav
51,192,200156,128,0,200286:0:0:0:0:
256,192,200286,128,0,200416:0:0:0:0:
153,192,200416,128,0,200547:0:0:0:0:
358,192,200547,128,0,200677:0:0:0:0:
256,192,200677,128,0,200808:0:0:0:0:
460,192,200808,128,0,200938:0:0:0:0:
153,192,200938,128,0,201069:0:0:0:0:
358,192,201069,128,0,201199:0:0:0:0:
51,192,201199,128,0,201982:0:0:0:0:
460,192,201590,128,0,201982:0:0:0:0:
256,192,202243,128,0,204329:0:0:0:0:
460,192,204329,128,0,204460:0:0:0:0:
256,192,204460,128,0,204590:0:0:0:0:
358,192,204590,128,0,204721:0:0:0:0:
153,192,204721,128,0,204851:0:0:0:0:
256,192,204851,128,0,204982:0:0:0:0:
51,192,204982,128,0,205112:0:0:0:0:
358,192,205112,128,0,205243:0:0:0:0:
153,192,205243,128,0,205373:0:0:0:0:
460,192,205373,128,0,205895:0:0:0:0:
256,192,205634,128,0,205895:0:0:0:0:
51,192,205895,1,0,0:0:0:0:
51,192,206156,1,0,0:0:0:0:
460,192,206416,1,0,0:0:0:0:
460,192,206677,1,0,0:0:0:0:
153,192,206808,1,0,0:0:0:0:
358,192,206938,1,0,0:0:0:0:
51,192,207069,1,0,0:0:0:0:
460,192,207199,1,0,0:0:0:0:
153,192,207329,1,0,0:0:0:0:
358,192,207460,1,0,0:0:0:0:
358,192,207721,1,0,0:0:0:0:
153,192,207982,1,0,0:0:0:0:
153,192,208243,1,0,0:0:0:0:
256,192,208503,1,0,0:0:0:0:
460,192,208503,128,0,208634:0:0:0:0:
153,192,208634,128,0,208764:0:0:0:0:
358,192,208764,128,0,208895:0:0:0:0:
256,192,208764,1,0,0:0:0:0:
51,192,208895,128,0,209025:0:0:0:0:
460,192,209025,128,0,209156:0:0:0:0:
256,192,209025,1,0,0:0:0:0:
153,192,209156,128,0,209286:0:0:0:0:
358,192,209286,128,0,209416:0:0:0:0:
256,192,209286,1,0,0:0:0:0:
51,192,209416,128,0,209547:0:0:0:0:
256,192,209547,128,0,209938:0:0:0:70:LR3_Snare DSB.wav
460,192,209547,1,0,0:0:0:0:
358,192,209677,1,0,0:0:0:0:
153,192,209808,1,0,0:0:0:70:LR3_Snare DSB.wav
51,192,209808,1,0,0:0:0:0:
460,192,209938,128,0,210199:0:0:0:0:
358,192,210069,1,0,0:0:0:70:LR3_Snare DSB.wav
153,192,210069,1,0,0:0:0:0:
51,192,210199,1,0,0:0:0:0:
256,192,210329,1,0,0:0:0:70:LR3_Snare DSB.wav
358,192,210329,1,0,0:0:0:0:
153,192,210460,1,0,0:0:0:0:
358,192,210590,1,0,0:0:0:70:LR3_Snare DSB.wav
460,192,210590,1,0,0:0:0:0:
256,192,210721,1,0,0:0:0:0:
153,192,210851,1,0,0:0:0:70:LR3_Snare DSB.wav
460,192,210851,1,0,0:0:0:0:
51,192,210982,1,0,0:0:0:0:
256,192,211112,1,0,0:0:0:70:LR3_Snare DSB.wav
358,192,211112,1,0,0:0:0:0:
153,192,211243,1,0,0:0:0:0:
358,192,211373,1,0,0:0:0:70:LR3_Snare DSB.wav
460,192,211373,1,0,0:0:0:0:
256,192,211503,1,0,0:0:0:0:
51,192,211634,1,0,0:0:0:70:LR3_Snare DSB.wav
153,192,211634,1,0,0:0:0:0:
358,192,211764,1,0,0:0:0:0:
460,192,211895,1,0,0:0:0:70:LR3_Snare DSB.wav
256,192,211895,1,0,0:0:0:0:
153,192,212025,1,0,0:0:0:0:
358,192,212156,1,0,0:0:0:70:LR3_Snare DSB.wav
51,192,212156,1,0,0:0:0:0:
256,192,212286,1,0,0:0:0:0:
460,192,212416,1,0,0:0:0:70:LR3_Snare DSB.wav
153,192,212416,1,0,0:0:0:0:
358,192,212547,1,0,0:0:0:0:
256,192,212677,1,0,0:0:0:70:LR3_Snare DSB.wav
51,192,212677,1,0,0:0:0:0:
460,192,212808,1,0,0:0:0:0:
358,192,212938,1,0,0:0:0:70:LR3_Snare DSB.wav
153,192,212938,1,0,0:0:0:0:
51,192,213069,1,0,0:0:0:0:
153,192,213199,1,0,0:0:0:70:LR3_Snare DSB.wav
460,192,213199,1,0,0:0:0:0:
256,192,213329,1,0,0:0:0:0:
358,192,213460,1,0,0:0:0:70:LR3_Snare DSB.wav
51,192,213460,1,0,0:0:0:0:
256,192,213590,1,0,0:0:0:0:
460,192,213721,1,0,0:0:0:70:LR3_Snare DSB.wav
153,192,213721,1,0,0:0:0:0:
358,192,213851,1,0,0:0:0:0:
460,192,213982,1,0,0:0:0:70:LR3_Snare DSB.wav
256,192,213982,1,0,0:0:0:0:
153,192,214112,1,0,0:0:0:0:
51,192,214243,1,0,0:0:0:70:LR3_Snare DSB.wav
358,192,214243,1,0,0:0:0:0:
256,192,214373,1,0,0:0:0:0:
153,192,214503,1,0,0:0:0:70:LR3_Snare DSB.wav
358,192,214503,1,0,0:0:0:0:
460,192,214699,1,0,0:0:0:0:
51,192,214764,1,0,0:0:0:70:LR3_Snare DSB.wav
153,192,214764,1,0,0:0:0:0:
358,192,214895,1,0,0:0:0:0:
256,192,215025,1,0,0:0:0:70:LR3_Snare DSB.wav
51,192,215025,1,0,0:0:0:0:
153,192,215156,1,0,0:0:0:0:
358,192,215286,1,0,0:0:0:70:LR3_Snare DSB.wav
460,192,215286,1,0,0:0:0:0:
256,192,215416,1,0,0:0:0:0:
153,192,215547,1,0,0:0:0:70:LR3_Snare DSB.wav
51,192,215547,1,0,0:0:0:0:
256,192,215677,1,0,0:0:0:0:
358,192,215808,1,0,0:0:0:70:LR3_Snare DSB.wav
460,192,215808,1,0,0:0:0:0:
153,192,215938,1,0,0:0:0:70:LR3_Snare DSB.wav
51,192,215938,1,0,0:0:0:0:
358,192,216069,1,0,0:0:0:70:LR3_Snare DSB.wav
460,192,216069,1,0,0:0:0:0:
153,192,216199,1,0,0:0:0:70:LR3_Snare DSB.wav
51,192,216199,1,0,0:0:0:0:
358,192,216329,1,0,0:0:0:70:LR3_Snare DSB.wav
460,192,216329,1,0,0:0:0:0:
153,192,216460,1,0,0:0:0:70:LR3_Snare DSB.wav
51,192,216460,1,0,0:0:0:0:
358,192,216590,1,0,0:0:0:70:LR3_Snare DSB.wav
460,192,216590,1,0,0:0:0:0:
153,192,216721,1,0,0:0:0:70:LR3_Snare DSB.wav
51,192,216721,1,0,0:0:0:0:
460,192,216851,1,0,0:0:0:0:
256,192,216851,1,0,0:0:0:0:
51,192,216982,1,0,0:0:0:0:
153,192,217112,1,0,0:0:0:0:
358,192,217112,1,0,0:0:0:0:
460,192,217243,1,0,0:0:0:0:
256,192,217373,1,0,0:0:0:0:
51,192,217373,1,0,0:0:0:0:
460,192,217503,1,0,0:0:0:0:
358,192,217634,1,0,0:0:0:0:
153,192,217634,1,0,0:0:0:0:
51,192,217764,1,0,0:0:0:0:
256,192,217895,1,0,0:0:0:70:LR3_Kick BDrS.wav
460,192,217895,1,0,0:0:0:0:
153,192,218025,1,0,0:0:0:0:
358,192,218156,1,0,0:0:0:70:LR3_Kick BDrS.wav
460,192,218156,1,0,0:0:0:0:
51,192,218286,1,0,0:0:0:0:
460,192,218416,1,0,0:0:0:70:LR3_Kick BDrS.wav
256,192,218416,1,0,0:0:0:0:
153,192,218547,1,0,0:0:0:0:
358,192,218677,1,0,0:0:0:70:LR3_Kick BDrS.wav
460,192,218677,1,0,0:0:0:0:
51,192,218808,1,0,0:0:0:0:
256,192,218938,1,0,0:0:0:70:LR3_Kick BDrS.wav
460,192,218938,1,0,0:0:0:0:
153,192,219069,1,0,0:0:0:0:
358,192,219199,1,0,0:0:0:70:LR3_Kick BDrS.wav
51,192,219199,1,0,0:0:0:0:
256,192,219329,1,0,0:0:0:0:
460,192,219460,1,0,0:0:0:70:LR3_Kick BDrS.wav
153,192,219460,1,0,0:0:0:0:
358,192,219590,1,0,0:0:0:0:
51,192,219590,1,0,0:0:0:0:
460,192,219721,1,0,0:0:0:70:LR3_Kick BDrS.wav
256,192,219721,1,0,0:0:0:0:
358,192,219851,1,0,0:0:0:0:
153,192,219851,1,0,0:0:0:0:
256,192,219982,1,0,0:0:0:70:LR3_Kick BDrS.wav
51,192,219982,1,0,0:0:0:0:
358,192,220112,1,0,0:0:0:0:
153,192,220243,1,0,0:0:0:70:LR3_Kick BDrS.wav
51,192,220243,1,0,0:0:0:0:
460,192,220373,1,0,0:0:0:0:
51,192,220503,1,0,0:0:0:70:LR3_Kick BDrS.wav
256,192,220503,1,0,0:0:0:0:
358,192,220634,1,0,0:0:0:0:
153,192,220764,1,0,0:0:0:70:LR3_Kick BDrS.wav
51,192,220764,1,0,0:0:0:0:
460,192,220960,1,0,0:0:0:0:
256,192,221025,1,0,0:0:0:70:LR3_Kick CleanL.wav
51,192,221025,1,0,0:0:0:0:
51,192,221156,1,0,0:0:0:70:LR3_Snare RSH.wav
358,192,221156,1,0,0:0:0:0:
153,192,221286,1,0,0:0:0:70:LR3_Kick CleanL.wav
460,192,221286,1,0,0:0:0:0:
153,192,221416,1,0,0:0:0:70:LR3_Snare RSH.wav
256,192,221416,1,0,0:0:0:0:
460,192,221547,1,0,0:0:0:70:LR3_Kick CleanL.wav
51,192,221547,1,0,0:0:0:0:
460,192,221677,1,0,0:0:0:70:LR3_Snare RSH.wav
153,192,221677,1,0,0:0:0:0:
358,192,221808,1,0,0:0:0:70:LR3_Kick BDrS.wav
256,192,221808,1,0,0:0:0:0:
358,192,221938,1,0,0:0:0:70:LR3_Kick BDrS.wav
256,192,221938,1,0,0:0:0:0:
153,192,222069,1,0,0:0:0:70:LR3_Kick BDrS.wav
51,192,222069,1,0,0:0:0:0:
256,192,222199,1,0,0:0:0:0:
51,192,222329,1,0,0:0:0:70:LR3_Kick BDrS.wav
460,192,222329,1,0,0:0:0:0:
153,192,222460,1,0,0:0:0:0:
460,192,222590,1,0,0:0:0:70:LR3_Kick BDrS.wav
358,192,222590,1,0,0:0:0:0:
256,192,222721,1,0,0:0:0:0:
51,192,222851,1,0,0:0:0:70:LR3_Kick BDrS.wav
460,192,222851,1,0,0:0:0:0:
256,192,222982,1,0,0:0:0:0:
153,192,223112,1,0,0:0:0:70:LR3_Kick BDrS.wav
51,192,223112,1,0,0:0:0:0:
358,192,223243,1,0,0:0:0:0:
256,192,223373,1,0,0:0:0:70:LR3_Kick BDrS.wav
460,192,223373,1,0,0:0:0:0:
51,192,223503,1,0,0:0:0:0:
153,192,223634,1,0,0:0:0:70:LR3_Kick BDrS.wav
358,192,223634,1,0,0:0:0:0:
460,192,223764,1,0,0:0:0:0:
256,192,223895,1,0,0:0:0:70:LR3_Kick BDrS.wav
51,192,223895,1,0,0:0:0:0:
460,192,224025,1,0,0:0:0:0:
153,192,224156,1,0,0:0:0:0:
358,192,224286,1,0,0:0:0:0:
51,192,224416,1,0,0:0:0:0:
256,192,224547,1,0,0:0:0:0:
153,192,224677,1,0,0:0:0:0:
358,192,224808,1,0,0:0:0:0:
256,192,224938,1,0,0:0:0:0:
460,192,225069,1,0,0:0:0:0:
153,192,225199,1,0,0:0:0:0:
358,192,225329,1,0,0:0:0:0:
51,192,225460,1,0,0:0:0:0:
256,192,225590,1,0,0:0:0:0:
460,192,225721,128,0,226243:0:0:0:0:
358,192,225721,1,0,0:0:0:0:
153,192,225851,1,0,0:0:0:0:
256,192,225982,1,0,0:0:0:0:
51,192,226112,1,0,0:0:0:0:
358,192,226243,1,0,0:0:0:70:LR_Drum Finish.wav
153,192,226243,1,0,0:0:0:70:LR3_Kick BDrS.wav
256,192,226373,1,0,0:0:0:0:
358,192,226503,1,0,0:0:0:70:LR3_Kick BDrS.wav
460,192,226503,1,0,0:0:0:0:
51,192,226634,1,0,0:0:0:0:
153,192,226764,1,0,0:0:0:70:LR3_Kick BDrS.wav
358,192,226764,1,0,0:0:0:0:
256,192,226895,1,0,0:0:0:0:
358,192,227025,1,0,0:0:0:70:LR3_Kick BDrS.wav
460,192,227025,1,0,0:0:0:0:
51,192,227156,1,0,0:0:0:0:
153,192,227286,1,0,0:0:0:70:LR3_Kick BDrS.wav
358,192,227286,1,0,0:0:0:0:
256,192,227416,1,0,0:0:0:0:
358,192,227547,1,0,0:0:0:70:LR3_Kick BDrS.wav
460,192,227547,1,0,0:0:0:0:
153,192,227677,1,0,0:0:0:0:
51,192,227677,1,0,0:0:0:0:
460,192,227808,1,0,0:0:0:70:LR3_Kick BDrS.wav
358,192,227808,1,0,0:0:0:0:
256,192,227938,1,0,0:0:0:0:
51,192,227938,1,0,0:0:0:0:
51,192,228069,1,0,0:0:0:70:LR3_Kick BDrS.wav
358,192,228069,1,0,0:0:0:0:
153,192,228199,1,0,0:0:0:0:
460,192,228199,1,0,0:0:0:0:
153,192,228329,1,0,0:0:0:70:LR3_Kick BDrS.wav
358,192,228329,1,0,0:0:0:0:
256,192,228460,1,0,0:0:0:0:
51,192,228590,1,0,0:0:0:70:LR3_Kick BDrS.wav
153,192,228590,1,0,0:0:0:0:
460,192,228721,1,0,0:0:0:0:
358,192,228851,1,0,0:0:0:70:LR3_Kick BDrS.wav
153,192,228851,1,0,0:0:0:0:
256,192,228982,1,0,0:0:0:0:
51,192,229112,1,0,0:0:0:70:LR3_Kick BDrS.wav
153,192,229112,1,0,0:0:0:0:
460,192,229243,1,0,0:0:0:0:
358,192,229373,1,0,0:0:0:70:LR3_Kick BDrS.wav
256,192,229373,1,0,0:0:0:0:
51,192,229503,1,0,0:0:0:0:
153,192,229634,1,0,0:0:0:70:LR3_Kick BDrS.wav
358,192,229634,1,0,0:0:0:0:
153,192,229764,1,0,0:0:0:70:LR3_Snare RSH.wav
358,192,229764,1,0,0:0:0:0:
256,192,229895,1,0,0:0:0:0:
460,192,229895,1,0,0:0:0:0:
153,192,230025,1,0,0:0:0:70:LR3_Snare RSH.wav
51,192,230025,1,0,0:0:0:0:
460,192,230156,1,0,0:0:0:70:LR3_Kick BDrS.wav
358,192,230156,1,0,0:0:0:0:
153,192,230286,1,0,0:0:0:0:
256,192,230286,1,0,0:0:0:0:
358,192,230416,1,0,0:0:0:70:LR3_Kick BDrS.wav
51,192,230416,1,0,0:0:0:0:
153,192,230547,1,0,0:0:0:0:
51,192,230677,1,0,0:0:0:70:LR3_Kick BDrS.wav
256,192,230677,1,0,0:0:0:0:
460,192,230808,1,0,0:0:0:0:
51,192,230938,1,0,0:0:0:70:LR3_Kick BDrS.wav
358,192,230938,1,0,0:0:0:0:
153,192,231069,1,0,0:0:0:0:
51,192,231199,1,0,0:0:0:70:LR3_Kick BDrS.wav
256,192,231199,1,0,0:0:0:0:
460,192,231329,1,0,0:0:0:0:
51,192,231460,1,0,0:0:0:70:LR3_Kick BDrS.wav
358,192,231460,1,0,0:0:0:0:
153,192,231590,1,0,0:0:0:0:
256,192,231721,1,0,0:0:0:70:LR3_Kick BDrS.wav
460,192,231721,1,0,0:0:0:0:
358,192,231851,1,0,0:0:0:0:
153,192,231851,1,0,0:0:0:0:
256,192,231982,1,0,0:0:0:70:LR3_Kick BDrS.wav
51,192,231982,1,0,0:0:0:0:
460,192,232112,1,0,0:0:0:0:
153,192,232112,1,0,0:0:0:0:
460,192,232243,1,0,0:0:0:70:LR3_Kick BDrS.wav
256,192,232243,1,0,0:0:0:0:
256,192,232373,1,0,0:0:0:0:
51,192,232373,1,0,0:0:0:0:
460,192,232503,1,0,0:0:0:70:LR3_Kick BDrS.wav
153,192,232503,1,0,0:0:0:0:
358,192,232634,1,0,0:0:0:0:
256,192,232764,1,0,0:0:0:70:LR3_Kick BDrS.wav
460,192,232764,1,0,0:0:0:0:
51,192,232895,1,0,0:0:0:0:
460,192,233025,1,0,0:0:0:70:LR3_Kick BDrS.wav
153,192,233025,1,0,0:0:0:0:
358,192,233156,1,0,0:0:0:0:
256,192,233286,1,0,0:0:0:70:LR3_Kick BDrS.wav
460,192,233286,1,0,0:0:0:0:
51,192,233416,1,0,0:0:0:0:
153,192,233547,1,0,0:0:0:70:LR3_Kick BDrS.wav
358,192,233547,1,0,0:0:0:0:
460,192,233677,1,0,0:0:0:0:
358,192,233808,1,0,0:0:0:70:LR3_Kick BDrS.wav
153,192,233808,1,0,0:0:0:0:
256,192,233938,1,0,0:0:0:0:
51,192,234069,1,0,0:0:0:70:LR3_Kick BDrS.wav
460,192,234069,1,0,0:0:0:0:
256,192,234199,1,0,0:0:0:0:
460,192,234329,1,0,0:0:0:70:LR3_Kick BDrS.wav
51,192,234329,1,0,0:0:0:0:
256,192,234460,1,0,0:0:0:0:
153,192,234590,1,0,0:0:0:70:LR3_Kick BDrS.wav
358,192,234590,1,0,0:0:0:0:
256,192,234721,1,0,0:0:0:0:
153,192,234851,1,0,0:0:0:70:LR3_Kick BDrS.wav
51,192,234851,1,0,0:0:0:0:
460,192,234982,1,0,0:0:0:0:
153,192,235112,1,0,0:0:0:70:LR3_Kick BDrS.wav
358,192,235112,1,0,0:0:0:0:
256,192,235243,1,0,0:0:0:0:
51,192,235373,1,0,0:0:0:70:LR3_Kick BDrS.wav
153,192,235373,1,0,0:0:0:0:
460,192,235503,1,0,0:0:0:0:
358,192,235634,1,0,0:0:0:70:LR3_Kick BDrS.wav
153,192,235634,1,0,0:0:0:0:
256,192,235764,1,0,0:0:0:0:
153,192,235895,1,0,0:0:0:70:LR3_Kick BDrS.wav
51,192,235895,1,0,0:0:0:0:
358,192,236025,1,0,0:0:0:0:
460,192,236025,1,0,0:0:0:0:
51,192,236156,1,0,0:0:0:70:LR3_Kick BDrS.wav
153,192,236156,1,0,0:0:0:0:
256,192,236286,1,0,0:0:0:0:
460,192,236286,1,0,0:0:0:0:
153,192,236416,1,0,0:0:0:70:LR3_Kick BDrS.wav
460,192,236416,1,0,0:0:0:0:
51,192,236547,1,0,0:0:0:0:
358,192,236547,1,0,0:0:0:0:
153,192,236677,1,0,0:0:0:70:LR3_Kick BDrS.wav
358,192,236677,1,0,0:0:0:0:
256,192,236808,1,0,0:0:0:0:
358,192,236938,1,0,0:0:0:70:LR3_Kick BDrS.wav
460,192,236938,1,0,0:0:0:0:
51,192,237069,1,0,0:0:0:0:
153,192,237199,1,0,0:0:0:70:LR3_Kick BDrS.wav
358,192,237199,1,0,0:0:0:0:
256,192,237329,1,0,0:0:0:0:
358,192,237460,1,0,0:0:0:70:LR3_Kick BDrS.wav
460,192,237460,1,0,0:0:0:0:
51,192,237590,1,0,0:0:0:0:
256,192,237721,1,0,0:0:0:70:LR3_Kick BDrS.wav
153,192,237721,1,0,0:0:0:0:
460,192,237851,1,0,0:0:0:0:
358,192,237982,1,0,0:0:0:70:LR3_Kick BDrS.wav
51,192,237982,1,0,0:0:0:0:
256,192,238112,1,0,0:0:0:0:
460,192,238243,1,0,0:0:0:70:LR3_Kick BDrS.wav
153,192,238243,1,0,0:0:0:0:
358,192,238373,1,0,0:0:0:0:
256,192,238373,1,0,0:0:0:0:
153,192,238503,1,0,0:0:0:70:LR3_Kick BDrS.wav
51,192,238503,1,0,0:0:0:0:
358,192,238634,1,0,0:0:0:0:
256,192,238634,1,0,0:0:0:0:
460,192,238764,1,0,0:0:0:70:LR3_Kick BDrS.wav
153,192,238764,1,0,0:0:0:0:
358,192,238895,1,0,0:0:0:0:
460,192,239025,1,0,0:0:0:70:LR3_Kick BDrS.wav
256,192,239025,1,0,0:0:0:0:
51,192,239156,1,0,0:0:0:0:
460,192,239286,1,0,0:0:0:70:LR3_Kick BDrS.wav
153,192,239286,1,0,0:0:0:0:
358,192,239416,1,0,0:0:0:0:
460,192,239547,1,0,0:0:0:70:LR3_Kick BDrS.wav
256,192,239547,1,0,0:0:0:0:
51,192,239677,1,0,0:0:0:0:
153,192,239808,1,0,0:0:0:70:LR3_Kick BDrS.wav
460,192,239808,1,0,0:0:0:0:
358,192,239938,1,0,0:0:0:0:
51,192,240069,1,0,0:0:0:70:LR3_Kick BDrS.wav
256,192,240069,1,0,0:0:0:0:
153,192,240199,1,0,0:0:0:0:
460,192,240329,1,0,0:0:0:70:LR3_Kick BDrS.wav
256,192,240329,1,0,0:0:0:0:
358,192,240460,1,0,0:0:0:0:
51,192,240460,1,0,0:0:0:0:
51,192,240590,1,0,0:0:0:70:LR3_Kick BDrS.wav
256,192,240590,1,0,0:0:0:0:
256,192,240721,1,0,0:0:0:0:
460,192,240721,1,0,0:0:0:0:
153,192,240851,1,0,0:0:0:70:LR3_Snare RSH.wav
358,192,240851,128,0,240982:0:0:0:70:LR3_Snare DSB.wav
51,192,240982,1,0,0:0:0:0:
256,192,241112,1,0,0:0:0:70:LR3_Snare DSB.wav
460,192,241243,1,0,0:0:0:0:
358,192,241373,1,0,0:0:0:70:LR3_Snare RSH.wav
153,192,241373,128,0,241503:0:0:0:70:LR3_Snare DSB.wav
51,192,241503,1,0,0:0:0:0:
256,192,241634,1,0,0:0:0:70:LR3_Snare DSB.wav
460,192,241764,1,0,0:0:0:0:
51,192,241895,128,0,242416:0:0:0:70:LR3_Snare RSH.wav
256,192,241895,1,0,0:0:0:70:LR3_Snare DSB.wav
153,192,242156,128,0,242677:0:0:0:70:LR3_Snare DSB.wav
358,192,242156,1,0,0:0:0:0:
256,192,242416,128,0,242938:0:0:0:70:LR3_Snare DSB.wav
460,192,242416,1,0,0:0:0:0:
358,192,242677,128,0,242938:0:0:0:70:LR3_Snare DSB.wav
460,192,242677,1,0,0:0:0:0:
153,192,242938,1,0,0:0:0:70:LR3_Kick BDrS.wav
51,192,242938,1,0,0:0:0:0:
460,192,243069,1,0,0:0:0:0:
256,192,243199,128,0,243721:0:0:0:70:LR3_Kick BDrS.wav
358,192,243199,1,0,0:0:0:0:
153,192,243329,1,0,0:0:0:0:
460,192,243460,1,0,0:0:0:70:LR3_Kick BDrS.wav
51,192,243460,1,0,0:0:0:0:
358,192,243590,1,0,0:0:0:0:
153,192,243721,1,0,0:0:0:70:LR3_Kick BDrS.wav
51,192,243721,1,0,0:0:0:0:
460,192,243851,1,0,0:0:0:0:
256,192,243982,1,0,0:0:0:70:LR3_Kick BDrS.wav
153,192,243982,1,0,0:0:0:0:
358,192,244112,1,0,0:0:0:0:
51,192,244243,1,0,0:0:0:70:LR3_Kick BDrS.wav
460,192,244243,1,0,0:0:0:0:
153,192,244373,1,0,0:0:0:0:
256,192,244503,1,0,0:0:0:70:LR3_Kick BDrS.wav
358,192,244503,128,0,245025:0:0:0:0:
51,192,244634,1,0,0:0:0:0:
153,192,244764,1,0,0:0:0:70:LR3_Kick BDrS.wav
460,192,244764,1,0,0:0:0:0:
256,192,244895,1,0,0:0:0:0:
460,192,245025,1,0,0:0:0:70:LR3_Kick BDrS.wav
51,192,245025,1,0,0:0:0:0:
256,192,245156,1,0,0:0:0:0:
51,192,245286,1,0,0:0:0:70:LR3_Kick BDrS.wav
153,192,245286,128,0,245808:0:0:0:0:
460,192,245416,1,0,0:0:0:0:
358,192,245547,1,0,0:0:0:70:LR3_Kick BDrS.wav
256,192,245547,1,0,0:0:0:0:
51,192,245677,1,0,0:0:0:0:
460,192,245808,1,0,0:0:0:70:LR3_Kick BDrS.wav
358,192,245808,1,0,0:0:0:0:
256,192,245938,1,0,0:0:0:0:
51,192,246069,1,0,0:0:0:70:LR3_Kick BDrS.wav
153,192,246069,1,0,0:0:0:0:
358,192,246199,1,0,0:0:0:0:
51,192,246329,1,0,0:0:0:70:LR3_Kick BDrS.wav
460,192,246329,1,0,0:0:0:0:
256,192,246460,1,0,0:0:0:0:
460,192,246590,1,0,0:0:0:70:LR3_Kick BDrS.wav
153,192,246590,1,0,0:0:0:0:
358,192,246721,1,0,0:0:0:0:
51,192,246851,1,0,0:0:0:70:LR3_Kick BDrS.wav
256,192,246851,128,0,247112:0:0:0:0:
460,192,246982,1,0,0:0:0:0:
358,192,247112,1,0,0:0:0:70:LR3_Kick BDrS.wav
153,192,247112,1,0,0:0:0:0:
51,192,247243,1,0,0:0:0:0:
256,192,247373,1,0,0:0:0:70:LR3_Kick BDrS.wav
460,192,247373,128,0,247895:0:0:0:0:
153,192,247503,1,0,0:0:0:0:
358,192,247634,1,0,0:0:0:70:LR3_Kick BDrS.wav
51,192,247634,1,0,0:0:0:0:
256,192,247764,1,0,0:0:0:0:
153,192,247895,1,0,0:0:0:70:LR3_Kick BDrS.wav
358,192,247895,1,0,0:0:0:0:
256,192,248025,1,0,0:0:0:0:
51,192,248156,1,0,0:0:0:70:LR3_Kick BDrS.wav
460,192,248156,1,0,0:0:0:0:
153,192,248286,1,0,0:0:0:0:
460,192,248416,1,0,0:0:0:70:LR3_Kick BDrS.wav
358,192,248416,1,0,0:0:0:0:
256,192,248547,1,0,0:0:0:0:
153,192,248677,1,0,0:0:0:70:LR3_Kick BDrS.wav
51,192,248677,128,0,249199:0:0:0:0:
460,192,248808,1,0,0:0:0:0:
358,192,248938,1,0,0:0:0:70:LR3_Kick BDrS.wav
256,192,248938,1,0,0:0:0:0:
153,192,249069,1,0,0:0:0:0:
358,192,249199,1,0,0:0:0:70:LR3_Kick BDrS.wav
460,192,249199,1,0,0:0:0:0:
153,192,249329,1,0,0:0:0:0:
256,192,249460,128,0,249982:0:0:0:70:LR3_Kick BDrS.wav
51,192,249460,1,0,0:0:0:0:
460,192,249590,1,0,0:0:0:0:
358,192,249721,1,0,0:0:0:70:LR3_Kick BDrS.wav
153,192,249721,1,0,0:0:0:0:
51,192,249851,1,0,0:0:0:0:
358,192,249982,1,0,0:0:0:70:LR3_Kick BDrS.wav
460,192,249982,1,0,0:0:0:0:
153,192,250112,1,0,0:0:0:0:
256,192,250243,1,0,0:0:0:70:LR3_Kick BDrS.wav
460,192,250243,128,0,250373:0:0:0:0:
51,192,250373,1,0,0:0:0:0:
358,192,250503,128,0,250634:0:0:0:70:LR3_Kick BDrS.wav
153,192,250503,1,0,0:0:0:0:
460,192,250699,1,0,0:0:0:0:
256,192,250764,128,0,250895:0:0:0:70:LR3_Kick BDrS.wav
51,192,250764,1,0,0:0:0:0:
460,192,250895,1,0,0:0:0:0:
153,192,251025,128,0,251156:0:0:0:70:LR3_Kick BDrS.wav
358,192,251025,1,0,0:0:0:0:
256,192,251156,1,0,0:0:0:0:
51,192,251286,128,0,251416:0:0:0:70:LR3_Kick BDrS.wav
460,192,251286,1,0,0:0:0:0:
358,192,251416,1,0,0:0:0:0:
256,192,251547,128,0,252069:0:0:0:70:LR3_Kick BDrS.wav
153,192,251547,1,0,0:0:0:0:
358,192,251677,1,0,0:0:0:0:
460,192,251808,1,0,0:0:0:70:LR3_Kick BDrS.wav
51,192,251808,1,0,0:0:0:0:
153,192,251938,1,0,0:0:0:0:
358,192,252069,1,0,0:0:0:70:LR3_Kick BDrS.wav
460,192,252069,1,0,0:0:0:0:
51,192,252199,1,0,0:0:0:0:
358,192,252329,1,0,0:0:0:70:LR3_Kick BDrS.wav
256,192,252329,1,0,0:0:0:0:
153,192,252460,1,0,0:0:0:0:
51,192,252590,1,0,0:0:0:70:LR3_Kick BDrS.wav
460,192,252590,1,0,0:0:0:0:
358,192,252721,1,0,0:0:0:0:
153,192,252851,128,0,253373:0:0:0:70:LR3_Kick BDrS.wav
256,192,252851,1,0,0:0:0:0:
460,192,252982,1,0,0:0:0:0:
358,192,253112,1,0,0:0:0:70:LR3_Kick BDrS.wav
51,192,253112,1,0,0:0:0:0:
256,192,253243,1,0,0:0:0:0:
460,192,253373,1,0,0:0:0:70:LR3_Kick BDrS.wav
51,192,253373,1,0,0:0:0:0:
256,192,253503,1,0,0:0:0:0:
460,192,253634,1,0,0:0:0:70:LR3_Kick BDrS.wav
358,192,253634,128,0,254156:0:0:0:0:
51,192,253764,1,0,0:0:0:0:
153,192,253895,1,0,0:0:0:70:LR3_Kick BDrS.wav
256,192,253895,1,0,0:0:0:0:
460,192,254025,1,0,0:0:0:0:
153,192,254156,1,0,0:0:0:70:LR3_Kick BDrS.wav
51,192,254156,1,0,0:0:0:0:
256,192,254286,1,0,0:0:0:0:
358,192,254416,1,0,0:0:0:70:LR3_Kick BDrS.wav
460,192,254416,1,0,0:0:0:0:
153,192,254547,1,0,0:0:0:0:
51,192,254677,1,0,0:0:0:70:LR3_Kick BDrS.wav
460,192,254677,1,0,0:0:0:0:
256,192,254808,1,0,0:0:0:0:
51,192,254938,1,0,0:0:0:70:LR3_Kick BDrS.wav
358,192,254938,1,0,0:0:0:0:
153,192,255069,1,0,0:0:0:0:
256,192,255199,128,0,255460:0:0:0:70:LR3_Kick BDrS.wav
460,192,255199,1,0,0:0:0:0:
51,192,255329,1,0,0:0:0:0:
153,192,255460,1,0,0:0:0:70:LR3_Kick BDrS.wav
358,192,255460,1,0,0:0:0:0:
460,192,255590,1,0,0:0:0:0:
256,192,255721,1,0,0:0:0:70:LR3_Kick BDrS.wav
51,192,255721,128,0,256243:0:0:0:0:
358,192,255851,1,0,0:0:0:0:
153,192,255982,1,0,0:0:0:70:LR3_Kick BDrS.wav
460,192,255982,1,0,0:0:0:0:
256,192,256112,1,0,0:0:0:0:
153,192,256243,1,0,0:0:0:70:LR3_Kick BDrS.wav
358,192,256243,1,0,0:0:0:0:
256,192,256373,1,0,0:0:0:0:
51,192,256503,1,0,0:0:0:70:LR3_Kick BDrS.wav
460,192,256503,1,0,0:0:0:0:
358,192,256634,1,0,0:0:0:0:
153,192,256764,1,0,0:0:0:70:LR3_Kick BDrS.wav
51,192,256764,1,0,0:0:0:0:
256,192,256895,1,0,0:0:0:0:
358,192,257025,1,0,0:0:0:70:LR3_Kick BDrS.wav
460,192,257025,128,0,257547:0:0:0:0:
51,192,257156,1,0,0:0:0:0:
256,192,257286,1,0,0:0:0:70:LR3_Kick BDrS.wav
153,192,257286,1,0,0:0:0:0:
358,192,257416,1,0,0:0:0:0:
51,192,257547,1,0,0:0:0:70:LR3_Kick BDrS.wav
153,192,257547,1,0,0:0:0:0:
358,192,257677,1,0,0:0:0:0:
256,192,257808,128,0,258329:0:0:0:70:LR3_Kick BDrS.wav
460,192,257808,1,0,0:0:0:0:
51,192,257938,1,0,0:0:0:0:
153,192,258069,1,0,0:0:0:70:LR3_Kick BDrS.wav
358,192,258069,1,0,0:0:0:0:
460,192,258199,1,0,0:0:0:0:
153,192,258329,1,0,0:0:0:70:LR3_Kick BDrS.wav
51,192,258329,1,0,0:0:0:0:
358,192,258460,1,0,0:0:0:0:
153,192,258590,1,0,0:0:0:70:LR3_Kick BDrS.wav
51,192,258590,1,0,0:0:0:70:LR3_Snare DSB.wav
460,192,258656,1,0,0:0:0:70:LR3_Snare DSB.wav
358,192,258656,1,0,0:0:0:0:
153,192,258721,1,0,0:0:0:70:LR3_Snare DSB.wav
51,192,258721,1,0,0:0:0:0:
358,192,258786,1,0,0:0:0:70:LR3_Snare DSB.wav
460,192,258786,1,0,0:0:0:0:
153,192,258851,1,0,0:0:0:70:LR3_Kick BDrS.wav
51,192,258851,1,0,0:0:0:70:LR3_Snare DSB.wav
460,192,258916,1,0,0:0:0:70:LR3_Snare DSB.wav
358,192,258916,1,0,0:0:0:0:
51,192,258982,1,0,0:0:0:70:LR3_Snare DSB.wav
153,192,258982,1,0,0:0:0:0:
460,192,259047,1,0,0:0:0:70:LR3_Snare DSB.wav
358,192,259047,1,0,0:0:0:0:
51,192,259112,1,0,0:0:0:70:LR3_Kick BDrS.wav
153,192,259112,1,0,0:0:0:70:LR3_Snare DSB.wav
358,192,259177,1,0,0:0:0:70:LR3_Snare DSB.wav
460,192,259177,1,0,0:0:0:0:
153,192,259243,1,0,0:0:0:70:LR3_Snare DSB.wav
51,192,259243,1,0,0:0:0:0:
358,192,259308,1,0,0:0:0:70:LR3_Snare DSB.wav
460,192,259308,1,0,0:0:0:0:
153,192,259373,1,0,0:0:0:70:LR3_Kick BDrS.wav
51,192,259373,1,0,0:0:0:70:LR3_Snare DSB.wav
460,192,259438,1,0,0:0:0:70:LR3_Snare DSB.wav
358,192,259438,1,0,0:0:0:0:
51,192,259503,1,0,0:0:0:70:LR3_Snare DSB.wav
153,192,259503,1,0,0:0:0:0:
460,192,259569,1,0,0:0:0:70:LR3_Snare DSB.wav
358,192,259569,1,0,0:0:0:0:
256,192,259634,1,0,0:0:0:70:LR3_Kick BDrS.wav
153,192,259634,1,0,0:0:0:70:LR3_Snare DSB.wav
51,192,259634,1,0,0:0:0:0:
460,192,259764,1,0,0:0:0:0:
153,192,259895,1,0,0:0:0:0:
358,192,260025,1,0,0:0:0:0:
51,192,260156,1,0,0:0:0:0:
256,192,260286,1,0,0:0:0:0:
153,192,260416,1,0,0:0:0:0:
358,192,260547,1,0,0:0:0:0:
256,192,260677,1,0,0:0:0:0:
460,192,260808,1,0,0:0:0:0:
153,192,260938,1,0,0:0:0:0:
358,192,261069,1,0,0:0:0:0:
51,192,261199,1,0,0:0:0:0:
256,192,261329,1,0,0:0:0:0:
153,192,261460,1,0,0:0:0:0:
358,192,261590,1,0,0:0:0:0:
256,192,261721,1,0,0:0:0:0:
460,192,261851,1,0,0:0:0:0:
153,192,261982,1,0,0:0:0:0:
358,192,262112,1,0,0:0:0:0:
51,192,262243,1,0,0:0:0:0:
256,192,262373,1,0,0:0:0:0:
153,192,262503,1,0,0:0:0:0:
358,192,262634,1,0,0:0:0:0:
256,192,262764,1,0,0:0:0:0:
460,192,262895,1,0,0:0:0:0:
153,192,263025,1,0,0:0:0:0:
358,192,263156,1,0,0:0:0:0:
51,192,263286,1,0,0:0:0:0:
256,192,263416,1,0,0:0:0:0:
153,192,263547,1,0,0:0:0:0:
358,192,263677,1,0,0:0:0:0:
256,192,263808,1,0,0:0:0:0:
460,192,263938,1,0,0:0:0:0:
153,192,264069,1,0,0:0:0:0:
358,192,264199,1,0,0:0:0:0:
51,192,264329,1,0,0:0:0:0:
256,192,264460,1,0,0:0:0:0:
153,192,264590,1,0,0:0:0:0:
358,192,264721,1,0,0:0:0:0:
256,192,264851,1,0,0:0:0:0:
460,192,264982,1,0,0:0:0:0:
153,192,265112,1,0,0:0:0:0:
358,192,265243,1,0,0:0:0:0:
51,192,265373,1,0,0:0:0:0:
256,192,265503,1,0,0:0:0:0:
153,192,265634,1,0,0:0:0:0:
358,192,265764,1,0,0:0:0:0:
256,192,265895,1,0,0:0:0:0:
460,192,266025,1,0,0:0:0:0:
153,192,266156,1,0,0:0:0:0:
358,192,266286,1,0,0:0:0:0:
51,192,266416,1,0,0:0:0:0:
256,192,266547,1,0,0:0:0:0:
153,192,266677,1,0,0:0:0:0:
358,192,266808,1,0,0:0:0:0:
256,192,266938,128,0,267460:0:0:0:0:
153,192,267199,128,0,267460:0:0:0:0:
358,192,267329,128,0,267460:0:0:0:0:
460,192,267460,128,0,267982:0:0:0:0:
51,192,267460,128,0,267982:0:0:0:0:
153,192,267982,1,0,0:0:0:70:LR3_Kick BDrS.wav
256,192,267982,1,0,0:0:0:70:LR_Drum Finish.wav
358,192,267982,128,0,268243:0:0:0:0:
51,192,268112,1,0,0:0:0:0:
460,192,268243,1,0,0:0:0:70:LR3_Kick BDrS.wav
153,192,268243,1,0,0:0:0:0:
256,192,268373,1,0,0:0:0:0:
358,192,268503,128,0,268764:0:0:0:70:LR3_Kick BDrS.wav
51,192,268503,1,0,0:0:0:0:
460,192,268634,1,0,0:0:0:0:
153,192,268764,1,0,0:0:0:70:LR3_Kick BDrS.wav
51,192,268764,1,0,0:0:0:0:
460,192,268895,1,0,0:0:0:0:
358,192,269025,128,0,269286:0:0:0:70:LR3_Kick BDrS.wav
256,192,269025,1,0,0:0:0:0:
51,192,269156,1,0,0:0:0:0:
460,192,269286,1,0,0:0:0:70:LR3_Kick BDrS.wav
153,192,269286,1,0,0:0:0:0:
256,192,269416,1,0,0:0:0:0:
358,192,269547,128,0,269808:0:0:0:70:LR3_Kick BDrS.wav
51,192,269547,1,0,0:0:0:0:
460,192,269677,1,0,0:0:0:0:
51,192,269808,1,0,0:0:0:70:LR3_Kick BDrS.wav
153,192,269808,1,0,0:0:0:0:
460,192,269938,1,0,0:0:0:0:
153,192,270069,128,0,270329:0:0:0:70:LR3_Kick BDrS.wav
256,192,270069,1,0,0:0:0:0:
460,192,270199,1,0,0:0:0:0:
358,192,270329,1,0,0:0:0:70:LR3_Kick BDrS.wav
51,192,270329,1,0,0:0:0:0:
256,192,270460,1,0,0:0:0:0:
460,192,270590,1,0,0:0:0:70:LR3_Kick BDrS.wav
153,192,270590,128,0,270851:0:0:0:0:
358,192,270851,1,0,0:0:0:70:LR3_Kick BDrS.wav
460,192,270851,1,0,0:0:0:0:
51,192,270982,1,0,0:0:0:0:
256,192,271112,1,0,0:0:0:70:LR3_Kick BDrS.wav
153,192,271112,128,0,271373:0:0:0:0:
460,192,271243,1,0,0:0:0:0:
358,192,271373,1,0,0:0:0:70:LR3_Kick BDrS.wav
51,192,271373,1,0,0:0:0:0:
256,192,271503,1,0,0:0:0:0:
153,192,271634,128,0,271895:0:0:0:70:LR3_Kick BDrS.wav
460,192,271634,1,0,0:0:0:0:
460,192,271895,1,0,0:0:0:70:LR3_Kick BDrS.wav
358,192,271895,1,0,0:0:0:0:
51,192,272025,1,0,0:0:0:0:
256,192,272156,1,0,0:0:0:70:LR3_Kick BDrS.wav
460,192,272156,128,0,272416:0:0:0:0:
153,192,272286,1,0,0:0:0:0:
256,192,272416,1,0,0:0:0:70:LR3_Kick BDrS.wav
51,192,272416,1,0,0:0:0:0:
358,192,272547,1,0,0:0:0:0:
460,192,272677,128,0,272938:0:0:0:70:LR3_Kick BDrS.wav
153,192,272677,1,0,0:0:0:0:
256,192,272808,1,0,0:0:0:0:
153,192,272938,1,0,0:0:0:70:LR3_Kick BDrS.wav
51,192,272938,1,0,0:0:0:0:
358,192,273069,1,0,0:0:0:0:
460,192,273199,128,0,273460:0:0:0:70:LR3_Kick BDrS.wav
256,192,273199,1,0,0:0:0:0:
153,192,273329,1,0,0:0:0:0:
256,192,273460,1,0,0:0:0:70:LR3_Kick BDrS.wav
51,192,273460,1,0,0:0:0:0:
358,192,273590,1,0,0:0:0:0:
460,192,273721,128,0,273982:0:0:0:70:LR3_Kick BDrS.wav
153,192,273721,1,0,0:0:0:0:
51,192,273851,1,0,0:0:0:0:
153,192,273982,1,0,0:0:0:70:LR3_Kick BDrS.wav
256,192,273982,128,0,274243:0:0:0:0:
358,192,274112,1,0,0:0:0:0:
51,192,274243,128,0,274503:0:0:0:70:LR3_Kick BDrS.wav
460,192,274243,1,0,0:0:0:0:
153,192,274373,1,0,0:0:0:0:
460,192,274503,1,0,0:0:0:70:LR3_Kick BDrS.wav
358,192,274503,1,0,0:0:0:0:
153,192,274634,1,0,0:0:0:0:
51,192,274764,128,0,275025:0:0:0:70:LR3_Kick BDrS.wav
256,192,274764,1,0,0:0:0:0:
460,192,274895,1,0,0:0:0:0:
256,192,275025,1,0,0:0:0:70:LR3_Kick BDrS.wav
358,192,275025,1,0,0:0:0:0:
153,192,275156,1,0,0:0:0:0:
51,192,275286,128,0,275547:0:0:0:70:LR3_Kick BDrS.wav
460,192,275286,1,0,0:0:0:0:
256,192,275416,1,0,0:0:0:0:
358,192,275547,1,0,0:0:0:70:LR3_Kick BDrS.wav
460,192,275547,1,0,0:0:0:0:
153,192,275677,1,0,0:0:0:0:
256,192,275808,1,0,0:0:0:70:LR3_Kick BDrS.wav
51,192,275808,128,0,276069:0:0:0:0:
460,192,275938,1,0,0:0:0:0:
256,192,276069,1,0,0:0:0:70:LR3_Kick BDrS.wav
358,192,276069,1,0,0:0:0:0:
153,192,276199,1,0,0:0:0:0:
358,192,276329,128,0,276590:0:0:0:70:LR3_Kick BDrS.wav
460,192,276329,1,0,0:0:0:70:LR_Drum Finish.wav
256,192,276329,1,0,0:0:0:0:
51,192,276460,1,0,0:0:0:0:
460,192,276590,1,0,0:0:0:70:LR3_Kick BDrS.wav
153,192,276590,1,0,0:0:0:0:
256,192,276721,1,0,0:0:0:0:
51,192,276851,1,0,0:0:0:70:LR3_Kick BDrS.wav
358,192,276851,128,0,277112:0:0:0:0:
460,192,276982,1,0,0:0:0:0:
51,192,277112,1,0,0:0:0:70:LR3_Kick BDrS.wav
153,192,277112,1,0,0:0:0:0:
460,192,277243,1,0,0:0:0:0:
256,192,277373,1,0,0:0:0:70:LR3_Kick BDrS.wav
358,192,277373,128,0,277634:0:0:0:0:
51,192,277503,1,0,0:0:0:0:
153,192,277634,1,0,0:0:0:70:LR3_Kick BDrS.wav
460,192,277634,1,0,0:0:0:0:
256,192,277764,1,0,0:0:0:0:
358,192,277895,128,0,278156:0:0:0:70:LR3_Kick BDrS.wav
51,192,277895,1,0,0:0:0:0:
460,192,278025,1,0,0:0:0:0:
153,192,278156,1,0,0:0:0:70:LR3_Kick BDrS.wav
51,192,278156,1,0,0:0:0:0:
460,192,278286,1,0,0:0:0:0:
256,192,278416,1,0,0:0:0:70:LR3_Kick BDrS.wav
153,192,278416,128,0,278677:0:0:0:0:
460,192,278547,1,0,0:0:0:0:
51,192,278677,1,0,0:0:0:70:LR3_Kick BDrS.wav
358,192,278677,1,0,0:0:0:0:
256,192,278808,1,0,0:0:0:0:
460,192,278938,1,0,0:0:0:70:LR3_Kick BDrS.wav
153,192,278938,128,0,279199:0:0:0:0:
460,192,279199,1,0,0:0:0:70:LR3_Kick BDrS.wav
358,192,279199,1,0,0:0:0:0:
51,192,279329,1,0,0:0:0:0:
153,192,279460,128,0,279721:0:0:0:70:LR3_Kick BDrS.wav
256,192,279460,1,0,0:0:0:0:
460,192,279590,1,0,0:0:0:0:
358,192,279721,1,0,0:0:0:70:LR3_Kick BDrS.wav
51,192,279721,1,0,0:0:0:0:
256,192,279851,1,0,0:0:0:0:
153,192,279982,128,0,280243:0:0:0:70:LR3_Kick BDrS.wav
460,192,279982,1,0,0:0:0:0:
460,192,280243,1,0,0:0:0:70:LR3_Kick BDrS.wav
358,192,280243,1,0,0:0:0:0:
51,192,280373,1,0,0:0:0:0:
256,192,280503,1,0,0:0:0:70:LR3_Kick BDrS.wav
460,192,280503,128,0,280764:0:0:0:0:
153,192,280634,1,0,0:0:0:0:
51,192,280764,1,0,0:0:0:70:LR3_Kick BDrS.wav
256,192,280764,1,0,0:0:0:0:
358,192,280895,1,0,0:0:0:0:
153,192,281025,1,0,0:0:0:70:LR3_Kick BDrS.wav
460,192,281025,128,0,281286:0:0:0:0:
256,192,281156,1,0,0:0:0:0:
153,192,281286,1,0,0:0:0:70:LR3_Kick BDrS.wav
51,192,281286,1,0,0:0:0:0:
358,192,281416,1,0,0:0:0:0:
460,192,281547,128,0,281808:0:0:0:70:LR3_Kick BDrS.wav
256,192,281547,1,0,0:0:0:0:
153,192,281677,1,0,0:0:0:0:
51,192,281808,1,0,0:0:0:70:LR3_Kick BDrS.wav
256,192,281808,1,0,0:0:0:0:
358,192,281938,1,0,0:0:0:0:
460,192,282069,128,0,282329:0:0:0:70:LR3_Kick BDrS.wav
153,192,282069,1,0,0:0:0:0:
51,192,282199,1,0,0:0:0:0:
153,192,282329,1,0,0:0:0:70:LR3_Kick BDrS.wav
256,192,282329,128,0,282590:0:0:0:0:
358,192,282460,1,0,0:0:0:0:
460,192,282590,1,0,0:0:0:70:LR3_Kick BDrS.wav
51,192,282590,128,0,282851:0:0:0:0:
153,192,282721,1,0,0:0:0:0:
358,192,282851,1,0,0:0:0:70:LR3_Kick BDrS.wav
460,192,282851,1,0,0:0:0:0:
153,192,282982,1,0,0:0:0:0:
256,192,283112,1,0,0:0:0:70:LR3_Kick BDrS.wav
51,192,283112,128,0,283373:0:0:0:0:
460,192,283243,1,0,0:0:0:0:
358,192,283373,1,0,0:0:0:70:LR3_Kick BDrS.wav
256,192,283373,1,0,0:0:0:0:
153,192,283503,1,0,0:0:0:0:
51,192,283634,128,0,283895:0:0:0:70:LR3_Kick BDrS.wav
460,192,283634,1,0,0:0:0:0:
256,192,283764,1,0,0:0:0:0:
358,192,283895,1,0,0:0:0:70:LR3_Kick BDrS.wav
460,192,283895,1,0,0:0:0:0:
153,192,284025,1,0,0:0:0:0:
256,192,284156,1,0,0:0:0:70:LR3_Kick BDrS.wav
51,192,284156,128,0,284416:0:0:0:0:
358,192,284286,1,0,0:0:0:0:
153,192,284286,1,0,0:0:0:0:
153,192,284416,1,0,0:0:0:0:
358,192,284416,1,0,0:0:0:0:
460,192,284677,1,0,0:0:0:70:LR3_Kick BDrS.wav
256,192,284677,1,0,0:0:0:0:
51,192,284677,1,0,0:0:0:0:
358,192,284938,1,0,0:0:0:70:LR3_Kick BDrS.wav
460,192,284938,1,0,0:0:0:0:
51,192,285069,1,0,0:0:0:70:LR3_Kick BDrS.wav
153,192,285069,1,0,0:0:0:0:
256,192,285199,1,0,0:0:0:0:
358,192,285329,1,0,0:0:0:0:
358,192,285460,1,0,0:0:0:0:
358,192,285590,1,0,0:0:0:0:
153,192,285721,1,0,0:0:0:70:LR3_Kick BDrS.wav
51,192,285721,1,0,0:0:0:0:
256,192,285851,1,0,0:0:0:0:
460,192,285982,1,0,0:0:0:70:LR3_Kick BDrS.wav
358,192,285982,1,0,0:0:0:0:
51,192,286112,1,0,0:0:0:0:
153,192,286243,1,0,0:0:0:70:LR3_Kick BDrS.wav
256,192,286243,1,0,0:0:0:0:
460,192,286373,1,0,0:0:0:0:
358,192,286503,1,0,0:0:0:70:LR3_Kick BDrS.wav
256,192,286503,1,0,0:0:0:0:
51,192,286634,1,0,0:0:0:0:
153,192,286764,1,0,0:0:0:70:LR3_Kick BDrS.wav
358,192,286764,1,0,0:0:0:0:
460,192,286895,1,0,0:0:0:0:
51,192,287025,1,0,0:0:0:70:LR3_Kick BDrS.wav
256,192,287025,128,0,287286:0:0:0:0:
460,192,287286,1,0,0:0:0:70:LR3_Kick BDrS.wav
153,192,287286,1,0,0:0:0:0:
153,192,287416,1,0,0:0:0:70:LR3_Kick BDrS.wav
460,192,287416,1,0,0:0:0:0:
358,192,287547,1,0,0:0:0:70:LR3_Kick BDrS.wav
51,192,287547,1,0,0:0:0:0:
51,192,287677,1,0,0:0:0:70:LR3_Kick BDrS.wav
358,192,287677,1,0,0:0:0:0:
460,192,287808,1,0,0:0:0:70:LR3_Kick BDrS.wav
153,192,287808,1,0,0:0:0:0:
256,192,287938,1,0,0:0:0:0:
358,192,288069,1,0,0:0:0:70:LR3_Kick BDrS.wav
51,192,288069,1,0,0:0:0:0:
256,192,288199,1,0,0:0:0:0:
460,192,288329,1,0,0:0:0:70:LR3_Kick BDrS.wav
153,192,288329,1,0,0:0:0:0:
460,192,288460,1,0,0:0:0:70:LR3_Snare RSH.wav
153,192,288460,1,0,0:0:0:0:
358,192,288590,1,0,0:0:0:70:LR3_Kick BDrS.wav
256,192,288590,1,0,0:0:0:0:
153,192,288656,1,0,0:0:0:0:
51,192,288656,1,0,0:0:0:0:
460,192,288721,1,0,0:0:0:0:
358,192,288753,1,0,0:0:0:0:
256,192,288786,1,0,0:0:0:0:
153,192,288819,1,0,0:0:0:0:
51,192,288851,1,0,0:0:0:70:LR3_Kick BDrS.wav
460,192,288851,1,0,0:0:0:0:
358,192,288982,1,0,0:0:0:0:
256,192,289112,1,0,0:0:0:70:LR3_Kick BDrS.wav
153,192,289112,1,0,0:0:0:0:
358,192,289243,1,0,0:0:0:0:
358,192,289373,1,0,0:0:0:0:
256,192,289503,1,0,0:0:0:70:LR3_Kick BDrS.wav
51,192,289503,1,0,0:0:0:0:
51,192,289634,1,0,0:0:0:70:LR3_Kick BDrS.wav
256,192,289634,1,0,0:0:0:0:
153,192,289764,1,0,0:0:0:70:LR3_Kick BDrS.wav
358,192,289764,1,0,0:0:0:0:
460,192,289895,1,0,0:0:0:70:LR3_Kick BDrS.wav
256,192,289895,1,0,0:0:0:0:
51,192,290025,1,0,0:0:0:0:
153,192,290156,1,0,0:0:0:70:LR3_Kick BDrS.wav
358,192,290156,1,0,0:0:0:0:
460,192,290286,1,0,0:0:0:0:
256,192,290416,1,0,0:0:0:70:LR3_Kick BDrS.wav
51,192,290416,1,0,0:0:0:0:
358,192,290547,1,0,0:0:0:0:
256,192,290677,1,0,0:0:0:70:LR3_Kick BDrS.wav
153,192,290677,1,0,0:0:0:0:
460,192,290808,1,0,0:0:0:0:
358,192,290938,1,0,0:0:0:70:LR3_Kick BDrS.wav
256,192,290938,1,0,0:0:0:0:
51,192,291069,1,0,0:0:0:0:
153,192,291199,1,0,0:0:0:70:LR3_Kick BDrS.wav
358,192,291199,1,0,0:0:0:0:
51,192,291329,1,0,0:0:0:0:
256,192,291460,1,0,0:0:0:70:LR3_Kick BDrS.wav
460,192,291460,1,0,0:0:0:0:
153,192,291590,1,0,0:0:0:0:
256,192,291721,1,0,0:0:0:70:LR3_Kick BDrS.wav
358,192,291721,1,0,0:0:0:0:
51,192,291851,1,0,0:0:0:0:
153,192,291982,1,0,0:0:0:70:LR3_Kick BDrS.wav
358,192,291982,1,0,0:0:0:0:
358,192,292112,1,0,0:0:0:70:LR3_Kick BDrS.wav
153,192,292112,1,0,0:0:0:0:
460,192,292243,1,0,0:0:0:70:LR3_Kick BDrS.wav
51,192,292243,1,0,0:0:0:0:
460,192,292373,1,0,0:0:0:70:LR3_Kick BDrS.wav
51,192,292373,1,0,0:0:0:0:
358,192,292503,1,0,0:0:0:70:LR3_Kick BDrS.wav
256,192,292503,1,0,0:0:0:0:
256,192,292634,1,0,0:0:0:70:LR3_Kick BDrS.wav
358,192,292634,1,0,0:0:0:0:
256,192,292764,1,0,0:0:0:70:LR3_Kick BDrS.wav
153,192,292764,1,0,0:0:0:0:
153,192,292895,1,0,0:0:0:70:LR3_Kick BDrS.wav
256,192,292895,1,0,0:0:0:0:
460,192,293025,1,0,0:0:0:70:LR3_Kick BDrS.wav
51,192,293025,1,0,0:0:0:0:
256,192,293156,1,0,0:0:0:0:
358,192,293286,1,0,0:0:0:70:LR3_Kick BDrS.wav
153,192,293286,1,0,0:0:0:0:
256,192,293416,1,0,0:0:0:0:
460,192,293547,1,0,0:0:0:70:LR3_Kick BDrS.wav
51,192,293547,1,0,0:0:0:0:
256,192,293677,1,0,0:0:0:0:
358,192,293808,1,0,0:0:0:70:LR3_Kick BDrS.wav
153,192,293808,1,0,0:0:0:0:
256,192,293938,1,0,0:0:0:0:
460,192,294069,1,0,0:0:0:70:LR3_Kick BDrS.wav
51,192,294069,1,0,0:0:0:0:
256,192,294199,1,0,0:0:0:0:
153,192,294329,1,0,0:0:0:70:LR3_Kick BDrS.wav
358,192,294329,1,0,0:0:0:0:
256,192,294460,1,0,0:0:0:0:
460,192,294590,1,0,0:0:0:70:LR3_Kick BDrS.wav
51,192,294590,1,0,0:0:0:0:
256,192,294721,1,0,0:0:0:0:
358,192,294851,1,0,0:0:0:70:LR3_Kick BDrS.wav
153,192,294851,1,0,0:0:0:0:
256,192,294982,1,0,0:0:0:0:
460,192,295112,1,0,0:0:0:70:LR3_Kick BDrS.wav
51,192,295112,1,0,0:0:0:0:
256,192,295243,1,0,0:0:0:0:
358,192,295373,1,0,0:0:0:70:LR3_Kick BDrS.wav
51,192,295373,1,0,0:0:0:0:
256,192,295503,1,0,0:0:0:0:
460,192,295634,1,0,0:0:0:70:LR3_Kick BDrS.wav
153,192,295634,1,0,0:0:0:0:
256,192,295764,1,0,0:0:0:0:
358,192,295895,1,0,0:0:0:70:LR3_Kick BDrS.wav
51,192,295895,1,0,0:0:0:0:
256,192,296025,1,0,0:0:0:0:
153,192,296156,1,0,0:0:0:70:LR3_Kick BDrS.wav
460,192,296156,1,0,0:0:0:0:
256,192,296286,1,0,0:0:0:0:
153,192,296416,1,0,0:0:0:70:LR3_Kick BDrS.wav
51,192,296416,1,0,0:0:0:0:
358,192,296547,1,0,0:0:0:70:LR3_Kick BDrS.wav
460,192,296547,1,0,0:0:0:0:
153,192,296677,1,0,0:0:0:0:
256,192,296808,1,0,0:0:0:0:
51,192,296938,1,0,0:0:0:0:
153,192,297069,1,0,0:0:0:0:
256,192,297199,1,0,0:0:0:70:LR3_Kick BDrS.wav
358,192,297264,1,0,0:0:0:70:LR3_Kick BDrS.wav
51,192,297329,1,0,0:0:0:70:LR3_Kick BDrS.wav
153,192,297395,1,0,0:0:0:70:LR3_Kick BDrS.wav
460,192,297460,1,0,0:0:0:0:
358,192,297493,1,0,0:0:0:0:
256,192,297558,1,0,0:0:0:0:
153,192,297590,1,0,0:0:0:0:
51,192,297623,1,0,0:0:0:0:
460,192,297656,1,0,0:0:0:0:
358,192,297688,1,0,0:0:0:0:
256,192,297721,1,0,0:0:0:70:LR3_Kick BDrS.wav
153,192,297786,1,0,0:0:0:70:LR3_Kick BDrS.wav
51,192,297851,1,0,0:0:0:70:LR3_Kick BDrS.wav
460,192,297916,1,0,0:0:0:70:LR3_Kick BDrS.wav
358,192,297982,1,0,0:0:0:0:
256,192,298014,1,0,0:0:0:0:
51,192,298047,1,0,0:0:0:0:
153,192,298079,1,0,0:0:0:0:
460,192,298112,1,0,0:0:0:0:
358,192,298145,1,0,0:0:0:0:
51,192,298177,1,0,0:0:0:0:
153,192,298210,1,0,0:0:0:0:
256,192,298243,1,0,0:0:0:70:LR3_Kick BDrS.wav
460,192,298243,1,0,0:0:0:0:
358,192,298373,1,0,0:0:0:0:
256,192,298503,1,0,0:0:0:70:LR3_Kick BDrS.wav
51,192,298503,1,0,0:0:0:0:
358,192,298634,1,0,0:0:0:70:LR3_Kick BDrS.wav
153,192,298634,1,0,0:0:0:0:
460,192,298764,1,0,0:0:0:0:
153,192,298895,1,0,0:0:0:0:
153,192,299025,1,0,0:0:0:0:
153,192,299156,1,0,0:0:0:0:
460,192,299286,1,0,0:0:0:70:LR3_Kick BDrS.wav
256,192,299286,1,0,0:0:0:0:
51,192,299416,1,0,0:0:0:0:
153,192,299547,1,0,0:0:0:70:LR3_Kick BDrS.wav
358,192,299547,1,0,0:0:0:0:
460,192,299677,1,0,0:0:0:0:
256,192,299808,1,0,0:0:0:70:LR3_Kick BDrS.wav
51,192,299808,1,0,0:0:0:0:
358,192,299938,1,0,0:0:0:0:
460,192,300069,1,0,0:0:0:70:LR3_Kick BDrS.wav
153,192,300069,1,0,0:0:0:0:
256,192,300199,1,0,0:0:0:0:
358,192,300329,1,0,0:0:0:70:LR3_Kick BDrS.wav
51,192,300329,1,0,0:0:0:0:
153,192,300460,1,0,0:0:0:0:
256,192,300590,1,0,0:0:0:70:LR3_Kick BDrS.wav
460,192,300590,1,0,0:0:0:0:
51,192,300721,1,0,0:0:0:0:
153,192,300851,1,0,0:0:0:70:LR3_Kick BDrS.wav
358,192,300851,1,0,0:0:0:0:
460,192,300982,1,0,0:0:0:70:LR3_Kick BDrS.wav
256,192,300982,1,0,0:0:0:0:
153,192,301112,1,0,0:0:0:70:LR3_Kick BDrS.wav
51,192,301112,1,0,0:0:0:0:
460,192,301177,1,0,0:0:0:70:LR3_Kick BDrS.wav
358,192,301177,1,0,0:0:0:0:
51,192,301243,1,0,0:0:0:0:
153,192,301275,1,0,0:0:0:0:
358,192,301308,1,0,0:0:0:0:
460,192,301340,1,0,0:0:0:0:
153,192,301373,1,0,0:0:0:70:LR3_Kick BDrS.wav
51,192,301373,1,0,0:0:0:70:LR_Drum Finish.wav
256,192,301373,1,0,0:0:0:0:
