osu file format v14

[General]
AudioFilename: audio.mp3
AudioLeadIn: 0
PreviewTime: -1
Countdown: 1
SampleSet: Normal
StackLeniency: 0.7
Mode: 0
LetterboxInBreaks: 0
WidescreenStoryboard: 0

[Editor]
DistanceSpacing: 0.5
BeatDivisor: 4
GridSize: 4
TimelineZoom: 1

[Metadata]
Title:Call of the Void
TitleUnicode:Call of the Void
Artist:Helblinde
ArtistUnicode:Helblinde
Creator:Future God
Version:VOID
Source:
Tags:
BeatmapID:1485245
BeatmapSetID:701847

[Difficulty]
HPDrainRate:5
CircleSize:5
OverallDifficulty:5
ApproachRate:5
SliderMultiplier:1.4
SliderTickRate:1

[Events]
//Background and Video events
//Break Periods
2,5564,6875
2,8275,9495
2,11832,14736
2,17073,19924
2,53130,58923
//Storyboard Layer 0 (Background)
//Storyboard Layer 1 (Fail)
//Storyboard Layer 2 (Pass)
//Storyboard Layer 3 (Foreground)
//Storyboard Sound Samples

[TimingPoints]
422.927846951113,168.302945301543,4,1,0,100,1,0
78116,6,4,1,0,100,1,0
78116,-50,4,1,0,100,0,0
78116,-50,4,1,0,100,0,0
78116,-50,4,1,0,100,0,0
78116,-50,4,1,0,100,0,0
78116,-50,4,1,0,100,0,0
78116,-50,4,1,0,100,0,0
78116,-50,4,1,0,100,0,0
78116,-50,4,1,0,100,0,0
78116,-50,4,1,0,100,0,0
78116,-50,4,1,0,100,0,0
78116,-50,4,1,0,100,0,0
78116,-50,4,1,0,100,0,0
78116,-50,4,1,0,100,0,0
78116,-50,4,1,0,100,0,0
78116,-50,4,1,0,100,0,0
78116,-50,4,1,0,100,0,0
78116,-50,4,1,0,100,0,0
78116,-50,4,1,0,100,0,0
78116,-50,4,1,0,100,0,0
78116,-50,4,1,0,100,0,0
78116,-50,4,1,0,100,0,0

[Colours]
Combo1 : 0,0,0
Combo2 : 67,5,103
Combo3 : 99,11,244

[HitObjects]
256,192,5364,5,0,0:0:0:0:
256,192,8075,5,0,0:0:0:0:
0,64,10695,6,0,B|-160:352|560:48,1,770
256,192,15936,6,0,B|48:16|48:16|496:272,1,770
272,180,21124,6,0,B|208:224|336:256|48:8|464:128|288:304|-184:80|-44:0|256:0|544:112|476:304|224:304|16:192|-100:320,1,840
256,192,22638,2,0,B|176:240|400:256|352:128|96:112|112:256|352:320|512:80|192:-32|64:64|112:240|416:288|576:80|128:32|16:144|384:272|496:192|16:224|-48:144|448:272|352:224|-16:192|160:176|512:192|192:192|-176:16|288:272|400:80|160:160,2,385
256,192,24340,2,0,B|608:16|608:16|292:176|292:176|280:180|280:180|608:16,2,1120
272,288,27856,2,0,B|160:208|288:128|304:128|208:128|160:144|256:288|384:224|320:128|240:208|416:208|192:224|304:256|192:160|32:400|128:48|512:304|-160:192|400:208|288:272|432:352|448:0|-176:48|112:-16|496:-80|432:304|128:400|336:16|32:128|688:288|528:64|272:-64|-48:0|208:176|688:368|352:-32|256:304|128:256|512:352|32:144|320:240|48:64|304:304|192:304|512:336|352:192|272:304|272:304|352:176|528:160|560:208|336:32|224:144|464:240|240:192|400:224|368:160|288:240|272:256|272:256|416:160|416:160|288:160|288:160|256:256|288:144|288:144|544:320|256:160|384:64|464:368|272:192|384:272|256:208,1,1925
256,192,31614,2,0,B|176:208|320:288|16:368|448:368|448:368|464:112|384:192|384:192|240:192,1,770
256,192,32924,2,0,P|176:224|384:256,1,735
383,255,34189,2,0,P|192:256|304:160,1,455
293,158,35630,2,0,P|349:37|359:216,2,490
256,254,38272,2,0,P|463:250|250:48,1,665
265,181,39637,2,0,P|116:237|357:268,1,700
272,184,40815,1,0,0:0:0:0:
308,128,41488,1,0,0:0:0:0:
60,184,42162,1,0,0:0:0:0:
256,192,43513,2,0,P|314:198|256:194,18,175
143,233,49351,2,0,B|396:226|356:253|373:254|390:246|406:230|409:215|416:184|412:175|409:165|402:159|390:155|387:155|391:149|390:149|390:149|342:140|323:134|299:129|266:117|252:124|218:128|188:125|162:125|137:128|132:130|138:234|138:234|176:225|176:225|180:186|180:182|183:166|184:165|188:141|188:141|386:183|386:183|380:225|380:225|184:180|184:180|347:238|345:238|271:228|232:230|236:209|228:189|270:215|205:224|285:206|203:239|237:240|194:246|284:262|285:262|250:215|249:218|263:239|209:183|212:183|383:181|254:189|254:189|-44:282|377:203|225:154|225:154|202:220|256:165|253:166|226:170|271:188|256:188|258:167|239:241|300:230|333:178|348:183|287:183|298:193|272:171|270:172|266:173|256:201|272:195|291:195|274:165|274:165|275:165|275:165|265:170|264:171|262:172|262:172,1,2100
280,198,51908,2,0,P|462:228|277:194,1,840
268,220,60123,6,0,L|276:276,65,35
272,254,63105,2,0,P|204:276|108:72,1,350
100,72,63557,2,0,B|88:300|104:84,1,210
100,72,63828,2,0,P|136:264|276:216,1,385
264,224,64325,2,0,B|104:300|212:56|64:272,1,245
81,247,64641,2,0,P|240:356|340:116,1,525
344,108,65319,2,0,P|120:68|188:264,1,525
186,263,65997,2,0,P|156:-12|332:144,1,665
332,136,66855,2,0,P|152:40|232:244,1,525
205,243,67533,2,0,P|200:80|288:188,1,385
292,168,68030,2,0,P|212:136|208:224,1,175
192,208,68256,2,0,P|120:184|316:176,1,980
334,161,69521,2,0,B|64:312|64:312|416:292,1,630
384,293,70334,2,0,P|128:296|408:64,1,875
393,44,71463,2,0,P|88:156|392:284,1,840
396,288,72548,2,0,B|0:176|0:176|400:288,1,805
396,308,73587,2,0,B|276:-76|276:-76|400:324,1,805
396,312,74626,2,0,L|156:184,1,245
396,312,74626,2,0,L|156:184,1,245
396,312,74626,2,0,L|156:184,1,245
396,312,74626,2,0,L|156:184,1,245
396,312,74626,2,0,L|156:184,1,245
396,312,74626,2,0,L|156:184,1,245
396,312,74626,2,0,L|156:184,1,245
396,312,74626,2,0,L|156:184,1,245
396,312,74626,2,0,L|156:184,1,245
396,312,74626,2,0,L|156:184,1,245
396,312,74626,2,0,L|156:184,1,245
396,312,74626,2,0,L|156:184,1,245
396,312,74626,2,0,L|156:184,1,245
396,312,74626,2,0,L|156:184,1,245
396,312,74626,2,0,L|156:184,1,245
396,312,74626,2,0,L|156:184,1,245
396,312,74626,2,0,L|156:184,1,245
396,312,74626,2,0,L|156:184,1,245
396,312,74626,2,0,L|156:184,1,245
396,312,74626,2,0,L|156:184,1,245
396,312,74626,2,0,L|156:184,1,245
396,312,74626,2,0,L|156:184,1,245
396,312,74626,2,0,L|156:184,1,245
396,312,74626,2,0,L|156:184,1,245
396,312,74626,2,0,L|156:184,1,245
396,312,74626,2,0,L|156:184,1,245
396,312,74626,2,0,L|156:184,1,245
396,312,74626,2,0,L|156:184,1,245
396,312,74626,2,0,L|156:184,1,245
396,312,74626,2,0,L|156:184,1,245
396,312,74626,2,0,L|156:184,1,245
396,312,74626,2,0,L|156:184,1,245
396,312,74626,2,0,L|156:184,1,245
396,312,74626,2,0,L|156:184,1,245
396,312,74626,2,0,L|156:184,1,245
396,312,74626,2,0,L|156:184,1,245
396,312,74626,2,0,L|156:184,1,245
396,312,74626,2,0,L|156:184,1,245
396,312,74626,2,0,L|156:184,1,245
396,312,74626,2,0,L|156:184,1,245
396,312,74626,2,0,L|156:184,1,245
396,312,74626,2,0,L|156:184,1,245
396,312,74626,2,0,L|156:184,1,245
396,312,74626,2,0,L|156:184,1,245
396,312,74626,2,0,L|156:184,1,245
396,312,74626,2,0,L|156:184,1,245
396,312,74626,2,0,L|156:184,1,245
396,312,74626,2,0,L|156:184,1,245
179,196,74962,2,0,P|143:263|409:165,1,840
426,178,75985,2,0,P|339:210|493:69,1,910
494,59,77093,2,0,L|248:200,1,280
243,201,77434,2,0,P|186:317|246:201,1,420
240,140,78137,2,0,B|116:288|116:288|104:232|104:192|104:192|100:192|96:192|96:192|96:184|116:152|128:128|128:124|140:108|164:88|168:84|184:76|204:72|220:68|228:68|236:72|244:80|244:80|252:80|256:80|264:88|272:88|276:96|280:96|280:108|280:116|280:136|280:136|280:144|276:156|272:160|272:160|272:176|260:200|252:216|244:224|220:236|184:256|164:272|128:284|104:288|80:292|56:292|48:288|32:236|24:176|24:120|36:64|48:28|76:8|120:-16|172:-24|224:-36|268:-40|308:-40|336:-24|376:-4|408:20|424:40|432:76|432:124|416:196|404:240|392:272|380:280|332:308|292:324|240:328|156:352|92:368|48:372|20:368|-16:356|-56:336|-80:308|-88:272|-88:240|-80:168|-68:84|-52:0|-44:-8|8:-56|332:-60|376:-32|408:-8|432:28|440:40|456:64|472:88|480:112|476:148|456:200|444:228|404:292|372:340|328:404|260:408|188:408|164:408|104:408|-4:400|-124:360|-184:328|-184:288|-184:248|-184:200|-184:156|-184:72|-172:-12|-140:-48|240:-72|340:-48|392:-32|416:-20|448:0|476:24|500:56|512:84|504:112|484:168|456:224|428:264|388:300|304:352|224:392|136:408|80:408|32:408|-56:408|-152:380|-184:344|-184:344|-184:212|-176:104|-156:16|-136:-36|-120:-56|332:-72|416:-56|480:-40|516:-28|576:16|608:48|628:80|652:120|652:176|636:232|616:284|592:352|568:400|544:408|496:408|440:408|324:408|108:404|0:396|-112:384|-184:368|-184:368|-184:280|-184:208|-184:140|-184:28|696:-48|696:-4|696:80|696:168|696:316|696:408|696:408|680:408|632:408|524:408|464:408|420:408|344:408|216:408|84:408|-76:408|-184:408|-184:408|-184:400|-184:396|-184:356|-184:356|-184:332|-184:332|-184:316|-184:304|-184:256|-184:160|696:-60|696:-20|696:-8|696:-8|696:0|696:0|696:-12|696:-16|692:-24|688:-36|688:-36|692:-40|692:-40|696:-52|696:-52|696:-56|696:-56|692:-60|684:-60|672:-60|664:-60|664:-60|656:-60|652:-60|640:-60|600:-72|396:-68|368:-60|328:-52|312:-48|300:-44|284:-44|264:-44|252:-44|236:-44|192:-44|124:-48|12:-48|-96:-60|-184:-68|-184:-64|-184:-52|-184:-48|-184:-40|-184:-40|-184:-44|-184:-56|-184:-60|-184:-60|-184:-16|-184:40|-184:92|-184:152|-184:152|-184:296|-184:336|-184:392|-184:392|-172:408|-148:408|-72:400|104:400|288:408|412:408|428:408|464:392|536:372|624:360|696:320|696:256|692:132|680:112|648:84|608:52|536:8|436:-44|436:-44|-184:-8|-184:12|-184:64|-184:148|-168:248|-124:328|-72:408|8:408|52:408|68:408|128:408|232:408|340:408|432:400|548:364|640:308|688:256|696:208|696:152|688:120|632:48|528:-8|392:-56|108:-72|72:-64|12:-52|-80:-40|-184:-36|-184:-28|-184:0|-184:48|-184:172|-176:276|-140:368|-68:408|-28:408|-28:408|320:408|488:396|552:376|560:368|636:300|696:216|696:216|672:80|604:32|464:-28|304:-68|-96:-80|-152:-52|-184:16|-184:16|-184:128|-168:216|-104:300|-72:336|-72:336|40:408|56:408|160:400|272:392|292:384|316:320|284:224|248:176|128:72|0:32|-36:24|-104:12|-112:16|-116:32|-112:116|-104:156|-80:220|-72:248|-64:296|-60:312|-60:312|-52:316|-48:332|-44:340|-36:344|-32:344|-24:344|-24:340|-8:332|-4:328|8:292|8:280|-16:264|-76:272|-116:280|-124:288|-124:288|-80:312|-40:320|-24:324|-24:324|-4:320|8:320|12:320|28:336|48:352|64:360|64:360|80:360|88:360|92:360|100:360|104:360|112:356|136:356|148:356|152:356|160:356|164:356|168:352|168:352|172:356|176:356|200:352|208:352|228:352|240:348|268:348|288:348|312:348|324:348|344:348|372:348|384:348|400:348|404:348|416:344|420:344|448:336|468:332|476:328|492:320|508:312|512:312|512:304|504:284|476:248|472:240|472:228|488:212|496:200|500:200|512:188|548:152|568:140|648:120|672:116|676:116|676:116|656:112|636:112|584:100|560:96|524:88|504:92|496:92|496:92|492:104|472:160|460:184|436:248|428:268|432:312|444:328|472:352|488:356|512:348|520:336|532:264|532:188|520:144|504:136|492:140|492:140|500:144|520:168|572:228|596:272|604:324|604:356|592:388|576:408|564:408|556:408|556:408|512:384|508:368|524:312|536:300|544:296|548:296|560:300|560:316|552:328|532:344|524:348|520:344|520:344|488:336|456:336|396:328|376:320|356:328|356:328|352:328|352:332|348:332|348:332|388:320|412:316|412:316|436:312|448:308|448:308|444:304|432:300|408:292|392:280|392:280|396:280|408:280|416:280|420:276|424:276|424:276|380:272|368:276|360:288|344:332|340:356|336:364|336:364|344:360|384:312|412:248|424:200|448:152|448:152|452:152|452:152|436:188|428:204|404:236|368:292|360:300|360:300|428:200|460:96|472:8|464:8|416:24|348:56|348:56|352:88|360:104|364:108|376:112|380:108|384:108|400:88|412:76|412:76|408:76|396:80|396:80|404:108|424:168|428:176|432:176|424:192|424:192|420:192|384:192|376:188|364:184|356:180|356:180|356:176|360:160|368:144|360:136|344:124|304:112|304:112|288:120|284:132|288:136|292:156|296:164|296:168|296:184|296:184|296:188|288:196|284:200|284:200|280:208|280:208|280:212|284:212|348:184|352:184|352:184|352:160|352:152|340:152|336:152|336:148|336:148|328:160|328:160|316:160|276:144|248:128|240:128|240:128|224:144|216:148|212:152|208:152|188:152|176:148|176:148|184:132|196:112|196:112|196:116|180:152|156:184|148:192|144:192|128:200|128:200|132:208|152:220|152:220|112:184|100:176|96:176|100:172|120:164|124:160|128:160|136:156|136:156|132:144|116:112|116:72|116:52|120:32|112:8|92:-44|92:-44|96:-12|104:12|108:24|112:24|116:24|132:20|148:12|160:8|160:8|156:8|104:8|88:8|80:8|56:16|48:24|36:28|28:32|16:32|-4:40|-40:40|-52:44|-60:44|-96:48|-100:48|-100:48|-96:52|-92:72|-88:80|-88:112|-84:120|-76:128|-72:132|-40:112|-20:68|-20:56|-24:56|-32:60|-40:64|-52:76|-56:80|-56:80|-68:112|-68:116|-52:116|-28:120|8:124|40:120|56:124|56:124|48:128|40:132|12:144|8:144|8:144|0:156|-20:176|-16:184|-8:188|-8:204|-12:220|-24:240|-32:256|-40:264|-40:264|0:256|0:256|4:256|8:256|0:252|-32:240|-40:232|-40:232|-32:236|-8:248|16:280|28:288|36:288|40:292|40:292|48:276|56:232|80:164|140:120|164:128|240:156|288:168|148:200|40:212|0:216|16:212|88:224|160:248|212:264|248:264|292:236|312:200|308:168|308:168|276:76|276:76|260:104|252:280|256:320|256:320|260:292|236:224|228:168|208:132|176:136|152:160|204:184|368:236|460:248|488:248|528:248|584:252|612:268|620:292|624:340|628:364|628:396|628:408|628:408|648:408|680:404|696:376|696:344|696:328|696:324|696:324|688:328|672:328|640:336|624:348|616:352|616:352|656:344|656:344|696:348|696:352|692:352|672:368|660:376|660:376|672:340|684:276|696:228|688:232|672:256|660:324|656:376|664:408|668:408|668:408|692:340|696:264|696:264|688:216|672:204|672:180|688:100|696:60|696:16|696:16|696:-24|696:-32|696:-40|692:-48|688:-52|688:-60|676:-76|652:-68|624:-48|584:-16|532:-4|480:-12|452:-16|432:-20|416:-24|400:-28|392:-28|392:-28|396:-28|572:-76|592:-48|604:-44|632:-40|648:-32|652:-32|652:-32|616:-28|576:-16|560:-8|556:-8|576:24|640:88|664:96|696:88|696:72|696:56|680:40|588:20|528:12|528:12|544:8|592:24|632:32|656:36|672:36|672:36|580:16|580:16|620:24|680:32|696:32|696:32|668:52|632:68|600:72|592:72|628:12|672:-32|672:-32|668:16|660:108|652:152|652:156|608:68|540:0|368:-52|176:-56|8:-40|-184:-32|-184:-32|-168:-48|-104:-52|-44:-56|32:-48|-20:-16|-128:40|-128:40|-176:160|-40:256|272:408|424:408|424:408|424:400|376:348|320:232|352:76|392:-36|244:148,1,31220
256,316,79172,2,0,B|180:176|180:172|180:172|184:172|184:172|184:176|184:176|260:80|260:80|256:80|256:80|264:80|264:80|260:84|260:84|264:84|264:84|316:256|316:256|320:256|320:252|320:252|316:252|316:252|416:32,488,700
